osu file format v14

[General]
AudioFilename: audio.mp3
AudioLeadIn: 0
PreviewTime: 176440
Countdown: 0
SampleSet: Soft
StackLeniency: 0.2
Mode: 0
LetterboxInBreaks: 0
WidescreenStoryboard: 0

[Editor]
Bookmarks: 11440,22474,33509,43164,55578,66612,77647,88681,91095,99716,110750,132819,143854,154457,154888,165923,176957,199026,221095,232130,243164,265233,285966,287302
DistanceSpacing: 2.3
BeatDivisor: 4
GridSize: 16
TimelineZoom: 2.1

[Metadata]
Title:Beside You (feat. Soundr)
TitleUnicode:Beside You (feat. Soundr)
Artist:Rameses B
ArtistUnicode:Rameses B
Creator:GenDoNL
Version:Shooting Stars
Source:
Tags:marathon dnb drum and bass ncs nocopyrightsounds
BeatmapID:1214805
BeatmapSetID:573454

[Difficulty]
HPDrainRate:5
CircleSize:4.2
OverallDifficulty:9
ApproachRate:9.3
SliderMultiplier:1.7
SliderTickRate:1

[Events]
//Background and Video events
0,0,"bg.jpg",0,0
//Break Periods
//Storyboard Layer 0 (Background)
//Storyboard Layer 1 (Fail)
//Storyboard Layer 2 (Pass)
//Storyboard Layer 3 (Foreground)
//Storyboard Sound Samples

[TimingPoints]
480,344.827586206897,4,2,1,50,1,0
480,-181.818181818182,4,2,1,50,0,0
2807,-181.818181818182,4,2,1,5,0,0
3241,-181.818181818182,4,2,1,50,0,0
5566,-181.818181818182,4,2,1,5,0,0
5997,-181.818181818182,4,2,1,50,0,0
8324,-181.818181818182,4,2,1,5,0,0
8755,-181.818181818182,4,2,1,50,0,0
11083,-181.818181818182,4,2,1,5,0,0
11514,-166.666666666667,4,2,1,50,0,0
12548,-153.846153846154,4,2,1,60,0,0
13238,-142.857142857143,4,2,1,70,0,0
14273,-166.666666666667,4,2,1,60,0,0
15652,-125,4,2,1,70,0,0
15911,-125,4,2,1,5,0,0
15997,-125,4,2,1,70,0,0
16255,-125,4,2,1,5,0,0
16342,-125,4,2,1,70,0,0
19100,-188.679245283019,4,2,1,60,0,0
19359,-188.679245283019,4,2,1,5,0,0
19445,-188.679245283019,4,2,1,60,0,0
22517,344.827586206897,4,2,1,50,1,0
22517,-100,4,2,1,70,0,0
30793,-100,4,2,1,75,0,0
33552,-71.4285714285714,4,2,1,100,0,0
43207,-71.4285714285714,4,2,1,75,0,0
43552,-71.4285714285714,4,2,1,85,0,0
44586,-200,4,2,1,100,0,0
44931,-83.3333333333333,4,2,1,100,0,1
52862,-83.3333333333333,4,2,1,100,0,0
55621,-83.3333333333333,4,2,1,100,0,1
66655,-83.3333333333333,4,2,1,75,0,0
77690,-83.3333333333333,4,2,1,100,0,1
88724,-133.333333333333,4,2,1,60,0,0
99069,-117.647058823529,4,2,1,70,0,0
99759,-100,4,2,1,70,0,0
104931,-166.666666666667,4,2,1,70,0,0
105276,-100,4,2,1,70,0,0
109673,-100,4,2,1,60,0,0
110104,-100,4,2,1,80,0,0
121828,-83.3333333333333,4,2,1,100,0,1
127345,-90.9090909090909,4,2,1,100,0,1
132173,-90.9090909090909,4,2,1,70,0,1
132862,-181.818181818182,4,2,1,50,0,0
135017,-181.818181818182,4,2,1,5,0,0
135276,-166.666666666667,4,2,1,50,0,0
137776,-166.666666666667,4,2,1,5,0,0
138035,-181.818181818182,4,2,1,50,0,0
140362,-181.818181818182,4,2,1,5,0,0
140793,-181.818181818182,4,2,1,50,0,0
142776,-181.818181818182,4,2,1,5,0,0
143207,-181.818181818182,4,2,1,50,0,0
144931,-153.846153846154,4,2,1,60,0,0
145621,-142.857142857143,4,2,1,70,0,0
147172,-166.666666666667,4,2,1,60,0,0
148036,-125,4,2,1,70,0,0
148293,-125,4,2,1,5,0,0
148379,-125,4,2,1,70,0,0
148638,-125,4,2,1,5,0,0
148724,-125,4,2,1,70,0,0
151483,-188.679245283019,4,2,1,60,0,0
151741,-188.679245283019,4,2,1,5,0,0
151828,-188.679245283019,4,2,1,60,0,0
153897,-188.679245283019,4,2,1,25,0,0
154242,-100,4,2,1,65,0,0
165966,-100,4,2,1,75,0,0
170104,-100,4,2,1,85,0,0
174242,-100,4,2,1,100,0,0
177000,-200,4,2,1,100,0,1
177345,-83.3333333333333,4,2,1,100,0,1
185276,-83.3333333333333,4,2,1,100,0,0
188035,-83.3333333333333,4,2,1,100,0,1
199069,-83.3333333333333,4,2,1,100,0,0
210104,-83.3333333333333,4,2,1,100,0,1
221138,-133.333333333333,4,2,1,60,0,0
231483,-117.647058823529,4,2,1,70,0,0
232173,-100,4,2,1,70,0,0
237345,-166.666666666667,4,2,1,70,0,0
237690,-100,4,2,1,70,0,0
242517,-100,4,2,1,80,0,0
243207,-100,4,2,1,100,0,1
254242,-83.3333333333333,4,2,1,100,0,1
259759,-90.9090909090909,4,2,1,100,0,1
264586,-90.9090909090909,4,2,1,70,0,1
265276,-250,4,2,1,50,0,0
270793,-333.333333333333,4,2,1,40,0,0
285966,-333.333333333333,4,2,1,60,0,0
287345,-500,4,2,1,45,0,0
287690,-500,4,2,1,30,0,0
294586,-500,4,2,1,15,0,0
299759,-500,4,2,1,5,0,0

[Colours]
Combo1 : 26,116,242
Combo2 : 164,32,240
Combo3 : 37,185,239
Combo4 : 23,209,116
Combo5 : 226,45,124

[HitObjects]
188,149,480,6,0,B|135:183|135:183|65:154|65:154|87:227|87:227|39:288|39:288|115:295|115:295|155:358|155:358|184:294|184:294|261:275|261:275|207:222,1,654.500019973755
188,149,3238,2,0,B|264:74|389:84|389:84|310:153|283:188|283:188|336:234|405:240|405:240|323:296|251:273,1,654.500019973755
188,149,5997,6,0,B|132:169|108:115|124:63|180:44|231:62|236:122|227:162|227:162|209:217|138:272|181:363|181:363|128:306|96:283|47:299|21:330,1,654.500019973755
188,149,8755,2,0,B|224:118|277:102|379:105|417:133|434:170|437:214|412:242|379:259|331:254|295:207|298:168|325:93|325:93|351:43|401:38|401:38|421:71|453:90,1,654.500019973755
445,268,11514,5,0,0:0:0:0:
429,283,11859,2,0,L|362:283,1,50.9999984436036,0|0,0:0|0:0,0:0:0:0:
275,211,12204,2,0,L|326:211,1,50.9999984436036,0|0,0:0|0:0,0:0:0:0:
219,290,12548,6,0,L|165:290,1,55.2499974708558
295,186,12893,2,0,L|349:186,1,55.2499974708558
198,311,13238,2,0,L|112:311,1,59.4999981842042,0|0,0:0|0:0,0:0:0:0:
48,310,13583,1,0,0:0:0:0:
90,235,13755,1,0,0:0:0:0:
98,383,13928,1,0,0:0:0:0:
40,167,14273,5,0,0:0:0:0:
319,227,14617,5,0,0:0:0:0:
320,233,14790,2,0,B|292:238|249:229,1,50.9999984436036
211,143,15135,2,0,B|236:130|280:127,1,50.9999984436036
387,131,15480,5,0,0:0:0:0:
420,297,15652,2,0,P|350:300|318:310,1,102
244,334,15997,2,0,P|174:331|142:321,1,102
109,259,16342,1,0,0:0:0:0:
197,135,16514,1,0,0:0:0:0:
244,334,16686,1,0,0:0:0:0:
126,44,17031,5,0,0:0:0:0:
436,77,17376,5,0,0:0:0:0:
381,146,17548,1,0,0:0:0:0:
436,215,17721,1,0,0:0:0:0:
381,284,17893,1,0,0:0:0:0:
299,166,18066,2,0,P|332:167|366:166,1,68,0|0,0:0|0:0,0:0:0:0:
244,373,18411,5,0,0:0:0:0:
299,304,18583,1,0,0:0:0:0:
244,235,18756,1,0,0:0:0:0:
299,166,18928,1,0,0:0:0:0:
381,284,19101,2,0,P|351:282|313:283,1,67.5750001031113,0|0,0:0|0:0,0:0:0:0:
244,235,19445,2,0,P|201:235|152:233,1,90.1000001374817
256,192,19876,12,0,22345,0:0:0:0:
246,252,22517,5,8,0:0:0:0:
331,197,22690,1,0,0:0:0:0:
205,344,22862,1,0,0:0:0:0:
247,162,23035,1,0,0:0:0:0:
355,291,23207,2,0,P|305:291|260:289,1,85,0|8,0:0|0:0,0:0:0:0:
249,176,23552,1,8,0:0:0:0:
365,301,23724,1,0,0:0:0:0:
205,344,23897,6,0,P|192:273|201:231,1,85,8|0,0:0|0:0,0:0:0:0:
331,197,24242,1,8,0:0:0:0:
355,291,24414,1,0,0:0:0:0:
334,295,24500,1,0,0:0:0:0:
312,297,24586,1,0,0:0:0:0:
291,296,24672,1,0,0:0:0:0:
270,294,24759,5,8,0:0:0:0:
425,239,24931,2,0,P|438:310|429:352,1,85,8|0,0:0|0:0,0:0:0:0:
355,291,25276,1,8,0:0:0:0:
430,122,25449,1,8,0:0:0:0:
425,239,25621,1,0,0:0:0:0:
366,73,25793,1,0,0:0:0:0:
381,58,25879,1,0,0:0:0:0:
399,48,25965,1,0,0:0:0:0:
420,43,26051,1,0,0:0:0:0:
441,43,26138,5,8,0:0:0:0:
482,189,26311,1,8,0:0:0:0:
366,73,26483,1,0,0:0:0:0:
428,318,26655,1,8,0:0:0:0:
490,198,26828,1,0,0:0:0:0:
490,198,26914,1,0,0:0:0:0:
490,198,27000,5,0,0:0:0:0:
304,155,27173,1,0,0:0:0:0:
451,106,27345,1,0,0:0:0:0:
323,276,27517,1,8,0:0:0:0:
259,71,27690,1,8,0:0:0:0:
304,165,27862,1,0,0:0:0:0:
304,176,27949,1,0,0:0:0:0:
303,188,28035,2,0,B|273:203|186:200,1,85,8|0,0:0|0:0,0:0:0:0:
259,71,28380,5,0,0:0:0:0:
405,249,28552,1,0,0:0:0:0:
221,201,28724,1,0,0:0:0:0:
356,145,28897,1,8,0:0:0:0:
272,318,29069,1,8,0:0:0:0:
405,249,29242,1,0,0:0:0:0:
413,250,29328,1,0,0:0:0:0:
421,250,29414,6,0,P|356:227|313:226,1,85,8|0,0:0|0:0,0:0:0:0:
133,286,29759,1,0,0:0:0:0:
272,318,29931,1,0,0:0:0:0:
186,206,30104,2,0,P|143:202|101:204,1,85,0|8,0:0|0:0,0:0:0:0:
0,110,30449,2,0,P|42:113|84:111,1,85,8|0,0:0|0:0,0:0:0:0:
202,95,30793,5,8,0:0:0:0:
0,110,30966,1,8,0:0:0:0:
133,286,31138,1,0,0:0:0:0:
202,95,31311,1,0,0:0:0:0:
189,77,31397,1,0,0:0:0:0:
173,64,31483,1,0,0:0:0:0:
154,54,31569,1,0,0:0:0:0:
133,49,31655,5,8,0:0:0:0:
101,204,31828,1,8,0:0:0:0:
223,7,32000,1,0,0:0:0:0:
84,110,32173,1,8,0:0:0:0:
307,61,32345,1,0,0:0:0:0:
121,20,32517,1,8,0:0:0:0:
224,182,32690,1,0,0:0:0:0:
231,192,32776,1,0,0:0:0:0:
238,202,32862,5,8,0:0:0:0:
101,204,33035,1,0,0:0:0:0:
336,139,33207,1,0,0:0:0:0:
237,342,33380,1,0,0:0:0:0:
186,83,33552,5,4,0:0:0:0:
409,288,34931,5,4,0:0:0:0:
103,288,36310,5,4,0:0:0:0:
409,96,36483,1,4,0:0:0:0:
255,191,36655,1,8,0:0:0:0:
144,93,37690,5,4,0:0:0:0:
409,96,39069,5,4,0:0:0:0:
103,288,39414,1,4,0:0:0:0:
409,288,39759,5,4,0:0:0:0:
256,192,39931,1,8,0:0:0:0:
103,96,40104,1,4,0:0:0:0:
103,289,40449,5,4,0:0:0:0:
409,96,40794,1,4,0:0:0:0:
103,96,41139,5,4,0:0:0:0:
256,192,41311,1,8,0:0:0:0:
409,288,41484,1,4,0:0:0:0:
103,288,41828,5,8,0:0:0:0:
409,96,42000,1,8,0:0:0:0:
103,96,42173,5,8,0:0:0:0:
409,288,42345,1,8,0:0:0:0:
151,354,42517,5,8,0:0:0:0:
458,156,42689,1,8,0:0:0:0:
151,30,42862,5,8,0:0:0:0:
463,230,43034,1,8,0:0:0:0:
220,261,43207,5,0,0:0:0:0:
213,237,43293,1,0,0:0:0:0:
217,204,43380,1,0,0:0:0:0:
335,75,43552,1,0,0:0:0:0:
343,104,43638,1,0,0:0:0:0:
338,145,43725,1,0,0:0:0:0:
261,332,43897,1,8,0:0:0:0:
232,340,43983,1,0,0:0:0:0:
191,335,44069,1,8,0:0:0:0:
137,351,44155,5,0,0:0:0:0:
120,299,44241,1,8,0:0:0:0:
122,246,44327,1,0,0:0:0:0:
119,191,44413,1,8,0:0:0:0:
100,141,44499,1,0,0:0:0:0:
49,73,44586,6,0,L|92:73,1,42.5,4|8,0:0|0:0,0:0:0:0:
186,119,44931,6,0,L|308:117,1,101.999996887207,8|0,0:0|0:0,0:0:0:0:
49,73,45276,1,0,0:0:0:0:
357,80,45449,1,8,0:0:0:0:
372,80,45535,1,0,0:0:0:0:
387,80,45621,1,8,0:0:0:0:
188,31,45793,1,0,0:0:0:0:
349,169,45966,6,0,L|450:170,1,101.999996887207,8|0,0:0|0:0,0:0:0:0:
186,119,46311,1,8,0:0:0:0:
349,169,46483,1,0,0:0:0:0:
137,255,46655,1,0,0:0:0:0:
278,344,46828,1,8,0:0:0:0:
186,127,47000,1,8,0:0:0:0:
74,325,47173,1,0,0:0:0:0:
83,336,47259,1,0,0:0:0:0:
94,346,47345,6,0,P|165:353|200:328,1,101.999996887207,4|0,0:0|0:0,0:0:0:0:
186,135,47690,1,8,0:0:0:0:
74,325,47862,1,0,0:0:0:0:
276,235,48035,1,0,0:0:0:0:
60,189,48207,1,8,0:0:0:0:
202,334,48380,1,8,0:0:0:0:
200,97,48552,1,0,0:0:0:0:
44,206,48724,6,0,P|100:202|151:201,1,101.999996887207,8|0,0:0|0:0,0:0:0:0:
409,156,49069,2,0,P|356:152|308:152,1,101.999996887207,8|0,0:0|0:0,0:0:0:0:
44,206,49414,1,8,0:0:0:0:
94,203,49500,1,2,0:0:0:0:
145,201,49586,1,8,0:0:0:0:
409,156,49759,1,8,0:0:0:0:
200,97,49931,2,0,L|229:160,1,50.9999984436036,2|0,0:0|0:0,0:0:0:0:
320,247,50104,6,0,B|331:211|331:211|324:184|297:130,1,101.999996887207,4|0,0:0|0:0,0:0:0:0:
123,123,50449,1,8,0:0:0:0:
320,247,50621,1,0,0:0:0:0:
327,255,50707,1,0,0:0:0:0:
332,262,50793,1,0,0:0:0:0:
278,81,50966,1,8,0:0:0:0:
255,300,51138,1,8,0:0:0:0:
189,78,51311,1,0,0:0:0:0:
274,317,51483,6,0,B|311:333|311:333|351:336|406:333,1,101.999996887207,8|0,0:0|0:0,0:0:0:0:
239,209,51828,1,8,0:0:0:0:
199,384,52000,1,0,0:0:0:0:
373,335,52173,1,0,0:0:0:0:
145,293,52345,1,8,0:0:0:0:
145,293,52431,1,0,0:0:0:0:
145,293,52517,1,8,0:0:0:0:
318,174,52690,1,0,0:0:0:0:
318,174,52776,1,0,0:0:0:0:
318,174,52862,6,0,P|251:155|187:169,1,101.999996887207,4|0,0:0|0:0,0:0:0:0:
156,195,53121,1,8,0:0:0:0:
147,208,53207,1,8,0:0:0:0:
260,9,53380,1,0,0:0:0:0:
388,205,53552,1,0,0:0:0:0:
394,191,53638,1,0,0:0:0:0:
396,176,53724,2,0,L|386:121,1,50.9999984436036,8|0,0:0|0:0,0:0:0:0:
260,9,53897,2,0,L|250:64,1,50.9999984436036,8|0,0:0|0:0,0:0:0:0:
225,222,54069,1,2,0:0:0:0:
459,69,54242,5,0,0:0:0:0:
446,59,54328,1,8,0:0:0:0:
432,52,54414,2,0,P|396:38|352:37,1,50.9999984436036
236,209,54586,1,8,0:0:0:0:
433,296,54759,5,0,0:0:0:0:
443,309,54845,1,0,0:0:0:0:
450,323,54931,2,0,P|464:359|465:403,1,50.9999984436036,8|0,0:0|0:0,0:0:0:0:
512,236,55104,1,0,0:0:0:0:
512,220,55190,1,0,0:0:0:0:
512,204,55276,1,8,0:0:0:0:
385,119,55449,5,2,0:0:0:0:
385,149,55535,1,8,0:0:0:0:
385,180,55621,1,4,0:0:0:0:
329,286,55793,1,8,0:0:0:0:
322,80,55966,6,0,P|374:80|423:78,1,101.999996887207,8|0,0:0|0:0,0:0:0:0:
246,44,56311,1,0,0:0:0:0:
329,256,56484,1,8,0:0:0:0:
329,271,56570,1,0,0:0:0:0:
329,286,56655,1,8,0:0:0:0:
385,119,56828,1,0,0:0:0:0:
269,338,57001,6,0,P|320:338|370:339,1,101.999996887207,8|0,0:0|0:0,0:0:0:0:
238,190,57345,1,8,0:0:0:0:
393,220,57518,1,0,0:0:0:0:
216,269,57690,1,0,0:0:0:0:
370,339,57863,1,8,0:0:0:0:
291,124,58035,1,8,0:0:0:0:
153,324,58208,1,0,0:0:0:0:
162,335,58294,1,0,0:0:0:0:
173,345,58380,6,0,P|244:352|279:327,1,101.999996887207,4|0,0:0|0:0,0:0:0:0:
187,109,58724,1,8,0:0:0:0:
74,325,58897,1,0,0:0:0:0:
221,245,59070,1,0,0:0:0:0:
44,206,59242,1,8,0:0:0:0:
173,345,59414,1,8,0:0:0:0:
186,123,59586,1,0,0:0:0:0:
189,348,59759,6,0,P|244:344|296:343,1,101.999996887207,8|0,0:0|0:0,0:0:0:0:
486,249,60104,2,0,P|433:245|385:245,1,101.999996887207,8|0,0:0|0:0,0:0:0:0:
189,348,60449,1,2,0:0:0:0:
239,345,60535,1,8,0:0:0:0:
290,343,60621,1,8,0:0:0:0:
486,249,60794,1,8,0:0:0:0:
287,228,60966,2,0,L|308:181,1,50.9999984436036,2|0,0:0|0:0,0:0:0:0:
407,78,61138,6,0,B|418:114|418:114|393:173,1,101.999996887207,4|0,0:0|0:0,0:0:0:0:
207,240,61484,1,8,0:0:0:0:
278,81,61656,1,0,0:0:0:0:
285,89,61742,1,0,0:0:0:0:
293,98,61828,1,0,0:0:0:0:
74,168,62001,1,8,0:0:0:0:
255,300,62173,1,8,0:0:0:0:
189,78,62346,1,0,0:0:0:0:
275,319,62518,6,0,B|312:335|312:335|407:335,1,101.999996887207,8|0,0:0|0:0,0:0:0:0:
492,214,62862,1,8,0:0:0:0:
317,159,63035,1,0,0:0:0:0:
373,335,63208,1,0,0:0:0:0:
428,132,63380,1,8,0:0:0:0:
428,132,63466,1,0,0:0:0:0:
428,132,63552,1,8,0:0:0:0:
227,215,63725,1,0,0:0:0:0:
227,215,63811,1,0,0:0:0:0:
227,215,63897,6,0,B|274:262|355:231,1,101.999996887207,4|8,0:0|0:0,0:0:0:0:
392,214,64155,1,8,0:0:0:0:
406,210,64242,1,8,0:0:0:0:
268,49,64415,1,0,0:0:0:0:
147,263,64587,1,0,0:0:0:0:
135,241,64673,1,0,0:0:0:0:
132,216,64759,2,0,L|142:161,1,50.9999984436036,8|0,0:0|0:0,0:0:0:0:
268,49,64932,2,0,L|278:104,1,50.9999984436036,8|0,0:0|0:0,0:0:0:0:
305,256,65104,1,0,0:0:0:0:
440,75,65277,5,0,0:0:0:0:
427,65,65363,1,8,0:0:0:0:
413,58,65449,2,0,P|377:44|333:43,1,50.9999984436036
227,215,65621,1,8,0:0:0:0:
397,335,65794,5,0,0:0:0:0:
410,325,65880,1,8,0:0:0:0:
424,318,65966,2,0,P|460:304|504:303,1,50.9999984436036,0|0,0:0|0:0,0:0:0:0:
337,256,66139,1,0,0:0:0:0:
321,256,66225,1,0,0:0:0:0:
305,256,66311,1,8,0:0:0:0:
226,383,66484,5,2,0:0:0:0:
250,383,66570,1,8,0:0:0:0:
274,383,66656,1,8,0:0:0:0:
167,267,66828,2,0,L|96:267,1,50.9999984436036,2|0,0:0|0:0,0:0:0:0:
6,355,67000,2,0,P|78:358|135:353,1,101.999996887207,4|0,0:0|0:0,0:0:0:0:
118,355,67259,1,0,0:0:0:0:
130,351,67345,1,0,0:0:0:0:
94,199,67517,5,8,0:0:0:0:
94,199,67604,1,0,0:0:0:0:
94,199,67690,1,8,0:0:0:0:
6,355,67862,1,0,0:0:0:0:
167,267,68035,1,8,0:0:0:0:
0,160,68208,1,0,0:0:0:0:
46,268,68380,1,0,0:0:0:0:
125,75,68552,1,0,0:0:0:0:
0,160,68724,5,0,0:0:0:0:
191,143,68897,1,8,0:0:0:0:
49,29,69069,1,8,0:0:0:0:
94,199,69242,1,0,0:0:0:0:
96,211,69328,1,0,0:0:0:0:
99,223,69414,5,8,0:0:0:0:
235,270,69586,1,0,0:0:0:0:
233,277,69672,1,0,0:0:0:0:
231,285,69758,1,8,0:0:0:0:
142,364,69931,1,0,0:0:0:0:
191,143,70104,1,0,0:0:0:0:
346,207,70276,1,8,0:0:0:0:
348,214,70362,1,0,0:0:0:0:
350,222,70448,1,8,0:0:0:0:
231,285,70621,1,0,0:0:0:0:
291,139,70793,6,0,P|338:120|385:128,1,50.9999984436036,8|0,0:0|0:0,0:0:0:0:
452,119,70966,1,0,0:0:0:0:
464,121,71052,1,0,0:0:0:0:
476,124,71138,1,8,0:0:0:0:
253,207,71311,5,0,0:0:0:0:
399,25,71483,1,2,0:0:0:0:
396,50,71569,1,8,0:0:0:0:
394,75,71655,1,8,0:0:0:0:
376,332,71828,1,8,0:0:0:0:
253,207,72000,1,0,0:0:0:0:
265,209,72086,1,0,0:0:0:0:
277,212,72172,5,0,0:0:0:0:
391,328,72345,5,8,0:0:0:0:
384,330,72431,1,0,0:0:0:0:
376,332,72517,1,8,0:0:0:0:
276,212,72690,1,0,0:0:0:0:
394,75,72862,1,0,0:0:0:0:
288,312,73035,1,8,0:0:0:0:
286,319,73121,1,0,0:0:0:0:
284,327,73207,1,8,0:0:0:0:
443,191,73380,1,0,0:0:0:0:
220,152,73552,6,0,P|204:171|194:195,1,50.9999984436036,8|0,0:0|0:0,0:0:0:0:
200,287,73725,1,0,0:0:0:0:
201,299,73811,1,0,0:0:0:0:
202,311,73897,1,8,0:0:0:0:
307,136,74069,1,0,0:0:0:0:
121,260,74242,1,0,0:0:0:0:
319,244,74414,1,8,0:0:0:0:
81,176,74586,1,8,0:0:0:0:
284,327,74759,1,0,0:0:0:0:
296,328,74845,1,0,0:0:0:0:
308,329,74931,6,0,P|379:303|399:252,1,101.999996887207,12|8,0:0|0:0,0:0:0:0:
403,213,75190,1,8,0:0:0:0:
402,196,75276,1,8,0:0:0:0:
255,75,75449,1,0,0:0:0:0:
319,244,75621,1,0,0:0:0:0:
364,57,75794,1,8,0:0:0:0:
366,50,75880,1,0,0:0:0:0:
368,42,75966,1,8,0:0:0:0:
319,244,76138,1,0,0:0:0:0:
255,75,76310,1,2,0:0:0:0:
254,64,76397,1,8,0:0:0:0:
218,38,76483,5,2,0:0:0:0:
220,21,76569,1,2,0:0:0:0:
223,5,76655,1,8,0:0:0:0:
134,106,76828,1,2,0:0:0:0:
136,123,76914,1,8,0:0:0:0:
138,138,77000,1,2,0:0:0:0:
50,38,77173,5,2,0:0:0:0:
52,31,77259,1,2,0:0:0:0:
54,23,77345,1,8,0:0:0:0:
221,151,77517,1,8,0:0:0:0:
231,160,77604,1,8,0:0:0:0:
231,160,78035,6,4,L|355:156,1,101.999996887207,4|0,0:0|0:0,0:0:0:0:
406,152,78293,1,0,0:0:0:0:
419,152,78380,1,0,0:0:0:0:
199,132,78552,1,8,0:0:0:0:
197,157,78638,1,0,0:0:0:0:
195,182,78724,1,8,0:0:0:0:
265,282,78897,1,0,0:0:0:0:
266,295,78983,1,0,0:0:0:0:
267,308,79069,5,8,0:0:0:0:
139,371,79242,1,0,0:0:0:0:
140,378,79328,1,0,0:0:0:0:
140,384,79414,1,8,0:0:0:0:
60,280,79586,1,0,0:0:0:0:
60,274,79672,1,0,0:0:0:0:
60,268,79759,1,0,0:0:0:0:
229,384,79932,1,8,0:0:0:0:
104,178,80104,1,8,0:0:0:0:
275,251,80276,6,0,P|244:252|193:249,1,50.9999984436036,2|0,0:0|0:0,0:0:0:0:
104,178,80449,2,0,P|163:176|248:180,1,101.999996887207,4|0,0:0|0:0,0:0:0:0:
60,269,80793,1,8,0:0:0:0:
5,138,80966,1,0,0:0:0:0:
18,116,81052,1,0,0:0:0:0:
37,99,81138,1,0,0:0:0:0:
60,90,81224,1,0,0:0:0:0:
86,88,81311,2,0,P|135:88|170:79,1,50.9999984436036,8|0,0:0|0:0,0:0:0:0:
313,27,81483,5,8,0:0:0:0:
205,177,81655,1,0,0:0:0:0:
205,187,81742,1,0,0:0:0:0:
204,196,81828,1,8,0:0:0:0:
276,271,82000,1,0,0:0:0:0:
278,296,82086,1,0,0:0:0:0:
280,321,82172,1,8,0:0:0:0:
115,328,82345,1,0,0:0:0:0:
113,303,82431,1,0,0:0:0:0:
111,278,82517,1,0,0:0:0:0:
74,250,82604,5,8,0:0:0:0:
72,225,82690,2,0,L|68:164,1,50.9999984436036,8|0,0:0|0:0,0:0:0:0:
60,0,82862,1,8,0:0:0:0:
172,241,83035,1,0,0:0:0:0:
237,71,83207,6,0,P|172:79|121:91,1,101.999996887207,12|0,0:0|0:0,0:0:0:0:
72,225,83552,2,0,P|136:233|187:245,1,101.999996887207,8|0,0:0|0:0,0:0:0:0:
186,246,83810,1,0,0:0:0:0:
198,250,83897,1,0,0:0:0:0:
320,194,84069,1,0,0:0:0:0:
322,169,84155,1,0,0:0:0:0:
324,144,84242,1,8,0:0:0:0:
237,71,84414,1,0,0:0:0:0:
236,58,84500,1,0,0:0:0:0:
235,45,84586,5,8,0:0:0:0:
147,155,84759,1,0,0:0:0:0:
148,162,84845,1,0,0:0:0:0:
148,168,84931,1,8,0:0:0:0:
68,64,85103,1,0,0:0:0:0:
68,58,85189,1,0,0:0:0:0:
68,52,85276,1,0,0:0:0:0:
72,225,85449,1,8,0:0:0:0:
68,52,85621,1,8,0:0:0:0:
239,131,85793,6,0,P|208:132|157:129,1,50.9999984436036,2|0,0:0|0:0,0:0:0:0:
68,52,85966,2,0,P|127:50|212:54,1,101.999996887207,4|0,0:0|0:0,0:0:0:0:
5,138,86310,1,8,0:0:0:0:
276,50,86483,1,0,0:0:0:0:
298,63,86569,1,0,0:0:0:0:
315,82,86655,1,8,0:0:0:0:
324,105,86741,1,0,0:0:0:0:
326,131,86828,2,0,P|326:180|335:215,1,50.9999984436036,2|0,0:0|0:0,0:0:0:0:
387,358,87000,5,8,0:0:0:0:
235,124,87173,1,2,0:0:0:0:
364,242,87345,1,8,0:0:0:0:
335,250,87431,1,2,0:0:0:0:
294,245,87517,1,2,0:0:0:0:
178,127,87690,1,2,0:0:0:0:
202,120,87776,1,2,0:0:0:0:
235,124,87863,1,2,0:0:0:0:
107,168,88035,5,2,0:0:0:0:
99,139,88121,1,2,0:0:0:0:
104,98,88208,1,2,0:0:0:0:
134,64,88293,1,2,0:0:0:0:
183,49,88380,1,2,0:0:0:0:
238,56,88466,1,2,0:0:0:0:
293,53,88552,1,2,0:0:0:0:
345,34,88638,1,2,0:0:0:0:
367,15,88724,6,0,P|366:57|374:104,1,63.7500024318696,4|0,0:0|0:0,0:0:0:0:
323,213,89069,2,0,P|324:171|316:124,1,63.7500024318696,8|0,0:0|0:0,0:0:0:0:
255,262,89414,2,0,P|300:294|386:268,1,127.500004863739
406,208,89931,1,0,0:0:0:0:
248,185,90104,6,0,P|206:184|159:192,1,63.7500024318696,4|0,0:0|0:0,0:0:0:0:
171,278,90449,1,8,0:0:0:0:
323,213,90621,2,0,P|326:155|259:102,1,127.500004863739,4|0,0:0|0:0,0:0:0:0:
171,278,91138,6,0,P|170:320|178:367,1,63.7500024318696,8|0,0:0|0:0,0:0:0:0:
236,185,91483,1,2,0:0:0:0:
79,210,91655,1,6,0:0:0:0:
172,341,91828,1,2,0:0:0:0:
53,139,92000,6,0,P|47:230|48:290,1,127.500004863739,4|0,0:0|0:0,0:0:0:0:
158,178,92517,2,0,P|198:166|234:160,1,63.7500024318696,8|0,0:0|0:0,0:0:0:0:
53,139,92862,6,0,P|144:133|204:134,1,127.500004863739,4|0,0:0|0:0,0:0:0:0:
273,192,93380,1,2,0:0:0:0:
79,210,93552,1,2,0:0:0:0:
145,43,93724,1,2,0:0:0:0:
281,178,93897,2,0,P|241:166|205:160,1,63.7500024318696,8|0,0:0|0:0,0:0:0:0:
64,15,94242,6,0,P|63:57|71:104,1,63.7500024318696,4|0,0:0|0:0,0:0:0:0:
153,245,94587,2,0,P|154:203|146:156,1,63.7500024318696,8|0,0:0|0:0,0:0:0:0:
86,295,94932,2,0,P|131:327|217:301,1,127.500004863739
256,182,95449,1,0,0:0:0:0:
79,210,95622,6,0,P|37:209|-10:217,1,63.7500024318696,4|0,0:0|0:0,0:0:0:0:
96,301,95967,1,8,0:0:0:0:
139,126,96138,2,0,P|171:184|162:259,1,127.500004863739,4|0,0:0|0:0,0:0:0:0:
222,95,96656,6,0,P|264:96|311:88,1,63.7500024318696
79,210,97001,1,10,0:0:0:0:
256,182,97173,1,2,0:0:0:0:
56,96,97346,1,10,0:0:0:0:
21,253,97518,6,0,P|112:259|172:258,1,127.500004863739,4|0,0:0|0:0,0:0:0:0:
270,338,98035,2,0,P|230:326|194:320,1,63.7500024318696,8|0,0:0|0:0,0:0:0:0:
375,299,98380,6,0,P|284:293|224:294,1,127.500004863739,4|0,0:0|0:0,0:0:0:0:
148,258,98898,1,8,0:0:0:0:
236,173,99069,6,0,L|183:167,1,36.1250006890297,8|0,0:0|0:0,0:0:0:0:
74,115,99242,2,0,L|127:109,1,36.1250006890297,8|0,0:0|0:0,0:0:0:0:
314,82,99414,1,2,0:0:0:0:
62,118,99586,1,2,0:0:0:0:
325,78,99759,6,0,P|325:152|321:182,1,85,4|0,0:0|0:0,0:0:0:0:
229,34,100104,1,8,0:0:0:0:
423,130,100276,1,0,0:0:0:0:
234,257,100449,2,0,P|234:183|238:153,1,85
129,66,100793,1,8,0:0:0:0:
323,162,100965,1,0,0:0:0:0:
134,289,101138,2,0,P|134:215|138:185,1,85
41,76,101483,5,8,0:0:0:0:
235,172,101655,1,0,0:0:0:0:
46,299,101828,1,0,0:0:0:0:
129,66,102000,1,8,0:0:0:0:
186,354,102173,2,0,P|133:370|95:360,1,85,8|0,0:0|0:0,0:0:0:0:
208,342,102431,5,0,0:0:0:0:
227,328,102517,2,0,P|280:312|318:322,1,85,4|0,0:0|0:0,0:0:0:0:
412,384,102862,1,8,0:0:0:0:
208,342,103035,2,0,P|216:256|213:177,1,127.5
213,202,103380,1,8,0:0:0:0:
84,261,103552,6,0,P|35:267|0:267,1,85,8|0,0:0|0:0,0:0:0:0:
164,126,103897,2,0,P|213:120|248:120,1,85,8|0,0:0|0:0,0:0:0:0:
440,211,104242,2,0,P|391:205|356:205,1,85,8|0,0:0|0:0,0:0:0:0:
164,126,104586,1,2,0:0:0:0:
154,137,104673,1,8,0:0:0:0:
145,149,104759,1,8,0:0:0:0:
214,278,104931,6,0,P|212:234|213:179,1,76.4999976654053,8|0,0:0|0:0,0:0:0:0:
248,384,105276,6,0,P|248:290|246:215,1,170,4|0,0:0|0:0,0:0:0:0:
350,335,105793,1,0,0:0:0:0:
129,265,105966,1,0,0:0:0:0:
344,228,106138,1,8,0:0:0:0:
61,333,106311,2,0,P|52:290|48:220,1,85,8|0,0:0|0:0,0:0:0:0:
99,94,106655,5,8,0:0:0:0:
245,214,106828,1,0,0:0:0:0:
48,249,107000,1,8,0:0:0:0:
232,102,107173,1,0,0:0:0:0:
145,325,107345,2,0,P|89:332|45:332,1,85,0|8,0:0|0:0,0:0:0:0:
245,214,107690,2,0,P|301:207|345:207,1,85,8|0,0:0|0:0,0:0:0:0:
479,91,108035,6,0,P|423:98|379:98,1,85,4|0,0:0|0:0,0:0:0:0:
377,100,108293,1,8,0:0:0:0:
361,97,108380,1,8,0:0:0:0:
454,7,108552,1,0,0:0:0:0:
409,196,108724,1,0,0:0:0:0:
271,58,108897,1,8,0:0:0:0:
479,91,109069,1,8,0:0:0:0:
246,174,109242,1,0,0:0:0:0:
65,26,109500,6,0,L|64:76,1,42.5,8|0,0:0|0:0,0:0:0:0:
58,190,109673,1,8,0:0:0:0:
59,173,109759,1,8,0:0:0:0:
60,156,109845,1,8,0:0:0:0:
61,139,109931,1,8,0:0:0:0:
62,122,110017,1,8,0:0:0:0:
65,105,110104,5,8,0:0:0:0:
103,87,110190,1,8,0:0:0:0:
145,85,110276,1,8,0:0:0:0:
187,94,110362,1,8,0:0:0:0:
227,107,110448,1,8,0:0:0:0:
268,119,110535,1,8,0:0:0:0:
310,126,110621,1,8,0:0:0:0:
352,120,110707,1,8,0:0:0:0:
389,100,110793,6,0,L|379:199,1,85,4|8,0:0|0:0,0:0:0:0:
389,269,111052,2,0,L|379:170,1,85
310,126,111311,2,0,L|305:193,1,42.5
305,324,111483,2,0,L|295:225,1,85,0|8,0:0|0:0,0:0:0:0:
227,107,111742,1,0,0:0:0:0:
227,107,111828,1,8,0:0:0:0:
156,231,112000,6,0,P|155:198|161:161,1,42.5
310,126,112173,1,8,0:0:0:0:
174,25,112345,2,0,P|206:24|244:30,1,42.5
310,126,112517,1,8,0:0:0:0:
435,27,112690,2,0,P|402:26|365:32,1,42.5
227,107,112862,2,0,P|226:139|232:177,1,42.5
259,264,113035,1,8,0:0:0:0:
259,264,113121,1,0,0:0:0:0:
259,264,113207,1,8,0:0:0:0:
227,107,113380,6,0,L|163:104,1,42.5
47,170,113552,2,0,P|97:179|146:181,1,85,4|0,0:0|0:0,0:0:0:0:
215,192,113811,2,0,P|165:183|116:181,1,85
51,253,114069,2,0,P|101:262|150:264,1,85
486,193,114414,5,8,0:0:0:0:
490,184,114500,1,0,0:0:0:0:
493,175,114586,2,0,P|493:136|488:122,1,42.5,8|0,0:0|0:0,0:0:0:0:
367,34,114759,2,0,P|367:73|372:87,1,42.5
427,286,114931,6,0,P|377:277|328:275,1,85,4|0,0:0|0:0,0:0:0:0:
259,264,115190,1,0,0:0:0:0:
259,264,115276,1,8,0:0:0:0:
359,167,115449,2,0,L|435:164,1,42.5
282,118,115621,1,0,0:0:0:0:
282,118,115707,1,8,0:0:0:0:
282,118,115793,2,0,L|229:120,1,42.5,8|0,0:0|0:0,0:0:0:0:
367,34,115966,1,8,0:0:0:0:
126,83,116138,5,0,0:0:0:0:
123,91,116224,1,0,0:0:0:0:
123,100,116311,2,0,P|125:142|133:199,1,85,4|0,0:0|0:0,0:0:0:0:
122,269,116569,2,0,P|124:226|132:170,1,85
206,57,116828,2,0,L|211:124,1,42.5
210,269,117000,2,0,L|220:170,1,85,0|8,0:0|0:0,0:0:0:0:
284,22,117260,1,0,0:0:0:0:
284,22,117345,1,8,0:0:0:0:
356,231,117518,6,0,P|357:198|351:161,1,42.5
287,27,117690,1,8,0:0:0:0:
218,184,117863,2,0,P|196:182|175:184,1,42.5
356,231,118035,1,8,0:0:0:0:
257,102,118208,2,0,P|290:101|327:107,1,42.5
488,163,118380,2,0,P|456:164|418:158,1,42.5
276,257,118552,1,8,0:0:0:0:
276,257,118639,1,0,0:0:0:0:
276,257,118724,1,8,0:0:0:0:
308,100,118898,6,0,L|372:97,1,42.5
488,163,119070,2,0,P|438:172|389:174,1,85,4|0,0:0|0:0,0:0:0:0:
322,198,119328,1,0,0:0:0:0:
322,198,119414,1,8,0:0:0:0:
462,281,119586,2,0,P|410:281|385:282,1,42.5
298,324,119759,2,0,P|246:324|221:323,1,42.5
87,265,119932,5,8,0:0:0:0:
83,256,120018,1,0,0:0:0:0:
80,247,120104,2,0,P|80:208|85:194,1,42.5,8|0,0:0|0:0,0:0:0:0:
190,94,120277,2,0,P|190:133|185:147,1,42.5
139,338,120449,1,0,0:0:0:0:
142,345,120535,2,0,P|166:339|215:337,1,42.5,8|0,0:0|0:0,0:0:0:0:
260,313,120708,1,0,0:0:0:0:
280,307,120793,1,8,0:0:0:0:
198,227,120967,6,0,L|122:224,1,42.5,0|8,0:0|0:0,0:0:0:0:
276,168,121138,2,0,P|322:159|372:160,1,85
444,149,121397,2,0,P|398:158|348:157,1,85
509,221,121655,1,0,0:0:0:0:
508,232,121742,1,0,0:0:0:0:
506,242,121828,5,4,0:0:0:0:
189,135,122000,1,0,0:0:0:0:
255,324,122173,1,8,0:0:0:0:
286,73,122345,1,0,0:0:0:0:
286,55,122431,1,0,0:0:0:0:
287,39,122517,1,0,0:0:0:0:
187,149,122690,1,8,0:0:0:0:
404,73,122862,1,8,0:0:0:0:
147,42,123035,1,0,0:0:0:0:
267,249,123207,6,0,P|335:251|388:243,1,101.999996887207,8|0,0:0|0:0,0:0:0:0:
423,201,123466,1,0,0:0:0:0:
423,201,123552,1,8,0:0:0:0:
187,149,123724,1,0,0:0:0:0:
288,362,123897,1,0,0:0:0:0:
317,83,124069,1,8,0:0:0:0:
266,238,124242,1,8,0:0:0:0:
203,2,124414,1,0,0:0:0:0:
252,244,124586,6,0,P|184:246|131:238,1,101.999996887207,8|0,0:0|0:0,0:0:0:0:
96,196,124845,1,0,0:0:0:0:
96,196,124931,1,8,0:0:0:0:
203,2,125104,1,0,0:0:0:0:
203,2,125190,1,0,0:0:0:0:
203,2,125276,1,0,0:0:0:0:
252,244,125449,1,8,0:0:0:0:
295,72,125621,1,8,0:0:0:0:
100,201,125793,1,0,0:0:0:0:
309,66,125966,6,0,P|359:61|410:63,1,101.999996887207,8|0,0:0|0:0,0:0:0:0:
486,98,126225,1,0,0:0:0:0:
486,98,126311,1,8,0:0:0:0:
203,2,126483,1,0,0:0:0:0:
423,201,126655,1,0,0:0:0:0:
429,209,126742,1,8,0:0:0:0:
435,217,126828,1,8,0:0:0:0:
309,66,127000,1,8,0:0:0:0:
247,241,127173,1,0,0:0:0:0:
243,245,127260,1,0,0:0:0:0:
240,250,127345,6,0,P|172:252|121:241,1,93.5000028533936,8|0,0:0|0:0,0:0:0:0:
93,194,127604,1,0,0:0:0:0:
93,194,127690,1,8,0:0:0:0:
228,130,127862,1,0,0:0:0:0:
140,326,128035,1,8,0:0:0:0:
136,106,128207,1,0,0:0:0:0:
133,96,128293,1,0,0:0:0:0:
129,85,128380,1,8,0:0:0:0:
131,313,128552,5,0,0:0:0:0:
228,130,128724,1,8,0:0:0:0:
249,120,128810,1,0,0:0:0:0:
271,114,128896,1,0,0:0:0:0:
295,111,128982,1,0,0:0:0:0:
318,112,129069,1,8,0:0:0:0:
428,207,129242,1,0,0:0:0:0:
349,22,129414,1,8,0:0:0:0:
287,197,129586,1,0,0:0:0:0:
292,208,129673,1,0,0:0:0:0:
297,219,129759,1,8,0:0:0:0:
284,351,129931,6,0,L|270:286,1,46.7500014266968
229,130,130104,1,8,0:0:0:0:
428,207,130276,1,8,0:0:0:0:
284,351,130449,1,8,0:0:0:0:
354,106,130621,1,8,0:0:0:0:
424,332,130793,1,8,0:0:0:0:
171,230,130966,1,8,0:0:0:0:
467,115,131138,1,8,0:0:0:0:
284,351,131311,1,8,0:0:0:0:
138,143,131483,5,8,0:0:0:0:
171,133,131569,1,8,0:0:0:0:
205,139,131655,1,8,0:0:0:0:
232,160,131741,1,8,0:0:0:0:
247,192,131828,1,8,0:0:0:0:
276,227,131914,1,8,0:0:0:0:
319,242,132000,1,8,0:0:0:0:
364,231,132086,1,8,0:0:0:0:
396,197,132173,5,8,0:0:0:0:
399,189,132259,1,8,0:0:0:0:
401,180,132345,1,8,0:0:0:0:
403,171,132431,1,8,0:0:0:0:
405,162,132517,1,8,0:0:0:0:
407,153,132604,1,8,0:0:0:0:
410,144,132690,1,8,0:0:0:0:
413,135,132776,1,8,0:0:0:0:
415,127,132862,6,0,B|358:86|371:28|371:28|482:35|515:113|493:170|462:190|462:190|501:246|484:324|484:324|421:263|375:268,1,607.750018547059,4|0,0:0|0:0,0:0:0:0:
393,268,135276,1,0,0:0:0:0:
290,322,135621,6,0,B|237:288|237:288|167:317|167:317|189:244|189:244|141:183|141:183|217:176|217:176|257:113|257:113|286:177|286:177|363:196|363:196|306:246,1,662.999979766846
310,242,138035,1,0,0:0:0:0:
98,265,138380,6,0,B|70:259|7:320|7:320|-9:242|29:186|29:186|-1:166|-23:109|9:31|120:24|120:24|133:82|76:123,1,607.750018547059
77,122,140794,1,0,0:0:0:0:
286,101,141138,6,0,B|228:142|178:95|171:59|182:25|212:7|264:7|294:48|294:48|319:85|350:105|388:113|433:98|461:80|485:50,1,467.500014266968
286,101,143207,1,0,0:0:0:0:
344,168,143380,1,0,0:0:0:0:
286,235,143552,1,0,0:0:0:0:
344,302,143724,1,0,0:0:0:0:
286,369,143897,1,0,0:0:0:0:
106,176,144242,6,0,L|173:176,1,46.7500014266968
260,248,144586,2,0,L|209:248,1,46.7500014266968
106,176,144931,6,0,L|52:176,1,55.2499974708558
260,248,145276,2,0,L|314:248,1,55.2499974708558
97,315,145621,2,0,L|11:315,1,59.4999981842042
3,227,145966,1,0,0:0:0:0:
97,315,146138,1,0,0:0:0:0:
53,159,146311,1,0,0:0:0:0:
223,49,146656,5,0,0:0:0:0:
97,315,147000,5,0,0:0:0:0:
96,321,147172,2,0,B|130:330|159:321,1,50.9999984436036
238,220,147517,2,0,B|204:211|175:220,1,50.9999984436036
314,308,147863,5,0,0:0:0:0:
461,251,148035,2,0,P|420:247|364:255,1,76.4999976654053
314,308,148380,2,0,P|258:308|203:303,1,102
150,266,148724,1,0,0:0:0:0:
269,152,148897,1,0,0:0:0:0:
314,308,149069,1,0,0:0:0:0:
171,109,149414,5,0,0:0:0:0:
384,250,149759,5,0,0:0:0:0:
315,195,149931,1,0,0:0:0:0:
246,250,150104,1,0,0:0:0:0:
177,195,150276,1,0,0:0:0:0:
295,113,150449,2,0,P|294:146|295:180,1,68,0|0,0:0|0:0,0:0:0:0:
88,58,150794,5,0,0:0:0:0:
157,113,150966,1,0,0:0:0:0:
226,58,151139,1,0,0:0:0:0:
295,113,151311,1,0,0:0:0:0:
177,195,151484,2,0,P|179:165|178:127,1,67.5750001031113,0|0,0:0|0:0,0:0:0:0:
246,250,151828,2,0,P|246:293|244:342,1,90.1000001374817
256,192,152259,12,0,154069,0:0:0:0:
152,79,154242,5,8,0:0:0:0:
174,106,154328,1,8,0:0:0:0:
152,133,154414,1,8,0:0:0:0:
174,160,154500,1,8,0:0:0:0:
152,187,154586,1,4,0:0:0:0:
41,85,154759,1,4,0:0:0:0:
174,216,154931,6,0,B|226:231|265:213|265:213|306:193|361:219,1,170,4|0,0:0|0:0,0:0:0:0:
112,270,155449,1,0,0:0:0:0:
98,241,155535,1,0,0:0:0:0:
95,209,155621,1,0,0:0:0:0:
102,178,155707,1,0,0:0:0:0:
119,152,155793,1,8,0:0:0:0:
309,77,155966,1,0,0:0:0:0:
304,281,156138,1,0,0:0:0:0:
195,102,156311,6,0,P|111:67|34:125,1,170,8|0,0:0|0:0,0:0:0:0:
190,180,156828,1,0,0:0:0:0:
221,177,156914,1,0,0:0:0:0:
248,161,157000,1,0,0:0:0:0:
266,135,157086,1,0,0:0:0:0:
272,103,157172,1,8,0:0:0:0:
47,102,157345,2,0,P|25:150|35:196,1,85,8|0,0:0|0:0,0:0:0:0:
292,62,157690,6,0,P|202:68|119:66,1,170,4|0,0:0|0:0,0:0:0:0:
190,180,158207,1,0,0:0:0:0:
181,210,158293,1,0,0:0:0:0:
173,241,158379,1,0,0:0:0:0:
165,272,158465,1,0,0:0:0:0:
156,303,158552,1,8,0:0:0:0:
75,364,158724,1,8,0:0:0:0:
190,180,158897,1,0,0:0:0:0:
290,295,159069,6,0,P|381:287|469:299,1,170,8|0,0:0|0:0,0:0:0:0:
253,367,159586,1,0,0:0:0:0:
228,347,159672,1,0,0:0:0:0:
213,319,159758,1,0,0:0:0:0:
210,287,159844,1,0,0:0:0:0:
219,257,159930,1,8,0:0:0:0:
446,215,160104,2,0,P|460:291|449:319,1,85,8|0,0:0|0:0,0:0:0:0:
358,204,160449,6,0,P|345:122|395:45,1,170,4|0,0:0|0:0,0:0:0:0:
459,144,160966,1,0,0:0:0:0:
427,143,161052,1,0,0:0:0:0:
395,143,161138,1,0,0:0:0:0:
363,143,161224,1,0,0:0:0:0:
331,143,161310,1,8,0:0:0:0:
120,145,161483,2,0,L|223:145,1,85,8|0,0:0|0:0,0:0:0:0:
52,217,161828,6,8,P|28:155|93:54,1,170
138,236,162346,1,0,0:0:0:0:
140,267,162432,1,0,0:0:0:0:
142,299,162518,1,0,0:0:0:0:
145,331,162604,1,0,0:0:0:0:
147,363,162690,2,0,P|199:363|253:358,1,85,8|8,0:0|0:0,0:0:0:0:
137,235,163035,1,0,0:0:0:0:
306,217,163207,6,0,P|200:222|106:245,1,170,4|0,0:0|0:0,0:0:0:0:
335,294,163724,1,0,0:0:0:0:
370,272,163810,1,0,0:0:0:0:
389,234,163896,1,0,0:0:0:0:
385,192,163982,1,0,0:0:0:0:
360,159,164068,1,8,0:0:0:0:
170,157,164242,1,8,0:0:0:0:
335,294,164414,5,0,0:0:0:0:
363,325,164500,1,0,0:0:0:0:
391,356,164586,1,8,0:0:0:0:
275,102,164759,1,0,0:0:0:0:
209,296,164931,1,0,0:0:0:0:
389,234,165104,1,0,0:0:0:0:
170,157,165276,2,0,P|108:155|58:167,1,85,8|0,0:0|0:0,0:0:0:0:
209,296,165621,2,0,P|271:298|321:286,1,85
366,67,165966,5,4,0:0:0:0:
251,200,166138,1,0,0:0:0:0:
251,207,166224,1,0,0:0:0:0:
250,213,166310,1,0,0:0:0:0:
367,85,166483,1,0,0:0:0:0:
367,106,166569,1,0,0:0:0:0:
368,127,166655,1,0,0:0:0:0:
369,148,166741,1,0,0:0:0:0:
370,169,166827,1,8,0:0:0:0:
320,333,167000,2,0,L|320:222,1,85,8|0,0:0|0:0,0:0:0:0:
136,70,167345,5,4,0:0:0:0:
251,200,167517,1,0,0:0:0:0:
251,207,167603,1,0,0:0:0:0:
250,213,167689,1,0,0:0:0:0:
135,88,167862,1,0,0:0:0:0:
135,109,167948,1,0,0:0:0:0:
134,130,168034,1,0,0:0:0:0:
133,151,168120,1,0,0:0:0:0:
132,172,168207,1,8,0:0:0:0:
182,336,168380,2,0,L|182:225,1,85,8|0,0:0|0:0,0:0:0:0:
136,70,168724,5,4,0:0:0:0:
400,262,168897,1,0,0:0:0:0:
182,336,169069,1,0,0:0:0:0:
284,130,169242,1,0,0:0:0:0:
305,130,169328,1,0,0:0:0:0:
326,129,169414,1,0,0:0:0:0:
347,128,169500,1,0,0:0:0:0:
368,127,169586,1,8,0:0:0:0:
224,57,169759,1,8,0:0:0:0:
324,218,169931,1,0,0:0:0:0:
506,7,170104,5,4,0:0:0:0:
368,127,170276,1,0,0:0:0:0:
368,142,170362,1,0,0:0:0:0:
370,157,170449,2,0,P|327:136|319:128,1,42.5
258,180,170621,2,0,P|242:134|242:123,1,42.5
162,117,170794,2,0,P|183:74|190:65,1,42.5
292,32,170966,1,8,0:0:0:0:
175,209,171138,2,0,P|181:265|180:313,1,85,8|0,0:0|0:0,0:0:0:0:
71,148,171483,5,0,0:0:0:0:
390,192,172172,1,0,0:0:0:0:
316,270,172345,1,0,0:0:0:0:
390,104,172862,5,0,0:0:0:0:
71,148,173551,1,0,0:0:0:0:
145,226,173724,1,0,0:0:0:0:
85,57,174242,5,8,0:0:0:0:
390,104,174414,1,8,0:0:0:0:
170,350,174586,1,8,0:0:0:0:
231,127,174759,1,8,0:0:0:0:
494,379,174931,1,8,0:0:0:0:
500,337,175017,1,8,0:0:0:0:
493,295,175103,1,8,0:0:0:0:
472,258,175189,1,8,0:0:0:0:
441,230,175275,1,8,0:0:0:0:
409,202,175363,1,8,0:0:0:0:
388,165,175449,1,8,0:0:0:0:
381,123,175535,1,8,0:0:0:0:
388,81,175621,5,8,0:0:0:0:
342,68,175707,1,8,0:0:0:0:
285,73,175793,1,8,0:0:0:0:
234,274,175966,1,0,0:0:0:0:
280,287,176052,1,0,0:0:0:0:
337,282,176138,1,0,0:0:0:0:
285,73,176311,1,0,0:0:0:0:
239,60,176397,1,0,0:0:0:0:
182,65,176483,1,0,0:0:0:0:
142,37,176569,5,8,0:0:0:0:
125,90,176655,1,8,0:0:0:0:
127,145,176741,1,8,0:0:0:0:
124,201,176827,1,8,0:0:0:0:
104,252,176913,1,8,0:0:0:0:
50,302,177000,6,0,P|80:300|107:303,1,42.5,4|0,0:0|0:0,0:0:0:0:
146,346,177259,1,0,0:0:0:0:
157,353,177345,6,0,L|279:351,1,101.999996887207,8|0,0:0|0:0,0:0:0:0:
50,302,177690,1,0,0:0:0:0:
337,282,177862,1,8,0:0:0:0:
352,282,177949,1,0,0:0:0:0:
367,282,178035,1,8,0:0:0:0:
168,233,178207,1,0,0:0:0:0:
367,282,178380,6,0,L|468:283,1,101.999996887207,8|0,0:0|0:0,0:0:0:0:
177,231,178724,1,8,0:0:0:0:
349,169,178896,1,0,0:0:0:0:
240,321,179068,1,0,0:0:0:0:
236,99,179241,1,8,0:0:0:0:
227,321,179414,1,8,0:0:0:0:
121,113,179586,1,0,0:0:0:0:
130,102,179672,1,0,0:0:0:0:
141,92,179759,6,0,P|212:85|247:110,1,101.999996887207,4|0,0:0|0:0,0:0:0:0:
69,189,180103,1,8,0:0:0:0:
209,12,180275,1,0,0:0:0:0:
276,235,180448,1,0,0:0:0:0:
77,189,180620,1,8,0:0:0:0:
227,321,180793,1,8,0:0:0:0:
141,92,180965,1,0,0:0:0:0:
44,291,181138,6,0,P|100:287|151:286,1,101.999996887207,8|0,0:0|0:0,0:0:0:0:
377,238,181483,2,0,P|324:234|276:234,1,101.999996887207,8|0,0:0|0:0,0:0:0:0:
44,291,181828,1,2,0:0:0:0:
94,288,181914,1,8,0:0:0:0:
145,286,182000,1,8,0:0:0:0:
377,238,182173,1,8,0:0:0:0:
96,169,182345,2,0,L|125:232,1,50.9999984436036,2|0,0:0|0:0,0:0:0:0:
216,319,182517,6,0,B|227:283|227:283|220:256|193:202,1,101.999996887207,4|0,0:0|0:0,0:0:0:0:
216,136,182776,1,8,0:0:0:0:
216,136,182862,1,8,0:0:0:0:
44,291,183034,1,0,0:0:0:0:
39,300,183120,1,0,0:0:0:0:
34,310,183207,1,0,0:0:0:0:
220,141,183379,1,8,0:0:0:0:
11,226,183551,1,8,0:0:0:0:
216,319,183724,1,0,0:0:0:0:
152,76,183897,6,0,B|136:113|136:113|133:153|136:208,1,101.999996887207,8|0,0:0|0:0,0:0:0:0:
260,41,184241,1,8,0:0:0:0:
85,1,184413,1,0,0:0:0:0:
134,175,184586,1,0,0:0:0:0:
270,51,184759,1,8,0:0:0:0:
270,51,184844,1,0,0:0:0:0:
270,51,184930,1,8,0:0:0:0:
80,105,185103,1,0,0:0:0:0:
80,105,185189,1,0,0:0:0:0:
80,105,185276,6,0,P|45:158|41:212,1,101.999996887207,4|0,0:0|0:0,0:0:0:0:
49,272,185535,1,8,0:0:0:0:
55,296,185621,1,8,0:0:0:0:
13,58,185793,1,0,0:0:0:0:
163,241,185965,1,0,0:0:0:0:
185,253,186051,1,0,0:0:0:0:
210,256,186137,2,0,L|265:246,1,50.9999984436036,8|0,0:0|0:0,0:0:0:0:
377,120,186310,2,0,L|322:110,1,50.9999984436036,8|0,0:0|0:0,0:0:0:0:
164,85,186482,1,0,0:0:0:0:
302,322,186655,5,0,0:0:0:0:
312,309,186742,1,8,0:0:0:0:
319,295,186827,2,0,P|333:259|334:215,1,50.9999984436036,8|0,0:0|0:0,0:0:0:0:
164,85,186999,1,8,0:0:0:0:
377,120,187172,5,0,0:0:0:0:
394,142,187258,1,0,0:0:0:0:
402,170,187344,2,0,P|403:209|394:250,1,50.9999984436036
480,102,187517,1,0,0:0:0:0:
480,76,187603,1,0,0:0:0:0:
480,49,187689,1,0,0:0:0:0:
288,62,187862,5,0,0:0:0:0:
288,92,187948,1,0,0:0:0:0:
288,123,188034,1,4,0:0:0:0:
147,231,188207,1,0,0:0:0:0:
157,219,188293,1,0,0:0:0:0:
168,209,188380,6,0,P|220:209|269:211,1,101.999996887207,12|0,0:0|0:0,0:0:0:0:
209,304,188724,1,0,0:0:0:0:
288,92,188897,1,8,0:0:0:0:
288,107,188983,1,0,0:0:0:0:
288,122,189069,1,8,0:0:0:0:
429,271,189241,1,0,0:0:0:0:
253,225,189414,6,0,P|304:225|354:226,1,101.999996887207,8|0,0:0|0:0,0:0:0:0:
195,162,189759,1,8,0:0:0:0:
317,301,189931,1,0,0:0:0:0:
330,115,190103,1,0,0:0:0:0:
195,175,190276,1,8,0:0:0:0:
438,148,190448,1,8,0:0:0:0:
141,114,190621,1,0,0:0:0:0:
130,123,190707,1,0,0:0:0:0:
120,134,190793,6,0,P|113:205|138:240,1,101.999996887207,4|0,0:0|0:0,0:0:0:0:
223,31,191137,1,8,0:0:0:0:
24,70,191310,1,0,0:0:0:0:
195,175,191483,1,0,0:0:0:0:
121,41,191655,1,8,0:0:0:0:
127,229,191827,1,8,0:0:0:0:
257,108,191999,1,0,0:0:0:0:
131,245,192172,6,0,P|186:241|238:240,1,101.999996887207,8|0,0:0|0:0,0:0:0:0:
442,168,192517,2,0,P|389:164|341:164,1,101.999996887207,8|0,0:0|0:0,0:0:0:0:
131,245,192862,1,2,0:0:0:0:
181,242,192948,1,8,0:0:0:0:
232,240,193035,1,8,0:0:0:0:
442,168,193207,1,0,0:0:0:0:
184,366,193379,2,0,L|208:317,1,50.9999984436036,2|0,0:0|0:0,0:0:0:0:
303,213,193552,6,0,B|314:249|314:249|289:308,1,101.999996887207,4|0,0:0|0:0,0:0:0:0:
320,384,193811,1,0,0:0:0:0:
320,384,193897,1,8,0:0:0:0:
404,217,194069,1,8,0:0:0:0:
411,225,194155,1,0,0:0:0:0:
419,234,194241,1,0,0:0:0:0:
181,242,194414,1,8,0:0:0:0:
396,208,194586,1,8,0:0:0:0:
170,101,194759,1,0,0:0:0:0:
288,308,194931,6,0,B|325:324|325:324|420:324,1,101.999996887207,8|0,0:0|0:0,0:0:0:0:
254,214,195276,1,8,0:0:0:0:
429,159,195448,1,0,0:0:0:0:
386,324,195621,1,0,0:0:0:0:
363,105,195793,1,8,0:0:0:0:
363,105,195879,1,0,0:0:0:0:
363,105,195965,1,8,0:0:0:0:
262,223,196138,1,0,0:0:0:0:
262,223,196224,1,0,0:0:0:0:
262,223,196311,6,0,B|312:258|387:219,1,101.999996887207,4|0,0:0|0:0,0:0:0:0:
423,202,196569,1,8,0:0:0:0:
436,187,196655,1,0,0:0:0:0:
161,174,196828,1,0,0:0:0:0:
172,152,196914,1,0,0:0:0:0:
190,133,197000,1,0,0:0:0:0:
212,121,197086,1,0,0:0:0:0:
237,118,197173,2,0,L|292:128,1,50.9999984436036,8|0,0:0|0:0,0:0:0:0:
385,254,197345,2,0,L|330:264,1,50.9999984436036,8|0,0:0|0:0,0:0:0:0:
186,307,197517,1,0,0:0:0:0:
343,61,197691,5,0,0:0:0:0:
353,74,197777,1,8,0:0:0:0:
360,88,197863,2,0,P|374:124|375:168,1,50.9999984436036,0|0,0:0|0:0,0:0:0:0:
181,317,198035,1,8,0:0:0:0:
97,120,198207,5,0,0:0:0:0:
87,107,198293,1,8,0:0:0:0:
80,93,198379,2,0,P|66:57|65:13,1,50.9999984436036,0|0,0:0|0:0,0:0:0:0:
18,180,198552,1,0,0:0:0:0:
18,196,198638,1,0,0:0:0:0:
18,212,198724,1,8,0:0:0:0:
145,291,198897,5,0,0:0:0:0:
145,267,198983,1,0,0:0:0:0:
145,243,199069,1,8,0:0:0:0:
145,291,199242,5,0,0:0:0:0:
145,315,199328,1,0,0:0:0:0:
145,339,199414,1,8,0:0:0:0:
244,196,199586,1,0,0:0:0:0:
51,197,199759,1,0,0:0:0:0:
145,340,199931,1,8,0:0:0:0:
202,131,200104,2,0,P|128:134|91:137,1,101.999996887207,8|0,0:0|0:0,0:0:0:0:
277,37,200449,6,0,P|351:34|388:31,1,101.999996887207,8|0,0:0|0:0,0:0:0:0:
133,226,200793,1,8,0:0:0:0:
316,211,200966,1,0,0:0:0:0:
316,227,201052,1,0,0:0:0:0:
316,243,201138,1,0,0:0:0:0:
230,338,201311,1,8,0:0:0:0:
230,346,201397,1,0,0:0:0:0:
230,354,201483,1,8,0:0:0:0:
128,250,201656,5,0,0:0:0:0:
131,238,201742,1,0,0:0:0:0:
133,226,201828,1,8,0:0:0:0:
57,338,202000,1,0,0:0:0:0:
55,345,202086,1,0,0:0:0:0:
53,353,202172,1,8,0:0:0:0:
133,226,202345,5,0,0:0:0:0:
230,354,202518,1,0,0:0:0:0:
316,211,202690,1,8,0:0:0:0:
318,218,202776,1,0,0:0:0:0:
320,226,202862,1,8,0:0:0:0:
128,250,203035,1,0,0:0:0:0:
381,154,203207,6,0,P|400:201|392:248,1,50.9999984436036,8|0,0:0|0:0,0:0:0:0:
382,289,203380,1,0,0:0:0:0:
380,301,203466,1,0,0:0:0:0:
377,313,203552,1,8,0:0:0:0:
295,116,203725,5,0,0:0:0:0:
377,313,203897,1,10,0:0:0:0:
352,310,203983,1,8,0:0:0:0:
327,308,204069,1,0,0:0:0:0:
457,263,204242,1,8,0:0:0:0:
253,207,204414,1,0,0:0:0:0:
265,209,204500,1,0,0:0:0:0:
277,212,204586,5,0,0:0:0:0:
327,308,204759,5,0,0:0:0:0:
320,310,204845,1,0,0:0:0:0:
312,312,204931,1,8,0:0:0:0:
188,146,205104,1,0,0:0:0:0:
379,117,205276,1,0,0:0:0:0:
201,299,205449,1,8,0:0:0:0:
199,306,205535,1,0,0:0:0:0:
197,314,205621,1,8,0:0:0:0:
373,216,205794,1,0,0:0:0:0:
188,146,205966,6,0,P|172:165|162:189,1,50.9999984436036,8|0,0:0|0:0,0:0:0:0:
197,314,206139,1,0,0:0:0:0:
198,326,206225,1,0,0:0:0:0:
199,338,206311,1,8,0:0:0:0:
307,136,206483,1,0,0:0:0:0:
121,260,206656,1,0,0:0:0:0:
319,244,206828,1,8,0:0:0:0:
188,146,207000,1,8,0:0:0:0:
360,317,207173,1,0,0:0:0:0:
373,311,207259,1,0,0:0:0:0:
381,302,207345,6,0,P|404:230|371:180,1,101.999996887207,4|0,0:0|0:0,0:0:0:0:
361,144,207604,1,8,0:0:0:0:
343,130,207690,1,8,0:0:0:0:
223,57,207863,1,0,0:0:0:0:
319,244,208035,1,0,0:0:0:0:
358,44,208207,5,8,0:0:0:0:
360,37,208293,1,0,0:0:0:0:
362,29,208380,1,8,0:0:0:0:
247,202,208552,1,0,0:0:0:0:
434,95,208725,1,2,0:0:0:0:
423,96,208811,1,10,0:0:0:0:
397,132,208897,5,2,0:0:0:0:
380,130,208983,1,2,0:0:0:0:
364,127,209069,1,10,0:0:0:0:
243,78,209242,1,2,0:0:0:0:
241,61,209328,1,10,0:0:0:0:
238,45,209414,1,2,0:0:0:0:
175,157,209587,5,2,0:0:0:0:
173,164,209673,1,2,0:0:0:0:
171,172,209759,1,10,0:0:0:0:
238,45,209931,1,0,0:0:0:0:
29,169,210104,1,0,0:0:0:0:
181,325,210276,1,0,0:0:0:0:
272,175,210449,6,0,L|148:171,1,101.999996887207,4|0,0:0|0:0,0:0:0:0:
339,122,210793,1,0,0:0:0:0:
150,204,210966,1,8,0:0:0:0:
148,179,211052,1,0,0:0:0:0:
146,154,211138,1,8,0:0:0:0:
276,260,211311,1,0,0:0:0:0:
277,273,211397,1,0,0:0:0:0:
278,286,211483,5,8,0:0:0:0:
182,365,211656,1,0,0:0:0:0:
183,372,211742,1,0,0:0:0:0:
183,378,211828,1,8,0:0:0:0:
71,283,212000,1,0,0:0:0:0:
71,277,212086,1,0,0:0:0:0:
71,271,212173,1,0,0:0:0:0:
278,286,212346,1,8,0:0:0:0:
84,196,212518,1,8,0:0:0:0:
278,286,212690,6,0,P|247:287|196:284,1,50.9999984436036,2|0,0:0|0:0,0:0:0:0:
101,191,212863,2,0,P|160:189|245:193,1,101.999996887207,4|0,0:0|0:0,0:0:0:0:
71,277,213207,1,8,0:0:0:0:
258,108,213380,1,0,0:0:0:0:
280,121,213466,1,0,0:0:0:0:
297,140,213552,1,0,0:0:0:0:
306,163,213638,1,0,0:0:0:0:
308,189,213725,2,0,P|308:238|317:273,1,50.9999984436036,8|0,0:0|0:0,0:0:0:0:
384,356,213897,5,8,0:0:0:0:
231,184,214069,1,0,0:0:0:0:
221,184,214156,1,0,0:0:0:0:
212,183,214242,1,8,0:0:0:0:
354,90,214414,1,0,0:0:0:0:
379,88,214500,1,0,0:0:0:0:
404,86,214586,1,8,0:0:0:0:
235,234,214759,5,0,0:0:0:0:
233,209,214845,1,0,0:0:0:0:
231,184,214931,1,0,0:0:0:0:
194,156,215017,5,8,0:0:0:0:
192,131,215104,2,0,L|188:70,1,50.9999984436036,8|0,0:0|0:0,0:0:0:0:
92,0,215276,1,8,0:0:0:0:
50,171,215449,2,0,P|92:166|115:159,1,50.9999984436036,2|0,0:0|0:0,0:0:0:0:
289,64,215621,2,0,P|224:72|173:84,1,101.999996887207,4|0,0:0|0:0,0:0:0:0:
34,196,215966,2,0,P|98:204|149:216,1,101.999996887207,8|0,0:0|0:0,0:0:0:0:
148,217,216224,1,0,0:0:0:0:
160,221,216311,1,0,0:0:0:0:
404,86,216483,5,8,0:0:0:0:
406,111,216569,1,0,0:0:0:0:
408,136,216655,1,8,0:0:0:0:
247,46,216828,1,0,0:0:0:0:
246,33,216914,1,0,0:0:0:0:
245,20,217000,1,8,0:0:0:0:
160,221,217173,5,0,0:0:0:0:
161,228,217259,1,0,0:0:0:0:
161,234,217345,1,8,0:0:0:0:
68,64,217517,1,0,0:0:0:0:
68,58,217603,1,0,0:0:0:0:
68,52,217690,1,0,0:0:0:0:
34,196,217863,1,8,0:0:0:0:
68,52,218035,1,8,0:0:0:0:
361,136,218207,6,0,P|330:137|279:134,1,50.9999984436036,2|0,0:0|0:0,0:0:0:0:
68,52,218380,2,0,P|127:50|212:54,1,101.999996887207,4|0,0:0|0:0,0:0:0:0:
241,68,218638,1,0,0:0:0:0:
259,76,218724,1,8,0:0:0:0:
34,196,218897,1,0,0:0:0:0:
355,36,219069,1,8,0:0:0:0:
364,59,219155,1,0,0:0:0:0:
366,85,219242,2,0,P|361:133|346:162,1,50.9999984436036
305,327,219414,5,8,0:0:0:0:
487,179,219587,1,0,0:0:0:0:
178,127,219759,1,8,0:0:0:0:
417,279,219931,1,8,0:0:0:0:
178,127,220104,1,2,0:0:0:0:
202,120,220190,1,2,0:0:0:0:
235,124,220277,1,2,0:0:0:0:
293,313,220449,5,2,0:0:0:0:
264,321,220535,1,2,0:0:0:0:
223,316,220622,1,2,0:0:0:0:
189,286,220707,1,2,0:0:0:0:
174,237,220794,1,2,0:0:0:0:
181,182,220880,1,2,0:0:0:0:
178,127,220966,1,2,0:0:0:0:
159,75,221052,1,2,0:0:0:0:
124,53,221138,6,0,P|166:54|213:46,1,63.7500024318696,4|0,0:0|0:0,0:0:0:0:
353,101,221483,2,0,P|311:100|264:108,1,63.7500024318696,8|0,0:0|0:0,0:0:0:0:
401,165,221828,2,0,P|433:120|407:34,1,127.500004863739
324,180,222345,1,0,0:0:0:0:
464,243,222518,6,0,P|422:242|375:250,1,63.7500024318696,4|0,0:0|0:0,0:0:0:0:
292,256,222863,1,8,0:0:0:0:
324,180,223035,2,0,P|266:177|213:244,1,127.500004863739,4|0,0:0|0:0,0:0:0:0:
175,125,223552,6,0,P|174:83|182:36,1,63.7500024318696,8|0,0:0|0:0,0:0:0:0:
218,222,223897,1,2,0:0:0:0:
67,177,224069,1,6,0:0:0:0:
176,61,224242,1,2,0:0:0:0:
35,253,224414,6,0,P|29:162|30:102,1,127.500004863739,4|0,0:0|0:0,0:0:0:0:
176,61,224931,2,0,P|136:73|100:79,1,63.7500024318696,8|0,0:0|0:0,0:0:0:0:
281,100,225276,6,0,P|190:106|130:105,1,127.500004863739,4|0,0:0|0:0,0:0:0:0:
283,273,225794,1,2,0:0:0:0:
98,284,225966,1,2,0:0:0:0:
153,105,226138,1,2,0:0:0:0:
291,259,226311,2,0,P|251:247|215:241,1,63.7500024318696,8|0,0:0|0:0,0:0:0:0:
66,78,226655,6,0,P|65:120|73:167,1,63.7500024318696,4|0,0:0|0:0,0:0:0:0:
183,318,227000,1,8,0:0:0:0:
116,264,227173,2,0,P|161:232|247:258,1,127.500004863739,4|0,0:0|0:0,0:0:0:0:
276,154,227690,1,8,0:0:0:0:
325,239,227862,1,0,0:0:0:0:
182,150,228036,6,0,P|140:151|93:143,1,63.7500024318696,4|0,0:0|0:0,0:0:0:0:
72,82,228379,1,8,0:0:0:0:
236,76,228553,2,0,P|268:134|259:209,1,127.500004863739,4|8,0:0|0:0,0:0:0:0:
330,54,229070,6,0,P|372:55|419:47,1,63.7500024318696,8|0,0:0|0:0,0:0:0:0:
265,193,229414,1,10,0:0:0:0:
236,76,229586,1,2,0:0:0:0:
367,224,229760,1,2,0:0:0:0:
181,271,229932,6,0,P|272:277|332:276,1,127.500004863739,4|0,0:0|0:0,0:0:0:0:
350,162,230449,2,0,P|362:202|368:238,1,63.7500024318696,8|0,0:0|0:0,0:0:0:0:
389,57,230794,6,0,P|395:148|394:208,1,127.500004863739,4|0,0:0|0:0,0:0:0:0:
407,296,231310,1,8,0:0:0:0:
295,225,231483,6,0,L|289:278,1,36.1250006890297,8|0,0:0|0:0,0:0:0:0:
182,374,231656,2,0,L|176:321,1,36.1250006890297,8|0,0:0|0:0,0:0:0:0:
158,154,231828,1,2,0:0:0:0:
183,384,232000,1,2,0:0:0:0:
157,143,232173,6,4,P|223:133|249:140,1,85,0|0,0:0|0:0,0:0:0:0:
406,99,232517,2,0,P|340:109|314:102,1,85,8|0,0:0|0:0,0:0:0:0:
244,59,232862,1,0,0:0:0:0:
323,17,233035,1,8,0:0:0:0:
293,225,233207,1,8,0:0:0:0:
372,183,233380,1,0,0:0:0:0:
209,196,233552,6,0,P|148:194|108:199,1,85,8|0,0:0|0:0,0:0:0:0:
0,108,233897,2,0,P|61:110|101:105,1,85,8|0,0:0|0:0,0:0:0:0:
164,61,234242,1,0,0:0:0:0:
85,19,234415,1,8,0:0:0:0:
45,238,234586,1,8,0:0:0:0:
124,196,234759,1,0,0:0:0:0:
54,318,234931,6,0,P|125:314|158:308,1,85,8|0,0:0|0:0,0:0:0:0:
293,225,235276,2,0,P|222:229|189:235,1,85,8|0,0:0|0:0,0:0:0:0:
364,267,235621,1,0,0:0:0:0:
349,159,235793,1,8,0:0:0:0:
138,311,235966,1,8,0:0:0:0:
124,196,236138,1,0,0:0:0:0:
224,42,236311,6,0,P|231:97|232:147,1,85,8|0,0:0|0:0,0:0:0:0:
45,238,236655,2,0,P|37:182|37:133,1,85,8|0,0:0|0:0,0:0:0:0:
239,211,237000,1,2,0:0:0:0:
250,220,237087,1,8,0:0:0:0:
261,229,237173,1,8,0:0:0:0:
138,311,237345,6,0,P|182:309|237:310,1,76.4999976654053,8|0,0:0|0:0,0:0:0:0:
32,345,237690,6,0,P|126:345|201:343,1,170,4|8,0:0|0:0,0:0:0:0:
244,252,238207,1,0,0:0:0:0:
295,341,238380,1,0,0:0:0:0:
45,253,238552,1,8,0:0:0:0:
118,183,238724,1,8,0:0:0:0:
201,342,238897,1,0,0:0:0:0:
290,159,239069,5,8,0:0:0:0:
244,252,239242,1,0,0:0:0:0:
0,163,239414,1,8,0:0:0:0:
45,253,239587,1,0,0:0:0:0:
85,97,239759,6,0,P|141:104|185:104,1,85,0|8,0:0|0:0,0:0:0:0:
129,260,240104,2,0,P|73:253|29:253,1,85,8|0,0:0|0:0,0:0:0:0:
244,252,240449,2,0,P|300:259|344:259,1,85,4|0,0:0|0:0,0:0:0:0:
346,261,240707,1,8,0:0:0:0:
362,258,240794,1,8,0:0:0:0:
192,176,240966,1,0,0:0:0:0:
175,294,241138,1,0,0:0:0:0:
415,181,241311,1,8,0:0:0:0:
432,299,241483,1,8,0:0:0:0:
320,71,241656,1,0,0:0:0:0:
80,296,241914,6,0,L|77:247,1,42.5,8|0,0:0|0:0,0:0:0:0:
66,129,242087,1,8,0:0:0:0:
67,146,242173,1,8,0:0:0:0:
68,163,242259,1,8,0:0:0:0:
69,180,242345,1,8,0:0:0:0:
70,197,242431,1,8,0:0:0:0:
73,214,242518,5,8,0:0:0:0:
111,232,242604,1,8,0:0:0:0:
153,234,242690,1,8,0:0:0:0:
195,225,242776,1,8,0:0:0:0:
235,212,242862,1,8,0:0:0:0:
276,200,242949,1,8,0:0:0:0:
318,193,243035,1,8,0:0:0:0:
360,199,243121,1,8,0:0:0:0:
404,204,243207,6,0,L|394:105,1,85,4|8,0:0|0:0,0:0:0:0:
404,35,243466,2,0,L|394:134,1,85
321,235,243724,2,0,L|316:168,1,42.5
320,16,243897,2,0,L|310:115,1,85
232,212,244155,1,8,0:0:0:0:
232,212,244242,1,8,0:0:0:0:
205,26,244414,6,0,P|204:59|210:96,1,42.5
317,192,244587,1,8,0:0:0:0:
109,129,244759,2,0,P|141:128|179:134,1,42.5
306,186,244931,1,8,0:0:0:0:
317,49,245104,6,0,P|284:48|247:54,1,42.5
109,129,245276,2,0,P|108:161|114:199,1,42.5
204,278,245449,1,8,0:0:0:0:
204,278,245535,1,0,0:0:0:0:
204,278,245621,1,8,0:0:0:0:
384,215,245793,6,0,L|320:212,1,42.5,2|0,0:0|0:0,0:0:0:0:
204,278,245966,2,0,P|254:287|303:289,1,85,4|0,0:0|0:0,0:0:0:0:
372,300,246225,2,0,P|322:291|273:289,1,85
134,350,246483,2,0,P|184:359|233:361,1,85
480,336,246828,5,8,0:0:0:0:
484,327,246914,1,0,0:0:0:0:
487,318,247000,2,0,P|487:279|482:265,1,42.5,8|0,0:0|0:0,0:0:0:0:
383,173,247173,2,0,P|383:212|388:226,1,42.5
456,96,247345,6,0,P|406:87|357:85,1,85,4|0,0:0|0:0,0:0:0:0:
297,40,247604,1,0,0:0:0:0:
297,40,247690,1,8,0:0:0:0:
128,154,247863,2,0,L|52:151,1,42.5
205,105,248035,1,8,0:0:0:0:
205,105,248121,1,8,0:0:0:0:
205,105,248207,2,0,L|258:107,1,42.5
120,21,248380,1,8,0:0:0:0:
111,232,248552,5,0,0:0:0:0:
119,235,248638,1,0,0:0:0:0:
128,235,248725,2,0,P|170:233|227:225,1,85,4|0,0:0|0:0,0:0:0:0:
297,236,248983,2,0,P|254:234|198:226,1,85
85,152,249242,2,0,L|152:147,1,42.5
297,148,249414,2,0,L|198:138,1,85,0|8,0:0|0:0,0:0:0:0:
50,74,249672,1,0,0:0:0:0:
50,74,249759,1,8,0:0:0:0:
297,236,249932,6,0,P|330:237|367:231,1,42.5
361,86,250105,1,8,0:0:0:0:
159,189,250277,2,0,P|137:187|116:189,1,42.5
297,236,250449,1,8,0:0:0:0:
198,107,250622,2,0,P|231:106|268:112,1,42.5
427,161,250794,2,0,P|395:162|357:156,1,42.5
217,243,250966,1,8,0:0:0:0:
217,243,251053,1,0,0:0:0:0:
217,243,251139,1,8,0:0:0:0:
310,96,251311,6,0,L|374:93,1,42.5,2|0,0:0|0:0,0:0:0:0:
512,150,251483,2,0,P|462:159|413:161,1,85,4|0,0:0|0:0,0:0:0:0:
319,191,251742,1,8,0:0:0:0:
322,198,251828,1,8,0:0:0:0:
462,281,252000,2,0,P|410:281|385:282,1,42.5
298,324,252173,2,0,P|246:324|221:323,1,42.5
127,221,252346,5,8,0:0:0:0:
136,217,252432,1,0,0:0:0:0:
145,214,252518,2,0,P|184:214|198:219,1,42.5
298,324,252691,2,0,P|259:324|245:319,1,42.5
322,198,252863,1,0,0:0:0:0:
325,205,252949,2,0,P|349:199|398:197,1,42.5,8|0,0:0|0:0,0:0:0:0:
438,184,253122,1,0,0:0:0:0:
457,181,253208,1,8,0:0:0:0:
298,324,253380,2,0,L|222:321,1,42.5,0|8,0:0|0:0,0:0:0:0:
61,220,253552,5,2,0:0:0:0:
103,217,253638,1,2,0:0:0:0:
145,214,253724,1,2,0:0:0:0:
188,212,253810,1,2,0:0:0:0:
230,209,253896,1,2,0:0:0:0:
441,163,254068,1,0,0:0:0:0:
440,174,254155,1,0,0:0:0:0:
438,184,254242,5,12,0:0:0:0:
298,324,254414,1,8,0:0:0:0:
231,135,254586,1,8,0:0:0:0:
411,288,254759,1,0,0:0:0:0:
411,306,254845,1,0,0:0:0:0:
412,322,254931,1,0,0:0:0:0:
193,271,255104,1,8,0:0:0:0:
441,163,255275,1,8,0:0:0:0:
208,61,255449,1,0,0:0:0:0:
282,232,255621,6,0,P|350:234|403:226,1,101.999996887207,4|0,0:0|0:0,0:0:0:0:
441,163,255879,1,0,0:0:0:0:
445,167,255966,1,8,0:0:0:0:
280,29,256138,1,0,0:0:0:0:
438,289,256311,1,0,0:0:0:0:
434,32,256483,1,8,0:0:0:0:
279,217,256656,1,8,0:0:0:0:
203,2,256828,1,0,0:0:0:0:
271,231,257000,6,0,P|203:233|150:225,1,101.999996887207,4|0,0:0|0:0,0:0:0:0:
96,196,257259,1,0,0:0:0:0:
96,196,257345,1,8,0:0:0:0:
340,129,257518,1,0,0:0:0:0:
340,129,257604,1,0,0:0:0:0:
340,129,257690,1,0,0:0:0:0:
171,319,257863,1,8,0:0:0:0:
171,36,258035,1,8,0:0:0:0:
328,305,258207,1,0,0:0:0:0:
238,126,258380,6,0,P|306:124|359:132,1,101.999996887207,4|0,0:0|0:0,0:0:0:0:
397,179,258639,1,0,0:0:0:0:
402,184,258724,1,8,0:0:0:0:
191,49,258897,1,0,0:0:0:0:
171,319,259069,1,8,0:0:0:0:
163,325,259156,1,0,0:0:0:0:
155,331,259242,1,8,0:0:0:0:
398,45,259414,1,8,0:0:0:0:
427,298,259587,1,0,0:0:0:0:
423,302,259672,1,0,0:0:0:0:
420,307,259759,6,0,P|352:309|301:298,1,93.5000028533936,4|0,0:0|0:0,0:0:0:0:
257,259,260018,1,0,0:0:0:0:
257,259,260104,1,8,0:0:0:0:
391,175,260276,1,0,0:0:0:0:
286,384,260449,1,8,0:0:0:0:
228,130,260621,1,0,0:0:0:0:
223,119,260707,1,0,0:0:0:0:
218,108,260794,1,0,0:0:0:0:
131,313,260966,5,0,0:0:0:0:
218,108,261138,1,8,0:0:0:0:
414,247,261310,1,2,0:0:0:0:
417,276,261396,1,2,0:0:0:0:
420,307,261483,1,10,0:0:0:0:
195,241,261656,1,0,0:0:0:0:
289,32,261828,1,8,0:0:0:0:
327,224,262000,1,2,0:0:0:0:
330,253,262087,1,2,0:0:0:0:
333,284,262173,1,10,0:0:0:0:
197,373,262345,6,0,L|205:313,1,46.7500014266968,2|0,0:0|0:0,0:0:0:0:
228,130,262517,1,12,0:0:0:0:
14,222,262690,1,8,0:0:0:0:
197,373,262863,1,8,0:0:0:0:
102,90,263035,1,8,0:0:0:0:
25,377,263207,1,8,0:0:0:0:
290,239,263380,1,8,0:0:0:0:
2,118,263552,1,8,0:0:0:0:
197,373,263725,1,8,0:0:0:0:
474,250,263897,5,8,0:0:0:0:
441,260,263983,1,8,0:0:0:0:
407,254,264069,1,8,0:0:0:0:
380,233,264155,1,8,0:0:0:0:
365,201,264242,1,8,0:0:0:0:
336,166,264328,1,8,0:0:0:0:
293,151,264414,1,8,0:0:0:0:
248,162,264500,1,8,0:0:0:0:
216,196,264587,5,8,0:0:0:0:
213,204,264673,1,8,0:0:0:0:
211,213,264759,1,8,0:0:0:0:
209,222,264845,1,8,0:0:0:0:
207,231,264931,1,8,0:0:0:0:
205,240,265018,1,8,0:0:0:0:
202,249,265104,1,8,0:0:0:0:
199,258,265190,1,8,0:0:0:0:
196,268,265276,6,0,B|141:314|111:274|76:239|106:191|154:179|154:179|202:269|314:267|363:213,1,442,4|0,0:0|0:0,0:0:0:0:
355,221,267690,1,0,0:0:0:0:
271,128,268035,6,0,P|478:212|381:342,1,442
392,338,270449,1,0,0:0:0:0:
355,221,270793,6,0,B|292:242|246:219|246:219|184:261|184:261|116:205|44:249,1,331.499989883423
50,245,273207,1,0,0:0:0:0:
106,336,273552,2,0,L|148:126,1,203.999993774414
320,87,275966,5,0,0:0:0:0:
218,120,276311,6,0,B|164:160|182:226|182:226|295:211|320:86,1,331.499989883423
319,86,278724,5,0,0:0:0:0:
421,119,279069,6,0,B|475:159|457:225|457:225|344:210|319:85,1,331.499989883423
311,246,281483,1,0,0:0:0:0:
0,302,281828,6,0,B|61:296|101:254|101:254|177:286|236:253|236:253|283:234|319:249,1,331.499989883423
270,172,284242,1,0,0:0:0:0:
283,350,284586,6,0,L|269:163,1,178.499994552612
306,74,285966,5,0,0:0:0:0:
183,195,286138,1,0,0:0:0:0:
361,181,286311,1,0,0:0:0:0:
217,82,286483,1,0,0:0:0:0:
183,195,286656,5,2,0:0:0:0:
227,191,286742,1,2,0:0:0:0:
272,188,286828,1,2,0:0:0:0:
316,185,286914,1,2,0:0:0:0:
361,181,287000,1,10,0:0:0:0:
118,30,287173,1,8,0:0:0:0:
183,195,287345,6,0,B|151:233|151:233|180:303|180:303|107:281|107:281|46:329|46:329|39:253|39:253|-24:213|-24:213|40:184|40:184|59:107|59:107|103:160|103:160|167:109|232:86|366:84|366:84|301:140|256:189|256:189|299:226|386:241|386:241|301:291|246:281,1,1360,4|0,0:0|0:0,0:0:0:0:
