osu file format v14

[General]
AudioFilename: rameses b.mp3
AudioLeadIn: 0
PreviewTime: 321638
Countdown: 0
SampleSet: Soft
StackLeniency: 1
Mode: 0
LetterboxInBreaks: 0
WidescreenStoryboard: 0

[Editor]
Bookmarks: 63935,194867,903583,1252352
DistanceSpacing: 0.5
BeatDivisor: 4
GridSize: 4
TimelineZoom: 1

[Metadata]
Title:'Sentient' Chill Mix
TitleUnicode:'Sentient' Chill Mix
Artist:Rameses B
ArtistUnicode:Rameses B
Creator:pishifat
Version:Marathon
Source:
Tags:
BeatmapID:1164889
BeatmapSetID:550010

[Difficulty]
HPDrainRate:5
CircleSize:3.8
OverallDifficulty:7
ApproachRate:8.5
SliderMultiplier:1
SliderTickRate:1

[Events]
//Background and Video events
0,0,"ax2dy8jo.jpg",0,0
//Break Periods
2,122260,124635
2,191537,194354
2,198922,201739
2,207229,209124
2,214614,216508
2,250614,264508
2,434994,446023
2,495930,522198
2,572238,586465
2,587340,594084
2,632766,634297
2,649289,666723
2,716348,729298
2,781600,806862
//Storyboard Layer 0 (Background)
//Storyboard Layer 1 (Fail)
//Storyboard Layer 2 (Pass)
//Storyboard Layer 3 (Foreground)
//Storyboard Sound Samples

[TimingPoints]
60,500,4,2,1,50,1,0
64060,-62.5,4,2,1,50,0,0
80060,-58.8235294117647,4,2,1,50,0,0
94060,-90.9090909090909,4,2,1,35,0,0
95060,-71.4285714285714,4,2,1,40,0,0
96060,-58.8235294117647,4,2,1,50,0,0
111060,-90.9090909090909,4,2,1,35,0,0
112060,-58.8235294117647,4,2,1,50,0,0
125310,-58.8235294117647,4,2,1,5,0,0
128060,-76.9230769230769,4,2,1,50,0,0
128560,-76.9230769230769,4,2,1,30,0,0
128810,-76.9230769230769,4,2,1,20,0,0
129060,-86.9565217391304,4,2,1,50,0,0
129310,-86.9565217391304,4,2,1,30,0,0
130060,-90.9090909090909,4,2,1,30,0,0
130810,-90.9090909090909,4,2,1,20,0,0
131060,-95.2380952380952,4,2,1,50,0,0
131560,-95.2380952380952,4,2,1,30,0,0
132060,-100,4,2,1,30,0,0
132810,-100,4,2,1,20,0,0
133060,-100,4,2,1,50,0,0
133560,-100,4,2,1,30,0,0
134060,-100,4,2,1,30,0,0
134810,-100,4,2,1,20,0,0
135060,-100,4,2,1,50,0,0
135310,-100,4,2,1,40,0,0
135560,-100,4,2,1,30,0,0
136810,-100,4,2,1,20,0,0
137060,-100,4,2,1,50,0,0
137560,-100,4,2,1,30,0,0
138810,-100,4,2,1,20,0,0
139060,-100,4,2,1,50,0,0
139435,-100,4,2,1,32,0,0
140060,500,4,2,1,30,1,0
140060,-133.333333333333,4,2,1,30,0,0
141060,-133.333333333333,4,2,1,40,0,0
142060,-133.333333333333,4,2,1,25,0,0
143060,-133.333333333333,4,2,1,40,0,0
144060,-133.333333333333,4,2,1,30,0,0
145060,-133.333333333333,4,2,1,25,0,0
147060,-133.333333333333,4,2,1,40,0,0
147435,-133.333333333333,4,2,1,25,0,0
149060,-133.333333333333,4,2,1,40,0,0
150060,-133.333333333333,4,2,1,25,0,0
152060,-133.333333333333,4,2,1,20,0,0
158060,461.538461538462,4,2,1,20,1,0
159906,-200,4,2,1,20,0,0
161799,461.538461538462,4,2,1,30,1,0
161799,-83.3333333333333,4,2,1,30,0,0
191106,-83.3333333333333,4,2,1,20,0,0
191337,-83.3333333333333,4,2,1,30,0,0
195029,-83.3333333333333,4,2,1,15,0,0
205875,-83.3333333333333,4,2,1,30,0,0
206106,-125,4,2,1,25,0,0
220875,-71.4285714285714,4,2,1,35,0,0
250183,-71.4285714285714,4,2,1,25,0,0
250414,-71.4285714285714,4,2,1,35,0,0
265183,-125,4,2,1,25,0,0
287747,566.037735849057,4,2,1,35,1,0
287747,-62.5,4,2,1,35,0,0
287888,-62.5,4,2,1,30,0,0
305860,-58.8235294117647,4,2,1,40,0,0
323124,-41.6666666666667,4,2,1,50,0,0
323690,-33.3333333333333,4,2,1,50,0,0
323902,-45.4545454545455,4,2,1,5,0,0
323973,-35.7142857142857,4,2,1,50,0,0
330765,-35.7142857142857,4,2,1,40,0,0
333030,-35.7142857142857,4,2,1,50,0,0
339822,-35.7142857142857,4,2,1,40,0,0
342086,-35.7142857142857,4,2,1,50,0,0
348879,-35.7142857142857,4,2,1,40,0,0
351143,-33.3333333333333,4,2,1,55,0,0
357935,-33.3333333333333,4,2,1,45,0,0
360199,-29.4117647058824,4,2,1,60,0,0
366992,-29.4117647058824,4,2,1,50,0,0
369256,-28.5714285714286,4,2,1,65,0,0
376048,-28.5714285714286,4,2,1,45,0,0
378313,-55.5555555555556,4,2,1,40,0,0
392747,-71.4285714285714,4,2,1,35,0,0
393596,-100,4,2,1,30,0,0
394162,-100,4,2,1,25,0,0
396426,-83.3333333333333,4,2,1,50,0,0
405482,-83.3333333333333,4,2,1,45,0,0
414539,-83.3333333333333,4,2,1,40,0,0
423596,-83.3333333333333,4,2,1,35,0,0
432652,535.714285714286,4,2,1,50,1,0
434794,476.190476190476,4,2,1,50,1,0
446698,-100,4,2,1,5,0,0
450016,476.190476190476,4,2,1,50,1,0
450016,-66.6666666666667,4,2,1,50,0,0
472158,-66.6666666666667,4,2,1,40,0,0
472873,-62.5,4,2,1,50,0,0
495730,-66.6666666666667,4,2,1,50,0,0
522873,-66.6666666666667,4,2,1,5,0,0
526206,-50,4,2,1,35,0,0
539539,-50,4,2,1,25,0,0
541444,-41.6666666666667,4,2,1,40,0,0
571920,-55.5555555555556,4,2,1,50,0,0
587140,476.190476190476,4,2,1,30,1,0
602378,-133.333333333333,4,2,1,35,0,0
603806,-132.890365448505,4,2,1,35,0,0
604282,472.44094488189,4,2,1,35,1,0
606171,468.75,4,2,1,35,1,0
606171,-133.333333333333,4,2,1,35,0,0
608046,465.116279069767,4,2,1,35,1,0
609906,461.538461538462,4,2,1,35,1,0
609906,-133.333333333333,4,2,1,35,0,0
611982,-100,4,2,1,35,0,0
612213,-100,4,2,1,35,0,0
613598,454.545454545455,4,2,1,35,1,0
613825,-133.333333333333,4,2,1,35,0,0
615757,-100,4,2,1,35,0,0
616098,-100,4,2,1,35,0,0
617234,451.127819548872,4,2,1,35,1,0
617234,-133.333333333333,4,2,1,35,0,0
619038,447.761194029851,4,2,1,35,1,0
619038,-133.333333333333,4,2,1,35,0,0
619261,-100,4,2,1,35,0,0
620829,444.444444444444,4,2,1,35,1,0
620829,-133.333333333333,4,2,1,35,0,0
622829,-100,4,2,1,35,0,0
624384,441.176470588235,4,2,1,15,1,0
624384,-1000,4,2,1,15,0,0
634972,-66.6666666666667,4,2,1,40,0,0
641148,-50,4,2,1,40,0,0
642031,-66.6666666666667,4,2,1,40,0,0
649089,-66.6666666666667,4,2,1,40,0,0
673795,-55.5555555555556,4,2,1,40,0,0
679972,-40,4,2,1,40,0,0
680854,-55.5555555555556,4,2,1,40,0,0
687031,-40,4,2,1,40,0,0
687472,-33.3333333333333,4,2,1,40,0,0
687913,-62.5,4,2,1,40,0,0
701148,-45.4545454545455,4,2,1,40,0,0
701589,-37.037037037037,4,2,1,40,0,0
702031,-71.4285714285714,4,2,1,40,0,0
716148,-37.037037037037,4,2,1,40,0,0
729973,535.714285714286,4,2,1,50,1,0
738544,535.714285714286,4,2,1,70,1,1
738544,-50,4,2,1,70,0,1
739615,-44.4444444444445,4,2,1,70,0,1
740686,-50,4,2,1,70,0,1
741892,-50,4,2,1,55,0,1
742026,-50,4,2,1,70,0,1
744704,-50,4,2,1,40,0,1
744972,-50,4,2,1,70,0,1
762115,-44.4444444444445,4,2,1,70,0,1
762182,-50,4,2,1,70,0,1
770151,-57.1428571428571,4,2,1,55,0,1
770686,-50,4,2,1,70,0,1
772829,-66.6666666666667,4,2,1,50,0,0
774972,-66.6666666666667,4,2,1,45,0,0
777115,-66.6666666666667,4,2,1,40,0,0
779258,-66.6666666666667,4,2,1,35,0,0
780329,-66.6666666666667,4,2,1,30,0,0
807537,344.827586206897,4,2,1,50,1,0
815812,342.857142857143,4,2,1,65,1,0
815812,-58.8235294117647,4,2,1,65,0,0
837754,-58.8235294117647,4,2,1,70,0,0
854212,-100,4,2,1,65,0,0
854469,-58.8235294117647,4,2,1,65,0,0
876669,-55.5555555555556,4,2,1,70,0,0
878897,-52.6315789473684,4,2,1,75,0,0
880269,-50,4,2,1,80,0,0
881640,-200,4,2,1,65,0,0
881662,-200,4,2,2,65,0,0
881683,-200,4,2,1,15,0,0
884212,-66.6666666666667,4,2,1,30,0,0
884297,-66.6666666666667,4,2,1,45,0,0
884383,-58.8235294117647,4,2,1,65,0,0
903583,-58.8235294117647,4,2,1,35,0,0

[Colours]
Combo1 : 186,214,205
Combo2 : 182,57,249
Combo3 : 147,211,215
Combo4 : 255,119,244

[HitObjects]
26,65,63060,5,8,0:0:0:0:
26,65,64060,6,0,P|58:41|115:33,1,80,4|0,0:3|0:0,0:0:0:0:
96,31,64435,1,0,0:0:0:0:
96,31,64560,1,2,0:0:0:0:
85,151,64810,1,0,0:0:0:0:
85,151,64935,1,0,0:0:0:0:
85,151,65060,2,0,P|149:152|206:199,1,120,8|0,0:0|0:0,0:0:0:0:
194,182,65560,1,2,0:0:0:0:
495,9,66060,6,0,L|502:115,1,80,2|0,0:0|0:0,0:0:0:0:
500,88,66435,1,0,0:0:0:0:
500,88,66560,1,2,0:0:0:0:
407,54,66810,1,4,0:3:0:0:
268,129,67060,2,0,L|261:248,1,120,8|0,0:0|0:0,0:0:0:0:
261,248,67560,1,2,0:0:0:0:
177,187,67810,1,0,0:0:0:0:
177,187,67935,1,0,0:0:0:0:
177,187,68060,6,0,P|115:188|61:227,1,120,4|0,0:3|0:0,0:0:0:0:
67,218,68560,1,2,0:0:0:0:
154,283,68810,1,0,0:0:0:0:
154,283,68935,1,0,0:0:0:0:
154,283,69060,2,0,L|163:391,1,80,8|0,0:0|0:0,0:0:0:0:
160,362,69435,1,0,0:0:0:0:
160,362,69560,1,2,0:0:0:0:
400,185,70060,6,0,L|405:131,3,40,2|0|0|0,0:0|0:0|0:0|0:0,0:0:0:0:
403,145,70560,1,2,0:0:0:0:
307,162,70810,1,4,0:3:0:0:
432,299,71060,2,0,P|347:254|309:261,1,120,8|0,0:0|0:0,0:0:0:0:
327,255,71560,1,2,0:0:0:0:
246,301,71810,1,0,0:0:0:0:
246,301,71935,1,0,0:0:0:0:
246,301,72060,6,0,L|149:310,1,80,4|0,0:3|0:0,0:0:0:0:
166,308,72435,1,0,0:0:0:0:
166,308,72560,1,2,0:0:0:0:
89,265,72810,1,0,0:0:0:0:
89,265,72935,1,0,0:0:0:0:
89,265,73060,2,0,P|84:189|115:139,1,120,8|0,0:0|0:0,0:0:0:0:
103,151,73560,1,2,0:0:0:0:
417,53,74060,6,0,P|377:51|333:71,1,80,2|0,0:0|0:0,0:0:0:0:
340,65,74435,1,0,0:0:0:0:
340,65,74560,1,2,0:0:0:0:
297,189,74810,1,4,0:3:0:0:
494,202,75060,2,0,P|465:173|372:164,1,120,8|0,0:0|0:0,0:0:0:0:
389,158,75560,1,2,0:0:0:0:
419,260,75810,1,0,0:0:0:0:
419,260,75935,1,0,0:0:0:0:
419,260,76060,6,0,L|430:384,1,120,4|0,0:3|0:0,0:0:0:0:
429,379,76560,1,2,0:0:0:0:
328,333,76810,1,0,0:0:0:0:
328,333,76935,1,0,0:0:0:0:
328,333,77060,2,0,P|210:307|197:288,1,120,8|0,0:0|0:0,0:0:0:0:
216,313,77560,1,2,0:0:0:0:
188,113,78060,6,0,L|192:43,3,40,2|0|0|0,0:0|0:0|0:0|0:0,0:0:0:0:
190,73,78560,2,0,P|187:29|170:-6,2,80,2|0|2,0:0|0:0|0:0,0:0:0:0:
190,73,80060,6,0,B|92:52|111:109|17:85,1,170.000003242493,4|2,0:3|0:0,0:0:0:0:
151,159,80810,1,4,0:3:0:0:
151,159,80935,1,0,0:0:0:0:
151,159,81060,1,8,0:0:0:0:
74,206,81310,1,0,0:0:0:0:
113,288,81560,2,0,P|180:264|256:274,1,127.50000243187,2|0,0:0|0:0,0:0:0:0:
235,267,82060,6,0,P|310:292|330:290,1,85.0000016212464,2|0,0:0|0:0,0:0:0:0:
383,173,82560,2,0,P|341:178|303:197,1,85.0000016212464,2|4,0:0|0:3,0:0:0:0:
476,355,83060,2,0,L|463:213,1,127.50000243187,8|0,0:0|0:0,0:0:0:0:
464,228,83560,1,2,0:0:0:0:
492,140,83810,1,0,0:0:0:0:
492,140,83935,1,0,0:0:0:0:
492,140,84060,6,0,P|430:77|336:64,1,170.000003242493,4|2,0:3|0:0,0:0:0:0:
268,95,84810,1,0,0:0:0:0:
268,95,84935,1,0,0:0:0:0:
268,95,85060,1,8,0:0:0:0:
4,30,85560,2,0,L|11:124,1,85.0000016212464,2|0,0:0|0:0,0:0:0:0:
10,114,85935,1,0,0:0:0:0:
10,114,86060,6,0,B|107:91|72:148|196:120,1,170.000003242493,2|2,0:0|0:0,0:0:0:0:
324,193,86810,1,4,0:3:0:0:
324,193,86935,1,0,0:0:0:0:
324,193,87060,2,0,P|243:197|198:235,1,127.50000243187,8|0,0:0|0:0,0:0:0:0:
206,222,87560,1,2,0:0:0:0:
116,243,87810,1,0,0:0:0:0:
116,243,87935,1,0,0:0:0:0:
116,243,88060,6,0,P|197:260|255:321,1,170.000003242493,4|2,0:3|0:0,0:0:0:0:
370,281,88810,1,4,0:3:0:0:
370,281,88935,1,0,0:0:0:0:
370,281,89060,1,8,0:0:0:0:
448,330,89310,1,0,0:0:0:0:
505,263,89560,2,0,L|512:170,1,85.0000016212464,2|0,0:0|0:0,0:0:0:0:
512,179,89935,1,0,0:0:0:0:
512,179,90060,6,0,P|462:175|408:149,1,85.0000016212464,2|0,0:0|0:0,0:0:0:0:
355,99,90560,1,2,0:0:0:0:
244,191,90810,1,4,0:3:0:0:
106,148,91060,2,0,P|73:84|83:8,1,127.50000243187,8|0,0:0|0:0,0:0:0:0:
75,30,91560,1,2,0:0:0:0:
170,69,91810,1,0,0:0:0:0:
170,69,91935,1,0,0:0:0:0:
170,69,92060,6,0,B|263:88|235:29|359:59,1,170.000003242493,4|2,0:3|0:0,0:0:0:0:
309,150,92810,1,4,0:3:0:0:
309,150,92935,1,0,0:0:0:0:
309,150,93060,1,8,0:0:0:0:
492,288,93560,1,2,0:0:0:0:
414,342,93810,1,0,0:0:0:0:
414,342,93935,1,0,0:0:0:0:
414,342,94060,6,0,P|357:338|305:362,1,110.000003356934,2|2,0:0|0:0,0:0:0:0:
310,360,95060,2,0,L|300:247,1,104.999996795654,8|0,0:0|0:0,0:0:0:0:
300,255,95560,1,2,0:0:0:0:
214,319,95810,1,0,0:0:0:0:
83,194,96060,6,0,P|139:179|205:210,1,127.50000243187,4|0,0:3|0:0,0:0:0:0:
200,205,96560,1,2,0:0:0:0:
240,51,96810,1,4,0:3:0:0:
240,51,96935,1,0,0:0:0:0:
240,51,97060,2,0,P|282:97|288:159,1,127.50000243187,8|0,0:0|0:0,0:0:0:0:
288,159,97560,2,0,L|381:152,1,85.0000016212464,2|0,0:0|0:0,0:0:0:0:
372,152,97935,1,0,0:0:0:0:
372,152,98060,5,2,0:0:0:0:
463,225,98310,1,0,0:0:0:0:
463,225,98435,1,0,0:0:0:0:
463,225,98560,1,2,0:0:0:0:
371,256,98810,1,4,0:3:0:0:
511,383,99060,2,0,P|439:351|379:360,1,127.50000243187,8|0,0:0|0:0,0:0:0:0:
393,356,99560,2,0,P|298:369|273:361,1,85.0000016212464,2|0,0:0|0:0,0:0:0:0:
310,371,99935,1,0,0:0:0:0:
310,371,100060,6,0,L|161:355,1,127.50000243187,4|0,0:3|0:0,0:0:0:0:
183,357,100560,1,2,0:0:0:0:
113,304,100810,1,4,0:3:0:0:
113,304,100935,1,0,0:0:0:0:
113,304,101060,2,0,P|119:246|88:177,1,127.50000243187,8|0,0:0|0:0,0:0:0:0:
93,183,101560,1,2,0:0:0:0:
215,228,101810,1,0,0:0:0:0:
215,228,101935,1,0,0:0:0:0:
215,228,102060,6,0,L|281:220,3,42.5000008106232,2|0|0|0,0:0|0:0|0:0|0:0,0:0:0:0:
257,222,102560,1,2,0:0:0:0:
229,137,102810,1,4,0:3:0:0:
263,329,103060,2,0,P|291:283|368:261,1,127.50000243187,8|0,0:0|0:0,0:0:0:0:
358,259,103560,2,0,L|456:271,1,85.0000016212464,2|0,0:0|0:0,0:0:0:0:
442,270,103935,1,0,0:0:0:0:
442,270,104060,6,0,P|480:210|470:120,1,127.50000243187,4|0,0:3|0:0,0:0:0:0:
482,155,104560,1,2,0:0:0:0:
408,99,104810,1,4,0:3:0:0:
408,99,104935,1,0,0:0:0:0:
408,99,105060,2,0,L|266:116,1,127.50000243187,8|0,0:0|0:0,0:0:0:0:
281,114,105560,1,2,0:0:0:0:
207,63,105810,1,0,0:0:0:0:
207,63,105935,1,0,0:0:0:0:
207,63,106060,6,0,P|189:119|203:166,1,85.0000016212464,2|0,0:0|0:0,0:0:0:0:
192,143,106435,1,0,0:0:0:0:
192,143,106560,1,2,0:0:0:0:
285,118,106810,1,4,0:3:0:0:
105,170,107060,2,0,P|124:210|208:244,1,127.50000243187,8|0,0:0|0:0,0:0:0:0:
196,244,107560,1,2,0:0:0:0:
175,370,107810,1,0,0:0:0:0:
175,370,107935,1,0,0:0:0:0:
175,370,108060,6,0,P|233:340|327:357,1,127.50000243187,4|0,0:3|0:0,0:0:0:0:
293,342,108560,1,2,0:0:0:0:
365,276,108810,1,4,0:3:0:0:
365,276,108935,1,0,0:0:0:0:
365,276,109060,2,0,L|376:137,1,127.50000243187,8|0,0:0|0:0,0:0:0:0:
375,148,109560,2,0,P|420:113|477:105,1,85.0000016212464,2|0,0:0|0:0,0:0:0:0:
446,106,109935,1,0,0:0:0:0:
446,106,110060,6,0,L|453:170,3,42.5000008106232,2|0|0|0,0:0|0:0|0:0|0:0,0:0:0:0:
450,148,110560,2,0,L|457:212,3,42.5000008106232,2|0|0|0,0:0|0:0|0:0|0:0,0:0:0:0:
454,190,111060,2,0,L|468:316,1,110.000003356934,2|2,0:0|0:0,0:0:0:0:
429,384,111810,1,0,0:0:0:0:
207,265,112060,6,0,P|273:268|353:339,1,170.000003242493,4|2,0:3|0:0,0:0:0:0:
296,182,112810,1,4,0:3:0:0:
296,182,112935,1,0,0:0:0:0:
296,182,113060,2,0,P|325:115|321:72,1,85.0000016212464,8|0,0:0|0:0,0:0:0:0:
136,29,113560,2,0,L|144:113,1,85.0000016212464,2|0,0:0|0:0,0:0:0:0:
144,113,113935,1,0,0:0:0:0:
144,113,114060,5,2,0:0:0:0:
62,156,114310,1,0,0:0:0:0:
80,247,114560,1,2,0:0:0:0:
0,289,114810,1,4,0:3:0:0:
0,289,114935,1,0,0:0:0:0:
0,289,115060,2,0,P|69:295|123:344,1,127.50000243187,8|0,0:0|0:0,0:0:0:0:
113,329,115560,1,2,0:0:0:0:
188,272,115810,1,0,0:0:0:0:
188,272,115935,1,0,0:0:0:0:
188,272,116060,6,0,P|250:268|285:253,1,85.0000016212464,4|0,0:3|0:0,0:0:0:0:
338,194,116560,1,2,0:0:0:0:
402,321,116810,1,4,0:3:0:0:
402,321,116935,1,0,0:0:0:0:
402,321,117060,2,0,P|419:278|415:211,1,85.0000016212464,8|0,0:0|0:0,0:0:0:0:
270,87,117560,2,0,P|312:89|351:106,1,85.0000016212464,2|0,0:0|0:0,0:0:0:0:
351,106,117935,1,0,0:0:0:0:
351,106,118060,6,0,B|446:119|417:64|547:95,1,170.000003242493,2|2,0:0|0:0,0:0:0:0:
376,15,118810,1,4,0:3:0:0:
376,15,118935,1,0,0:0:0:0:
376,15,119060,1,8,0:0:0:0:
483,177,119310,2,0,L|488:231,2,42.5000008106232,2|0|2,0:0|0:0|0:0,0:0:0:0:
314,193,119810,1,0,0:0:0:0:
314,193,119935,1,0,0:0:0:0:
314,193,120060,6,0,P|212:207|153:285,1,170.000003242493,4|2,0:3|0:0,0:0:0:0:
189,354,120810,1,4,0:3:0:0:
189,354,120935,1,0,0:0:0:0:
189,354,121060,1,8,0:0:0:0:
54,139,121560,2,0,L|60:236,1,85.0000016212464,2|0,0:0|0:0,0:0:0:0:
59,223,121935,1,0,0:0:0:0:
59,223,122060,5,2,0:0:0:0:
256,192,125310,12,0,127935,0:0:0:0:
456,351,128060,6,0,P|399:344|319:320,1,129.999994049073,4|0,0:3|0:0,0:0:0:0:
329,324,128810,1,4,0:3:0:0:
246,362,129060,2,0,P|192:338|135:293,1,115.000002193451,8|0,0:0|0:0,0:0:0:0:
147,304,130060,6,0,P|145:251|132:193,1,110.000003356934,2|0,0:0|0:0,0:0:0:0:
132,195,130810,1,4,0:3:0:0:
47,274,131060,2,0,P|96:282|147:304,1,104.999996795654,8|0,0:0|0:0,0:0:0:0:
146,303,132060,6,0,P|201:297|259:282,1,100,4|0,0:3|0:0,0:0:0:0:
244,286,132810,1,4,0:3:0:0:
322,341,133060,2,0,P|371:315|419:280,1,100,8|0,0:0|0:0,0:0:0:0:
407,290,134060,6,0,P|392:235|388:180,1,100,2|0,0:0|0:0,0:0:0:0:
388,192,134810,1,4,0:3:0:0:
494,320,135060,1,8,0:0:0:0:
494,320,135310,1,8,0:0:0:0:
407,290,135560,1,2,0:0:0:0:
407,290,136060,6,0,P|359:304|291:313,1,100,4|0,0:3|0:0,0:0:0:0:
309,311,136810,1,4,0:3:0:0:
221,260,137060,2,0,P|170:244|108:240,1,100,8|0,0:0|0:0,0:0:0:0:
123,239,138060,6,0,P|101:286|95:344,1,100,2|0,0:0|0:0,0:0:0:0:
94,333,138810,1,4,0:3:0:0:
55,207,139060,2,0,P|86:226|133:241,1,75,8|8,0:0|0:0,0:0:0:0:
122,238,140060,6,0,L|279:224,1,150.000005722046,4|8,0:3|0:0,0:0:0:0:
271,224,142060,1,2,0:0:0:0:
271,224,143060,2,8,L|319:219,1,37.5000014305115
474,151,144060,6,0,L|317:137,1,150.000005722046,4|8,0:3|0:0,0:0:0:0:
325,137,146060,1,2,0:0:0:0:
325,137,147060,2,8,L|263:131,1,56.2500021457673
57,88,148060,6,0,L|214:74,1,150.000005722046,4|8,0:3|0:0,0:0:0:0:
206,74,150060,1,2,0:0:0:0:
157,65,152060,6,0,B|260:63|273:128|319:113|323:77|291:69|291:69|251:66|259:137|291:160,1,300.000011444092,2|0,0:0|0:0,0:0:0:0:
284,154,156060,6,0,B|278:230|214:254|168:239|164:203|196:195|196:195|236:192|228:263|190:279,1,300.000011444092,2|0,0:0|0:0,0:0:0:0:
189,279,159906,5,2,0:0:0:0:
181,108,161799,6,0,P|212:117|252:119,1,59.9999981689454,8|0,0:3|0:0,0:0:0:0:
254,116,162145,1,4,0:3:0:0:
268,113,162260,1,0,0:0:0:0:
343,134,162491,1,4,0:3:0:0:
419,160,162722,1,2,0:0:0:0:
419,160,162952,2,0,P|363:171|299:207,1,119.999996337891,2|0,0:0|0:0,0:0:0:0:
385,297,163645,6,0,P|352:263|222:208,1,179.999994506836,4|0,0:3|0:0,0:0:0:0:
206,284,164568,1,2,0:0:0:0:
206,284,164799,2,0,P|192:216|163:167,1,119.999996337891,2|0,0:0|0:0,0:0:0:0:
60,147,165491,5,8,0:3:0:0:
99,217,165722,2,0,P|97:238|89:257,2,29.9999990844727,0|4|0,0:0|0:3|0:0,0:0:0:0:
60,147,166183,1,4,0:3:0:0:
24,79,166414,1,2,0:0:0:0:
24,79,166645,1,2,0:0:0:0:
248,96,167106,1,2,0:0:0:0:
248,96,167337,5,4,0:3:0:0:
216,167,167568,1,0,0:0:0:0:
287,199,167799,1,0,0:0:0:0:
319,128,168029,1,4,0:3:0:0:
233,130,168260,5,2,0:0:0:0:
305,160,168491,1,2,0:0:0:0:
267,145,168952,1,4,0:3:0:0:
300,274,169183,6,0,P|265:284|234:288,1,59.9999981689454,8|0,0:3|0:0,0:0:0:0:
226,286,169529,1,4,0:3:0:0:
211,283,169645,1,0,0:0:0:0:
152,231,169875,1,4,0:3:0:0:
150,152,170106,1,2,0:0:0:0:
150,152,170337,2,0,P|162:103|164:32,1,119.999996337891,2|0,0:0|0:0,0:0:0:0:
152,231,171029,6,0,P|135:160|81:67,1,179.999994506836,4|0,0:3|0:0,0:0:0:0:
110,143,171952,1,2,0:0:0:0:
110,143,172183,2,0,P|62:107|5:87,1,119.999996337891,2|0,0:0|0:0,0:0:0:0:
72,233,172875,5,8,0:3:0:0:
150,220,173106,1,0,0:0:0:0:
162,227,173222,1,4,0:3:0:0:
172,237,173337,1,0,0:0:0:0:
120,292,173568,1,4,0:3:0:0:
172,358,173799,1,2,0:0:0:0:
172,358,174030,1,2,0:0:0:0:
386,253,174491,1,2,0:0:0:0:
386,253,174722,5,4,0:3:0:0:
424,189,174952,1,0,0:0:0:0:
424,113,175183,1,0,0:0:0:0:
386,48,175414,1,4,0:3:0:0:
415,186,175645,5,2,0:0:0:0:
432,111,175875,1,2,0:0:0:0:
424,151,176337,1,4,0:3:0:0:
274,189,176568,6,0,P|244:147|237:122,1,59.9999981689454,8|0,0:3|0:0,0:0:0:0:
239,124,176914,1,4,0:3:0:0:
237,109,177029,1,0,0:0:0:0:
261,34,177260,1,4,0:3:0:0:
190,4,177491,1,2,0:0:0:0:
190,4,177722,2,0,P|136:38|100:90,1,119.999996337891,2|0,0:0|0:0,0:0:0:0:
25,15,178414,6,0,P|57:101|140:169,1,179.999994506836,4|0,0:3|0:0,0:0:0:0:
93,233,179337,1,2,0:0:0:0:
93,233,179568,2,0,P|137:199|217:174,1,119.999996337891,2|0,0:0|0:0,0:0:0:0:
212,177,180145,1,0,0:0:0:0:
226,180,180260,5,8,0:3:0:0:
292,220,180491,2,0,P|292:238|297:258,2,29.9999990844727,0|4|0,0:0|0:3|0:0,0:0:0:0:
332,157,180952,1,4,0:3:0:0:
376,94,181183,1,2,0:0:0:0:
376,94,181414,1,2,0:0:0:0:
374,328,181875,1,2,0:0:0:0:
374,328,182106,5,4,0:3:0:0:
322,266,182337,1,0,0:0:0:0:
247,288,182568,1,0,0:0:0:0:
186,240,182799,1,4,0:3:0:0:
324,260,183029,5,2,0:0:0:0:
246,293,183260,1,2,0:0:0:0:
286,277,183722,1,4,0:3:0:0:
206,138,183952,6,0,P|174:146|141:164,1,59.9999981689454,8|0,0:3|0:0,0:0:0:0:
140,169,184299,1,4,0:3:0:0:
132,181,184414,1,0,0:0:0:0:
94,244,184645,1,4,0:3:0:0:
50,308,184875,1,2,0:0:0:0:
50,308,185106,2,0,P|109:284|171:275,1,119.999996337891,2|0,0:0|0:0,0:0:0:0:
100,384,185799,6,0,P|149:331|252:276,1,179.999994506836,4|0,0:3|0:0,0:0:0:0:
273,357,186722,1,2,0:0:0:0:
273,357,186952,2,0,P|293:284|330:230,1,119.999996337891,2|0,0:0|0:0,0:0:0:0:
414,182,187645,5,4,0:3:0:0:
358,133,187875,1,0,0:0:0:0:
352,118,187991,1,4,0:3:0:0:
352,103,188106,1,0,0:0:0:0:
385,36,188337,1,4,0:3:0:0:
314,5,188568,1,2,0:0:0:0:
314,5,188799,1,2,0:0:0:0:
274,73,189029,2,0,P|245:82|206:103,1,59.9999981689454
107,202,189491,5,4,0:3:0:0:
179,236,189722,1,0,0:0:0:0:
224,176,189952,1,0,0:0:0:0:
179,236,190183,1,4,0:3:0:0:
155,141,190414,5,2,0:0:0:0:
135,66,190645,1,2,0:0:0:0:
126,107,191106,1,4,0:3:0:0:
140,103,191222,1,4,0:3:0:0:
154,100,191337,1,8,0:3:0:0:
154,100,195029,5,2,0:0:0:0:
154,100,196875,1,2,0:0:0:0:
154,100,198722,1,2,0:0:0:0:
415,106,202414,5,2,0:0:0:0:
415,106,204260,1,2,0:0:0:0:
424,30,205875,1,2,0:0:0:0:
415,106,206106,6,8,P|453:102|482:80,2,60,8|8|8,0:3|0:3|0:3,0:3:0:0:
424,30,207029,1,8,0:3:0:0:
370,168,209799,6,8,P|410:183|441:179,2,60,8|8|8,0:3|0:3|0:3,0:3:0:0:
415,106,210722,1,8,0:3:0:0:
301,200,211645,6,8,P|325:229|357:240,2,60,8|8|8,0:3|0:3|0:3,0:3:0:0:
370,168,212568,1,8,0:3:0:0:
226,194,213491,6,8,P|231:230|257:260,2,60,8|8|8,0:3|0:3|0:3,0:3:0:0:
301,200,214414,1,8,0:3:0:0:
166,149,217183,6,8,P|150:183|156:220,2,60,8|8|8,0:3|0:3|0:3,0:3:0:0:
226,194,218106,1,8,0:3:0:0:
133,77,219029,6,8,P|102:99|88:134,2,60,8|8|8,0:3|0:3|0:3,0:3:0:0:
166,149,220875,6,0,P|216:135|241:119,1,69.9999978637696,8|0,0:3|0:0,0:0:0:0:
243,113,221222,1,4,0:3:0:0:
251,97,221337,1,0,0:0:0:0:
281,185,221568,1,4,0:3:0:0:
353,120,221799,1,2,0:0:0:0:
353,120,222029,2,0,P|326:184|318:266,1,139.999995727539,2|0,0:0|0:0,0:0:0:0:
451,316,222722,6,0,P|394:299|353:296,1,69.9999978637696,4|0,0:3|0:0,0:0:0:0:
279,322,223183,1,0,0:0:0:0:
343,369,223414,1,0,0:0:0:0:
210,356,223645,1,2,0:0:0:0:
210,356,223875,2,0,P|240:298|259:214,1,139.999995727539,2|0,0:0|0:0,0:0:0:0:
236,107,224568,5,8,0:3:0:0:
197,175,224799,1,0,0:0:0:0:
180,179,224914,1,4,0:3:0:0:
163,183,225029,1,0,0:0:0:0:
85,203,225260,1,4,0:3:0:0:
176,266,225491,1,2,0:0:0:0:
176,266,225722,1,2,0:0:0:0:
134,48,226183,1,2,0:0:0:0:
70,94,226414,5,4,0:3:0:0:
134,48,226645,1,0,0:0:0:0:
70,94,226875,1,0,0:0:0:0:
143,127,227106,1,4,0:3:0:0:
94,61,227337,5,2,0:0:0:0:
143,127,227568,1,2,0:0:0:0:
198,193,227799,1,2,0:0:0:0:
198,193,228029,1,4,0:3:0:0:
284,107,228260,6,0,P|319:90|353:82,1,69.9999978637696,8|0,0:3|0:0,0:0:0:0:
366,85,228606,1,4,0:3:0:0:
382,89,228722,1,0,0:0:0:0:
439,138,228952,1,4,0:3:0:0:
494,196,229183,1,2,0:0:0:0:
494,196,229414,2,0,P|441:182|343:180,1,139.999995727539,2|0,0:0|0:0,0:0:0:0:
469,273,230106,6,0,P|417:228|400:219,1,69.9999978637696,4|0,0:3|0:0,0:0:0:0:
283,208,230568,1,0,0:0:0:0:
345,256,230799,1,0,0:0:0:0:
355,177,231029,1,2,0:0:0:0:
283,208,231260,2,0,P|199:197|139:177,1,139.999995727539,2|0,0:0|0:0,0:0:0:0:
131,171,231837,1,0,0:0:0:0:
117,160,231952,5,8,0:3:0:0:
177,110,232183,1,0,0:0:0:0:
194,106,232299,1,4,0:3:0:0:
209,97,232414,1,0,0:0:0:0:
159,36,232645,1,4,0:3:0:0:
232,3,232875,1,2,0:0:0:0:
232,3,233106,1,2,0:0:0:0:
419,177,233568,1,2,0:0:0:0:
378,114,233799,5,4,0:3:0:0:
327,170,234029,1,0,0:0:0:0:
253,191,234260,1,0,0:0:0:0:
180,170,234491,1,4,0:3:0:0:
329,174,234722,5,2,0:0:0:0:
256,196,234952,1,2,0:0:0:0:
276,125,235183,1,2,0:0:0:0:
287,167,235414,1,4,0:3:0:0:
156,247,235645,6,0,P|112:211|94:188,1,69.9999978637696,8|0,0:3|0:0,0:0:0:0:
96,184,235991,1,4,0:3:0:0:
92,166,236106,1,0,0:0:0:0:
111,89,236337,1,4,0:3:0:0:
51,40,236568,1,2,0:0:0:0:
51,40,236799,2,0,P|118:63|194:70,1,139.999995727539,2|0,0:0|0:0,0:0:0:0:
313,148,237491,6,0,P|283:129|256:106,1,69.9999978637696,4|0,0:3|0:0,0:0:0:0:
236,9,237952,1,0,0:0:0:0:
305,46,238183,1,0,0:0:0:0:
381,30,238414,1,2,0:0:0:0:
381,30,238645,2,0,P|463:48|473:53,1,69.9999978637696,2|0,0:0|0:0,0:0:0:0:
460,120,239106,1,0,0:3:0:0:
452,136,239221,1,0,0:0:0:0:
440,150,239337,5,8,0:3:0:0:
366,177,239568,1,0,0:0:0:0:
348,174,239684,1,4,0:3:0:0:
332,166,239799,2,0,P|281:188|256:206,1,69.9999978637696,0|4,0:0|0:3,0:0:0:0:
244,314,240260,1,2,0:0:0:0:
306,265,240491,1,2,0:0:0:0:
103,217,240952,1,2,0:0:0:0:
174,243,241183,5,4,0:3:0:0:
200,172,241414,1,0,0:0:0:0:
223,99,241645,1,0,0:0:0:0:
246,26,241875,1,4,0:3:0:0:
174,124,242106,5,2,0:0:0:0:
248,149,242337,1,2,0:0:0:0:
223,99,242568,1,2,0:0:0:0:
200,173,242799,1,4,0:3:0:0:
366,162,243029,6,0,P|360:120|346:93,1,69.9999978637696,8|0,0:3|0:0,0:0:0:0:
337,81,243375,1,4,0:3:0:0:
323,69,243491,1,0,0:0:0:0:
371,11,243722,1,4,0:3:0:0:
445,47,243952,1,2,0:0:0:0:
445,47,244183,2,0,P|451:119|480:189,1,139.999995727539,2|0,0:0|0:0,0:0:0:0:
378,156,244875,6,0,P|368:203|370:242,1,69.9999978637696,4|0,0:3|0:0,0:0:0:0:
419,325,245337,1,0,0:0:0:0:
442,252,245568,1,0,0:0:0:0:
343,298,245799,1,2,0:0:0:0:
343,298,246029,2,0,P|280:288|195:285,1,139.999995727539,2|0,0:0|0:0,0:0:0:0:
87,329,246722,5,4,0:3:0:0:
128,264,246952,1,0,0:0:0:0:
132,247,247068,1,4,0:3:0:0:
136,230,247183,1,0,0:0:0:0:
194,180,247414,1,4,0:3:0:0:
141,123,247645,2,0,P|123:89|111:53,1,69.9999978637696,2|2,0:0|0:0,0:0:0:0:
197,63,248106,2,0,P|208:30|225:0,1,69.9999978637696
254,113,248568,5,4,0:3:0:0:
329,102,248799,1,0,0:0:0:0:
395,138,249029,1,0,0:0:0:0:
418,209,249260,1,4,0:3:0:0:
278,190,249491,5,2,0:0:0:0:
344,227,249722,1,2,0:0:0:0:
344,150,249952,1,2,0:0:0:0:
296,234,250183,1,4,0:3:0:0:
287,249,250299,1,4,0:3:0:0:
278,264,250414,1,8,0:3:0:0:
97,66,265183,6,0,L|183:57,1,80,2|0,0:0|0:0,0:0:0:0:
97,66,266106,2,0,L|50:61,2,40
176,57,267491,5,2,0:0:0:0:
97,66,267952,2,0,L|50:61,2,40
415,66,268875,6,0,L|329:57,1,80,2|0,0:0|0:0,0:0:0:0:
415,66,269799,2,0,L|462:61,2,40
336,57,270722,5,2,0:0:0:0:
336,57,271183,1,0,0:0:0:0:
415,66,271645,2,0,L|462:61,2,40
97,318,272568,6,0,L|183:327,1,80,2|0,0:0|0:0,0:0:0:0:
97,318,273491,2,0,L|50:323,2,40
176,327,274414,5,2,0:0:0:0:
176,327,274875,1,0,0:0:0:0:
97,318,275337,2,0,L|50:323,2,40
415,318,276260,6,0,L|329:327,1,80,2|0,0:0|0:0,0:0:0:0:
415,318,277183,2,0,L|462:323,2,40
336,327,278106,5,2,0:0:0:0:
336,327,278568,1,0,0:0:0:0:
415,318,279029,2,0,L|462:323,2,40
218,154,279952,5,2,0:0:0:0:
294,154,280414,1,0,0:0:0:0:
294,230,280875,1,0,0:0:0:0:
218,230,281337,1,0,0:0:0:0:
256,119,282260,5,2,0:0:0:0:
256,265,282722,1,0,0:0:0:0:
329,191,283183,1,0,0:0:0:0:
183,192,283645,1,0,0:0:0:0:
256,192,284568,12,0,287683,0:0:0:0:
55,246,287747,6,0,P|123:235|145:215,1,80,4|2,0:1|0:0,0:0:0:0:
193,346,288313,2,0,P|153:346|117:329,1,80,2|2,0:0|0:0,0:0:0:0:
117,329,290011,6,0,P|153:346|193:346,1,80,2|2,0:0|0:0,0:0:0:0:
130,229,290577,2,0,P|94:246|55:246,1,80,2|2,0:0|0:0,0:0:0:0:
98,89,291143,6,0,P|98:128|81:164,1,80,2|2,0:0|0:0,0:0:0:0:
188,90,291709,2,0,P|171:54|171:14,1,80,2|2,0:0|0:0,0:0:0:0:
330,29,292275,6,0,L|243:38,1,80,2|2,0:0|0:0,0:0:0:0:
298,111,292841,1,2,0:0:0:0:
305,113,296803,6,0,P|344:112|380:129,1,80,2|2,0:0|0:0,0:0:0:0:
443,19,297369,2,0,P|403:18|367:35,1,80,2|2,0:0|0:0,0:0:0:0:
367,35,299067,6,0,P|402:18|442:18,1,80,2|2,0:0|0:0,0:0:0:0:
380,129,299633,2,0,P|344:112|304:112,1,80,2|2,0:0|0:0,0:0:0:0:
312,266,300199,6,0,P|328:230|328:190,1,80,2|2,0:0|0:0,0:0:0:0:
363,53,300765,2,0,P|362:92|379:128,1,80,2|2,0:0|0:0,0:0:0:0:
495,212,301331,6,0,L|404:205,1,80,2|2,0:0|0:0,0:0:0:0:
458,132,301897,1,2,0:0:0:0:
457,129,303596,5,2,0:0:0:0:
457,129,304728,1,2,0:0:0:0:
82,153,305860,6,0,P|57:193|62:246,1,85.0000016212464,2|2,0:0|0:0,0:0:0:0:
197,110,306426,2,0,P|162:86|120:84,1,85.0000016212464,2|2,0:0|0:0,0:0:0:0:
120,84,308124,6,0,P|162:86|197:110,1,85.0000016212464,2|2,0:0|0:0,0:0:0:0:
56,229,308690,2,0,P|58:187|82:153,1,85.0000016212464,2|2,0:0|0:0,0:0:0:0:
208,232,309256,5,2,0:0:0:0:
132,215,309539,1,2,0:0:0:0:
286,213,309822,5,2,0:0:0:0:
56,230,310105,1,2,0:0:0:0:
361,192,310388,6,0,L|370:89,1,85.0000016212464,2|2,0:0|0:0,0:0:0:0:
442,157,310954,1,2,0:0:0:0:
442,157,312652,1,2,0:0:0:0:
442,157,314916,6,0,P|417:197|422:250,1,85.0000016212464,2|2,0:0|0:0,0:0:0:0:
385,363,315482,2,0,P|382:321|359:286,1,85.0000016212464,2|2,0:0|0:0,0:0:0:0:
359,286,317180,6,0,P|382:320|384:362,1,85.0000016212464,2|2,0:0|0:0,0:0:0:0:
416,233,317747,2,0,P|418:191|442:157,1,85.0000016212464,2|2,0:0|0:0,0:0:0:0:
359,286,318313,5,2,0:0:0:0:
282,274,318596,1,2,0:0:0:0:
416,233,318879,5,2,0:0:0:0:
220,325,319162,1,2,0:0:0:0:
456,163,319445,6,0,L|447:73,1,85.0000016212464,2|2,0:0|0:0,0:0:0:0:
375,127,320011,1,2,0:0:0:0:
375,127,321709,5,2,0:0:0:0:
375,127,322841,1,0,0:0:0:0:
198,211,323124,5,2,0:0:0:0:
198,211,323265,2,2,L|146:218,2,29.9999990844727
268,259,323548,1,4,0:3:0:0:
268,259,323690,6,0,P|327:253|380:298,1,112.500004291535,8|0,0:0|0:0,0:0:0:0:
375,290,323973,6,0,P|290:300|254:368,1,139.999995727539,4|0,0:3|0:0,0:0:0:0:
184,310,324397,1,4,0:3:0:0:
108,352,324539,2,0,L|99:276,1,69.9999978637696,8|0,0:0|0:0,0:0:0:0:
186,300,324822,1,2,0:0:0:0:
102,274,324963,2,0,L|118:120,1,139.999995727539,4|0,0:3|0:0,0:0:0:0:
107,55,325388,2,0,L|115:124,1,69.9999978637696,4|0,0:3|0:0,0:0:0:0:
262,174,325671,2,0,P|213:98|111:144,1,209.999993591309,8|0,0:0|0:0,0:0:0:0:
223,239,326237,6,0,P|302:239|338:188,1,139.999995727539,4|0,0:3|0:0,0:0:0:0:
403,238,326662,1,4,0:3:0:0:
487,300,326803,2,0,L|472:160,1,139.999995727539,8|0,0:0|0:0,0:0:0:0:
405,246,327228,1,4,0:3:0:0:
470,151,327369,2,0,P|403:129|377:135,1,69.9999978637696,2|0,0:0|0:0,0:0:0:0:
271,217,327652,2,0,P|305:212|335:194,1,69.9999978637696,4|4,0:3|0:3,0:0:0:0:
323,14,327935,5,8,0:0:0:0:
229,79,328077,1,8,0:0:0:0:
318,104,328218,1,4,0:3:0:0:
318,104,328501,6,0,P|233:114|197:182,1,139.999995727539,4|0,0:3|0:0,0:0:0:0:
126,129,328926,1,4,0:3:0:0:
170,225,329067,2,0,L|10:244,1,139.999995727539,8|0,0:0|0:0,0:0:0:0:
72,358,329492,2,0,P|62:273|-6:237,1,139.999995727539,4|0,0:3|0:0,0:0:0:0:
70,366,329916,2,0,L|139:374,1,69.9999978637696,4|0,0:3|0:0,0:0:0:0:
296,337,330199,2,0,P|206:298|149:377,1,209.999993591309,8|0,0:0|0:0,0:0:0:0:
227,373,330765,5,4,0:3:0:0:
226,226,331190,5,4,0:3:0:0:
207,299,331331,1,8,0:0:0:0:
285,177,331756,5,4,0:3:0:0:
362,173,332180,5,4,0:3:0:0:
207,299,332463,5,8,0:0:0:0:
226,226,332605,1,8,0:0:0:0:
289,181,332747,1,4,0:3:0:0:
289,181,333030,6,0,P|220:180|173:131,1,139.999995727539,4|0,0:3|0:0,0:0:0:0:
112,183,333454,1,4,0:3:0:0:
174,122,333596,2,0,L|180:52,1,69.9999978637696,8|0,0:0|0:0,0:0:0:0:
96,92,333879,1,2,0:0:0:0:
255,109,334020,2,0,L|394:92,1,139.999995727539,4|0,0:3|0:0,0:0:0:0:
473,97,334445,2,0,L|403:90,1,69.9999978637696,4|0,0:3|0:0,0:0:0:0:
354,239,334728,2,0,P|432:182|394:92,1,209.999993591309,8|0,0:0|0:0,0:0:0:0:
276,259,335294,6,0,P|207:258|160:209,1,139.999995727539,4|0,0:3|0:0,0:0:0:0:
99,253,335718,1,4,0:3:0:0:
108,151,335860,2,0,L|123:-7,1,139.999995727539,8|0,0:0|0:0,0:0:0:0:
40,35,336284,1,4,0:3:0:0:
194,54,336426,5,2,0:0:0:0:
122,1,336567,1,0,0:0:0:0:
114,92,336709,2,4,L|107:161,1,69.9999978637696,4|4,0:3|0:3,0:3:0:0:
267,75,336992,2,0,P|236:57|202:52,1,69.9999978637696,8|0,0:0|0:0,0:0:0:0:
33,123,337275,1,4,0:3:0:0:
33,123,337558,6,0,P|101:123|148:172,1,139.999995727539,4|0,0:3|0:0,0:0:0:0:
220,138,337982,1,4,0:3:0:0:
175,247,338124,2,0,L|314:264,1,139.999995727539,8|0,0:0|0:0,0:0:0:0:
448,169,338548,2,0,L|378:176,1,69.9999978637696,8|0,0:0|0:0,0:0:0:0:
323,262,338831,1,4,0:3:0:0:
379,317,338973,2,0,P|397:287|402:252,1,69.9999978637696,4|0,0:3|0:0,0:0:0:0:
220,138,339256,2,0,P|280:215|370:176,1,209.999993591309,8|0,0:0|0:0,0:0:0:0:
300,138,339822,5,4,0:3:0:0:
436,56,340247,5,4,0:3:0:0:
368,98,340388,1,8,0:0:0:0:
300,138,340813,5,4,0:3:0:0:
167,224,341096,5,4,0:3:0:0:
233,181,341237,1,4,0:3:0:0:
436,56,341520,5,8,0:0:0:0:
368,98,341662,1,8,0:0:0:0:
304,142,341803,1,4,0:3:0:0:
304,142,342086,6,0,P|372:142|419:191,1,139.999995727539,4|0,0:3|0:0,0:0:0:0:
494,161,342511,1,4,0:3:0:0:
419,201,342652,2,0,L|412:271,1,69.9999978637696,8|0,0:0|0:0,0:0:0:0:
403,349,342935,1,2,0:0:0:0:
339,216,343077,2,0,L|200:233,1,139.999995727539,4|0,0:3|0:0,0:0:0:0:
122,225,343501,2,0,L|192:232,1,69.9999978637696,4|0,0:3|0:0,0:0:0:0:
151,74,343784,2,0,P|74:134|112:224,1,209.999993591309,8|0,0:0|0:0,0:0:0:0:
172,338,344350,6,0,P|172:270|120:224,1,139.999995727539,4|0,0:3|0:0,0:0:0:0:
151,155,344775,1,4,0:3:0:0:
233,215,344916,2,0,L|389:230,1,139.999995727539,8|0,0:0|0:0,0:0:0:0:
330,150,345341,1,4,0:3:0:0:
383,229,345482,2,0,P|401:199|406:164,1,69.9999978637696,2|0,0:0|0:0,0:0:0:0:
239,43,345765,2,0,P|244:77|262:107,1,69.9999978637696,4|4,0:3|0:3,0:0:0:0:
440,81,346048,5,8,0:0:0:0:
328,21,346190,1,8,0:0:0:0:
334,154,346331,1,4,0:3:0:0:
334,154,346614,6,0,P|266:154|219:203,1,139.999995727539,4|0,0:3|0:0,0:0:0:0:
141,220,347039,1,4,0:3:0:0:
233,352,347180,2,0,L|220:213,1,139.999995727539,8|0,0:0|0:0,0:0:0:0:
231,63,347605,2,0,L|218:203,1,139.999995727539,4|0,0:3|0:0,0:0:0:0:
150,219,348030,2,0,L|220:212,1,69.9999978637696,4|0,0:3|0:0,0:0:0:0:
234,56,348313,2,0,P|144:17|83:94,1,209.999993591309,8|0,0:0|0:0,0:0:0:0:
165,96,348879,5,4,0:3:0:0:
320,122,349303,5,4,0:3:0:0:
307,200,349445,1,8,0:0:0:0:
195,234,349869,5,4,0:3:0:0:
298,283,350294,5,4,0:3:0:0:
321,122,350577,5,8,0:0:0:0:
307,200,350718,1,8,0:0:0:0:
298,283,350860,1,4,0:3:0:0:
298,283,351143,6,0,P|374:283|420:351,1,150.000005722046,4|0,0:3|0:0,0:0:0:0:
489,301,351567,1,4,0:3:0:0:
413,345,351709,2,0,L|332:353,1,75.0000028610231,8|0,0:0|0:0,0:0:0:0:
376,270,351992,1,2,0:0:0:0:
329,358,352133,2,0,B|255:373|255:373|183:329,1,150.000005722046,4|0,0:3|0:0,0:0:0:0:
182,249,352558,2,0,L|190:329,1,75.0000028610231,4|0,0:3|0:0,0:0:0:0:
24,258,352841,2,0,P|93:181|179:238,1,225.000008583069,8|0,0:0|0:0,0:0:0:0:
329,358,353407,6,0,P|405:358|451:290,1,150.000005722046,4|0,0:3|0:0,0:0:0:0:
510,257,353831,1,4,0:3:0:0:
369,286,353973,2,0,L|353:133,1,150.000005722046,8|0,0:0|0:0,0:0:0:0:
345,53,354397,1,4,0:3:0:0:
425,90,354539,5,2,0:0:0:0:
273,106,354680,1,8,0:0:0:0:
354,136,354822,2,0,L|346:61,1,75.0000028610231,4|4,0:3|0:3,0:0:0:0:
145,141,355105,2,0,P|181:160|234:159,1,75.0000028610231,8|0,0:0|0:0,0:0:0:0:
349,57,355388,1,4,0:3:0:0:
349,57,355671,6,0,P|425:57|471:125,1,150.000005722046,4|0,0:3|0:0,0:0:0:0:
510,176,356096,1,4,0:3:0:0:
414,242,356237,2,0,L|261:226,1,150.000005722046,8|0,0:0|0:0,0:0:0:0:
179,235,356662,2,0,L|253:227,1,75.0000028610231,8|0,0:0|0:0,0:0:0:0:
326,175,356945,1,4,0:3:0:0:
303,96,357086,2,0,P|268:117|245:169,1,75.0000028610231,4|0,0:3|0:0,0:0:0:0:
310,376,357369,2,0,P|351:281|264:226,1,225.000008583069,8|0,0:0|0:0,0:0:0:0:
275,306,357935,5,4,0:3:0:0:
137,256,358360,5,4,0:3:0:0:
196,306,358501,1,8,0:0:0:0:
130,178,358926,5,4,0:3:0:0:
244,95,359209,5,4,0:3:0:0:
169,112,359350,1,4,0:3:0:0:
196,306,359633,5,8,0:0:0:0:
137,256,359775,1,8,0:0:0:0:
134,182,359916,1,4,0:3:0:0:
134,182,360199,6,0,P|219:195|274:128,1,170.000003242493,4|0,0:3|0:0,0:0:0:0:
338,92,360624,1,4,0:3:0:0:
356,253,360765,2,0,L|347:167,1,85.0000016212464,8|0,0:0|0:0,0:0:0:0:
337,82,361048,1,2,0:0:0:0:
429,197,361190,2,0,B|485:137|485:137|456:37,1,170.000003242493,4|0,0:3|0:0,0:0:0:0:
347,168,361614,2,0,P|387:199|431:196,1,85.0000016212464,4|0,0:3|0:0,0:0:0:0:
337,72,361897,2,0,B|203:102|301:202|139:237,1,255.000004863739,8|0,0:0|0:0,0:0:0:0:
12,93,362463,6,0,P|91:74|148:132,1,170.000003242493,4|0,0:3|0:0,0:0:0:0:
223,106,362888,1,4,0:3:0:0:
72,149,363030,2,0,P|51:188|57:238,1,85.0000016212464,8|0,0:0|0:0,0:0:0:0:
229,98,363313,2,0,P|230:56|209:19,1,85.0000016212464,2|4,0:0|0:3,0:0:0:0:
58,235,363596,2,0,L|142:243,1,85.0000016212464,2|0,0:0|0:0,0:0:0:0:
309,218,363879,5,4,0:3:0:0:
218,191,364020,1,4,0:3:0:0:
329,292,364162,5,8,0:0:0:0:
358,147,364303,1,8,0:0:0:0:
309,218,364445,1,4,0:3:0:0:
309,218,364728,6,0,P|365:276|444:257,1,170.000003242493,4|0,0:3|0:0,0:0:0:0:
501,311,365152,1,4,0:3:0:0:
388,198,365294,2,0,L|397:112,1,85.0000016212464,8|0,0:0|0:0,0:0:0:0:
406,35,365577,1,2,0:0:0:0:
316,135,365718,2,0,B|232:159|232:159|171:103,1,170.000003242493,4|0,0:3|0:0,0:0:0:0:
161,9,366143,2,0,L|169:93,1,85.0000016212464,4|0,0:3|0:0,0:0:0:0:
11,280,366426,2,0,B|37:143|141:233|170:102,1,255.000004863739,8|0,0:0|0:0,0:0:0:0:
66,87,366992,5,4,0:3:0:0:
327,74,367416,5,4,0:3:0:0:
249,62,367558,1,8,0:0:0:0:
451,175,367982,5,4,0:3:0:0:
247,366,368407,5,4,0:3:0:0:
276,137,368690,5,8,0:0:0:0:
266,214,368831,1,8,0:0:0:0:
260,293,368973,1,4,0:3:0:0:
260,293,369256,6,0,P|221:270|175:275,1,87.500000834465,4|0,0:3|0:0,0:0:0:0:
93,301,369539,2,0,P|136:303|172:280,1,87.500000834465,2|4,0:0|0:3,0:0:0:0:
33,152,369822,2,0,L|41:238,1,87.500000834465,8|0,0:0|0:0,0:0:0:0:
115,185,370105,1,2,0:0:0:0:
82,6,370247,2,0,B|11:53|11:53|36:164,1,175.00000166893,4|0,0:3|0:0,0:0:0:0:
199,158,370671,2,0,P|155:155|119:178,1,87.500000834465,4|0,0:3|0:0,0:0:0:0:
143,369,370954,2,0,B|279:338|185:230|328:203,1,262.500002503395,8|0,0:0|0:0,0:0:0:0:
365,384,371520,6,0,P|321:384|284:360,1,87.500000834465,4|0,0:3|0:0,0:0:0:0:
334,203,371803,2,0,P|377:202|416:229,1,87.500000834465,2|4,0:0|0:3,0:0:0:0:
220,320,372086,2,0,L|228:232,1,87.500000834465,8|0,0:0|0:0,0:0:0:0:
236,155,372369,1,2,0:0:0:0:
162,188,372511,1,4,0:3:0:0:
218,66,372652,5,2,0:0:0:0:
117,114,372794,1,8,0:0:0:0:
226,63,372935,2,0,P|269:65|308:91,1,87.500000834465,4|4,0:3|0:3,0:0:0:0:
381,225,373218,2,0,L|372:137,1,87.500000834465,8|0,0:0|0:0,0:0:0:0:
359,27,373501,1,4,0:3:0:0:
359,27,373784,6,0,P|299:4|223:89,1,175.00000166893,4|0,0:3|0:0,0:0:0:0:
154,111,374209,1,4,0:3:0:0:
289,262,374350,2,0,L|308:58,1,175.00000166893,8|0,0:0|0:0,0:0:0:0:
155,120,374775,2,0,L|166:240,1,87.500000834465,8|0,0:0|0:0,0:0:0:0:
282,342,375058,1,4,0:3:0:0:
215,296,375199,2,0,P|172:298|133:324,1,87.500000834465,4|0,0:3|0:0,0:0:0:0:
385,263,375482,2,0,B|358:119|249:214|219:76,1,262.500002503395,8|0,0:0|0:0,0:0:0:0:
214,5,376048,5,2,0:0:0:0:
214,5,377180,1,0,0:0:0:0:
298,379,378313,6,0,P|377:360|392:340,1,89.9999972534181,2|2,0:0|0:0,0:0:0:0:
242,322,378879,2,0,P|197:322|159:299,1,89.9999972534181,2|2,0:0|0:0,0:0:0:0:
159,299,380577,6,0,P|197:322|242:321,1,89.9999972534181,2|2,0:0|0:0,0:0:0:0:
380,356,381143,2,0,P|342:379|298:379,1,89.9999972534181,2|2,0:0|0:0,0:0:0:0:
218,246,381709,5,2,0:0:0:0:
242,321,381992,1,2,0:0:0:0:
164,186,382275,5,2,0:0:0:0:
298,379,382558,1,2,0:0:0:0:
112,126,382841,6,0,L|119:26,1,89.9999972534181,2|2,0:0|0:0,0:0:0:0:
193,85,383407,1,2,0:0:0:0:
193,85,385105,5,2,0:0:0:0:
193,85,387369,6,0,P|230:61|275:62,1,89.9999972534181,2|2,0:0|0:0,0:0:0:0:
196,181,387935,2,0,P|158:157|113:158,1,89.9999972534181,2|2,0:0|0:0,0:0:0:0:
113,158,389633,6,0,P|158:157|196:181,1,89.9999972534181,2|2,0:0|0:0,0:0:0:0:
275,62,390199,2,0,P|230:61|193:84,1,89.9999972534181,2|2,0:0|0:0,0:0:0:0:
209,259,390765,5,2,0:0:0:0:
274,209,391048,1,2,0:0:0:0:
133,235,391331,5,2,0:0:0:0:
348,240,391614,1,2,0:0:0:0:
57,210,391897,6,0,L|48:116,1,89.9999972534181,2|2,0:0|0:0,0:0:0:0:
133,155,392747,6,0,L|125:72,1,69.9999978637696,2|2,0:0|0:0,0:0:0:0:
209,108,393596,6,0,L|203:54,1,50,2|2,0:0|0:0,0:0:0:0:
279,36,394162,1,2,0:0:0:0:
279,36,395294,6,0,L|284:85,1,50,2|2,0:0|0:0,0:0:0:0:
203,58,395860,2,0,L|209:108,1,50,2|2,0:0|0:0,0:0:0:0:
246,232,396426,6,0,P|281:250|321:248,1,59.9999981689454,0|0,3:3|0:0,0:0:0:0:
312,250,396850,2,0,P|358:248|408:279,1,89.9999972534181,2|0,0:0|0:0,0:0:0:0:
426,362,397558,1,0,3:0:0:0:
426,362,398124,2,0,L|350:372,1,59.9999981689454,0|0,3:0|3:0,0:0:0:0:
281,335,398690,6,0,L|221:327,1,59.9999981689454,0|0,3:0|0:0,0:0:0:0:
209,325,399114,2,0,P|166:334|130:372,1,89.9999972534181,2|0,0:0|0:0,0:0:0:0:
46,383,399822,2,0,L|40:319,1,59.9999981689454,0|0,3:0|3:0,0:0:0:0:
107,262,400388,2,0,L|113:198,1,59.9999981689454,0|0,3:0|3:0,0:0:0:0:
118,113,400954,6,0,P|77:99|43:102,1,59.9999981689454,0|0,3:0|0:0,0:0:0:0:
52,102,401379,2,0,P|109:78|135:49,1,89.9999972534181,2|0,0:0|0:0,0:0:0:0:
200,6,402086,2,0,P|241:13|267:30,1,59.9999981689454,0|0,3:0|3:0,3:0:0:0:
325,81,402652,2,0,P|366:74|392:57,1,59.9999981689454,0|0,3:0|3:0,3:0:0:0:
470,6,403218,6,0,L|474:71,1,59.9999981689454,0|0,3:0|0:0,0:0:0:0:
475,74,403643,2,0,L|466:184,1,89.9999972534181,2|0,0:0|0:0,0:0:0:0:
457,255,404350,1,0,3:0:0:0:
385,201,404633,1,2,3:2:0:0:
309,239,404916,2,2,L|307:267,3,19.9999993896485
267,160,405482,6,0,P|223:145|188:147,1,59.9999981689454,0|0,3:0|0:0,0:0:0:0:
201,146,405907,2,0,P|143:137|113:109,1,89.9999972534181,2|0,0:0|0:0,0:0:0:0:
78,37,406614,1,0,3:0:0:0:
78,37,407180,2,0,L|13:44,1,59.9999981689454,0|0,3:0|3:0,0:0:0:0:
2,126,407747,6,0,P|30:160|37:184,1,59.9999981689454,0|0,3:0|0:0,0:0:0:0:
35,183,408171,2,0,P|61:264|79:279,1,89.9999972534181,2|0,0:0|0:0,0:0:0:0:
146,303,408879,2,0,L|216:296,1,59.9999981689454,0|0,3:0|3:0,0:0:0:0:
283,348,409445,2,0,L|342:353,1,59.9999981689454,0|0,3:0|3:0,0:0:0:0:
432,332,410011,6,0,P|446:284|444:260,1,59.9999981689454,2|0,0:0|0:0,0:0:0:0:
445,265,410435,2,0,L|436:149,1,89.9999972534181,2|0,0:0|0:0,0:0:0:0:
430,87,411143,2,0,P|392:74|364:75,1,59.9999981689454,0|2,3:0|0:0,0:0:0:0:
296,118,411709,1,2,0:0:0:0:
212,93,411992,1,2,0:0:0:0:
142,145,412275,6,0,L|151:218,1,59.9999981689454,0|0,3:0|0:0,0:0:0:0:
150,213,412699,2,0,P|108:176|77:250,1,149.999995422363,2|0,0:0|3:0,0:0:0:0:
133,302,413690,1,0,3:0:0:0:
215,274,413973,1,0,3:0:0:0:
273,337,414256,1,0,3:0:0:0:
355,313,414539,6,0,L|362:233,1,59.9999981689454,0|0,3:0|0:0,0:0:0:0:
361,244,414963,1,2,0:0:0:0:
250,162,415388,2,0,L|238:40,1,119.999996337891,0|0,3:0|0:0,0:0:0:0:
159,0,416237,1,0,3:0:0:0:
159,0,416379,1,0,3:0:0:0:
330,97,416803,6,0,P|383:84|401:69,1,59.9999981689454,2|0,0:0|0:0,0:0:0:0:
393,75,417228,2,0,L|385:175,1,89.9999972534181,2|0,0:0|0:0,0:0:0:0:
375,249,417935,2,0,P|385:287|403:313,1,59.9999981689454,0|0,3:0|3:0,0:0:0:0:
323,365,418501,2,0,P|288:341|254:336,1,59.9999981689454,0|0,3:0|3:0,0:0:0:0:
181,346,419067,6,0,L|110:354,1,59.9999981689454,0|0,3:0|0:0,0:0:0:0:
112,354,419492,1,2,0:0:0:0:
213,262,419916,2,0,L|84:247,1,119.999996337891,0|2,3:0|0:0,0:0:0:0:
18,198,420765,1,0,3:0:0:0:
18,198,420907,1,0,3:0:0:0:
132,80,421331,6,0,P|153:114|157:144,1,59.9999981689454,0|0,3:0|0:0,0:0:0:0:
156,142,421756,1,2,0:0:0:0:
288,67,422180,2,0,P|274:138|230:174,1,119.999996337891,0|2,3:0|0:0,0:0:0:0:
172,230,423030,2,2,L|169:258,3,19.9999993896485
257,255,423596,6,0,L|331:249,1,59.9999981689454,0|0,3:0|0:0,0:0:0:0:
325,249,424020,1,2,3:0:0:0:
427,353,424445,2,0,L|292:340,1,119.999996337891,0|0,3:0|0:0,3:0:0:0:
219,358,425294,1,0,3:0:0:0:
219,358,425435,1,0,3:0:0:0:
325,249,425860,6,0,P|316:191|301:166,1,59.9999981689454,2|0,0:2|0:0,0:0:0:0:
309,184,426284,2,0,L|201:173,1,89.9999972534181,2|0,0:0|0:0,0:0:0:0:
134,149,426992,2,0,P|116:108|115:80,1,59.9999981689454,0|0,0:3|0:3,0:0:0:0:
51,29,427558,2,0,P|28:64|23:103,1,59.9999981689454,0|0,0:3|0:3,0:0:0:0:
44,170,428124,6,0,L|49:247,1,59.9999981689454,2|0,0:0|0:0,0:0:0:0:
49,238,428548,1,2,0:0:0:0:
242,290,428973,2,0,P|196:252|138:254,1,119.999996337891,0|2,3:3|0:0,0:0:0:0:
80,324,429822,1,0,3:0:0:0:
80,324,429963,1,0,3:0:0:0:
299,377,430388,6,0,L|364:380,1,59.9999981689454,0|0,3:0|0:0,0:0:0:0:
367,380,430813,1,2,0:0:0:0:
79,323,431803,2,0,B|177:342|151:273|251:291,1,179.999994506836,0|0,3:0|0:0,0:0:0:0:
256,192,434794,5,2,0:3:0:0:
256,192,446698,12,0,449913,0:0:0:0:
37,33,450016,6,0,P|6:68|1:110,1,75.0000028610231,6|0,0:3|0:0,0:0:0:0:
87,36,450492,2,0,P|36:48|27:57,1,37.5000014305115,2|0,0:0|0:0,0:0:0:0:
85,119,450730,1,0,0:0:0:0:
223,27,450968,1,4,0:3:0:0:
160,82,451206,2,0,P|199:107|241:105,1,75.0000028610231,4|0,0:3|0:0,0:0:0:0:
344,60,451682,2,0,P|294:81|294:185,1,150.000005722046,4|0,0:3|0:0,0:0:0:0:
357,73,452396,2,0,P|318:81|300:104,1,37.5000014305115,4|0,0:3|0:0,0:0:0:0:
367,155,452635,1,0,0:0:0:0:
367,155,452873,6,0,L|375:243,1,75.0000028610231,2|0,0:0|0:0,0:0:0:0:
234,374,453349,2,0,P|240:336|266:303,1,75.0000028610231,4|0,0:3|0:0,0:0:0:0:
421,300,453825,6,0,P|385:313|343:307,1,75.0000028610231,4|0,0:3|0:0,0:0:0:0:
445,255,454301,2,0,P|418:294|398:301,1,37.5000014305115,4|0,0:3|0:0,0:0:0:0:
364,225,454539,1,2,0:0:0:0:
493,118,454777,1,4,0:3:0:0:
430,170,455016,2,0,P|410:126|418:83,1,75.0000028610231,4|0,0:3|0:0,0:0:0:0:
415,85,455373,1,0,0:0:0:0:
422,71,455492,1,4,0:3:0:0:
329,145,455730,2,0,P|281:138|238:84,1,112.500004291535,4|0,0:3|0:0,0:0:0:0:
237,76,456206,2,0,P|209:96|179:99,1,37.5000014305115,4|0,0:3|0:0,0:0:0:0:
124,84,456444,1,4,0:3:0:0:
176,179,456682,1,4,0:3:0:0:
176,179,456920,6,0,P|124:165|111:169,1,37.5000014305115,2|0,0:0|0:0,0:0:0:0:
53,178,457158,2,0,P|16:217|13:230,1,37.5000014305115,2|0,0:0|0:0,0:0:0:0:
20,285,457396,1,2,0:0:0:0:
22,299,457516,1,4,0:3:0:0:
25,313,457635,6,0,P|77:341|139:285,1,150.000005722046,4|2,0:3|0:0,0:0:0:0:
135,273,458230,1,0,0:0:0:0:
133,258,458349,1,0,0:0:0:0:
224,303,458587,1,4,0:3:0:0:
286,251,458825,2,0,P|244:224|205:225,1,75.0000028610231,4|0,0:3|0:0,0:0:0:0:
300,333,459301,1,4,0:3:0:0:
369,172,459539,2,0,P|313:193|288:245,1,112.500004291535,4|0,0:3|0:0,0:0:0:0:
286,251,460016,2,0,P|261:230|235:223,1,37.5000014305115,4|0,0:3|0:0,0:0:0:0:
171,212,460254,1,4,0:3:0:0:
286,151,460492,6,0,P|303:96|291:58,1,75.0000028610231,4|4,0:3|0:3,0:0:0:0:
221,101,460968,1,2,0:0:0:0:
45,61,461206,1,0,0:0:0:0:
59,58,461325,1,4,0:3:0:0:
73,55,461444,6,0,P|125:68|152:110,1,75.0000028610231,4|0,0:3|0:0,0:0:0:0:
14,189,461920,2,0,P|-5:150|-5:131,1,37.5000014305115,4|0,0:3|0:3,0:0:0:0:
78,137,462158,1,2,0:0:0:0:
0,311,462396,1,4,0:3:0:0:
60,256,462635,2,0,P|125:272|140:288,1,75.0000028610231,4|0,0:3|0:0,0:0:0:0:
14,189,463111,1,4,0:3:0:0:
149,160,463349,2,0,P|159:228|110:283,1,112.500004291535,4|0,0:3|0:0,0:0:0:0:
129,275,463825,2,0,P|171:266|195:276,1,37.5000014305115,4|0,0:3|0:0,0:0:0:0:
254,287,464063,1,4,0:3:0:0:
254,287,464301,6,0,L|348:294,1,75.0000028610231,2|0,0:0|0:0,0:0:0:0:
343,294,464658,1,0,0:0:0:0:
357,296,464777,2,0,P|387:229|385:207,1,75.0000028610231,2|2,0:0|0:0,0:0:0:0:
384,215,465135,1,4,0:3:0:0:
381,200,465254,6,0,P|435:215|467:210,1,75.0000028610231,4|0,0:3|0:0,0:0:0:0:
362,153,465730,2,0,P|384:192|407:202,1,37.5000014305115,2|0,0:0|0:0,0:0:0:0:
441,131,465968,1,2,0:0:0:0:
292,87,466206,1,4,0:3:0:0:
286,166,466444,2,0,P|339:154|365:123,1,75.0000028610231,4|0,0:3|0:0,0:0:0:0:
206,182,466920,1,4,0:3:0:0:
225,260,467158,2,0,P|272:232|281:153,1,112.500004291535,4|0,0:3|0:0,0:0:0:0:
286,166,467635,2,0,P|329:160|349:149,1,37.5000014305115,4|0,0:3|0:0,0:0:0:0:
292,87,467873,1,4,0:3:0:0:
292,87,468111,6,0,L|188:78,1,75.0000028610231,2|0,0:0|0:0,0:0:0:0:
203,75,468468,1,0,0:0:0:0:
188,70,468587,1,4,0:3:0:0:
49,27,468825,1,2,0:0:0:0:
62,33,468944,1,4,0:3:0:0:
75,39,469063,6,0,P|106:84|37:164,1,150.000005722046,4|0,0:3|0:0,0:0:0:0:
63,159,470016,1,4,0:3:0:0:
120,222,470254,2,0,P|82:241|40:236,1,75.0000028610231,4|0,0:3|0:0,0:0:0:0:
50,239,472158,6,0,L|43:183,1,37.5000014305115,2|0,0:0|0:0,0:0:0:0:
131,198,472396,2,0,L|124:142,1,37.5000014305115,2|0,0:0|0:0,0:0:0:0:
204,248,472635,1,4,0:3:0:0:
211,260,472754,1,4,0:3:0:0:
223,268,472873,6,0,P|292:249|314:218,1,80,6|0,0:3|0:0,0:0:0:0:
278,120,473349,2,0,P|280:151|299:182,1,40,2|0,0:0|0:0,0:0:0:0:
363,189,473587,1,0,0:0:0:0:
333,58,473825,1,4,0:3:0:0:
397,112,474063,2,0,P|417:61|407:17,1,80,4|0,0:3|0:0,0:0:0:0:
260,15,474539,1,4,0:3:0:0:
333,58,474777,2,0,P|279:51|216:124,1,120,4|0,0:3|0:0,0:0:0:0:
225,103,475254,2,0,P|195:84|174:81,1,40,4|0,0:3|0:0,0:0:0:0:
108,89,475492,1,4,0:3:0:0:
108,89,475730,6,0,L|119:191,1,80,4|4,0:3|0:3,0:0:0:0:
49,340,476206,1,4,0:3:0:0:
10,268,476444,1,0,0:0:0:0:
24,262,476563,1,0,0:0:0:0:
39,258,476682,6,0,P|92:268|125:299,1,80,6|0,0:3|0:0,0:0:0:0:
209,367,477158,2,0,P|179:331|175:311,1,40,4|0,0:3|0:0,0:0:0:0:
194,254,477396,1,2,0:0:0:0:
337,334,477635,1,4,0:3:0:0:
261,305,477873,2,0,P|287:269|336:254,1,80,4|0,0:3|0:0,0:0:0:0:
419,342,478349,1,4,0:3:0:0:
308,170,478587,2,0,P|364:185|399:232,1,120,4|0,0:3|0:0,0:0:0:0:
402,248,479063,2,0,P|421:215|446:202,1,40,4|0,0:3|0:0,0:0:0:0:
500,183,479301,1,4,0:3:0:0:
500,183,479539,6,0,L|488:85,1,80,2|0,0:0|0:0,0:0:0:0:
490,87,479896,1,0,0:0:0:0:
487,71,480016,2,0,P|472:34|457:21,1,40,2|0,0:0|0:0,0:0:0:0:
389,11,480254,1,2,0:0:0:0:
373,16,480373,1,4,0:3:0:0:
358,21,480492,6,0,P|329:86|338:117,1,80,4|0,0:3|0:0,0:0:0:0:
419,180,480968,2,0,P|379:160|348:162,1,40,4|0,0:3|0:0,0:0:0:0:
300,171,481206,1,2,0:0:0:0:
364,331,481444,1,4,0:3:0:0:
365,245,481682,2,0,P|318:255|286:301,1,80,4|0,0:3|0:0,0:0:0:0:
234,377,482158,1,4,0:3:0:0:
195,196,482396,2,0,P|164:237|179:328,1,120,4|0,0:3|0:0,0:0:0:0:
174,315,482873,2,0,P|110:306|104:308,1,40,4|0,0:3|0:0,0:0:0:0:
52,318,483111,1,4,0:3:0:0:
52,318,483349,6,0,L|42:236,1,80,4|4,0:3|0:3,0:0:0:0:
143,33,483825,2,0,L|133:112,1,80,4|0,0:3|0:0,0:0:0:0:
128,127,484182,1,0,0:0:0:0:
123,142,484301,6,0,P|72:158|33:145,1,80,6|0,0:3|0:0,0:0:0:0:
218,92,484777,2,0,P|234:130|234:151,1,40,4|0,0:3|0:0,0:0:0:0:
186,198,485016,1,2,0:0:0:0:
316,107,485254,1,4,0:3:0:0:
372,168,485492,2,0,P|322:188|274:176,1,80,4|0,0:3|0:0,0:0:0:0:
319,25,485968,1,4,0:3:0:0:
281,183,486206,2,0,P|240:138|245:68,1,120,4|0,0:3|0:0,0:0:0:0:
246,67,486682,2,0,P|204:78|186:76,1,40,4|0,0:3|0:0,0:0:0:0:
124,56,486920,1,2,0:0:0:0:
163,166,487158,1,4,0:3:0:0:
163,166,487396,6,0,P|152:231|155:237,1,40,2|0,0:0|0:0,0:0:0:0:
156,288,487635,2,0,P|207:329|214:329,1,40,2|0,0:0|0:0,0:0:0:0:
265,336,487873,1,2,0:0:0:0:
280,334,487992,1,4,0:3:0:0:
295,332,488111,6,0,P|320:282|314:242,1,80,6|0,0:3|0:0,0:0:0:0:
163,166,488587,2,0,P|205:187|227:189,1,40,4|0,0:3|0:0,0:0:0:0:
285,181,488825,1,2,0:0:0:0:
161,83,489063,1,4,0:3:0:0:
239,110,489301,2,0,P|242:62|219:21,1,80,4|0,0:3|0:0,0:0:0:0:
86,120,489777,1,4,0:3:0:0:
153,71,490016,2,0,P|105:38|28:56,1,120,4|0,0:3|0:0,0:0:0:0:
32,52,490492,2,0,P|5:93|2:117,1,40,4|0,0:3|0:0,0:0:0:0:
90,124,490730,1,4,0:3:0:0:
90,124,490968,6,0,L|97:219,1,80,4|4,0:3|0:3,0:0:0:0:
109,371,491444,1,4,0:3:0:0:
102,288,491682,1,2,0:0:0:0:
300,307,491920,6,0,P|296:359|270:390,1,80,6|0,0:3|0:0,0:0:0:0:
263,264,492396,2,0,P|290:298|295:320,1,40,4|0,0:3|0:0,0:0:0:0:
211,331,492635,1,2,0:0:0:0:
284,169,492873,1,4,0:3:0:0:
340,229,493111,2,0,P|302:249|247:243,1,80,4|0,0:3|0:0,0:0:0:0:
166,115,493587,1,4,0:3:0:0:
203,191,493825,2,0,P|141:194|86:148,1,120,4|0,0:3|0:0,0:0:0:0:
87,148,494301,2,0,P|43:164|16:164,1,40,4|0,0:3|0:0,0:0:0:0:
40,79,494539,1,4,0:3:0:0:
49,66,494658,1,4,0:3:0:0:
58,53,494777,6,0,P|119:54|152:73,1,80,4|0,0:3|0:0,0:0:0:0:
142,75,495135,1,0,0:0:0:0:
148,89,495254,1,4,0:3:0:0:
265,38,495492,1,4,0:3:0:0:
252,162,495730,1,4,0:3:0:0:
256,192,522873,12,0,525730,0:0:0:0:
60,49,526206,6,0,P|46:160|19:260,1,200,4|0,0:3|0:0,0:0:0:0:
142,384,526920,1,4,0:3:0:0:
118,291,527158,1,8,0:0:0:0:
118,291,527635,1,0,0:0:0:0:
367,341,528111,5,4,0:3:0:0:
367,341,528349,2,0,P|385:294|393:245,1,100
384,109,528825,1,4,0:3:0:0:
490,172,529063,2,0,P|393:147|293:138,1,200,8|0,0:0|0:0,0:0:0:0:
293,138,530016,6,0,P|196:162|96:171,1,200,4|0,0:3|0:0,0:0:0:0:
262,20,530730,1,4,0:3:0:0:
175,68,530968,1,8,0:0:0:0:
175,68,531444,1,0,0:0:0:0:
123,267,531920,5,4,0:3:0:0:
123,267,532158,2,0,P|104:220|96:171,1,100
202,195,532635,1,4,0:3:0:0:
32,301,532873,2,0,P|131:309|228:334,1,200,8|0,0:0|0:0,0:0:0:0:
228,334,533825,6,0,P|322:321|359:307,1,100,4|0,0:3|0:0,0:0:0:0:
405,249,534301,1,0,0:0:0:0:
233,159,534539,1,4,0:3:0:0:
338,178,534777,1,8,0:0:0:0:
338,178,535254,1,0,0:0:0:0:
162,50,535730,6,0,P|137:146|128:246,1,200,4|0,0:3|0:0,0:0:0:0:
35,181,536444,1,4,0:3:0:0:
89,361,536682,1,8,0:0:0:0:
89,361,537158,1,0,0:0:0:0:
89,361,537635,6,0,P|185:335|285:326,1,200,4|0,0:3|0:0,0:0:0:0:
447,260,538349,1,4,0:3:0:0:
349,241,538587,1,8,0:0:0:0:
349,241,539063,1,0,0:0:0:0:
256,192,539539,5,2,0:0:0:0:
256,192,541444,6,0,P|238:102|207:48,1,119.999996337891,4|0,0:3|0:0,0:0:0:0:
227,77,541920,2,0,L|296:84,2,59.9999981689454,2|0|0,0:0|0:0|0:0,0:0:0:0:
49,111,542396,2,0,L|287:82,1,239.999992675781,8|0,0:0|0:0,0:0:0:0:
395,78,543111,1,0,0:0:0:0:
395,78,543230,1,0,0:0:0:0:
395,78,543349,5,4,0:3:0:0:
279,187,543587,2,0,P|336:202|388:231,1,119.999996337891,2|0,0:0|0:0,0:0:0:0:
388,231,544063,2,0,L|383:309,1,59.9999981689454,4|0,0:3|0:0,0:0:0:0:
380,384,544301,1,8,0:0:0:0:
234,269,544539,1,0,3:0:0:0:
234,269,544658,1,0,3:0:0:0:
234,269,544777,2,0,L|239:315,6,29.9999990844727,0|0|0|0|0|0|0,3:0|3:0|3:0|3:0|3:0|3:0|3:0,3:0:0:0:
162,345,545254,6,0,P|102:351|31:377,1,119.999996337891,4|0,0:3|0:0,0:0:0:0:
0,201,545730,2,0,P|58:224|102:230,1,59.9999981689454,2|0,0:0|0:0,0:0:0:0:
147,208,545968,1,4,0:3:0:0:
13,58,546206,1,8,0:0:0:0:
88,142,546444,1,0,0:0:0:0:
88,142,546563,1,0,0:0:0:0:
88,142,546682,1,0,0:0:0:0:
88,142,546801,1,0,0:0:0:0:
88,142,546920,1,0,0:0:0:0:
269,78,547158,5,4,0:3:0:0:
147,208,547396,2,0,P|230:185|284:153,1,119.999996337891,2|0,0:0|0:0,0:0:0:0:
418,230,547873,1,4,0:3:0:0:
209,361,548111,2,0,P|264:292|355:240,1,179.999994506836,8|0,0:0|3:0,0:0:0:0:
426,238,548587,1,0,3:3:0:0:
426,238,549063,6,0,P|433:171|454:99,1,119.999996337891,4|0,0:3|0:0,0:0:0:0:
446,120,549539,2,0,L|520:106,2,59.9999981689454,2|0|0,0:0|0:0|0:0,0:0:0:0:
228,56,550016,2,0,P|325:69|357:79,1,119.999996337891,8|0,0:0|3:0,0:0:0:0:
345,75,550373,1,0,0:0:0:0:
345,75,550492,1,0,0:0:0:0:
146,16,550730,2,0,P|117:23|83:27,1,59.9999981689454,0|0,3:0|0:0,0:0:0:0:
0,0,550968,5,4,0:3:0:0:
177,152,551206,2,0,P|122:127|63:117,1,119.999996337891,2|0,0:0|0:0,0:0:0:0:
63,117,551563,1,0,0:0:0:0:
63,117,551682,1,4,0:3:0:0:
195,244,551920,1,8,0:0:0:0:
0,191,552158,1,0,3:0:0:0:
0,191,552277,1,0,3:0:0:0:
0,191,552396,2,0,L|7:245,6,29.9999990844727,0|0|0|0|0|0|0,3:0|3:0|3:0|3:0|3:0|3:0|3:0,3:0:0:0:
33,310,552873,6,0,P|87:330|149:328,1,119.999996337891,4|0,0:3|0:0,0:0:0:0:
148,328,553349,2,0,P|205:349|221:348,1,59.9999981689454,2|0,0:0|0:0,0:0:0:0:
293,331,553587,1,4,0:3:0:0:
198,134,553825,2,0,P|216:207|217:269,1,119.999996337891,8|0,0:0|0:0,0:0:0:0:
217,251,554182,1,0,0:0:0:0:
217,251,554301,1,0,0:0:0:0:
217,251,554420,1,0,0:0:0:0:
217,251,554539,1,0,0:0:0:0:
433,132,554777,6,0,P|373:135|316:153,1,119.999996337891,4|0,0:3|0:0,0:0:0:0:
316,153,555135,1,0,0:0:0:0:
316,153,555254,2,0,L|332:231,2,59.9999981689454,2|0|0,0:0|0:0|0:0,0:0:0:0:
441,6,555730,2,0,P|383:71|326:226,1,239.999992675781,8|0,0:0|0:0,0:0:0:0:
257,273,556682,6,0,P|180:291|113:284,1,119.999996337891,4|0,0:3|0:0,0:0:0:0:
140,289,557158,2,0,L|126:215,1,59.9999981689454,2|0,0:0|0:0,0:0:0:0:
114,145,557396,1,4,0:3:0:0:
91,384,557635,2,0,L|116:134,1,239.999992675781,8|0,0:0|0:0,0:0:0:0:
129,58,558349,1,0,3:0:0:0:
129,58,558468,1,0,3:0:0:0:
129,58,558587,6,0,P|27:39|-16:18,2,119.999996337891,4|0|2,0:3|0:0|0:0,0:0:0:0:
286,32,559301,1,4,0:3:0:0:
227,176,559539,1,8,0:0:0:0:
389,156,559777,1,0,3:3:0:0:
389,156,559896,1,0,3:3:0:0:
389,156,560016,2,0,L|435:162,6,29.9999990844727,0|0|0|0|0|0|0,3:3|3:3|3:3|3:3|3:3|3:3|3:3,3:3:0:0:
381,246,560492,6,0,P|312:259|256:292,1,119.999996337891,4|0,0:3|0:0,0:0:0:0:
268,282,560849,1,0,3:0:0:0:
268,282,560968,2,0,L|183:295,2,59.9999981689454,2|0|0,0:0|0:0|0:0,0:0:0:0:
445,297,561444,1,8,0:0:0:0:
358,384,561682,1,0,0:0:0:0:
358,384,561801,1,0,0:0:0:0:
358,384,561920,1,0,0:0:0:0:
358,384,562039,1,0,0:0:0:0:
358,384,562158,1,0,0:0:0:0:
368,200,562396,6,0,P|322:120|181:15,1,239.999992675781,4|0,0:3|0:0,0:0:0:0:
113,11,563111,1,4,0:3:0:0:
232,164,563349,2,0,P|176:126|-30:111,1,239.999992675781,8|0,0:0|0:0,0:0:0:0:
15,108,564301,6,0,P|35:187|23:255,1,119.999996337891,4|0,0:3|0:0,0:0:0:0:
31,224,564777,2,0,L|95:233,1,59.9999981689454,2|0,0:0|0:0,0:0:0:0:
159,293,565016,1,4,0:3:0:0:
159,293,565254,2,0,L|352:267,1,179.999994506836,8|0,0:0|0:0,0:0:0:0:
415,253,565730,2,0,P|440:168|436:105,1,119.999996337891,2|0,0:0|0:0,0:0:0:0:
351,20,566206,5,4,0:3:0:0:
443,47,566444,2,0,L|448:15,6,29.9999990844727,0|0|0|0|0|0|0,3:0|3:0|3:0|3:0|3:0|3:0|3:0,3:0:0:0:
351,20,566920,1,4,0:3:0:0:
322,167,567158,2,0,P|257:172|142:219,1,179.999994506836,8|0,0:0|0:0,0:0:0:0:
110,147,567635,2,0,P|53:136|-3:104,1,119.999996337891,2|0,0:0|0:0,0:0:0:0:
0,106,567992,1,0,0:0:0:0:
0,106,568111,5,4,0:3:0:0:
251,290,568587,2,0,L|258:357,2,59.9999981689454,0|0|4,3:0|3:0|0:3,0:0:0:0:
117,155,569063,2,0,P|201:186|235:217,1,119.999996337891,8|0,0:0|0:0,0:0:0:0:
223,204,569420,1,0,0:0:0:0:
223,204,569539,2,0,P|311:193|412:149,1,179.999994506836,2|0,0:0|0:0,0:0:0:0:
458,113,570016,5,4,0:3:0:0:
170,80,570492,2,0,P|242:98|308:96,1,119.999996337891,2|4,0:0|0:3,0:0:0:0:
114,8,570968,1,8,0:0:0:0:
114,8,571444,1,2,0:0:0:0:
256,192,587140,5,4,0:3:0:0:
437,191,594759,6,0,P|393:197|346:164,1,100,4|0,0:3|0:0,0:0:0:0:
320,86,595473,1,0,0:0:0:0:
320,86,595592,1,0,0:0:0:0:
320,86,595711,2,0,P|297:65|289:22,1,75,0|0,1:0|0:0,0:0:0:0:
101,196,596663,6,0,P|141:186|172:155,1,75,4|4,0:3|0:3,0:0:0:0:
167,163,597140,1,0,0:0:0:0:
192,86,597378,1,0,0:0:0:0:
192,86,597497,1,0,0:0:0:0:
192,86,597616,2,0,P|215:65|223:22,1,75,0|0,1:0|0:0,0:0:0:0:
437,193,598568,6,0,P|393:187|346:220,1,100,4|0,0:3|0:0,0:0:0:0:
325,308,599282,1,0,0:0:0:0:
325,308,599401,1,0,0:0:0:0:
325,308,599520,2,0,P|302:329|294:372,1,75,0|0,1:0|0:0,0:0:0:0:
98,195,600473,6,0,P|138:204|169:235,1,75,4|4,0:3|0:3,0:0:0:0:
163,225,600949,1,0,0:0:0:0:
185,316,601187,1,0,0:0:0:0:
185,316,601306,1,0,0:0:0:0:
185,316,601425,1,0,1:0:0:0:
71,102,602378,6,0,L|224:157,1,150.000005722046,4|0,0:3|0:0,0:0:0:0:
21,177,603806,2,0,L|145:222,1,131.25000500679,0|4,0:0|0:3,0:0:0:0:
145,222,604754,6,0,P|172:269|167:278,1,50,2|0,0:0|0:0,0:0:0:0:
171,272,605108,1,0,0:0:0:0:
168,286,605226,1,0,1:0:0:0:
168,286,606171,6,0,L|238:260,1,75.0000028610231,4|0,0:3|0:0,0:0:0:0:
309,333,606874,1,0,0:0:0:0:
309,333,606991,1,0,0:0:0:0:
309,333,607108,2,0,L|248:354,2,56.2500021457673,0|0|0,1:0|0:0|0:0,0:0:0:0:
391,300,608046,1,4,0:3:0:0:
299,158,608394,1,4,0:3:0:0:
313,162,608511,6,0,P|340:115|335:106,1,50
340,111,608859,1,0,0:0:0:0:
338,95,608976,2,0,P|352:60|353:101,1,100,0|0,1:0|0:0,0:0:0:0:
144,251,609906,6,0,L|73:225,1,75.0000028610231,4|0,0:3|0:0,0:0:0:0:
87,135,610598,1,0,0:0:0:0:
87,135,610713,1,0,0:0:0:0:
87,135,610829,2,0,L|147:156,2,56.2500021457673,0|0|0,1:0|0:0|0:0,0:0:0:0:
97,44,611752,2,0,L|145:61,1,37.5000014305115,4|0,0:3|0:0,0:0:0:0:
146,62,612098,1,4,0:3:0:0:
159,67,612213,6,0,P|188:64|205:48,1,50
210,37,612559,1,0,0:0:0:0:
216,23,612675,1,0,1:0:0:0:
216,23,613598,5,4,0:3:0:0:
297,54,613825,2,0,L|332:41,2,37.5000014305115
294,150,614507,2,0,L|416:106,1,112.500004291535,0|0,1:0|0:0,0:0:0:0:
332,41,615416,2,0,L|297:54,1,37.5000014305115,4|0,0:3|0:0,0:0:0:0:
283,61,615757,1,4,0:3:0:0:
124,34,616098,5,4,0:3:0:0:
137,39,616211,1,0,0:0:0:0:
150,45,616325,2,0,P|143:85|134:47,1,100,0|0,1:0|0:0,0:0:0:0:
295,234,617234,6,0,L|217:206,1,75.0000028610231,4|0,0:3|0:0,0:0:0:0:
171,284,617910,1,0,0:0:0:0:
171,284,618023,1,0,0:0:0:0:
171,284,618136,2,0,L|223:303,1,56.2500021457673,0|0,1:0|0:0,0:0:0:0:
88,326,619038,2,0,L|53:313,1,37.5000014305115,4|0,0:3|0:0,0:0:0:0:
38,307,619373,1,4,0:3:0:0:
23,301,619485,6,0,P|12:270|28:251,1,50
31,247,619821,1,0,0:0:0:0:
43,237,619933,1,0,1:0:0:0:
298,363,620829,6,0,L|375:335,1,75.0000028610231,4|0,0:3|0:0,0:0:0:0:
360,243,621495,1,0,0:0:0:0:
360,243,621606,1,0,0:0:0:0:
360,243,621717,2,0,L|307:262,1,56.2500021457673,0|0,1:0|0:0,0:0:0:0:
307,262,622162,1,0,0:0:0:0:
332,155,622606,2,0,L|287:170,1,37.5000014305115,4|0,0:3|0:0,0:0:0:0:
283,174,622940,1,4,0:3:0:0:
269,180,623051,6,0,P|231:168|223:142,1,50
223,146,623384,1,0,0:0:0:0:
220,131,623495,1,0,1:0:0:0:
145,193,623717,2,0,P|119:199|142:176,1,75
256,296,624384,6,0,L|256:356,1,60
256,88,627913,6,0,L|256:43,1,45
464,324,634972,6,0,L|358:285,2,112.500004291535,4|0|0,0:3|0:0|0:0,0:0:0:0:
392,372,635744,1,4,0:3:0:0:
384,356,635854,2,0,L|349:261,1,75.0000028610231,0|0,1:0|0:0,0:0:0:0:
308,159,636295,2,0,L|320:194,2,37.5000014305115
250,34,636736,6,0,L|211:139,1,112.500004291535,4|0,0:3|0:0,0:0:0:0:
207,154,637178,1,0,0:0:0:0:
54,101,637398,2,0,L|89:88,1,37.5000014305115
125,127,637619,2,0,L|23:89,1,75.0000028610231,0|0,1:0|0:0,0:0:0:0:
15,13,638060,2,0,L|50:0,2,37.5000014305115
36,252,638501,6,0,L|141:213,1,112.500004291535,4|0,0:3|0:0,0:0:0:0:
156,209,638942,1,0,0:0:0:0:
312,263,639163,2,0,L|276:275,1,37.5000014305115,0|4,0:0|0:3,0:0:0:0:
241,237,639384,2,0,L|342:274,1,75.0000028610231,0|0,1:0|0:0,0:0:0:0:
435,307,639825,2,0,L|399:294,2,37.5000014305115
512,136,640266,5,4,0:3:0:0:
497,139,640376,1,0,0:0:0:0:
472,223,640597,1,4,0:3:0:0:
457,226,640707,1,0,0:0:0:0:
435,307,640928,1,0,0:0:0:0:
420,310,641038,1,0,0:0:0:0:
405,313,641148,6,2,B|356:297|356:297|327:361,1,100,0|0,1:2|0:0,0:0:0:0:
262,258,641479,1,4,0:3:0:0:
275,265,641589,2,2,B|255:309|255:309|206:293,1,100,4|0,0:3|0:0,0:0:0:0:
99,300,641920,1,4,0:3:0:0:
112,306,642031,6,0,L|150:200,2,112.500004291535,4|0|0,0:3|0:0|0:0,0:0:0:0:
66,222,642803,1,4,0:3:0:0:
80,226,642913,2,0,L|150:200,1,75.0000028610231,0|0,1:0|0:0,0:0:0:0:
270,151,643354,2,0,L|234:164,2,37.5000014305115
436,75,643795,6,0,L|330:37,1,112.500004291535,4|0,0:3|0:0,0:0:0:0:
315,32,644236,1,0,0:0:0:0:
444,175,644457,2,0,L|388:154,1,37.5000014305115
334,228,644678,1,0,1:0:0:0:
334,228,644898,2,0,L|404:254,2,75.0000028610231
200,178,645560,6,0,L|162:72,1,112.500004291535,4|0,0:3|0:0,0:0:0:0:
155,58,646001,2,0,L|85:33,1,75.0000028610231
3,48,646332,1,4,0:3:0:0:
13,58,646442,2,0,L|83:33,1,75.0000028610231,0|0,1:0|0:0,0:0:0:0:
248,86,646884,2,0,L|284:99,2,37.5000014305115
89,126,647325,6,0,L|195:164,1,112.500004291535,4|0,0:3|0:3,0:3:0:0:
209,168,647766,2,0,L|234:238,1,75.0000028610231
212,324,648097,1,4,0:3:0:0:
209,309,648207,2,0,L|234:239,1,75.0000028610231,0|0,1:0|0:0,0:0:0:0:
346,158,648648,2,0,L|310:170,2,37.5000014305115
480,112,649089,5,2,0:0:0:0:
256,192,667398,12,0,671369,0:0:0:0:
108,211,673795,6,0,L|234:257,2,134.999995880127,4|0|0,1:3|0:0|0:0,0:0:0:0:
64,139,674567,1,4,0:3:0:0:
77,126,674678,2,0,L|108:213,1,89.9999972534181,0|0,1:0|0:0,0:0:0:0:
134,320,675119,1,0,0:0:0:0:
117,314,675229,1,0,0:0:0:0:
101,308,675339,1,0,0:0:0:0:
188,130,675560,6,0,L|234:256,1,134.999995880127,4|0,0:3|0:0,0:0:0:0:
240,273,676001,1,0,0:0:0:0:
351,217,676222,2,0,L|329:277,1,44.999998626709
300,348,676442,1,0,1:0:0:0:
300,348,676663,2,0,L|384:378,1,89.9999972534181
401,373,676994,1,0,0:0:0:0:
418,367,677104,1,0,0:0:0:0:
435,361,677214,1,0,0:0:0:0:
451,354,677325,6,0,L|505:205,2,134.999995880127,4|0|0,0:3|0:0|0:0,0:0:0:0:
395,262,678097,1,4,0:3:0:0:
412,257,678207,2,0,L|496:226,1,89.9999972534181,0|0,1:0|0:0,0:0:0:0:
308,290,678648,1,0,0:0:0:0:
291,284,678759,1,0,0:0:0:0:
275,278,678869,1,0,0:0:0:0:
312,69,679089,5,4,0:3:0:0:
318,85,679200,1,0,0:0:0:0:
248,151,679420,1,4,0:3:0:0:
254,167,679531,1,0,0:0:0:0:
184,222,679751,1,0,0:0:0:0:
190,238,679861,1,0,0:0:0:0:
196,252,679972,6,2,B|137:227|137:227|156:168,1,125,0|0,1:0|0:0,0:0:0:0:
83,99,680303,1,4,0:3:0:0:
88,114,680413,2,2,B|147:133|147:133|171:74,1,125,4|0,0:3|0:0,0:0:0:0:
69,206,680854,6,0,L|196:252,2,134.999995880127,4|0|0,0:3|0:0|0:0,0:0:0:0:
94,289,681626,1,4,0:3:0:0:
111,283,681736,2,0,L|195:252,1,89.9999972534181,0|0,1:0|0:0,0:0:0:0:
252,97,682178,1,0,0:0:0:0:
236,103,682288,1,0,0:0:0:0:
219,109,682398,1,0,0:0:0:0:
286,276,682619,6,0,L|331:149,1,134.999995880127,4|0,0:3|0:0,0:0:0:0:
338,132,683060,1,0,0:0:0:0:
445,189,683281,2,0,L|429:146,1,44.999998626709
397,59,683501,1,0,1:0:0:0:
397,59,683722,2,0,L|312:28,1,89.9999972534181
295,33,684053,1,0,0:0:0:0:
277,38,684163,1,0,0:0:0:0:
286,276,684384,6,0,L|331:149,2,134.999995880127,4|0|0,0:3|0:0|0:0,0:0:0:0:
230,185,685156,1,4,0:3:0:0:
247,179,685266,2,0,L|331:148,1,89.9999972534181,0|0,1:0|0:0,0:0:0:0:
143,220,685707,1,0,0:0:0:0:
126,214,685817,1,0,0:0:0:0:
110,208,685928,1,0,0:0:0:0:
166,24,686148,5,4,0:3:0:0:
169,41,686259,1,0,0:0:0:0:
258,64,686479,1,0,0:0:0:0:
261,81,686589,1,0,0:0:0:0:
351,107,686810,1,0,0:0:0:0:
354,124,686920,1,4,0:3:0:0:
356,142,687031,6,2,B|298:165|298:165|329:261,1,125,0|0,1:0|0:0,0:0:0:0:
376,300,687361,1,4,0:3:0:0:
382,286,687472,2,2,B|234:232|234:232|191:317,1,225.000008583069,4|0,0:3|0:0,0:0:0:0:
175,382,687913,5,4,0:3:0:0:
175,382,688354,2,0,L|92:351,1,80
84,348,688685,1,0,0:0:0:0:
68,342,688795,1,0,1:0:0:0:
100,231,689016,1,0,0:0:0:0:
114,236,689126,2,0,L|60:90,1,120
202,0,689678,6,0,L|174:75,1,80,4|0,0:3|0:0,0:0:0:0:
233,156,690009,1,4,0:3:0:0:
240,141,690119,2,0,L|315:113,1,80
330,107,690450,1,0,0:0:0:0:
344,101,690560,1,0,1:0:0:0:
311,214,690781,1,0,0:0:0:0:
326,208,690891,2,0,L|438:249,1,120
333,343,691442,5,4,0:3:0:0:
333,343,691884,2,0,L|221:302,1,120
205,296,692325,1,0,1:0:0:0:
212,191,692545,1,0,0:0:0:0:
226,196,692656,2,0,L|81:248,1,120
44,12,693207,6,0,L|119:39,1,80,4|0,0:3|0:0,0:0:0:0:
203,74,693538,1,4,0:3:0:0:
218,79,693648,2,0,L|293:51,1,80
308,46,693979,1,0,0:0:0:0:
323,40,694089,5,0,1:0:0:0:
337,34,694200,2,0,L|309:109,1,80
305,124,694531,2,0,L|332:199,1,80
392,360,694972,5,4,0:3:0:0:
392,360,695413,2,0,L|317:332,1,80
302,325,695744,1,0,0:0:0:0:
287,319,695854,1,0,1:0:0:0:
197,245,696075,1,0,0:0:0:0:
191,260,696185,2,0,L|330:207,1,120
249,46,696736,6,0,L|221:121,1,80,4|0,0:3|0:0,0:0:0:0:
148,167,697067,1,4,0:3:0:0:
133,159,697178,2,0,L|105:84,1,80
99,69,697509,1,0,0:0:0:0:
93,54,697619,5,0,1:0:0:0:
22,139,697839,1,0,0:0:0:0:
70,246,698060,1,0,0:0:0:0:
0,340,698281,1,0,0:0:0:0:
183,258,698501,5,4,0:3:0:0:
183,258,698942,1,0,0:0:0:0:
225,356,699163,1,0,0:0:0:0:
240,361,699273,1,0,0:0:0:0:
255,366,699384,2,0,L|330:338,1,80,0|0,1:0|0:0,0:0:0:0:
345,333,699714,2,0,L|388:216,1,120
442,70,700266,5,4,0:3:0:0:
426,66,700376,1,0,0:0:0:0:
333,118,700597,1,4,0:3:0:0:
317,114,700707,1,0,0:0:0:0:
213,157,700928,1,4,0:3:0:0:
197,153,701038,1,0,0:0:0:0:
182,149,701148,6,2,B|131:130|131:130|96:225,1,110.000003356934,0|0,1:0|0:0,0:0:0:0:
52,270,701479,1,4,0:3:0:0:
45,258,701589,2,2,L|249:321,1,202.500000772476,4|0,0:3|0:0,0:0:0:0:
331,348,702031,5,4,0:3:0:0:
331,348,702472,2,0,L|363:337,2,34.9999989318848
238,317,702913,1,0,0:0:0:0:
312,251,703134,2,0,L|367:99,1,139.999995727539
348,27,703795,5,4,0:3:0:0:
460,122,704016,2,0,L|435:56,1,69.9999978637696
359,119,704457,2,0,L|372:152,2,34.9999989318848
371,151,705339,2,0,L|384:184,1,34.9999989318848
306,232,705560,6,0,L|257:100,1,139.999995727539,4|0,0:3|0:0,0:0:0:0:
226,16,706222,1,0,0:0:0:0:
226,16,706442,2,0,L|94:64,1,139.999995727539,4|0,0:3|0:0,0:0:0:0:
11,103,707104,1,0,0:0:0:0:
11,103,707325,6,0,L|85:306,1,209.999993591309,4|0,0:3|0:0,0:0:0:0:
90,316,708097,1,0,0:0:0:0:
97,331,708207,2,0,L|162:355,1,69.9999978637696,0|0,1:0|0:0,0:0:0:0:
179,360,708538,2,0,L|244:335,1,69.9999978637696,4|0,0:3|0:0,0:0:0:0:
260,328,708869,1,4,0:3:0:0:
366,299,709089,5,4,0:3:0:0:
366,299,709531,2,0,L|353:331,2,34.9999989318848
428,137,709972,1,0,1:0:0:0:
459,240,710192,2,0,L|327:191,1,139.999995727539
357,87,710854,6,0,L|291:111,1,69.9999978637696,4|0,0:3|0:0,0:0:0:0:
204,143,711295,1,0,0:0:0:0:
254,247,711516,2,0,L|221:234,1,34.9999989318848
135,208,711736,2,0,L|3:256,1,139.999995727539,0|0,1:0|0:0,0:0:0:0:
127,308,712398,1,0,0:0:0:0:
110,315,712509,1,0,0:0:0:0:
94,322,712619,6,0,L|225:370,1,139.999995727539,4|0,0:3|0:0,0:0:0:0:
241,377,713170,1,0,0:0:0:0:
254,384,713281,1,0,0:0:0:0:
282,245,713501,2,0,L|216:269,1,69.9999978637696,0|0,1:0|0:0,0:0:0:0:
366,209,713942,2,0,L|398:196,2,34.9999989318848
171,187,714384,6,0,L|122:55,1,139.999995727539,4|0,0:3|0:0,0:0:0:0:
117,39,714935,1,0,0:0:0:0:
110,22,715045,1,0,0:0:0:0:
0,136,715266,1,0,1:0:0:0:
0,136,715707,2,0,L|88:168,1,69.9999978637696
256,80,716148,5,2,0:0:0:0:
256,192,729973,12,0,737205,0:0:0:0:
131,207,738544,6,0,P|210:193|272:152,1,150,4|0,0:1|0:0,0:0:0:0:
280,71,739079,2,0,L|283:46,3,25,0|0|0|0,3:0|3:0|3:0|3:0,3:0:0:0:
285,38,739347,2,0,P|315:53|367:57,1,75,4|0,0:3|0:0,0:0:0:0:
366,58,739615,6,0,B|351:89|351:89|375:178,1,112.500004291535,0|0,1:1|0:0,0:0:0:0:
380,208,740017,1,0,0:0:0:0:
356,245,740151,1,0,0:0:0:0:
315,262,740285,1,0,0:0:0:0:
272,255,740419,1,0,0:0:0:0:
503,381,740686,5,4,0:3:0:0:
418,315,740954,1,0,0:0:0:0:
315,352,741222,2,0,L|276:348,3,25,0|0|0|0,3:0|3:0|3:0|3:0,3:0:0:0:
277,348,741490,2,0,P|214:364|188:382,1,75,4|0,0:3|0:0,0:0:0:0:
200,374,741758,6,0,B|171:353|171:353|115:359,1,66.6666666666667,0|8,1:0|0:3,0:0:0:0:
128,358,742026,1,8,0:3:0:0:
39,239,742294,2,0,L|111:252,1,50,4|0,0:3|0:0,0:0:0:0:
156,185,742561,1,4,0:3:0:0:
126,157,742695,1,4,0:3:0:0:
85,157,742829,6,0,P|178:139|215:70,1,150,4|0,0:1|0:0,0:0:0:0:
235,15,743365,2,0,L|273:19,3,25,0|0|0|0,3:0|3:0|3:0|3:0,3:0:0:0:
272,20,743633,2,0,L|336:27,1,50,4|4,0:3|0:3,0:0:0:0:
453,31,743901,6,0,B|418:15|405:-4|405:-4|447:233,1,300,0|0,1:0|0:0,0:0:0:0:
446,232,744972,6,0,L|483:237,4,25,4|0|0|0|0,3:0|3:0|3:0|3:0|3:0,3:0:0:0:
241,144,745508,2,0,L|216:147,3,25,4|0|0|0,3:0|3:0|3:0|3:0,3:0:0:0:
205,149,745776,2,0,P|190:195|192:220,1,75,4|0,0:3|0:0,0:0:0:0:
197,231,746044,5,0,1:0:0:0:
233,54,746311,1,4,0:3:0:0:
98,117,746579,1,8,1:0:0:0:
327,166,746847,1,4,0:3:0:0:
359,143,746981,1,4,0:3:0:0:
373,105,747115,6,0,P|338:170|350:246,1,150,4|0,0:1|0:0,0:0:0:0:
416,287,747651,2,0,L|443:289,3,25,0|0|0|0,3:0|3:0|3:0|3:0,3:0:0:0:
452,291,747919,2,0,P|468:337|465:386,1,75,4|0,0:3|0:0,0:0:0:0:
462,369,748186,6,0,B|422:356|422:356|251:387,1,200,0|0,1:0|0:0,0:0:0:0:
30,311,748990,1,2,0:0:0:0:
186,237,749258,5,4,0:3:0:0:
117,294,749526,1,0,0:0:0:0:
199,325,749794,1,0,0:0:0:0:
321,102,750061,2,0,P|310:126|303:182,1,75,4|0,0:3|0:0,0:0:0:0:
306,183,750329,5,0,1:0:0:0:
426,162,750597,1,0,0:0:0:0:
225,100,750865,2,0,P|215:140|215:163,1,50,2|0,0:0|0:0,0:0:0:0:
233,240,751133,1,4,0:3:0:0:
263,269,751267,1,4,0:3:0:0:
301,275,751401,5,4,0:3:0:0:
185,314,751669,1,4,0:3:0:0:
181,338,751802,1,4,0:3:0:0:
178,362,751936,2,0,L|141:367,3,25,0|0|0|0,3:0|3:0|3:0|3:0,3:0:0:0:
139,369,752204,2,0,P|89:361|63:341,1,75,4|0,0:3|0:0,0:0:0:0:
62,340,752472,6,0,B|72:304|72:304|59:241,1,100,0|0,1:0|0:0,0:0:0:0:
31,68,753008,1,0,0:0:0:0:
31,68,753276,1,0,0:0:0:0:
124,170,753544,6,0,P|138:142|89:147,1,100,4|0,0:3|0:0,0:0:0:0:
240,229,754079,2,0,P|226:201|275:206,1,100,2|0,0:0|0:0,0:0:0:0:
104,284,754615,1,8,0:3:0:0:
122,267,754749,1,8,0:3:0:0:
146,263,754883,1,8,0:3:0:0:
233,362,755151,1,4,0:3:0:0:
364,376,755419,1,4,0:3:0:0:
415,131,755686,6,0,P|376:132|324:164,1,100,4|0,0:1|0:0,0:0:0:0:
447,282,756222,2,0,L|451:248,3,25,0|0|0|0,3:0|3:0|3:0|3:0,3:0:0:0:
452,244,756490,2,4,P|417:229|385:229,1,50,4|4,0:3|0:3,0:3:0:0:
297,270,756758,6,0,B|321:237|321:237|303:69,1,200,0|0,1:0|0:0,0:0:0:0:
304,78,757561,1,0,0:0:0:0:
67,150,757829,6,0,P|106:151|158:183,1,100,4|0,0:3|0:0,0:0:0:0:
237,337,758365,1,4,0:3:0:0:
10,262,758633,2,0,P|44:246|81:244,1,75,4|0,0:3|0:0,0:0:0:0:
90,248,758901,6,0,B|69:278|69:278|76:351,1,100,0|0,1:0|0:0,0:0:0:0:
308,234,759436,2,0,L|256:227,1,50,2|0,0:0|0:0,0:0:0:0:
365,301,759704,1,4,0:3:0:0:
383,283,759838,1,4,0:3:0:0:
393,260,759972,5,4,0:3:0:0:
505,181,760240,1,4,0:3:0:0:
492,158,760374,1,4,0:3:0:0:
473,144,760508,2,0,L|425:139,3,25,0|0|0|0,3:0|3:0|3:0|3:0,3:0:0:0:
437,140,760776,2,0,P|399:131|367:113,1,75,4|0,0:3|0:0,0:0:0:0:
359,106,761044,6,0,B|325:125|325:125|162:104,1,200,0|0,1:0|0:0,0:0:0:0:
165,104,761847,1,0,0:0:0:0:
308,240,762115,6,0,B|286:210|286:210|205:200,1,112.500004291535,4|0,0:3|0:0,0:0:0:0:
166,207,762517,1,0,0:0:0:0:
131,236,762651,1,0,0:0:0:0:
122,280,762785,1,0,0:0:0:0:
140,321,762919,2,0,P|90:326|54:337,1,75,4|0,0:3|0:0,0:0:0:0:
55,338,763186,6,0,B|49:302|49:302|17:262,1,66.6666666666667,0|8,1:0|0:3,0:0:0:0:
22,271,763454,1,8,0:3:0:0:
188,121,763722,2,0,L|135:117,1,50,4|0,0:3|0:0,0:0:0:0:
90,199,763990,1,4,0:3:0:0:
127,214,764124,1,4,0:3:0:0:
166,207,764258,6,0,P|83:134|-13:163,1,200,4|0,0:1|0:0,0:0:0:0:
165,301,765061,1,4,0:3:0:0:
204,292,765195,1,4,0:3:0:0:
243,283,765329,1,0,1:0:0:0:
436,344,765597,2,0,P|374:327|336:297,1,100
333,268,765999,1,0,0:0:0:0:
341,228,766133,1,0,0:0:0:0:
262,172,766401,5,4,0:3:0:0:
290,143,766535,1,0,0:0:0:0:
329,134,766669,1,0,0:0:0:0:
336,42,766936,1,4,0:3:0:0:
375,51,767070,1,0,0:0:0:0:
402,81,767204,2,0,L|391:4,1,50,4|0,0:3|0:0,0:0:0:0:
248,71,767472,1,0,1:0:0:0:
495,44,767740,1,4,0:3:0:0:
248,71,768008,1,2,0:0:0:0:
328,219,768276,1,4,0:3:0:0:
365,204,768410,1,4,0:3:0:0:
384,169,768544,6,0,P|263:212|248:244,1,150,4|0,0:3|0:0,0:0:0:0:
227,298,769079,2,0,L|232:346,3,25,0|0|0|0,3:0|3:0|3:0|3:0,3:0:0:0:
232,337,769347,1,4,0:3:0:0:
72,167,769615,2,0,L|63:267,1,100,0|0,1:0|0:0,0:0:0:0:
157,101,770151,2,0,L|164:188,1,87.500000834465,0|0,1:0|0:0,0:0:0:0:
352,334,770686,6,0,L|386:328,4,25,4|0|0|0|0,3:3|3:0|3:0|3:0|3:0,3:0:0:0:
323,216,771222,2,0,L|289:210,3,25,0|0|0|0,3:0|3:0|3:0|3:0,3:0:0:0:
285,209,771490,1,4,0:3:0:0:
481,51,771758,2,0,P|389:55|311:129,1,200,0|0,1:0|0:0,0:0:0:0:
459,136,772561,1,4,0:3:0:0:
420,145,772695,1,4,0:3:0:0:
395,176,772829,5,6,0:3:0:0:
27,46,773365,1,2,0:0:0:0:
119,108,773633,1,4,0:3:0:0:
222,66,773901,1,0,0:0:0:0:
222,66,774436,1,2,0:0:0:0:
106,206,774704,1,0,0:0:0:0:
101,235,774838,1,4,0:3:0:0:
95,264,774972,6,0,P|165:269|216:285,1,112.500004291535,4|4,0:3|0:3,0:0:0:0:
228,299,775508,2,0,L|237:378,1,75.0000028610231,2|4,0:0|0:3,0:0:0:0:
458,374,776044,2,0,P|388:369|337:353,1,112.500004291535,2|4,0:0|0:3,0:0:0:0:
325,339,776579,2,0,L|316:260,1,75.0000028610231,2|0,0:0|0:0,0:0:0:0:
351,77,777115,5,4,0:3:0:0:
444,142,777383,1,0,0:0:0:0:
453,247,777651,1,2,0:0:0:0:
444,142,777919,1,4,0:3:0:0:
147,206,778454,1,0,0:0:0:0:
78,115,778722,1,2,0:0:0:0:
118,13,778990,1,0,0:0:0:0:
147,18,779124,1,4,0:3:0:0:
175,26,779258,6,0,P|260:20|293:11,1,112.500004291535,4|4,0:3|0:3,0:0:0:0:
314,3,779794,2,0,L|365:9,2,37.5000014305115,2|0|4,0:0|0:0|0:3,0:0:0:0:
502,105,780329,6,0,P|417:111|384:120,1,112.500004291535,2|4,0:0|0:3,0:0:0:0:
363,128,780865,2,0,L|281:118,2,75.0000028610231,2|0|2,0:0|0:0|0:0,0:0:0:0:
256,192,807537,12,0,815295,0:0:0:0:
425,381,815812,6,0,P|451:330|432:274,1,85.0000016212464,6|0,0:3|0:0,0:0:0:0:
325,196,816154,1,0,1:0:0:0:
448,303,816326,2,0,B|406:261|406:261|419:151,1,170.000003242493,2|4,0:0|0:3,0:0:0:0:
309,25,816840,2,0,L|321:118,1,85.0000016212464,0|0,1:0|0:0,0:0:0:0:
320,110,817097,1,0,0:0:0:0:
320,110,817183,6,0,P|275:42|195:54,1,170.000003242493,4|0,0:3|1:0,0:0:0:0:
64,101,817697,1,0,0:0:0:0:
64,101,817783,1,4,0:3:0:0:
64,101,817869,2,0,P|105:101|141:124,1,85.0000016212464,2|4,0:0|0:3,0:3:0:0:
220,205,818212,2,0,P|178:205|142:228,1,85.0000016212464,0|0,1:0|0:0,0:0:0:0:
0,278,818554,5,4,0:3:0:0:
0,278,818640,2,0,P|62:280|105:324,1,127.50000243187,2|0,0:0|1:0,0:0:0:0:
234,372,819069,1,4,0:3:0:0:
234,372,819154,2,0,L|380:346,1,127.50000243187,2|4,0:0|0:3,0:0:0:0:
495,296,819583,1,0,1:0:0:0:
495,296,819669,2,0,P|432:293|399:262,1,85.0000016212464,2|0,0:0|0:0,0:0:0:0:
415,282,819926,5,4,0:3:0:0:
469,216,820097,1,4,0:3:0:0:
409,151,820269,2,0,L|319:138,2,85.0000016212464,0|0|0,1:0|0:0|0:0,0:0:0:0:
337,53,820783,2,0,P|295:53|259:76,1,85.0000016212464,4|0,0:3|1:0,0:0:0:0:
260,76,821640,1,0,1:0:0:0:
456,188,821812,6,0,P|375:200|323:138,1,170.000003242493,4|4,0:3|0:3,0:0:0:0:
165,149,822326,2,0,P|206:149|242:172,1,85.0000016212464,0|0,1:0|0:0,0:0:0:0:
242,172,822583,1,0,0:0:0:0:
242,172,822669,6,0,L|226:264,1,85.0000016212464,4|0,0:3|0:0,0:0:0:0:
79,192,823012,2,0,L|64:108,1,85.0000016212464,0|0,1:0|0:0,0:0:0:0:
64,108,823269,1,4,0:3:0:0:
64,108,823354,1,2,0:0:0:0:
158,141,823526,1,4,0:3:0:0:
65,297,823697,1,0,1:0:0:0:
65,297,823783,2,0,P|100:274|142:273,1,85.0000016212464,4|0,0:3|0:0,0:0:0:0:
142,273,824040,6,0,B|180:318|180:318|303:300,1,170.000003242493,4|0,0:3|1:0,0:0:0:0:
512,367,824554,1,0,0:0:0:0:
512,367,824640,1,4,0:3:0:0:
512,367,824726,2,0,L|406:346,1,85.0000016212464,2|0,0:0|0:0,0:0:0:0:
469,200,825069,2,0,P|491:235|492:277,1,85.0000016212464,0|0,1:0|0:0,0:0:0:0:
492,277,825326,1,0,0:0:0:0:
492,277,825412,6,0,B|445:260|445:260|414:268|414:268|346:244,1,127.50000243187,4|2,0:3|0:0,0:0:0:0:
339,246,825754,1,0,1:0:0:0:
339,246,825840,2,0,P|287:258|259:288,1,85.0000016212464,2|0,0:3|0:0,0:0:0:0:
264,278,826097,1,2,0:3:0:0:
162,136,826269,2,0,L|180:272,1,127.50000243187,0|2,1:0|0:0,0:0:0:0:
179,262,826612,2,0,P|175:293|155:320,1,42.5000008106232,2|2,0:3|0:0,0:0:0:0:
43,309,826783,6,0,P|17:258|36:202,1,85.0000016212464,6|0,0:3|0:0,0:0:0:0:
158,133,827125,1,0,1:0:0:0:
20,231,827297,2,0,B|62:189|62:189|48:79,1,170.000003242493,2|4,0:0|0:3,0:0:0:0:
185,39,827812,2,0,P|220:61|262:62,1,85.0000016212464,0|0,1:0|0:0,0:0:0:0:
262,62,828069,1,0,0:0:0:0:
262,62,828154,6,0,P|318:1|403:53,1,170.000003242493,4|0,0:3|1:0,0:0:0:0:
512,126,828669,1,0,0:0:0:0:
512,126,828754,1,4,0:3:0:0:
512,126,828840,2,0,L|421:110,1,85.0000016212464,2|4,0:0|0:3,0:0:0:0:
471,280,829183,2,0,P|470:238|447:202,1,85.0000016212464,0|0,1:0|0:0,0:0:0:0:
223,144,829526,6,0,L|321:157,1,85.0000016212464,4|0,0:3|0:0,0:0:0:0:
387,264,829869,1,0,1:0:0:0:
307,155,830040,2,0,P|194:181|178:244,1,170.000003242493,4|4,0:3|0:3,0:0:0:0:
51,315,830554,2,0,P|100:315|141:278,1,85.0000016212464,0|0,1:0|0:0,0:0:0:0:
128,295,830812,1,0,0:0:0:0:
128,295,830897,5,4,0:3:0:0:
178,221,831069,1,4,0:3:0:0:
72,233,831240,2,0,L|60:148,1,85.0000016212464,0|0,1:0|0:0,0:0:0:0:
50,63,831583,1,0,0:0:0:0:
218,145,831754,1,4,0:3:0:0:
238,61,831926,2,0,P|195:59|159:79,1,85.0000016212464,0|0,1:0|0:0,0:0:0:0:
314,258,832269,6,0,L|326:137,1,85.0000016212464,4|0,0:3|0:0,0:0:0:0:
397,34,832612,1,0,1:0:0:0:
322,173,832783,2,0,B|354:121|354:121|479:108,1,170.000003242493,4|4,0:3|0:3,0:0:0:0:
498,238,833297,2,0,P|453:235|406:204,1,85.0000016212464,0|0,1:0|0:0,0:0:0:0:
418,216,833554,1,0,0:0:0:0:
418,216,833640,6,0,L|439:383,1,170.000003242493,4|0,0:3|1:0,0:0:0:0:
261,328,834154,1,0,0:0:0:0:
261,328,834240,1,4,0:3:0:0:
261,328,834326,2,0,P|328:317|355:288,1,85.0000016212464,2|0,0:0|0:0,0:0:0:0:
329,110,834669,1,0,1:0:0:0:
329,110,834754,2,0,P|292:131|271:168,1,85.0000016212464,4|0,0:3|0:0,0:0:0:0:
272,167,835012,6,0,L|172:154,1,85.0000016212464,4|0,0:3|0:0,0:0:0:0:
57,47,835354,1,0,1:0:0:0:
179,43,835526,1,0,0:0:0:0:
179,43,835612,1,4,0:3:0:0:
179,43,835697,1,2,0:0:0:0:
187,156,835869,1,4,0:3:0:0:
74,175,836040,2,0,P|50:218|64:274,1,85.0000016212464,0|0,1:0|0:0,0:0:0:0:
52,252,836297,1,0,0:0:0:0:
52,252,836383,6,0,P|136:259|167:333,1,170.000003242493,4|0,0:3|1:0,0:0:0:0:
167,330,837069,2,0,B|201:306|201:306|277:320,1,85.0000016212464,2|2,0:0|0:0,0:0:0:0:
334,231,837412,2,0,B|327:274|327:274|341:307|341:307|332:355,1,127.50000243187,0|2,1:0|0:0,0:0:0:0:
332,355,837754,6,0,P|416:348|447:274,1,170.000003242493,4|0,0:3|1:0,0:0:0:0:
389,121,838269,2,0,P|388:162|410:198,1,85.0000016212464,2|0,0:0|0:0,0:0:0:0:
446,59,838612,1,4,0:3:0:0:
304,120,838783,2,0,L|213:104,1,85.0000016212464,0|0,1:0|0:0,0:0:0:0:
220,105,839040,1,0,0:0:0:0:
220,105,839126,5,4,0:3:0:0:
250,197,839297,1,0,0:0:0:0:
50,169,839469,2,0,P|53:114|82:80,1,85.0000016212464,2|0,1:2|0:0,0:0:0:0:
70,90,839726,1,4,0:3:0:0:
70,89,839812,2,0,P|119:65|163:73,1,85.0000016212464,2|0,0:0|0:0,0:0:0:0:
188,259,840154,2,0,P|139:283|95:275,1,85.0000016212464,2|0,1:2|0:0,0:0:0:0:
250,197,840497,6,0,L|434:224,1,170.000003242493,4|0,0:3|1:0,0:0:0:0:
477,150,841012,1,4,0:3:0:0:
330,254,841183,2,0,P|336:308|367:340,1,85.0000016212464,2|4,0:0|0:3,0:0:0:0:
390,133,841526,2,0,P|352:114|310:116,1,85.0000016212464,0|0,1:0|0:0,0:0:0:0:
120,261,841869,5,4,0:3:0:0:
191,174,842040,1,4,0:3:0:0:
104,103,842212,1,0,1:0:0:0:
34,190,842383,1,2,0:0:0:0:
120,261,842554,5,2,0:0:0:0:
19,297,842726,1,4,0:3:0:0:
157,330,842897,5,0,1:0:0:0:
98,382,843069,1,0,0:0:0:0:
98,382,843583,1,0,1:0:0:0:
120,261,843754,6,0,P|203:200|268:246,1,170.000003242493,0|4,0:3|0:3,0:0:0:0:
413,151,844269,2,0,P|374:168|332:167,1,85.0000016212464,0|0,1:0|0:0,0:0:0:0:
332,166,844526,1,0,0:0:0:0:
332,166,844612,5,4,0:3:0:0:
353,87,844783,1,0,0:0:0:0:
248,147,844954,2,0,L|261:237,1,85.0000016212464,0|0,1:0|0:0,0:0:0:0:
260,231,845212,1,4,0:3:0:0:
260,231,845297,2,0,P|281:268|274:325,1,85.0000016212464,2|4,0:0|0:3,0:0:0:0:
125,246,845640,1,0,1:0:0:0:
125,246,845726,2,0,P|166:257|201:302,1,85.0000016212464,4|0,0:3|0:0,0:0:0:0:
195,287,845983,6,0,B|144:327|144:327|24:314,1,170.000003242493,4|0,0:3|1:0,0:0:0:0:
23,166,846497,1,0,0:0:0:0:
23,166,846583,1,4,0:3:0:0:
23,166,846669,1,2,0:0:0:0:
122,120,846840,1,4,0:3:0:0:
216,178,847012,2,0,P|260:173|303:143,1,85.0000016212464,0|0,1:0|0:0,0:0:0:0:
294,152,847269,1,0,0:0:0:0:
294,152,847354,5,4,0:3:0:0:
376,212,847526,1,2,0:0:0:0:
456,177,847697,5,2,1:3:0:0:
376,212,847869,1,2,0:0:0:0:
364,295,848040,1,2,0:0:0:0:
230,361,848212,5,2,1:3:0:0:
158,232,848383,1,0,3:0:0:0:
143,217,848468,1,0,3:0:0:0:
124,206,848554,1,0,3:0:0:0:
104,201,848640,1,0,3:0:0:0:
81,199,848726,6,0,P|28:159|49:55,1,170.000003242493,4|0,0:3|1:0,0:0:0:0:
185,94,849240,2,0,P|127:122|84:110,1,85.0000016212464,2|0,0:0|0:0,0:0:0:0:
212,15,849583,1,4,0:3:0:0:
283,104,849754,1,2,1:2:0:0:
302,121,849840,1,2,0:0:0:0:
324,109,849926,1,2,0:0:0:0:
346,125,850012,1,2,0:0:0:0:
363,115,850097,6,0,P|415:119|457:159,1,85.0000016212464,4|0,0:3|0:0,0:0:0:0:
487,318,850440,2,0,P|450:339|408:339,1,85.0000016212464,0|0,1:0|0:0,0:0:0:0:
408,339,850697,1,4,0:3:0:0:
408,339,850783,2,0,P|365:339|329:360,1,85.0000016212464,2|4,0:0|0:3,0:0:0:0:
243,237,851126,2,0,P|285:237|321:258,1,85.0000016212464,0|0,1:0|0:0,0:0:0:0:
186,361,851469,6,0,B|144:318|144:318|159:196,1,170.000003242493,4|0,0:3|1:0,0:0:0:0:
42,66,851983,1,4,0:3:0:0:
64,242,852154,2,0,L|49:129,1,85.0000016212464,2|4,0:0|0:3,0:0:0:0:
177,32,852497,2,0,L|167:121,1,85.0000016212464,0|0,1:0|0:0,0:0:0:0:
167,116,852754,1,0,0:0:0:0:
167,116,852840,5,4,0:3:0:0:
260,77,853012,1,4,0:3:0:0:
274,205,853183,5,0,1:0:0:0:
355,93,853354,1,2,0:0:0:0:
463,169,853526,5,2,0:0:0:0:
391,217,853697,1,4,0:3:0:0:
501,249,853869,5,0,1:0:0:0:
431,282,854040,1,0,0:0:0:0:
362,313,854212,6,0,L|318:307,3,25
319,307,854554,1,0,1:0:0:0:
201,367,854726,6,0,P|144:377|76:278,1,170.000003242493,4|4,0:3|0:3,0:0:0:0:
14,135,855240,2,0,L|28:253,1,85.0000016212464,0|0,1:0|0:0,0:0:0:0:
24,219,855497,1,0,0:0:0:0:
24,219,855583,5,4,0:3:0:0:
101,171,855754,1,0,0:0:0:0:
191,210,855926,2,0,P|237:211|278:184,1,85.0000016212464,0|0,1:0|0:0,0:0:0:0:
270,192,856183,1,4,0:3:0:0:
270,192,856269,2,0,P|316:191|357:218,1,85.0000016212464,2|0,0:0|0:0,0:0:0:0:
434,317,856612,1,0,1:0:0:0:
434,317,856697,1,4,0:3:0:0:
434,317,856783,1,2,0:0:0:0:
480,198,856954,6,0,L|497:14,1,170.000003242493,4|0,0:3|1:0,0:0:0:0:
326,52,857469,1,0,0:0:0:0:
326,52,857554,1,4,0:3:0:0:
326,52,857640,1,2,0:0:0:0:
399,101,857812,1,4,0:3:0:0:
288,134,857983,2,0,P|229:125|186:88,1,85.0000016212464,0|0,1:0|0:0,0:0:0:0:
208,112,858240,1,0,0:0:0:0:
208,112,858326,5,4,0:3:0:0:
121,133,858497,1,2,0:0:0:0:
197,223,858669,5,2,1:3:0:0:
75,198,858840,1,2,0:0:0:0:
6,316,859012,5,2,0:0:0:0:
118,284,859183,1,2,0:0:0:0:
208,352,859354,1,0,3:0:0:0:
228,355,859439,1,0,3:0:0:0:
250,355,859525,1,0,3:0:0:0:
270,350,859611,1,0,3:0:0:0:
291,344,859697,6,0,L|306:232,1,85.0000016212464,4|0,0:3|0:0,0:0:0:0:
408,117,860040,1,0,1:0:0:0:
302,259,860212,2,0,P|383:263|434:198,1,170.000003242493,2|4,0:0|0:3,0:0:0:0:
485,51,860726,2,0,L|500:144,1,85.0000016212464,0|0,1:0|0:0,0:0:0:0:
346,184,861069,6,0,B|310:131|310:131|195:112,1,170.000003242493,4|0,0:3|1:0,0:0:0:0:
72,52,861583,1,0,0:0:0:0:
72,52,861669,1,4,0:3:0:0:
72,52,861754,2,0,L|166:35,1,85.0000016212464,2|4,0:0|0:3,0:0:0:0:
43,204,862097,2,0,P|18:160|26:105,1,85.0000016212464,0|0,1:0|0:0,0:0:0:0:
172,191,862440,5,4,0:3:0:0:
172,191,862526,2,0,P|120:252|120:320,1,127.50000243187,2|0,0:0|1:0,0:0:0:0:
263,380,862954,1,4,0:3:0:0:
263,380,863040,2,0,P|211:319|211:251,1,127.50000243187,2|4,0:0|0:3,0:0:0:0:
364,243,863469,1,0,1:0:0:0:
364,243,863554,2,0,P|321:246|275:223,1,85.0000016212464,2|0,0:0|0:0,0:0:0:0:
282,229,863812,5,4,0:3:0:0:
341,162,863983,1,4,0:3:0:0:
204,89,864154,2,0,L|218:197,1,85.0000016212464,0|0,1:0|0:0,0:0:0:0:
193,0,864497,1,0,0:0:0:0:
125,143,864669,2,0,P|82:140|47:118,1,85.0000016212464,4|0,0:3|1:0,0:0:0:0:
47,118,865526,1,0,1:0:0:0:
7,297,865697,6,0,P|42:241|159:251,1,170.000003242493,4|4,0:3|0:3,0:0:0:0:
252,360,866212,2,0,P|310:355|343:328,1,85.0000016212464,0|0,1:0|0:0,0:0:0:0:
331,340,866469,1,0,0:0:0:0:
331,340,866554,6,0,L|349:237,1,85.0000016212464,4|0,0:3|0:0,0:0:0:0:
465,101,866897,2,0,L|479:184,1,85.0000016212464,0|0,1:0|0:0,0:0:0:0:
479,184,867154,1,4,0:3:0:0:
479,184,867240,2,0,P|426:160|373:169,1,85.0000016212464,2|0,0:0|0:0,0:0:0:0:
241,226,867583,1,0,1:0:0:0:
241,226,867669,1,4,0:3:0:0:
241,226,867754,1,2,0:0:0:0:
264,54,867926,6,0,P|183:42|129:103,1,170.000003242493,4|0,0:3|1:0,0:0:0:0:
24,227,868440,1,0,0:0:0:0:
24,227,868526,1,4,0:3:0:0:
24,227,868612,2,0,P|53:170|41:124,1,85.0000016212464,2|4,0:0|0:3,0:0:0:0:
110,271,868954,2,0,P|113:312|137:347,1,85.0000016212464,0|0,1:3|0:0,0:0:0:0:
137,347,869212,1,0,0:0:0:0:
137,347,869297,6,0,B|184:330|184:330|215:338|215:338|283:314,1,127.50000243187,6|2,0:3|0:0,0:0:0:0:
284,318,869639,1,2,1:3:0:0:
284,318,869725,2,0,P|316:344|358:350,1,85.0000016212464,2|0,0:0|0:0,0:0:0:0:
358,350,869982,1,2,0:3:0:0:
492,384,870154,2,0,L|510:248,1,127.50000243187,2|2,1:3|0:0,0:0:0:0:
509,258,870497,2,0,P|487:237|458:228,1,42.5000008106232,2|2,0:3|0:0,0:0:0:0:
354,262,870669,6,0,L|337:159,1,85.0000016212464,4|0,0:3|0:0,0:0:0:0:
451,91,871012,1,0,1:0:0:0:
340,178,871183,2,0,P|268:170|219:63,1,170.000003242493,2|4,0:0|0:3,0:0:0:0:
126,38,871697,2,0,P|119:102|82:137,1,85.0000016212464,0|0,1:0|0:0,0:0:0:0:
108,117,871954,1,0,0:0:0:0:
108,117,872040,6,0,L|14:131,1,85.0000016212464,4|0,0:3|0:0,0:0:0:0:
154,267,872383,1,0,1:0:0:0:
79,220,872554,1,0,0:0:0:0:
79,220,872640,1,4,0:3:0:0:
79,220,872726,1,2,0:0:0:0:
68,308,872897,1,4,0:3:0:0:
149,357,873069,2,0,L|239:373,1,85.0000016212464,0|0,1:0|0:0,0:0:0:0:
406,246,873412,5,4,0:3:0:0:
406,246,873497,2,0,P|349:262|299:339,1,127.50000243187,2|0,0:0|1:0,0:0:0:0:
502,305,873926,1,4,0:3:0:0:
502,305,874012,2,0,L|486:145,1,127.50000243187,0|4,0:0|0:3,0:0:0:0:
435,22,874440,1,0,1:0:0:0:
435,22,874526,2,0,P|415:94|392:113,1,85.0000016212464,2|0,0:0|0:0,0:0:0:0:
409,99,874783,5,4,0:3:0:0:
322,77,874954,1,4,0:3:0:0:
252,133,875126,1,0,1:0:0:0:
252,133,875212,2,0,P|199:95|119:102,1,127.50000243187,2|2,0:0|0:0,0:0:0:0:
196,259,875640,2,0,P|185:199|145:172,1,85.0000016212464,4|0,0:3|1:0,0:0:0:0:
170,183,876497,1,0,1:0:0:0:
260,325,876669,6,0,B|369:342|369:342|461:283,1,179.999994506836,4|4,0:3|0:3,0:0:0:0:
379,168,877183,2,0,P|347:219|354:281,1,89.9999972534181,0|0,1:0|0:0,0:0:0:0:
345,248,877440,1,0,0:0:0:0:
345,248,877526,6,0,P|295:195|186:216,1,179.999994506836,4|0,0:3|1:0,0:0:0:0:
105,352,878040,1,0,0:0:0:0:
105,352,878126,1,4,0:3:0:0:
105,352,878212,2,0,P|131:292|121:248,1,89.9999972534181,2|4,0:0|0:3,0:0:0:0:
64,131,878554,1,0,1:0:0:0:
64,131,878640,1,4,0:3:0:0:
64,131,878726,1,2,0:0:0:0:
192,63,878897,6,0,L|314:44,1,94.9999974632264,4|0,0:3|0:0,0:0:0:0:
427,102,879240,1,0,1:0:0:0:
259,153,879412,1,2,0:0:0:0:
259,153,879497,1,4,0:3:0:0:
259,153,879583,1,2,0:0:0:0:
365,226,879754,1,4,0:3:0:0:
288,342,879926,2,0,P|213:336|177:307,1,94.9999974632264,0|0,1:0|0:0,0:0:0:0:
197,326,880183,1,0,0:0:0:0:
197,326,880269,6,0,B|186:276|186:276|217:219,1,100,4|2,0:3|0:0,0:0:0:0:
404,368,880612,2,0,L|416:316,2,50,2|0|2,0:3|0:0|0:3,0:0:0:0:
505,263,880954,2,0,P|439:229|364:225,2,150,2|2|2,0:0|0:0|0:0,0:0:0:0:
450,96,881640,6,0,B|436:49|478:17|478:17|213:36,1,350,2|0,0:3|0:0,0:0:0:0:
206,25,884212,2,0,P|190:14|171:12,1,37.5000014305115,2|2,0:3|0:0,0:0:0:0:
88,30,884383,6,0,P|62:81|81:137,1,85.0000016212464,4|0,0:3|0:0,0:0:0:0:
131,258,884726,1,0,1:0:0:0:
64,107,884897,2,0,B|94:170|94:170|223:184,1,170.000003242493,4|4,0:3|0:3,0:0:0:0:
361,215,885412,2,0,L|262:231,1,85.0000016212464,0|0,1:0|0:0,0:0:0:0:
458,351,885754,5,4,0:3:0:0:
377,316,885926,1,4,0:3:0:0:
305,365,886097,2,0,P|263:360|208:317,1,85.0000016212464,0|0,1:0|0:0,0:0:0:0:
193,180,886440,2,0,P|151:185|96:228,1,85.0000016212464,0|4,0:0|0:3,0:0:0:0:
40,357,886783,2,0,L|25:262,1,85.0000016212464,0|0,1:0|0:0,0:0:0:0:
70,113,887126,6,0,P|105:178|207:168,1,170.000003242493,4|0,0:3|1:0,0:0:0:0:
331,89,887640,2,0,P|269:98|236:136,2,85.0000016212464,4|0|4,0:3|0:0|0:3,0:0:0:0:
490,138,888154,1,0,1:0:0:0:
389,179,888326,1,4,0:3:0:0:
385,19,888497,6,0,P|433:36|460:83,1,85.0000016212464,4|0,0:3|0:0,0:0:0:0:
453,279,888840,2,0,B|273:251,1,170.000003242493,0|0,1:0|0:0,0:0:0:0:
128,316,889354,1,4,0:3:0:0:
213,197,889526,2,0,P|171:204|139:231,1,85.0000016212464,0|0,1:0|0:0,0:0:0:0:
48,383,889869,6,0,L|32:276,1,85.0000016212464,4|0,0:3|0:0,0:0:0:0:
68,73,890212,2,0,L|55:157,1,85.0000016212464,0|0,1:0|0:0,0:0:0:0:
55,157,890469,1,4,0:3:0:0:
55,157,890554,1,2,0:0:0:0:
149,128,890726,1,4,0:3:0:0:
213,197,890897,2,0,P|254:189|286:162,1,85.0000016212464,0|0,1:0|0:0,0:0:0:0:
369,39,891240,6,0,B|361:103|361:103|381:130|381:130|371:212,1,170.000003242493,6|0,0:3|1:0,0:0:0:0:
467,188,891754,2,0,L|476:104,1,85.0000016212464,2|2,0:0|0:0,0:0:0:0:
372,201,892097,1,4,0:3:0:0:
475,281,892269,2,2,B|432:273|432:273|395:293,1,85.0000016212464,0|2,1:0|0:0,0:0:0:0:
249,356,892612,6,0,P|177:354|130:244,1,170.000003242493,4|0,0:3|1:0,0:0:0:0:
200,130,893126,2,0,P|188:201|158:226,2,85.0000016212464,0|0|4,0:0|0:0|0:3,0:0:0:0:
61,46,893640,2,0,L|160:64,1,85.0000016212464,0|0,1:0|0:0,0:0:0:0:
294,16,893983,6,0,L|377:0,1,85.0000016212464,4|0,0:3|0:0,0:0:0:0:
492,87,894326,1,0,1:0:0:0:
425,209,894497,1,0,0:0:0:0:
425,209,894583,1,4,0:3:0:0:
425,209,894669,1,2,0:0:0:0:
476,284,894840,1,4,0:3:0:0:
420,354,895012,2,0,P|359:346|325:309,1,85.0000016212464,0|0,1:0|0:0,0:0:0:0:
237,195,895354,5,4,0:3:0:0:
237,195,895440,2,0,L|257:359,1,127.50000243187,2|0,0:0|1:0,0:0:0:0:
39,243,895869,1,4,0:3:0:0:
39,243,895954,2,0,P|92:276|155:275,1,127.50000243187,2|4,0:0|0:3,0:0:0:0:
247,104,896383,1,0,1:0:0:0:
247,104,896469,2,0,P|205:105|168:132,1,85.0000016212464,2|0,0:0|0:0,0:0:0:0:
170,129,896726,5,4,0:3:0:0:
237,195,896897,1,4,0:3:0:0:
337,66,897069,1,0,1:0:0:0:
337,66,897154,2,0,P|296:24|209:9,1,127.50000243187,2|0,0:0|0:0,0:0:0:0:
231,6,897497,2,0,L|168:20,1,42.5000008106232,2|4,0:0|0:3,0:0:0:0:
407,181,897754,2,0,L|325:160,1,85.0000016212464,0|0,1:0|0:0,0:0:0:0:
502,295,898097,6,0,P|417:305|385:379,1,170.000003242493,4|0,0:3|1:0,0:0:0:0:
218,322,898612,2,0,P|254:343|296:348,1,85.0000016212464,4|0,0:3|0:0,0:0:0:0:
282,172,898954,1,4,0:3:0:0:
284,259,899126,2,0,P|340:240|367:208,1,85.0000016212464,0|0,1:0|0:0,0:0:0:0:
348,74,899469,6,0,L|163:104,1,170.000003242493,4|0,0:3|1:0,0:0:0:0:
33,47,899983,1,0,0:0:0:0:
33,47,900069,1,4,0:3:0:0:
33,47,900154,1,2,0:0:0:0:
119,30,900326,1,4,0:3:0:0:
57,208,900497,1,0,1:0:0:0:
57,208,900583,1,4,0:3:0:0:
57,208,900669,1,2,0:0:0:0:
253,242,900840,6,0,P|174:300|109:271,1,170.000003242493,4|0,0:3|1:0,0:0:0:0:
285,160,901354,1,0,0:0:0:0:
285,160,901440,1,4,0:3:0:0:
285,160,901526,1,2,0:0:0:0:
344,228,901697,1,4,0:3:0:0:
427,197,901869,2,0,L|445:102,1,85.0000016212464,0|0,1:0|0:0,0:0:0:0:
403,300,902212,6,0,B|339:284|339:284|323:256|323:256|238:239,2,170.000003242493,4|0|2,0:3|0:0|0:0,0:0:0:0:
354,121,903069,2,0,B|310:126|310:126|261:170,1,85.0000016212464,2|0,0:3|3:0,0:0:0:0:
258,154,903326,1,0,3:0:0:0:
237,146,903412,1,0,3:0:0:0:
221,131,903497,1,0,3:0:0:0:
210,112,903583,5,4,3:1:0:0:
