osu file format v14

[General]
AudioFilename: audio.mp3
AudioLeadIn: 0
PreviewTime: 30151
Countdown: 0
SampleSet: Soft
StackLeniency: 0.2
Mode: 0
LetterboxInBreaks: 0
WidescreenStoryboard: 0

[Editor]
DistanceSpacing: 0.6
BeatDivisor: 4
GridSize: 4
TimelineZoom: 2.3

[Metadata]
Title:Run Wild (feat. Ina)
TitleUnicode:Run Wild (feat. Ina)
Artist:Ralvero
ArtistUnicode:Ralvero
Creator:Gaia
Version:Insane
Source:
Tags:dnb
BeatmapID:1300300
BeatmapSetID:616567

[Difficulty]
HPDrainRate:6
CircleSize:4
OverallDifficulty:8
ApproachRate:9
SliderMultiplier:1.8
SliderTickRate:1

[Events]
//Background and Video events
0,0,"710217.jpg",0,0
//Break Periods
//Storyboard Layer 0 (Background)
//Storyboard Layer 1 (Fail)
//Storyboard Layer 2 (Pass)
//Storyboard Layer 3 (Foreground)
//Storyboard Sound Samples

[TimingPoints]
826,300,4,2,1,20,1,0
826,-250,4,2,1,20,0,0
1126,-133.333333333333,4,2,1,20,0,0
1426,-250,4,2,1,20,0,0
1726,-133.333333333333,4,2,1,20,0,0
2026,-250,4,2,1,20,0,0
2326,-133.333333333333,4,2,1,20,0,0
2626,-250,4,2,1,20,0,0
2926,-133.333333333333,4,2,1,20,0,0
3226,-250,4,2,1,25,0,0
3526,-133.333333333333,4,2,1,25,0,0
3826,-250,4,2,1,25,0,0
4126,-133.333333333333,4,2,1,25,0,0
4426,-250,4,2,1,25,0,0
4726,-133.333333333333,4,2,1,25,0,0
5026,-250,4,2,1,25,0,0
5326,-133.333333333333,4,2,1,25,0,0
5626,-250,4,2,1,30,0,0
5926,-133.333333333333,4,2,1,30,0,0
6226,-250,4,2,1,30,0,0
6526,-133.333333333333,4,2,1,30,0,0
6826,-250,4,2,1,30,0,0
7126,-133.333333333333,4,2,1,30,0,0
7426,-250,4,2,1,30,0,0
7726,-133.333333333333,4,2,1,30,0,0
8026,-250,4,2,1,35,0,0
8326,-133.333333333333,4,2,1,35,0,0
8626,-250,4,2,1,35,0,0
8926,-133.333333333333,4,2,1,35,0,0
9226,-250,4,2,1,35,0,0
9526,-133.333333333333,4,2,1,35,0,0
9826,-250,4,2,1,35,0,0
10126,-133.333333333333,4,2,1,35,0,0
10426,-125,4,2,1,40,0,0
12826,-125,4,2,1,25,0,0
12901,-125,4,2,1,40,0,0
15226,-125,4,2,1,25,0,0
15301,-125,4,2,1,40,0,0
17626,-125,4,2,1,25,0,0
17701,-125,4,2,1,40,0,0
20026,-125,4,2,1,25,0,0
20101,-125,4,2,1,40,0,0
22426,-125,4,2,1,25,0,0
22501,-125,4,2,1,40,0,0
24826,-125,4,2,1,25,0,0
24901,-125,4,2,1,40,0,0
27226,-71.4285714285714,4,2,1,40,0,0
29026,-350,4,2,1,20,0,0
29626,-100,4,2,1,50,0,0
31426,-150,4,2,1,50,0,0
32026,-100,4,2,1,50,0,0
33826,-150,4,2,1,50,0,0
34426,-100,4,2,1,50,0,0
36226,-83.3333333333333,4,2,1,50,0,0
36526,-166.666666666667,4,2,1,50,0,0
36826,-100,4,2,1,50,0,0
38026,-71.4285714285714,4,2,1,50,0,0
38326,-83.3333333333333,4,2,1,50,0,0
38626,-100,4,2,1,50,0,0
38926,-125,4,2,1,50,0,0
39226,-100,4,2,1,50,0,0
41026,-150,4,2,1,50,0,0
41626,-100,4,2,1,50,0,0
43426,-150,4,2,1,50,0,0
44026,-100,4,2,1,50,0,0
45826,-250,4,2,1,50,0,0
46426,-100,4,2,1,50,0,0
48226,-76.9230769230769,4,2,1,50,0,0
48526,-111.111111111111,4,2,1,50,0,0
48826,-166.666666666666,4,2,1,30,0,0
51226,-166.666666666666,4,2,1,40,0,0
53626,-83.3333333333333,4,2,1,50,0,0
56026,-83.3333333333333,4,2,1,60,0,0
56626,-41.6666666666667,4,2,1,40,0,0
58426,-90.9090909090909,4,2,2,60,0,1
59626,-181.818181818182,4,2,2,60,0,1
60826,-90.9090909090909,4,2,2,60,0,1
62026,-181.818181818182,4,2,2,60,0,1
62626,-105.263157894737,4,2,2,60,0,1
63226,-90.9090909090909,4,2,2,60,0,1
64726,-181.818181818182,4,2,2,60,0,1
65626,-153.846153846153,4,2,2,60,0,1
66226,-100,4,2,2,60,0,1
66526,-133.333333333333,4,2,2,30,0,1
66826,-100,4,2,2,50,0,1
67126,-62.5,4,2,2,60,0,1
68026,-90.9090909090909,4,2,2,60,0,1
69226,-181.818181818182,4,2,2,60,0,1
70426,-90.9090909090909,4,2,2,60,0,1
71626,-181.818181818181,4,2,2,60,0,1
72226,-105.263157894737,4,2,2,60,0,1
72826,-90.9090909090909,4,2,2,60,0,1
74326,-166.666666666667,4,2,2,60,0,1
74626,-55.5555555555556,4,2,2,60,0,1
74776,-200,4,2,2,60,0,1
75226,-125,4,2,2,60,0,1
77026,-400,4,2,2,30,0,0
77626,-90.9090909090909,4,2,2,70,0,1
79126,-142.857142857143,4,2,2,70,0,1
79726,-111.111111111111,4,2,2,70,0,1
80026,-90.909090909091,4,2,2,70,0,1
83926,-142.857142857143,4,2,2,70,0,1
84826,-90.9090909090909,4,2,2,70,0,1
85726,-90.9090909090909,4,2,2,30,0,1
86026,-125,4,2,2,50,0,1
86326,-62.5,4,2,2,70,0,1
87226,-90.9090909090909,4,2,2,70,0,1
88726,-142.857142857143,4,2,2,70,0,1
89626,-90.9090909090909,4,2,2,70,0,1
94426,-90.9090909090909,4,2,2,70,0,0
96226,-90.9090909090909,4,2,2,40,0,0

[Colours]
Combo1 : 81,159,255
Combo2 : 128,255,255

[HitObjects]
356,40,826,6,0,L|348:96,1,54
272,60,1126,2,0,P|219:70|160:76,1,101.250003862381,2|0,0:0|0:0,0:0:0:0:
84,64,1426,2,0,L|100:128,1,54
172,75,1726,2,0,P|222:69|271:59,1,101.250003862381,2|0,0:0|0:0,0:0:0:0:
364,112,2026,6,0,P|380:148|376:176,1,54
288,196,2326,2,0,P|272:236|292:304,1,101.250003862381,2|0,0:0|0:0,0:0:0:0:
340,368,2626,2,0,P|365:358|404:352,1,54
283,291,2926,2,0,P|271:242|287:195,1,101.250003862381,2|0,0:0|0:0,0:0:0:0:
284,96,3226,6,0,P|253:103|216:108,1,54
172,184,3526,2,0,P|128:164|64:168,1,101.250003862381,2|0,0:0|0:0,0:0:0:0:
0,64,3826,2,0,P|36:73|60:76,1,54
75,164,4126,2,0,P|126:163|172:184,1,101.250003862381,2|0,0:0|0:0,0:0:0:0:
252,244,4426,6,0,P|257:218|272:184,1,54
340,128,4726,2,0,L|464:108,1,101.250003862381,2|0,0:0|0:0,0:0:0:0:
512,32,5026,2,0,P|491:27|456:20,1,54
439,111,5326,2,0,L|340:128,1,101.250003862381,2|0,0:0|0:0,0:0:0:0:
244,100,5626,6,0,P|240:68|252:40,1,54
336,148,5926,2,0,L|324:268,1,101.250003862381,2|0,0:0|0:0,0:0:0:0:
424,248,6226,2,0,P|431:222|426:195,1,54
336,148,6526,2,0,L|325:248,1,101.250003862381,2|0,0:0|0:0,0:0:0:0:
332,348,6826,6,0,P|312:340|278:330,1,54
224,252,7126,2,0,P|171:267|112:276,1,101.250003862381,2|0,0:0|0:0,0:0:0:0:
128,180,7426,2,0,P|152:177|192:164,1,54
224,252,7726,2,0,P|171:267|112:276,1,101.250003862381,2|0,0:0|0:0,0:0:0:0:
44,220,8026,6,0,P|28:248|28:284,1,54
112,156,8326,2,0,L|100:44,1,101.250003862381,2|0,0:0|0:0,0:0:0:0:
240,120,8626,2,0,P|256:148|256:184,1,54
122,256,8926,2,0,L|110:144,1,101.250003862381,2|0,0:0|0:0,0:0:0:0:
260,256,9226,6,0,P|256:284|244:312,1,54
136,352,9526,2,0,P|180:328|256:328,1,101.250003862381,2|0,0:0|0:0,0:0:0:0:
122,256,9826,2,0,P|96:252|56:240,1,54
136,352,10126,2,0,P|180:328|256:328,1,101.250003862381,2|0,0:0|0:0,0:0:0:0:
362,263,10426,6,0,P|315:314|246:307,1,144,2|2,3:2|0:0,0:0:0:0:
196,216,10876,1,2,0:0:0:0:
230,322,11776,5,2,0:0:0:0:
284,240,12076,1,2,0:0:0:0:
188,236,12826,6,0,L|40:260,1,144,0|2,3:0|0:0,0:0:0:0:
92,168,13276,1,2,0:0:0:0:
124,332,13576,1,2,0:0:0:0:
124,332,15226,6,0,P|144:272|92:204,1,144,0|2,3:0|0:0,0:0:0:0:
8,176,15676,1,2,0:0:0:0:
84,112,16576,5,2,0:0:0:0:
102,208,16876,1,2,0:0:0:0:
8,176,17626,6,0,P|81:162|152:144,1,144,0|2,3:0|0:0,0:0:0:0:
176,52,18076,1,2,0:0:0:0:
108,248,18376,1,2,0:0:0:0:
308,156,20026,6,0,P|248:156|208:232,1,144,0|2,3:0|0:0,0:0:0:0:
260,304,20476,1,2,0:0:0:0:
260,304,21376,5,2,0:0:0:0:
308,208,21676,1,2,0:0:0:0:
207,221,22426,6,0,P|215:152|220:76,1,144,0|2,3:0|0:0,0:0:0:0:
168,0,22876,1,2,0:0:0:0:
312,116,23176,1,2,0:0:0:0:
176,144,24826,6,0,P|168:217|160:304,1,144,0|2,3:0|0:0,0:0:0:0:
80,204,25276,1,2,0:0:0:0:
256,228,26176,5,2,0:0:0:0:
80,204,26476,1,2,0:0:0:0:
188,120,27226,5,2,0:0:0:0:
188,120,27301,1,2,0:0:0:0:
188,120,27376,2,0,P|216:111|248:96,2,62.9999980773926,2|2|2,0:0|0:0|0:0,0:0:0:0:
96,80,27676,1,2,0:0:0:0:
176,148,27826,1,2,0:0:0:0:
100,224,27976,1,2,0:0:0:0:
20,152,28126,1,2,0:0:0:0:
188,120,28276,1,0,0:0:0:0:
112,256,28426,5,2,0:0:0:0:
112,256,28501,1,2,0:0:0:0:
112,256,28576,2,0,P|123:292|132:324,5,62.9999980773926,2|2|2|2|2|2,0:0|0:0|0:0|0:0|0:0|0:0,0:0:0:0:
64,160,29026,6,0,L|160:172,1,90,2|0,0:0|0:0,0:0:0:0:
272,124,29626,6,0,P|196:180|240:280,1,180,6|2,3:2|0:0,0:0:0:0:
336,324,30076,2,0,P|332:290|320:224,1,90,2|10,0:0|0:2,0:0:0:0:
288,44,30376,1,0,0:0:0:0:
316,212,30526,1,2,0:0:0:0:
400,112,30676,1,0,0:0:0:0:
156,116,30826,6,0,P|204:124|260:128,1,90,2|2,3:2|0:0,0:0:0:0:
384,24,31126,1,0,0:0:0:0:
316,212,31276,1,2,0:0:0:0:
264,32,31426,6,0,P|269:75|276:132,1,90,10|0,0:0|0:0,0:0:0:0:
185,301,31726,2,0,P|190:256|196:211,1,90,2|0,0:0|0:0,0:0:0:0:
172,176,32026,6,0,B|260:208|260:136|360:184,1,180,2|2,3:2|0:0,0:0:0:0:
448,304,32476,2,0,P|403:310|352:320,1,90,2|8,0:0|0:0,0:0:0:0:
180,328,32776,1,0,0:0:0:0:
296,244,32926,1,2,0:0:0:0:
300,384,33076,1,0,0:0:0:0:
280,264,33226,6,0,P|268:192|260:80,1,180,2|2,3:2|0:0,0:0:0:0:
364,136,33676,1,2,0:0:0:0:
180,220,33826,6,0,P|173:179|168:116,1,90,10|0,0:0|0:0,0:0:0:0:
264,297,34126,2,0,P|216:312|160:337,1,90,2|0,0:0|0:0,0:0:0:0:
292,184,34426,6,0,B|348:188|400:216|400:216|416:176|384:144,1,180,2|2,3:2|0:0,0:0:0:0:
344,28,34876,2,0,P|303:39|248:48,1,90,2|8,0:0|0:0,0:0:0:0:
72,88,35176,1,2,0:0:0:0:
192,144,35326,1,2,0:0:0:0:
160,4,35476,1,0,0:0:0:0:
104,180,35626,6,0,L|120:292,1,90,2|0,3:2|0:0,0:0:0:0:
284,160,35926,2,0,L|271:70,1,90,2|0,0:0|0:0,0:0:0:0:
412,224,36226,2,0,P|368:300|264:292,1,161.999995056153,10|0,0:0|0:0,0:0:0:0:
292,316,36526,6,0,P|332:322|372:334,1,80.9999975280763,2|0,0:0|0:0,0:0:0:0:
288,196,36826,6,0,L|92:232,1,180,2|2,3:2|0:0,0:0:0:0:
8,164,37276,2,0,L|0:260,1,90,2|8,0:0|0:0,0:0:0:0:
112,112,37576,1,0,0:0:0:0:
132,252,37726,2,0,L|144:352,1,90,2|0,0:0|0:0,0:0:0:0:
288,196,38026,6,0,B|340:156|304:80|304:80|252:100|252:148,1,188.999994232178,2|0,3:2|0:0,0:0:0:0:
236,320,38326,6,0,B|239:372|314:389|314:389|324:340|283:317,1,161.999995056153,2|0,0:0|0:0,0:0:0:0:
176,196,38626,6,0,B|128:172|84:204|84:204|96:232|128:228,1,135,10|0,0:0|0:0,0:0:0:0:
370,263,38926,6,0,B|412:271|438:239|438:239|420:215|378:227,1,108,2|0,0:0|0:0,0:0:0:0:
288,196,39226,6,0,B|279:123|268:80|268:80|296:72|332:52,1,180,2|2,3:2|0:0,0:0:0:0:
184,160,39676,2,0,P|150:155|72:140,1,90,2|10,0:0|0:0,0:0:0:0:
360,132,39976,1,2,0:0:0:0:
212,260,40126,1,2,0:0:0:0:
164,64,40276,1,0,0:0:0:0:
232,180,40426,6,0,P|238:243|248:376,1,180,2|2,3:2|0:0,0:0:0:0:
370,263,40876,1,2,0:0:0:0:
132,232,41026,6,0,P|135:267|140:332,1,90,10|0,0:0|0:0,0:0:0:0:
368,292,41326,2,0,P|364:327|360:392,1,90,2|0,0:0|0:0,0:0:0:0:
440,172,41626,6,0,B|360:212|344:148|264:172,1,180,2|2,3:2|0:0,0:0:0:0:
160,248,42076,1,2,0:0:0:0:
396,84,42226,2,0,L|496:64,1,90,10|0,0:0|0:0,0:0:0:0:
280,16,42526,1,2,0:0:0:0:
388,104,42676,1,2,0:0:0:0:
248,188,42826,6,0,P|200:244|248:364,1,180,2|2,3:2|0:0,0:0:0:0:
328,320,43276,1,2,0:0:0:0:
428,368,43426,6,0,P|448:336|440:280,1,90,10|0,0:0|0:0,0:0:0:0:
388,104,43726,2,0,P|366:142|372:186,1,90,2|0,0:0|0:0,0:0:0:0:
375,197,44026,6,0,B|323:171|247:187|247:187|239:159|211:141,1,180,2|2,3:2|0:0,0:0:0:0:
92,80,44476,1,2,0:0:0:0:
200,124,44626,2,0,P|248:115|308:100,1,90,10|0,0:0|0:0,0:0:0:0:
112,192,44926,2,0,P|96:244|128:304,1,90,2|0,0:0|0:0,0:0:0:0:
312,360,45226,6,0,P|320:316|305:274,1,90,2|0,3:2|0:0,0:0:0:0:
124,308,45526,2,0,L|228:328,1,90,2|0,0:0|0:0,0:0:0:0:
372,185,45826,6,0,L|248:208,1,126,10|0,0:0|0:0,0:0:0:0:
240,200,46426,6,0,P|246:147|248:96,1,90,2|0,3:2|0:0,0:0:0:0:
84,44,46726,2,0,P|92:89|100:144,1,90,2|2,0:0|0:0,0:0:0:0:
124,308,47026,2,0,P|84:332|28:336,1,90,8|0,0:0|0:0,0:0:0:0:
112,192,47326,2,0,L|216:204,1,90,2|0,0:0|0:0,0:0:0:0:
380,224,47626,5,2,3:2:0:0:
228,300,47776,1,2,0:0:0:0:
204,108,47926,2,0,P|257:118|308:124,1,90,2|2,0:0|0:0,0:0:0:0:
452,280,48226,2,0,P|368:276|316:352,1,175.499991966248,8|0,0:0|0:0,0:0:0:0:
312,360,48526,2,0,P|272:352|200:344,1,80.9999975280763,2|0,0:0|0:0,0:0:0:0:
136,320,48826,6,0,L|148:380,1,53.9999983520508,4|0,3:2|0:0,0:0:0:0:
92,232,49126,2,0,L|160:220,1,53.9999983520508,0|0,3:0|0:0,0:0:0:0:
232,176,49426,2,0,L|244:236,1,53.9999983520508,0|0,3:2|0:0,0:0:0:0:
188,88,49726,2,0,L|256:76,1,53.9999983520508,0|0,3:0|0:0,0:0:0:0:
380,152,50026,6,0,P|356:149|316:140,1,53.9999983520508,0|0,3:0|0:0,0:0:0:0:
268,12,50326,2,0,P|272:42|276:84,1,53.9999983520508,0|0,3:0|0:0,0:0:0:0:
221,228,50626,2,0,P|224:204|233:172,1,53.9999983520508,0|0,3:0|0:0,0:0:0:0:
188,88,50926,2,0,P|164:90|124:100,1,53.9999983520508,0|0,3:0|0:0,0:0:0:0:
92,188,51226,6,0,P|65:183|40:172,1,53.9999983520508,0|0,3:0|0:0,0:0:0:0:
92,284,51526,2,0,P|118:278|144:270,1,53.9999983520508,0|0,3:0|0:0,0:0:0:0:
260,296,51826,2,0,P|243:316|220:336,1,53.9999983520508,0|0,3:0|0:0,0:0:0:0:
360,322,52126,2,0,P|361:291|360:266,1,53.9999983520508,0|0,3:0|0:0,0:0:0:0:
236,192,52426,6,0,P|271:203|300:208,1,53.9999983520508,0|0,3:0|0:0,0:0:0:0:
432,164,52726,2,0,P|403:173|379:178,1,53.9999983520508,0|0,3:0|0:0,0:0:0:0:
208,160,53026,2,0,P|243:171|272:176,1,53.9999983520508,0|0,3:0|0:0,0:0:0:0:
436,136,53326,2,0,P|407:145|383:150,1,53.9999983520508,0|0,3:0|0:0,0:0:0:0:
259,174,53626,5,0,3:2:0:0:
376,128,53776,1,0,3:2:0:0:
200,91,53926,5,0,3:2:0:0:
428,44,54076,1,0,3:2:0:0:
240,180,54226,5,0,3:2:0:0:
408,216,54376,1,0,3:2:0:0:
181,86,54526,5,0,3:2:0:0:
500,240,54676,1,0,3:2:0:0:
224,184,54826,5,0,3:2:0:0:
432,24,54976,1,0,3:2:0:0:
165,84,55126,5,0,3:2:0:0:
432,344,55276,1,0,3:2:0:0:
212,188,55426,5,0,3:2:0:0:
484,136,55576,1,0,3:2:0:0:
153,80,55726,5,0,3:2:0:0:
268,368,55876,1,0,3:2:0:0:
196,196,56026,5,0,3:0:0:0:
239,158,56101,1,0,3:0:0:0:
296,158,56176,1,0,3:0:0:0:
342,192,56251,1,0,3:0:0:0:
366,244,56326,1,0,3:0:0:0:
373,301,56401,1,0,3:0:0:0:
415,340,56476,1,0,3:0:0:0:
471,329,56551,1,0,3:0:0:0:
491,275,56626,6,0,P|467:266|426:259,7,53.9999983520508,0|0|0|0|0|0|0|0,3:0|0:0|3:0|0:0|3:0|0:0|3:0|0:0,0:0:0:0:
272,249,56926,6,0,L|196:268,8,53.9999983520508,0|0|0|0|0|0|0|0|0,3:0|0:0|3:0|0:0|3:0|0:0|3:0|0:0|3:0,0:0:0:0:
287,231,58426,6,0,P|279:158|266:81,1,132.00000402832,6|2,3:2|0:0,0:0:0:0:
136,48,58726,2,0,P|82:56|56:105,1,99.0000030212403,2|0,0:0|3:0,0:0:0:0:
26,198,58951,1,2,0:0:0:0:
37,210,59026,2,0,P|90:186|172:171,1,132.00000402832,10|2,0:0|0:0,0:0:0:0:
269,100,59326,2,0,P|322:124|407:133,1,132.00000402832,2|2,0:0|0:0,0:0:0:0:
444,50,59626,6,0,P|422:86|424:127,1,74.2500022659302,2|0,0:0|0:0,0:0:0:0:
492,231,59926,2,0,P|449:242|405:258,1,74.2500022659302,2|0,3:2|0:0,0:0:0:0:
360,353,60226,1,10,0:0:0:0:
419,142,60376,1,0,3:0:0:0:
319,200,60526,2,0,P|288:195|239:180,1,74.2500022659302,2|0,0:0|0:0,0:0:0:0:
239,175,60826,6,0,P|248:251|253:313,1,132.00000402832,2|2,3:2|0:0,0:0:0:0:
85,349,61126,2,0,P|67:297|122:252,1,99.0000030212403,2|0,0:0|3:0,0:0:0:0:
150,185,61351,1,2,0:0:0:0:
146,204,61426,2,0,P|94:219|8:227,1,132.00000402832,10|2,0:0|0:0,0:0:0:0:
0,123,61726,2,0,P|65:117|129:99,1,132.00000402832,2|2,0:0|0:0,0:0:0:0:
221,47,62026,6,0,P|229:86|234:134,1,74.2500022659302,2|0,0:0|0:0,0:0:0:0:
133,277,62326,2,0,P|137:240|145:203,1,74.2500022659302,2|0,3:2|0:0,0:0:0:0:
364,224,62626,2,0,P|297:234|233:254,1,128.249996575356,10|0,0:0|0:0,0:0:0:0:
25,157,62926,2,0,P|86:175|149:184,1,128.249996575356,2|0,0:0|0:0,0:0:0:0:
253,137,63226,6,0,P|220:90|251:20,1,132.00000402832,2|2,3:2|0:0,0:0:0:0:
345,30,63526,2,0,P|366:67|346:121,1,99.0000030212403,2|0,0:0|3:0,0:0:0:0:
307,232,63751,1,2,0:0:0:0:
328,212,63826,2,0,B|373:213|416:192|416:192|446:212|442:237,1,132.00000402832,10|2,0:0|0:0,0:0:0:0:
508,324,64126,2,0,B|512:334|482:354|482:354|439:333|394:334,1,132.00000402832,2|2,0:0|0:0,0:0:0:0:
287,306,64426,6,0,P|214:322|130:335,1,132.00000402832,2|2,0:2|0:0,0:0:0:0:
57,289,64726,2,0,P|68:326|76:360,1,74.2500022659302,2|0,3:2|0:0,0:0:0:0:
69,377,65026,1,10,0:0:0:0:
145,216,65176,1,2,3:2:0:0:
40,209,65326,2,0,P|51:246|59:280,1,74.2500022659302,2|0,0:0|0:0,0:0:0:0:
57,289,65626,6,0,B|132:264|136:328|232:288,1,175.499991966248,2|0,3:2|3:0,0:0:0:0:
324,344,66226,2,0,P|325:305|332:240,1,90,10|0,0:0|0:0,0:0:0:0:
360,152,66526,2,0,P|302:175|252:180,1,101.250003862381,2|0,3:0|0:0,0:0:0:0:
184,92,66826,6,0,P|236:124|232:216,1,135,2|0,3:0|0:0,0:0:0:0:
131,237,67126,2,0,P|98:143|184:92,1,216,2|0,3:0|0:0,0:0:0:0:
245,192,67426,5,10,0:0:0:0:
128,260,67576,1,8,0:3:0:0:
72,136,67726,1,8,0:3:0:0:
204,180,67876,1,8,0:3:0:0:
80,344,68026,6,0,P|86:287|96:196,1,132.00000402832,6|2,3:2|0:0,0:0:0:0:
192,81,68326,2,0,P|196:129|204:185,1,99.0000030212403,2|0,0:0|3:2,0:0:0:0:
276,324,68551,1,2,0:0:0:0:
288,304,68626,2,0,P|244:264|176:284,1,132.00000402832,10|2,0:0|0:0,0:0:0:0:
304,176,68926,2,0,P|348:216|416:196,1,132.00000402832,2|2,0:0|0:0,0:0:0:0:
412,108,69226,6,0,P|385:91|328:96,1,74.2500022659302,2|0,0:2|0:0,0:0:0:0:
260,32,69526,2,0,P|223:43|176:51,1,74.2500022659302,2|0,3:2|0:0,0:0:0:0:
88,24,69826,1,10,0:0:0:0:
232,136,69976,1,2,3:2:0:0:
145,216,70126,2,0,P|112:207|57:200,1,74.2500022659302,2|0,0:0|0:0,0:0:0:0:
72,201,70426,6,0,P|168:180|224:136,1,132.00000402832,2|2,3:2|0:0,0:0:0:0:
260,32,70726,2,0,P|228:72|240:144,1,99.0000030212403,2|0,0:0|3:2,0:0:0:0:
316,232,70951,1,2,0:0:0:0:
336,240,71026,2,0,P|330:183|320:104,1,132.00000402832,10|2,0:0|0:0,0:0:0:0:
428,56,71326,2,0,P|436:121|443:187,1,132.00000402832,2|2,0:0|0:0,0:0:0:0:
428,284,71626,6,0,P|460:274|508:268,1,74.2500022659302,2|0,0:0|0:0,0:0:0:0:
263,224,71926,2,0,P|295:233|343:240,1,74.2500022659302,2|0,3:2|0:0,0:0:0:0:
184,288,72226,6,0,P|236:260|328:256,1,128.249996575356,10|0,0:0|0:0,0:0:0:0:
440,144,72526,2,0,P|376:137|320:108,1,128.249996575356,2|0,0:0|0:0,0:0:0:0:
176,44,72826,6,0,B|180:88|196:136|196:136|172:152|160:172,1,132.00000402832,2|2,3:2|0:0,0:0:0:0:
56,144,73126,2,0,L|44:256,1,99.0000030212403,2|0,0:0|3:0,0:0:0:0:
112,364,73351,1,2,0:0:0:0:
100,340,73426,2,0,P|156:296|236:328,1,132.00000402832,10|2,0:0|0:0,0:0:0:0:
303,252,73726,2,0,P|359:296|439:264,1,132.00000402832,2|2,0:0|0:0,0:0:0:0:
388,180,74026,6,0,L|360:32,1,132.00000402832,2|2,0:0|0:0,0:0:0:0:
252,16,74326,2,0,P|224:52|236:96,1,80.9999975280763,2|0,3:2|0:0,0:0:0:0:
248,172,74626,6,0,P|250:132|224:103,1,80.9999975280763,10|0,0:0|0:0,0:0:0:0:
168,160,74776,6,0,P|111:168|56:176,1,112.5,2|0,3:2|0:0,0:0:0:0:
192,260,75226,6,0,P|232:272|288:276,1,72,2|0,0:0|0:0,0:0:0:0:
416,152,75526,2,0,L|336:164,1,72,2|0,0:0|0:0,0:0:0:0:
184,272,75826,2,0,P|224:284|280:288,1,72,2|0,0:0|0:0,0:0:0:0:
424,144,76126,2,0,L|344:156,1,72,2|0,0:0|0:0,0:0:0:0:
248,300,76426,5,2,0:0:0:0:
340,172,76576,2,0,P|356:104|292:44,1,144,2|0,0:0|0:0,0:0:0:0:
223,102,77026,6,0,P|224:148|240:180,1,78.75,6|0,0:0|0:0,0:0:0:0:
244,188,77626,6,0,L|112:172,1,99.0000030212403,6|2,3:2|0:0,0:0:0:0:
24,284,77926,1,2,0:0:0:0:
128,156,78076,1,2,3:2:0:0:
188,296,78226,2,0,L|286:307,1,99.0000030212403,10|0,0:0|0:0,0:0:0:0:
460,248,78526,1,2,0:0:0:0:
280,204,78676,1,2,0:0:0:0:
416,356,78826,5,2,0:0:0:0:
284,324,78976,1,0,0:0:0:0:
372,232,79126,2,0,P|366:183|356:120,1,94.499997116089,2|0,3:2|0:0,0:0:0:0:
344,128,79426,1,10,0:0:0:0:
484,160,79576,1,0,3:0:0:0:
280,204,79726,2,0,P|214:216|140:228,1,121.499996292114,2|0,0:0|0:0,0:0:0:0:
152,232,80026,6,0,P|159:178|163:122,1,99.0000030212403,2|2,3:2|0:0,0:0:0:0:
260,12,80326,1,2,0:0:0:0:
276,172,80476,1,2,3:2:0:0:
160,104,80626,1,10,0:0:0:0:
344,88,80776,1,0,0:0:0:0:
280,204,80926,1,2,0:0:0:0:
256,40,81076,1,2,0:0:0:0:
280,204,81226,6,0,P|273:259|268:320,1,99.0000030212403,2|0,0:0|0:0,0:0:0:0:
53,221,81526,2,0,P|108:225|157:233,1,99.0000030212403,2|0,3:2|0:0,0:0:0:0:
184,104,81826,2,0,L|176:144,6,24.7500007553101,10|0|2|0|2|0|2,0:0|0:0|0:0|0:0|0:0|0:0|0:0,0:0:0:0:
256,40,82126,1,2,0:0:0:0:
180,236,82276,1,2,0:0:0:0:
376,224,82426,6,0,P|371:182|360:120,1,99.0000030212403,2|2,3:2|0:0,0:0:0:0:
272,188,82726,1,2,0:0:0:0:
464,160,82876,1,2,3:2:0:0:
348,320,83026,2,0,P|397:310|456:300,1,99.0000030212403,10|0,0:0|0:0,0:0:0:0:
256,192,83326,2,0,P|207:200|158:210,1,99.0000030212403,2|0,0:0|0:0,0:0:0:0:
320,332,83626,5,2,0:0:0:0:
272,188,83776,1,2,0:0:0:0:
376,224,83926,2,0,P|412:220|456:180,1,94.499997116089,2|0,3:2|0:0,0:0:0:0:
464,160,84226,1,10,0:0:0:0:
445,301,84376,1,0,3:0:0:0:
368,120,84526,2,0,P|331:111|252:100,1,94.499997116089,2|0,0:0|0:0,0:0:0:0:
280,92,84826,6,0,P|222:103|152:116,1,99.0000030212403,2|0,3:2|0:0,0:0:0:0:
20,156,85126,1,2,0:0:0:0:
208,24,85276,1,2,3:2:0:0:
288,216,85426,1,10,0:0:0:0:
288,216,85726,1,2,0:3:0:0:
200,124,85876,1,2,0:0:0:0:
372,144,86026,6,0,L|384:276,1,108,2|0,0:3|0:0,0:0:0:0:
396,304,86326,6,0,L|376:85,1,216,2|0,0:3|0:0,0:0:0:0:
368,12,86626,5,10,0:0:0:0:
387,196,86776,1,8,0:3:0:0:
200,124,86926,1,8,0:3:0:0:
376,88,87076,1,8,0:3:0:0:
276,236,87226,6,0,P|234:249|172:260,1,99.0000030212403,6|2,3:2|0:0,0:0:0:0:
156,42,87526,2,0,P|192:78|192:150,1,99.0000030212403,2|2,0:0|3:2,0:0:0:0:
104,312,87826,1,10,0:0:0:0:
112,120,87976,1,0,0:0:0:0:
292,272,88126,1,2,0:0:0:0:
168,224,88276,1,2,0:0:0:0:
288,148,88426,6,0,P|342:152|408:156,1,99.0000030212403,2|0,0:0|0:0,0:0:0:0:
292,272,88726,2,0,P|277:325|276:376,1,94.499997116089,2|0,3:2|0:0,0:0:0:0:
292,372,89026,1,10,0:0:0:0:
388,184,89176,1,0,3:0:0:0:
172,236,89326,1,2,0:0:0:0:
400,336,89476,1,2,0:0:0:0:
268,136,89626,6,0,L|284:256,1,99.0000030212403,2|2,3:2|0:0,0:0:0:0:
80,376,89926,2,0,P|64:320|120:280,1,99.0000030212403,2|0,0:0|3:0,0:0:0:0:
264,108,90226,1,10,0:0:0:0:
200,324,90376,1,2,0:0:0:0:
100,168,90526,2,0,L|104:192,6,24.7500007553101,2|0|2|0|2|0|2,0:0|0:0|0:0|0:0|0:0|0:0|0:0,0:0:0:0:
40,112,90826,5,2,0:2:0:0:
85,289,90976,1,2,0:0:0:0:
184,32,91126,1,2,3:2:0:0:
184,212,91276,1,2,0:0:0:0:
340,40,91426,1,10,0:0:0:0:
124,136,91576,1,2,0:0:0:0:
280,268,91726,2,0,P|286:242|284:200,1,49.5000015106202,2|0,0:0|0:0,0:0:0:0:
264,108,91876,6,0,L|304:112,4,24.7500007553101,2|0|2|0|2,0:0|0:0|0:0|0:0|3:2,0:0:0:0:
176,16,92176,1,2,0:0:0:0:
192,224,92326,1,2,0:0:0:0:
328,116,92476,1,2,3:2:0:0:
84,88,92626,2,0,P|90:138|96:200,1,99.0000030212403,10|0,0:0|0:0,0:0:0:0:
262,365,92926,2,0,P|268:324|282:257,1,99.0000030212403,2|0,0:0|0:0,0:0:0:0:
408,96,93226,5,2,0:0:0:0:
380,272,93376,1,2,0:0:0:0:
204,180,93526,1,2,3:2:0:0:
328,164,93676,1,0,0:0:0:0:
260,380,93826,5,10,0:0:0:0:
80,208,93976,1,2,3:2:0:0:
296,44,94126,1,2,0:0:0:0:
332,188,94276,1,0,0:0:0:0:
208,144,94426,5,2,0:0:0:0:
256,192,94501,12,4,96226,0:0:0:0:
