osu file format v14

[General]
AudioFilename: audio.mp3
AudioLeadIn: 0
PreviewTime: 139342
Countdown: 0
SampleSet: Soft
StackLeniency: 0.7
Mode: 2
LetterboxInBreaks: 0
WidescreenStoryboard: 1

[Editor]
Bookmarks: 97855,141717
DistanceSpacing: 1.5
BeatDivisor: 4
GridSize: 16
TimelineZoom: 2.3

[Metadata]
Title:Unknown Actor (feat. Ishadoh Sakura)
TitleUnicode:Unknown Actor (feat. 伊舎堂さくら)
Artist:Raito
ArtistUnicode:来兎
Creator:JierYagtama
Version:Rain
Source:アンダーナイトインヴァース エクセレイト エスト
Tags:jeiryagtama UNDER NIGHT IN-BIRTH Exe:Late[st]. unist French-Bread Japanese Video Game
BeatmapID:2395463
BeatmapSetID:1147176

[Difficulty]
HPDrainRate:6
CircleSize:4.2
OverallDifficulty:8.8
ApproachRate:8.8
SliderMultiplier:1.9
SliderTickRate:1

[Events]
//Background and Video events
0,0,"unist.jpg",0,0
//Break Periods
//Storyboard Layer 0 (Background)
//Storyboard Layer 1 (Fail)
//Storyboard Layer 2 (Pass)
//Storyboard Layer 3 (Foreground)
//Storyboard Layer 4 (Overlay)
//Storyboard Sound Samples

[TimingPoints]
774,413.793103448276,4,2,0,70,1,0
1809,413.793103448276,4,2,1,70,1,0
3050,-100,4,2,0,70,0,0
4705,-100,4,2,1,70,0,0
5119,-100,4,2,1,70,0,0
6774,-100,4,2,0,70,0,0
7809,-100,4,2,1,70,0,0
8015,-100,4,2,2,70,0,0
8119,-100,4,2,1,70,0,0
8429,-100,4,2,2,70,0,0
8636,-100,4,2,1,70,0,0
9877,-100,4,2,0,70,0,0
10912,-71.4285714285714,4,2,1,70,0,0
11740,-100,4,2,2,70,0,0
11946,-100,4,2,1,70,0,0
15050,-100,4,2,2,70,0,0
15257,-100,4,2,1,70,0,0
15360,-83.3333333333333,4,2,1,70,0,0
15567,-83.3333333333333,4,2,0,70,0,0
16084,-100,4,2,1,70,0,0
16291,-100,4,2,0,70,0,0
16498,-100,4,2,1,70,0,0
16705,-100,4,2,0,70,0,0
17946,-100,4,2,1,70,0,0
18671,-83.3333333333333,4,2,1,70,0,0
18877,-83.3333333333333,4,2,0,70,0,0
19395,-100,4,2,1,70,0,0
19602,-100,4,2,0,70,0,0
19809,-100,4,2,1,70,0,0
20015,-100,4,2,0,70,0,0
21050,-100,4,2,1,70,0,0
21981,-83.3333333333333,4,2,1,70,0,0
22188,-83.3333333333333,4,2,0,70,0,0
22912,-100,4,2,0,70,0,0
24567,-100,4,2,1,70,0,0
25602,-100,4,2,0,70,0,0
28602,-83.3333333333333,4,2,0,70,0,0
29119,-100,4,2,1,70,0,0
29946,-100,4,2,0,70,0,0
31188,-100,4,2,1,70,0,0
31912,-83.3333333333333,4,2,0,70,0,0
32429,-100,4,2,1,70,0,0
33257,-100,4,2,0,70,0,0
33567,-83.3333333333333,4,2,0,70,0,0
34084,-100,4,2,1,70,0,0
34602,-100,4,2,0,70,0,0
34912,-100,4,2,1,70,0,0
35222,-83.3333333333333,4,2,0,70,0,0
35740,-100,4,2,1,70,0,0
36360,-100,4,2,0,70,0,0
37291,-76.9230769230769,4,2,0,70,0,0
37809,-100,4,2,1,70,0,0
38222,-100,4,2,0,70,0,0
38429,-100,4,2,1,70,0,0
39050,-83.3333333333333,4,2,0,70,0,0
40705,-100,4,2,0,70,0,0
44222,-100,4,2,1,70,0,0
44636,-100,4,2,0,70,0,0
45877,-100,4,2,1,70,0,0
53946,-100,4,2,0,70,0,0
54774,-100,4,2,1,70,0,0
57257,-100,4,2,0,70,0,0
58084,-83.3333333333333,4,2,1,75,0,1
79602,-83.3333333333333,4,2,0,75,0,1
79912,-83.3333333333333,4,2,1,75,0,1
81050,-83.3333333333333,4,2,2,75,0,1
81153,-83.3333333333333,4,2,1,75,0,1
81257,-83.3333333333333,4,2,0,75,0,1
81464,-83.3333333333333,4,2,1,75,0,1
82912,-83.3333333333333,4,2,0,75,0,1
83222,-83.3333333333333,4,2,1,75,0,1
84567,-83.3333333333333,4,2,1,75,0,0
84981,-83.3333333333333,4,2,1,75,0,1
86222,-100,4,2,2,70,0,0
86533,-100,4,2,1,70,0,0
86843,-100,4,2,2,70,0,0
86946,-100,4,2,1,70,0,0
87257,-100,4,2,2,70,0,0
87464,-100,4,2,1,70,0,0
87671,-100,4,2,2,70,0,0
87774,-100,4,2,1,70,0,0
88084,-100,4,2,2,70,0,0
88291,-100,4,2,1,70,0,0
88498,-100,4,2,2,70,0,0
88705,-100,4,2,1,70,0,0
88912,-100,4,2,2,70,0,0
89119,-100,4,2,1,70,0,0
89326,-100,4,2,2,70,0,0
89429,-100,4,2,1,70,0,0
89740,-100,4,2,2,70,0,0
89843,-100,4,2,1,70,0,0
90153,-100,4,2,2,70,0,0
90257,-100,4,2,1,70,0,0
90567,-100,4,2,2,70,0,0
90671,-100,4,2,1,70,0,0
91188,-100,4,2,2,70,0,0
91395,-100,4,2,1,70,0,0
91602,-100,4,2,2,70,0,0
91809,-100,4,2,1,70,0,0
92015,-100,4,2,2,70,0,0
92222,-100,4,2,1,70,0,0
92429,-100,4,2,2,70,0,0
92636,-100,4,2,1,70,0,0
92843,-100,4,2,2,70,0,0
93050,-100,4,2,1,70,0,0
93153,-100,4,2,2,70,0,0
93360,-100,4,2,1,70,0,0
93464,-100,4,2,2,70,0,0
93671,-100,4,2,1,70,0,0
93877,-100,4,2,2,70,0,0
94084,-100,4,2,1,70,0,0
94291,-100,4,2,2,70,0,0
94498,-100,4,2,1,70,0,0
94705,-100,4,2,2,70,0,0
94809,-100,4,2,1,70,0,0
95119,-100,4,2,2,70,0,0
95188,-100,4,2,1,70,0,0
95533,-100,4,2,2,70,0,0
95602,-100,4,2,1,70,0,0
95947,-100,4,2,2,70,0,0
96051,-100,4,2,1,70,0,0
96360,-100,4,2,2,70,0,0
96464,-100,4,2,1,70,0,0
96774,-100,4,2,2,70,0,0
96878,-100,4,2,1,70,0,0
97188,-100,4,2,2,70,0,0
97292,-100,4,2,1,70,0,0
97602,-100,4,2,2,70,0,0
97706,-100,4,2,1,70,0,0
98119,-83.3333333333333,4,2,1,70,0,0
98326,-83.3333333333333,4,2,0,70,0,0
98843,-100,4,2,0,70,0,0
100705,-100,4,2,1,70,0,0
101429,-83.3333333333333,4,2,1,70,0,0
101636,-83.3333333333333,4,2,0,70,0,0
102154,-100,4,2,0,70,0,0
103809,-100,4,2,1,70,0,0
104740,-83.3333333333333,4,2,1,70,0,0
104946,-83.3333333333333,4,2,0,70,0,0
105671,-100,4,2,0,70,0,0
107326,-100,4,2,1,70,0,0
108567,-100,4,2,0,70,0,0
111050,-100,4,2,1,70,0,0
111360,-83.3333333333333,4,2,0,70,0,0
111878,-100,4,2,1,70,0,0
112705,-100,4,2,0,70,0,0
113946,-100,4,2,1,70,0,0
114671,-83.3333333333333,4,2,0,70,0,0
115188,-100,4,2,1,70,0,0
116015,-100,4,2,0,70,0,0
116326,-83.3333333333333,4,2,0,70,0,0
116843,-100,4,2,1,70,0,0
117361,-100,4,2,0,70,0,0
117671,-100,4,2,1,70,0,0
117981,-83.3333333333333,4,2,0,70,0,0
118499,-100,4,2,1,70,0,0
119119,-100,4,2,0,70,0,0
120050,-76.9230769230769,4,2,0,70,0,0
120568,-100,4,2,1,70,0,0
120981,-100,4,2,0,70,0,0
121395,-100,4,2,1,70,0,0
121809,-83.3333333333333,4,2,0,70,0,0
123464,-100,4,2,0,70,0,0
126929,-100,4,2,1,70,0,0
127395,-100,4,2,0,70,0,0
128636,-100,4,2,1,70,0,0
129671,-100,4,2,0,70,0,0
130084,-100,4,2,1,70,0,0
135877,-100,4,2,0,70,0,0
136084,-100,4,2,1,70,0,0
136705,-100,4,2,0,70,0,0
137533,-100,4,2,1,70,0,0
140015,-100,4,2,0,70,0,0
140843,-83.3333333333333,4,2,1,70,0,1
162360,-83.3333333333333,4,2,0,70,0,1
162774,-83.3333333333333,4,2,1,70,0,1
163809,-83.3333333333333,4,2,2,70,0,1
163912,-83.3333333333333,4,2,1,70,0,1
164015,-83.3333333333333,4,2,0,70,0,1
164222,-83.3333333333333,4,2,1,70,0,1
165671,-83.3333333333333,4,2,0,70,0,1
166602,-83.3333333333333,4,2,1,70,0,1
167326,-83.3333333333333,4,2,1,70,0,0
167740,-83.3333333333333,4,2,1,70,0,1
168981,-100,4,2,1,70,0,0
171257,-100,4,2,2,70,0,0
171464,-100,4,2,1,70,0,0
171671,-100,4,2,2,70,0,0
171877,-100,4,2,1,70,0,0
172084,-100,4,2,2,70,0,0
172188,-100,4,2,1,70,0,0
172498,-100,4,2,2,70,0,0
173119,-100,4,2,1,70,0,0
173326,-100,4,2,2,70,0,0
173533,-100,4,2,1,70,0,0
173740,-100,4,2,2,70,0,0
173843,-100,4,2,1,70,0,0
174153,-100,4,2,2,70,0,0
174360,-100,4,2,1,70,0,0
174567,-100,4,2,2,70,0,0
174774,-100,4,2,1,70,0,0
174981,-100,4,2,2,70,0,0
175395,-100,4,2,1,70,0,0
175809,-100,4,2,2,70,0,0
176015,-100,4,2,1,70,0,0
176222,-100,4,2,2,70,0,0
176429,-100,4,2,1,70,0,0
176636,-100,4,2,2,70,0,0
176740,-100,4,2,1,70,0,0
177050,-100,4,2,2,70,0,0
177257,-100,4,2,1,70,0,0
177464,-100,4,2,2,70,0,0
177671,-100,4,2,1,70,0,0
177878,-100,4,2,2,70,0,0
178084,-100,4,2,1,70,0,0
178291,-100,4,2,2,70,0,0
178498,-100,4,2,1,70,0,0
179119,-100,4,2,2,70,0,0
179326,-100,4,2,1,70,0,0
179533,-100,4,2,2,70,0,0
179602,-100,4,2,1,70,0,0
179947,-100,4,2,2,70,0,0
180015,-100,4,2,1,70,0,0
180360,-100,4,2,2,70,0,0
180412,-100,4,2,1,70,0,0
180774,-100,4,2,2,70,0,0
180826,-100,4,2,1,70,0,0
181188,-100,4,2,2,70,0,0
181257,-100,4,2,1,70,0,0
181602,-100,4,2,2,70,0,0
181705,-100,4,2,1,70,0,0
185015,-100,4,2,0,70,0,0
185533,-100,4,2,1,70,0,0
186671,-100,4,2,0,70,0,0
187189,-100,4,2,1,70,0,0
188326,-100,4,2,0,70,0,0
188844,-100,4,2,1,70,0,0
198774,-83.3333333333333,4,2,1,70,0,1
207050,-83.3333333333333,4,2,0,70,0,1
207360,-83.3333333333333,4,2,1,70,0,1
208705,-83.3333333333333,4,2,0,70,0,1
209015,-83.3333333333333,4,2,1,70,0,1
210360,-83.3333333333333,4,2,0,70,0,1
211291,-83.3333333333333,4,2,1,70,0,1
212015,-83.3333333333333,4,2,1,70,0,0
212429,-83.3333333333333,4,2,1,70,0,1
213671,-100,4,2,0,70,0,0
217188,-71.4285714285714,4,2,0,20,0,0

[Colours]
Combo1 : 198,0,0
Combo2 : 0,0,160
Combo3 : 255,255,106
Combo4 : 207,27,95
Combo5 : 233,233,233

[HitObjects]
143,192,774,5,2,0:0:0:0:
342,189,980,1,0,0:0:0:0:
228,184,1187,2,0,L|228:110,1,47.5,2|0,0:0|0:0,0:0:0:0:
399,130,1601,1,2,0:0:0:0:
125,148,1809,6,0,L|127:37,1,95
251,52,2119,1,2,0:0:0:0:
134,52,2326,1,0,0:0:0:0:
298,139,2429,2,0,P|397:113|375:35,1,190,2|0,0:0|0:0,0:0:0:0:
271,47,3050,1,0,0:0:0:0:
449,49,3257,2,0,L|454:123,1,47.5,2|0,0:0|0:0,0:0:0:0:
273,190,3464,6,0,L|153:185,1,95,2|0,0:0|0:0,0:0:0:0:
177,121,3774,1,2,0:0:0:0:
291,124,3981,1,0,0:0:0:0:
290,67,4084,1,2,0:0:0:0:
20,71,4291,2,0,L|183:71,1,142.5,2|2,0:0|0:0,0:0:0:0:
219,72,4705,1,4,0:0:0:0:
104,72,4912,1,2,0:0:0:0:
377,275,5119,6,0,L|390:166,1,95,2|0,0:0|0:0,0:0:0:0:
297,166,5429,2,0,L|284:57,1,95,2|0,0:0|0:0,0:0:0:0:
458,131,5740,2,0,P|480:71|374:59,1,190,2|0,0:0|0:0,0:0:0:0:
269,58,6360,1,0,0:0:0:0:
155,53,6567,2,0,L|240:50,1,47.5,0|0,0:0|0:0,0:0:0:0:
379,212,6774,6,0,L|383:88,1,95,2|0,0:0|0:0,0:0:0:0:
219,115,7188,2,0,L|104:112,1,95,0|2,0:0|0:0,0:0:0:0:
390,165,7602,1,2,0:0:0:0:
275,166,7809,1,2,0:0:0:0:
331,162,7912,1,0,0:0:0:0:
390,165,8015,2,0,L|389:34,1,95,2|0,0:0|0:0,0:0:0:0:
33,174,8429,6,0,L|31:52,1,95,4|0,0:1|0:0,0:0:0:0:
89,73,8740,2,0,L|211:71,1,95,2|0,0:0|0:0,0:0:0:0:
321,222,9050,2,0,P|389:212|314:165,1,190,2|0,0:0|0:0,0:0:0:0:
144,183,9671,2,0,L|117:56,1,95,0|2,0:0|0:0,0:0:0:0:
170,85,9981,1,0,0:0:0:0:
355,88,10084,6,0,L|505:80,2,142.5,2|2|2,0:0|0:0|0:0,0:0:0:0:
67,225,10912,2,0,L|31:52,1,132.999995941162,4|0,2:3|0:0,0:0:0:0:
208,163,11222,2,0,L|244:-10,1,132.999995941162,4|0,2:3|0:0,0:0:0:0:
154,27,11533,1,4,0:3:0:0:
80,26,11636,1,0,0:0:0:0:
298,75,11740,6,0,L|400:70,2,95,4|0|8,1:0|0:0|0:0,0:0:0:0:
184,79,12360,1,0,0:0:0:0:
352,103,12567,1,2,0:0:0:0:
78,173,12774,2,0,P|120:101|233:105,1,190,8|0,0:0|0:0,0:0:0:0:
280,100,13291,1,0,0:0:0:0:
80,168,13395,6,0,L|75:40,1,95,2|0,0:0|0:0,0:0:0:0:
200,75,13809,1,8,0:0:0:0:
77,71,14015,1,0,0:0:0:0:
269,174,14222,2,0,L|402:167,1,95,2|4,0:0|0:0,0:0:0:0:
363,110,14533,1,2,0:0:0:0:
83,109,14740,2,0,L|204:109,1,95,0|0,1:2|0:0,0:0:0:0:
363,110,15050,6,0,P|390:71|349:65,1,95,4|0,1:0|0:0,0:0:0:0:
254,54,15360,2,0,L|127:51,1,113.999996520996,2|2,0:0|0:0,0:0:0:0:
346,152,15774,2,0,P|397:100|304:83,1,170.999994781494,2|0,0:0|0:0,0:0:0:0:
209,57,16291,2,0,L|313:57,1,95,2|0,0:0|0:0,0:0:0:0:
301,126,16602,1,0,0:0:0:0:
131,157,16705,6,0,L|131:54,1,95,2|0,0:0|0:0,0:0:0:0:
225,65,17015,2,0,L|108:61,1,95,2|0,0:0|0:0,0:0:0:0:
400,161,17429,2,0,L|213:155,1,142.5,2|0,0:0|0:0,0:0:0:0:
444,174,17946,2,0,L|451:64,1,95,4|0,0:0|0:0,0:0:0:0:
183,86,18360,6,0,L|316:83,1,95,2|0,0:0|0:0,0:0:0:0:
183,86,18671,2,0,L|20:88,1,113.999996520996,2|2,0:0|0:0,0:0:0:0:
277,162,19084,2,0,P|237:82|129:105,1,170.999994781494,2|0,0:0|0:0,0:0:0:0:
287,79,19602,2,0,L|402:76,1,95,2|0,0:0|0:0,0:0:0:0:
387,138,19912,1,0,0:0:0:0:
210,189,20015,6,0,L|190:80,1,95,2|0,0:0|0:0,0:0:0:0:
290,132,20326,2,0,L|394:128,1,95,2|0,0:0|0:0,0:0:0:0:
89,41,20740,2,0,L|244:42,1,142.5,2|2,0:0|0:0,0:0:0:0:
53,146,21257,1,4,0:0:0:0:
47,94,21360,1,0,0:0:0:0:
47,46,21464,1,0,0:0:0:0:
319,52,21671,6,0,L|428:51,1,95,2|0,0:0|0:0,0:0:0:0:
288,104,21981,2,0,L|165:105,1,113.999996520996,2|2,3:2|0:0,0:0:0:0:
495,276,22395,2,0,L|490:86,1,170.999994781494,2|0,0:0|0:0,0:0:0:0:
367,114,22912,2,0,L|482:112,1,95,2|0,0:0|0:0,0:0:0:0:
399,113,23222,1,0,0:0:0:0:
220,184,23326,6,0,L|92:186,1,95,2|0,0:0|0:0,0:0:0:0:
216,160,23636,2,0,L|88:162,1,95,2|0,0:0|0:0,0:0:0:0:
397,216,24050,2,0,L|221:215,1,142.5,2|0,0:0|0:0,0:0:0:0:
428,219,24567,2,0,L|427:112,1,95,4|0,0:0|0:0,0:0:0:0:
163,129,24981,6,0,L|316:130,1,142.5,2|2,0:0|0:0,0:0:0:0:
67,161,25602,2,0,L|65:98,1,47.5,2|0,0:0|0:0,0:0:0:0:
162,112,25809,2,0,L|315:115,2,142.5,2|2|2,0:0|0:0|0:0,0:0:0:0:
100,116,26533,1,0,0:0:0:0:
260,205,26636,6,0,L|299:84,1,95,2|0,0:0|0:0,0:0:0:0:
188,126,26946,2,0,L|158:35,1,95,2|0,0:0|0:0,0:0:0:0:
221,35,27257,1,2,0:0:0:0:
322,37,27360,2,0,L|450:38,1,95,0|0,0:0|0:0,0:0:0:0:
229,189,27671,2,0,L|225:59,1,95,4|0,0:0|0:0,0:0:0:0:
394,150,27981,2,0,L|396:55,1,95,4|0,0:0|0:0,0:0:0:0:
199,60,28291,6,0,L|94:58,1,95,4|0,1:0|0:0,0:0:0:0:
216,61,28602,1,2,0:0:0:0:
67,59,28809,1,2,0:0:0:0:
213,44,29015,1,2,0:0:0:0:
389,165,29119,2,0,L|487:165,1,95,2|0,0:0|0:0,0:0:0:0:
313,135,29533,2,0,L|199:132,1,95,8|0,0:0|0:0,0:0:0:0:
483,229,29946,6,0,L|486:118,1,95,2|0,0:0|0:0,0:0:0:0:
385,131,30257,2,0,L|495:130,1,95,2|0,0:0|0:0,0:0:0:0:
357,123,30671,1,2,0:0:0:0:
189,113,30774,2,0,L|314:108,1,95,0|0,0:0|0:0,0:0:0:0:
457,92,31188,2,0,L|332:87,1,95,8|0,0:0|0:0,0:0:0:0:
90,139,31602,6,0,L|94:27,1,95,2|0,0:0|0:0,0:0:0:0:
222,50,31912,2,0,L|347:54,1,113.999996520996,2|2,0:0|0:0,0:0:0:0:
198,51,32326,1,2,0:0:0:0:
365,144,32429,2,0,L|500:133,1,95,2|0,0:0|0:0,0:0:0:0:
337,118,32843,2,0,L|458:106,1,95,8|0,0:0|0:0,0:0:0:0:
431,51,33153,1,0,0:0:0:0:
239,105,33257,6,0,L|136:96,1,95,2|0,0:0|0:0,0:0:0:0:
274,72,33567,2,0,L|398:63,1,113.999996520996,2|0,0:0|0:0,0:0:0:0:
250,63,33981,1,2,0:0:0:0:
50,190,34084,2,0,L|175:187,1,95,2|2,0:0|0:0,0:0:0:0:
30,190,34498,1,2,0:0:0:0:
194,173,34602,2,0,L|121:250,1,95,4|0,0:2|0:0,0:0:0:0:
309,193,34912,6,0,L|436:198,1,95,4|0,1:0|0:0,0:0:0:0:
236,123,35222,1,2,0:0:0:0:
99,114,35429,1,2,0:0:0:0:
235,100,35636,1,2,0:0:0:0:
48,125,35740,2,0,L|46:7,1,95,8|0,0:0|0:0,0:0:0:0:
159,41,36153,2,0,L|64:39,1,95,8|2,0:0|0:0,0:0:0:0:
121,37,36464,1,0,0:0:0:0:
303,108,36567,6,0,L|422:102,1,95,2|0,0:0|0:0,0:0:0:0:
275,81,36877,2,0,L|172:74,1,95,2|0,0:0|0:0,0:0:0:0:
329,80,37291,1,2,0:0:0:0:
138,122,37395,2,0,L|289:127,1,123.499994346619,0|2,0:0|0:0,0:0:0:0:
433,92,37809,6,0,L|322:92,1,95,8|0,0:0|0:0,0:0:0:0:
69,84,38222,2,0,L|67:192,1,95,4|0,2:0|0:0,0:0:0:0:
181,176,38636,1,8,0:0:0:0:
67,168,38843,1,0,0:0:0:0:
411,184,39050,6,0,L|240:182,2,170.999994781494,2|2|2,0:0|0:0|0:0,0:0:0:0:
89,156,39877,2,0,L|259:157,2,170.999994781494,2|2|2,0:0|0:0|0:0,0:0:0:0:
370,184,40705,2,0,L|403:49,1,95,2|0,0:0|0:0,0:0:0:0:
230,107,41015,2,0,L|125:99,1,95,2|0,0:0|0:0,0:0:0:0:
134,45,41326,1,2,0:0:0:0:
203,50,41429,1,0,0:0:0:0:
396,168,41533,6,0,P|430:118|327:70,1,190,4|0,1:0|0:0,0:0:0:0:
229,62,42153,1,2,0:0:0:0:
44,59,42360,2,0,L|151:61,2,95,2|0|2,0:0|0:0|0:0,0:0:0:0:
325,249,42981,2,0,P|502:176|446:37,1,380,4|2,0:0|0:0,0:0:0:0:
342,34,44015,1,2,0:0:0:0:
76,69,44222,2,0,L|80:188,1,95,2|0,0:0|0:0,0:0:0:0:
349,226,44636,6,0,P|203:211|317:79,1,380,4|2,0:0|0:0,0:0:0:0:
350,77,45567,1,0,0:0:0:0:
402,77,45671,1,2,0:0:0:0:
230,130,45877,2,0,L|223:60,1,47.5
315,112,46084,1,0,0:0:0:0:
39,239,46291,6,0,L|57:26,1,190,4|0,3:1|0:0,0:0:0:0:
227,62,46912,2,0,L|328:57,1,95,0|0,0:0|0:0,0:0:0:0:
216,57,47326,2,0,L|138:56,1,47.5,0|0,0:0|0:0,0:0:0:0:
330,136,47533,2,0,L|451:128,1,95,12|0,0:0|0:0,0:0:0:0:
140,160,47946,6,0,L|142:40,1,95,4|0,1:0|0:0,0:0:0:0:
246,58,48360,2,0,L|176:60,1,47.5,2|0,0:0|0:0,0:0:0:0:
293,107,48567,2,0,L|418:107,1,95,8|0,0:0|0:0,0:0:0:0:
113,178,48981,6,0,L|117:56,1,95,2|2,0:0|0:0,0:0:0:0:
220,100,49291,2,0,L|116:19,1,95,8|0,0:0|0:0,0:0:0:0:
346,207,49602,2,0,P|431:189|404:77,1,190,4|0,1:0|0:0,0:0:0:0:
380,100,50119,1,0,0:0:0:0:
327,100,50222,1,8,0:0:0:0:
431,104,50429,1,0,0:0:0:0:
163,135,50636,5,2,0:0:0:0:
326,135,50843,1,2,0:0:0:0:
163,135,51050,1,8,0:0:0:0:
447,209,51257,2,0,L|233:206,1,190,4|0,1:0|0:0,0:0:0:0:
431,216,51877,2,0,L|438:100,1,95,8|0,0:0|0:0,0:0:0:0:
331,114,52291,2,0,L|445:116,1,95,2|0,0:0|0:0,0:0:0:0:
246,94,52705,2,0,L|127:92,1,95,8|0,0:0|0:0,0:0:0:0:
203,92,53015,1,0,0:0:0:0:
405,67,53119,6,0,L|302:67,1,95,2|0,0:0|0:0,0:0:0:0:
205,52,53533,2,0,L|324:52,1,95,8|0,0:0|0:0,0:0:0:0:
110,217,53946,2,0,L|80:86,1,95,2|0,0:0|0:0,0:0:0:0:
258,128,54257,1,2,0:0:0:0:
153,124,54464,2,0,L|263:127,1,95,0|0,0:0|0:0,0:0:0:0:
467,178,54774,6,0,L|466:109,1,63.3333333333333,8|8,0:0|0:0,0:0:0:0:
395,117,55050,1,8,0:0:0:0:
190,107,55188,2,0,L|290:110,2,63.3333333333333,8|8|8,0:0|0:0|0:0,0:0:0:0:
423,170,55602,2,0,L|247:160,2,126.666666666667,8|8|8,0:0|0:0|0:0,0:0:0:0:
86,197,56429,5,4,1:0:0:0:
188,96,57050,1,0,0:0:0:0:
364,108,57257,2,0,L|371:28,1,63.3333333333333,2|0,0:0|0:0,0:0:0:0:
190,64,57567,2,0,L|362:64,1,142.5,0|0,0:0|0:0,0:0:0:0:
40,158,58084,6,0,L|40:24,1,113.999996520996,2|0,1:0|0:0,0:0:0:0:
179,48,58395,2,0,L|350:48,1,170.999994781494,2|2,1:0|1:0,0:0:0:0:
241,66,58809,1,0,0:0:0:0:
133,131,58912,2,0,L|125:44,1,56.9999982604981,8|0,0:0|0:0,0:0:0:0:
235,100,59222,2,0,P|227:41|127:62,1,170.999994781494,4|4,0:0|0:0,0:0:0:0:
196,53,59636,1,0,0:0:0:0:
364,115,59740,6,0,L|503:109,1,113.999996520996,6|0,1:0|0:0,0:0:0:0:
281,167,60050,2,0,L|465:120,1,170.999994781494,2|2,1:0|1:0,0:0:0:0:
116,100,60567,2,0,L|116:258,1,113.999996520996,8|0,0:0|0:0,0:0:0:0:
241,212,60877,2,0,P|157:200|152:101,1,170.999994781494,4|4,0:0|0:0,0:0:0:0:
262,128,61291,1,0,0:0:0:0:
369,128,61395,6,0,L|168:119,2,170.999994781494,8|2|2,0:0|1:0|1:0,0:0:0:0:
85,175,62222,2,0,L|85:53,1,113.999996520996,8|0,0:0|0:0,0:0:0:0:
209,113,62533,2,0,P|169:53|59:74,1,170.999994781494,4|4,0:0|0:0,0:0:0:0:
141,56,62946,1,0,0:0:0:0:
328,168,63050,2,0,L|505:165,2,170.999994781494,2|2|2,1:0|1:0|1:0,0:0:0:0:
391,168,63774,1,0,0:0:0:0:
196,204,63877,6,0,L|163:69,1,113.999996520996,12|0,3:0|0:0,0:0:0:0:
339,132,64188,2,0,L|372:-3,1,113.999996520996,12|0,0:0|0:0,0:0:0:0:
166,184,64498,2,0,P|105:144|213:108,1,227.999993041992,4|8,1:0|0:0,0:0:0:0:
405,160,65119,2,0,L|403:45,1,113.999996520996,4|0,0:0|0:0,0:0:0:0:
190,73,65533,2,0,L|353:79,1,113.999996520996,8|0,0:0|0:0,0:0:0:0:
499,217,65843,2,0,L|492:28,1,170.999994781494,4|4,0:0|0:0,0:0:0:0:
430,57,66257,1,0,0:0:0:0:
232,139,66360,6,0,L|100:139,1,113.999996520996,2|0,1:0|0:0,0:0:0:0:
187,137,66671,1,2,1:0:0:0:
119,133,66774,1,0,0:0:0:0:
101,22,66981,1,2,0:0:0:0:
404,201,67188,2,0,L|225:199,2,170.999994781494,2|2|2,1:0|1:0|1:0,0:0:0:0:
341,204,67912,1,0,0:0:0:0:
137,204,68015,6,0,P|159:140|257:149,1,170.999994781494,2|2,1:0|1:0,0:0:0:0:
313,145,68429,1,0,0:0:0:0:
187,136,68636,1,2,1:0:0:0:
412,145,68843,1,2,0:0:0:0:
248,144,69050,1,2,0:0:0:0:
412,136,69257,1,4,0:0:0:0:
70,152,69464,2,0,L|337:149,1,227.999993041992,6|0,1:0|0:0,0:0:0:0:
92,151,70084,2,0,L|96:12,1,113.999996520996,4|0,0:0|0:0,0:0:0:0:
415,51,70498,6,0,L|290:48,1,113.999996520996,8|8,0:0|0:0,0:0:0:0:
183,50,70809,2,0,L|299:53,1,113.999996520996,4|0,0:0|0:0,0:0:0:0:
359,56,71119,1,4,0:0:0:0:
371,118,71222,1,0,0:0:0:0:
137,142,71326,6,0,P|104:82|172:75,1,113.999996520996,2|0,1:0|0:0,0:0:0:0:
247,85,71636,2,0,P|229:29|131:55,1,170.999994781494,2|2,1:0|1:0,0:0:0:0:
240,66,72050,1,0,0:0:0:0:
354,116,72153,2,0,L|467:113,1,113.999996520996,8|0,0:0|0:0,0:0:0:0:
372,127,72464,2,0,L|181:122,1,170.999994781494,4|4,0:0|0:0,0:0:0:0:
263,125,72877,1,0,0:0:0:0:
72,131,72981,6,0,L|73:286,1,113.999996520996,6|0,1:0|0:0,0:0:0:0:
237,244,73291,2,0,P|259:192|155:194,1,170.999994781494,2|2,1:0|1:0,0:0:0:0:
492,173,73809,2,0,L|378:170,1,113.999996520996,8|0,0:0|0:0,0:0:0:0:
254,155,74119,2,0,L|443:158,1,170.999994781494,4|4,0:0|0:0,0:0:0:0:
311,151,74533,1,0,0:0:0:0:
203,69,74636,6,0,L|15:66,2,170.999994781494,2|2|2,1:0|1:0|1:0,0:0:0:0:
476,142,75464,2,0,L|348:143,1,113.999996520996,8|0,0:0|0:0,0:0:0:0:
240,201,75774,2,0,L|245:20,1,170.999994781494,4|4,0:0|0:0,0:0:0:0:
307,31,76188,1,0,0:0:0:0:
102,81,76291,6,0,L|298:78,2,170.999994781494,4|2|2,1:0|1:0|1:0,0:0:0:0:
405,187,77119,2,0,L|352:75,1,113.999996520996,12|0,3:0|0:0,0:0:0:0:
239,111,77429,2,0,L|355:69,1,113.999996520996,12|0,0:0|0:0,0:0:0:0:
114,160,77740,6,0,P|115:71|246:86,1,227.999993041992,4|0,1:0|0:0,0:0:0:0:
429,85,78360,2,0,L|301:82,1,113.999996520996,4|0,0:0|0:0,0:0:0:0:
251,81,78671,1,0,0:0:0:0:
325,166,78774,2,0,L|332:23,1,113.999996520996,8|0,0:0|0:0,0:0:0:0:
116,73,79188,2,0,L|229:68,1,113.999996520996,0|4,0:0|0:0,0:0:0:0:
292,59,79498,1,0,0:0:0:0:
114,230,79602,6,0,L|100:49,1,170.999994781494,4|0,2:0|0:0,0:0:0:0:
185,64,80015,1,4,0:0:0:0:
341,59,80222,1,2,0:0:0:0:
42,66,80429,2,0,L|240:63,2,170.999994781494,2|2|0,1:0|1:0|0:0,0:0:0:0:
116,63,81153,1,0,0:0:0:0:
303,147,81257,6,0,L|429:141,1,113.999996520996,4|0,2:0|0:0,0:0:0:0:
303,122,81567,2,0,L|129:117,1,170.999994781494,4|4,0:0|0:0,0:0:0:0:
344,77,82084,2,0,L|221:75,2,113.999996520996,8|2|4,0:0|0:0|0:0,0:0:0:0:
469,86,82705,2,0,L|472:14,1,56.9999982604981,2|0,0:0|0:0,0:0:0:0:
257,33,82912,6,0,L|53:32,2,170.999994781494,4|2|2,0:0|1:0|1:0,0:0:0:0:
319,41,83636,1,0,0:0:0:0:
138,173,83740,1,4,1:0:0:0:
85,160,83843,1,2,0:0:0:0:
80,107,83946,1,2,0:0:0:0:
128,85,84050,1,2,0:0:0:0:
328,88,84153,2,0,L|270:44,1,56.9999982604981,0|0,0:0|0:0,0:0:0:0:
186,70,84360,2,0,L|244:26,1,56.9999982604981,0|0,0:0|0:0,0:0:0:0:
449,37,84567,2,0,L|449:250,1,170.999994781494
235,272,84981,6,0,P|328:224|92:111,1,569.999982604981,4|0,1:0|0:0,0:0:0:0:
163,86,86119,1,0,0:0:0:0:
363,188,86222,6,0,L|523:181,2,142.5,8|0|0,0:0|0:0|0:0,0:0:0:0:
77,200,87050,2,0,L|83:74,1,95,8|0,0:0|0:0,0:0:0:0:
186,105,87464,2,0,L|78:105,1,95,8|0,0:0|0:0,0:0:0:0:
143,104,87774,1,0,0:0:0:0:
329,155,87877,6,0,L|436:156,2,95,8|0|8,0:0|0:0|0:0,0:0:0:0:
223,153,88498,1,0,0:0:0:0:
395,111,88705,2,0,L|281:107,1,95,8|0,0:0|0:0,0:0:0:0:
124,95,89119,2,0,L|240:95,1,95,8|0,0:0|0:0,0:0:0:0:
271,96,89429,1,0,0:0:0:0:
107,177,89533,6,0,P|62:109|126:105,1,142.5,8|0,0:0|0:0,0:0:0:0:
153,96,89946,1,8,0:0:0:0:
271,96,90153,1,0,0:0:0:0:
219,96,90257,1,0,0:0:0:0:
52,114,90360,2,0,P|90:52|165:65,1,142.5,8|8,0:0|0:0,0:0:0:0:
285,66,90774,1,0,0:0:0:0:
161,69,90981,2,0,L|209:69,1,47.5,8|0,0:0|0:0,0:0:0:0:
378,184,91188,6,0,L|382:83,1,95,8|0,0:0|0:0,0:0:0:0:
257,86,91602,1,8,0:0:0:0:
380,84,91809,1,0,0:0:0:0:
116,84,92015,2,0,L|-7:84,2,95,8|0|8,0:0|0:0|0:0,0:0:0:0:
21,84,92636,2,0,L|80:62,1,47.5,0|0,0:0|0:0,0:0:0:0:
241,146,92843,6,0,L|355:142,1,95,8|0,0:0|0:0,0:0:0:0:
243,119,93153,1,0,0:0:0:0:
428,111,93464,1,0,0:0:0:0:
154,136,93671,2,0,L|271:135,2,95,8|0|8,0:0|0:0|0:0,0:0:0:0:
30,145,94291,1,0,0:0:0:0:
308,278,94498,5,8,0:0:0:0:
364,276,94601,1,0,0:0:0:0:
414,250,94704,1,0,0:0:0:0:
447,205,94808,1,0,0:0:0:0:
360,194,94912,1,8,0:0:0:0:
430,195,95015,1,0,0:0:0:0:
430,124,95118,1,0,0:0:0:0:
381,122,95188,1,0,0:0:0:0:
162,138,95326,6,0,L|133:61,1,47.5,8|0,0:0|0:0,0:0:0:0:
243,88,95533,2,0,L|298:88,1,31.6666666666667
70,47,95740,2,0,L|145:42,1,47.5,8|0,0:0|0:0,0:0:0:0:
197,44,95946,2,0,L|149:47,1,47.5,0|0,0:0|0:0,0:0:0:0:
326,146,96153,6,0,L|402:145,2,47.5,8|0|0,0:0|0:0|0:0,0:0:0:0:
163,144,96464,2,0,L|87:143,2,47.5,8|0|0,0:0|0:0|0:0,0:0:0:0:
373,120,96774,2,0,L|325:121,1,47.5,8|0,0:0|0:0,0:0:0:0:
127,144,96981,6,0,L|124:81,1,47.5,8|0,0:0|0:0,0:0:0:0:
196,96,97188,1,8,0:0:0:0:
266,96,97291,1,0,0:0:0:0:
63,108,97395,2,0,L|77:35,1,47.5,0|0,0:0|0:0,0:0:0:0:
302,90,97602,2,0,L|282:38,1,47.5,0|0,0:0|0:0,0:0:0:0:
107,121,97809,6,0,L|105:10,1,95,4|0,1:0|0:0,0:0:0:0:
212,39,98119,2,0,L|98:41,1,113.999996520996,2|2,0:0|0:0,0:0:0:0:
313,148,98533,2,0,P|364:96|271:79,1,170.999994781494,2|2,0:0|0:0,0:0:0:0:
190,57,99050,2,0,L|285:57,1,95,2|0,0:0|0:0,0:0:0:0:
357,59,99361,1,0,0:0:0:0:
186,124,99464,6,0,L|92:130,1,95,2|0,0:0|0:0,0:0:0:0:
174,97,99774,2,0,L|79:100,1,95,2|0,0:0|0:0,0:0:0:0:
350,181,100188,2,0,P|431:164|451:87,1,142.5,2|2,0:0|0:0,0:0:0:0:
289,114,100705,2,0,L|393:112,1,95,4|0,0:0|0:0,0:0:0:0:
115,100,101119,6,0,L|209:102,1,95,2|0,0:0|0:0,0:0:0:0:
95,110,101430,2,0,P|57:82|116:43,1,113.999996520996,2|2,0:0|0:0,0:0:0:0:
386,119,101843,2,0,P|346:39|238:62,1,170.999994781494,2|2,0:0|0:0,0:0:0:0:
100,50,102361,2,0,L|97:154,1,95,2|0,0:0|0:0,0:0:0:0:
164,143,102671,1,0,0:0:0:0:
335,154,102774,6,0,L|355:45,1,95,2|0,0:0|0:0,0:0:0:0:
285,63,103084,1,2,0:0:0:0:
218,57,103188,1,0,0:0:0:0:
283,50,103291,1,2,0:0:0:0:
349,48,103395,1,0,0:0:0:0:
282,44,103498,2,0,L|208:42,2,47.5,2|0|0,0:0|0:0|0:0,0:0:0:0:
376,104,103809,2,0,L|375:25,1,47.5,2|0,0:0|0:0,0:0:0:0:
196,99,104015,1,2,0:0:0:0:
135,114,104119,2,0,L|138:237,1,95,4|0,0:0|0:0,0:0:0:0:
322,209,104430,6,0,L|431:208,1,95,2|0,0:0|0:0,0:0:0:0:
230,216,104740,2,0,L|228:71,1,113.999996520996,2|2,0:0|0:0,0:0:0:0:
434,203,105154,2,0,L|429:13,1,170.999994781494,2|2,0:0|0:0,0:0:0:0:
307,51,105671,2,0,L|401:52,1,95,2|0,0:0|0:0,0:0:0:0:
339,50,105981,1,0,0:0:0:0:
160,110,106085,6,0,L|286:115,1,95,2|0,0:0|0:0,0:0:0:0:
361,106,106395,2,0,L|361:3,1,95,2|0,0:0|0:0,0:0:0:0:
90,141,106809,2,0,P|71:73|132:73,1,142.5,2|0,0:0|0:0,0:0:0:0:
305,84,107326,2,0,L|424:83,1,95,4|0,0:0|0:0,0:0:0:0:
118,154,107740,6,0,P|76:222|136:235,1,142.5,2|2,0:0|0:0,0:0:0:0:
297,245,108361,2,0,L|298:197,1,47.5,2|0,0:0|0:0,0:0:0:0:
115,231,108568,2,0,L|257:228,2,142.5,2|2|2,0:0|0:0|0:0,0:0:0:0:
176,225,109292,1,0,0:0:0:0:
364,237,109395,6,0,L|500:241,1,95,4|0,0:0|0:0,0:0:0:0:
346,199,109705,2,0,L|235:193,1,95,2|0,0:0|0:0,0:0:0:0:
188,193,110016,1,2,0:0:0:0:
299,191,110119,2,0,L|374:192,1,47.5
406,193,110326,1,0,0:0:0:0:
220,178,110430,2,0,L|224:48,1,95,4|0,0:0|0:0,0:0:0:0:
388,133,110740,2,0,L|386:38,1,95,4|0,2:0|0:0,0:0:0:0:
182,60,111050,6,0,L|310:58,1,95,4|0,1:0|0:0,0:0:0:0:
360,58,111361,1,2,0:0:0:0:
220,62,111568,1,2,0:0:0:0:
360,58,111774,1,2,0:0:0:0:
195,103,111878,2,0,L|100:103,1,95,2|0,0:0|0:0,0:0:0:0:
287,92,112292,2,0,L|401:89,1,95,8|0,0:0|0:0,0:0:0:0:
104,215,112705,6,0,L|101:104,1,95,2|0,0:0|0:0,0:0:0:0:
196,120,113016,2,0,L|86:119,1,95,2|0,0:0|0:0,0:0:0:0:
225,120,113430,1,2,0:0:0:0:
398,132,113533,2,0,L|530:130,1,95,0|2,0:0|0:0,0:0:0:0:
323,99,113947,2,0,L|228:102,1,95,8|0,0:0|0:0,0:0:0:0:
500,179,114361,6,0,L|496:67,1,95,2|0,0:0|0:0,0:0:0:0:
365,88,114671,2,0,L|240:92,1,113.999996520996,2|2,0:0|0:0,0:0:0:0:
399,82,115085,1,2,0:0:0:0:
236,177,115188,2,0,L|197:69,1,95,2|0,0:0|0:0,0:0:0:0:
378,129,115602,2,0,L|417:21,1,95,8|0,0:0|0:0,0:0:0:0:
348,39,115912,1,0,0:0:0:0:
273,105,116016,6,0,L|376:96,1,95,2|0,0:0|0:0,0:0:0:0:
238,72,116326,2,0,L|114:63,1,113.999996520996,2|2,0:0|0:0,0:0:0:0:
262,63,116740,1,2,0:0:0:0:
426,166,116843,2,0,L|431:55,1,95,2|2,0:0|0:0,0:0:0:0:
306,72,117257,1,2,0:0:0:0:
94,64,117361,2,0,L|210:63,1,95,4|0,0:0|0:0,0:0:0:0:
375,59,117671,6,0,L|248:64,1,95,4|0,1:0|0:0,0:0:0:0:
152,66,117981,1,2,0:0:0:0:
289,57,118188,1,2,0:0:0:0:
132,53,118395,1,2,0:0:0:0:
306,176,118499,2,0,L|443:179,1,95,2|0,0:0|0:0,0:0:0:0:
227,178,118912,2,0,L|230:311,1,95,8|2,0:0|0:0,0:0:0:0:
291,275,119223,1,0,0:0:0:0:
108,270,119326,6,0,L|-11:264,1,95,2|0,0:0|0:0,0:0:0:0:
103,240,119636,2,0,L|8:246,1,95,2|0,0:0|0:0,0:0:0:0:
169,237,120050,1,2,0:0:0:0:
382,219,120154,2,0,L|390:378,1,123.499994346619,0|0,0:0|0:0,0:0:0:0:
212,324,120568,6,0,L|323:324,1,95,8|0,0:0|0:0,0:0:0:0:
33,229,120981,2,0,L|35:337,1,95,4|0,0:0|0:0,0:0:0:0:
158,312,121395,1,8,0:0:0:0:
34,308,121602,1,0,0:0:0:0:
363,306,121809,6,0,L|192:308,2,170.999994781494,2|2|2,0:0|0:0|0:0,0:0:0:0:
36,236,122636,2,0,L|206:235,2,170.999994781494,2|2|2,0:0|0:0|0:0,0:0:0:0:
303,229,123464,2,0,L|289:91,1,95,2|0,0:0|0:0,0:0:0:0:
184,130,123774,2,0,L|294:128,1,95,2|0,0:0|0:0,0:0:0:0:
331,124,124085,1,0,0:0:0:0:
382,122,124188,1,0,0:0:0:0:
172,133,124292,6,0,P|168:87|289:75,1,190,4|0,1:0|0:0,0:0:0:0:
405,59,124912,1,0,0:0:0:0:
261,61,125119,2,0,L|258:183,1,95,2|0,0:0|0:0,0:0:0:0:
382,148,125533,1,2,0:0:0:0:
113,98,125740,2,0,P|65:275|202:328,1,356.25,4|2,0:0|0:0,0:0:0:0:
124,330,126619,1,0,0:0:0:0:
61,328,126722,1,2,0:0:0:0:
331,315,126929,2,0,L|465:312,1,118.75,8|0,0:0|0:0,0:0:0:0:
125,294,127395,6,0,P|271:279|157:147,1,380,4|2,0:0|0:0,0:0:0:0:
119,142,128326,1,0,0:0:0:0:
77,102,128430,1,2,0:0:0:0:
253,118,128636,2,0,L|257:39,1,47.5,0|0,0:0|0:0,0:0:0:0:
161,73,128843,1,8,0:0:0:0:
473,239,129050,6,0,P|462:184|333:163,1,190,4|0,1:0|0:0,0:0:0:0:
225,124,129671,2,0,L|323:123,1,95,2|0,0:0|0:0,0:0:0:0:
443,135,130085,2,0,L|448:206,1,47.5,0|0,0:0|0:0,0:0:0:0:
286,180,130292,2,0,L|383:178,1,95,4|0,0:0|0:0,0:0:0:0:
111,181,130705,6,0,L|109:61,1,95,4|0,1:0|0:0,0:0:0:0:
245,88,131119,2,0,L|315:90,1,47.5,0|0,0:0|0:0,0:0:0:0:
185,59,131326,2,0,L|60:59,1,95,8|0,0:0|0:0,0:0:0:0:
358,151,131740,6,0,L|476:156,1,95,2|2,0:0|0:0,0:0:0:0:
341,142,132050,2,0,L|360:27,1,95,8|0,0:0|0:0,0:0:0:0:
181,221,132361,2,0,P|101:211|151:135,1,190,4|0,1:0|0:0,0:0:0:0:
192,142,132878,1,0,0:0:0:0:
136,136,132981,1,8,0:0:0:0:
23,114,133188,1,0,0:0:0:0:
305,128,133395,5,2,0:0:0:0:
142,128,133602,1,2,0:0:0:0:
305,128,133809,1,8,0:0:0:0:
39,201,134016,2,0,L|253:198,1,190,4|0,1:0|0:0,0:0:0:0:
55,208,134636,2,0,L|48:92,1,95,8|0,0:0|0:0,0:0:0:0:
175,108,135050,2,0,L|61:110,1,95,2|0,0:0|0:0,0:0:0:0:
252,94,135464,2,0,L|356:88,1,95,8|2,0:0|0:0,0:0:0:0:
403,82,135774,1,0,0:0:0:0:
232,137,135878,6,0,L|129:137,1,95,4|0,0:0|0:0,0:0:0:0:
313,113,136292,2,0,L|432:113,1,95,8|0,0:0|0:0,0:0:0:0:
129,185,136705,2,0,L|257:184,1,95,2|0,0:0|0:0,0:0:0:0:
286,184,137016,1,2,0:0:0:0:
111,170,137223,2,0,L|113:60,1,95,0|0,0:0|0:0,0:0:0:0:
292,124,137533,6,0,L|303:47,1,63.3333333333333,8|8,0:0|0:0,0:0:0:0:
218,56,137809,1,8,0:0:0:0:
19,100,137946,2,0,L|124:98,1,63.3333333333333,8|8,0:0|0:0,0:0:0:0:
158,101,138222,1,8,0:0:0:0:
420,119,138361,2,0,L|244:109,2,126.666666666667,8|8|8,0:0|0:0|0:0,0:0:0:0:
54,117,139188,5,4,1:0:0:0:
54,117,139809,1,0,0:0:0:0:
228,117,140015,2,0,L|300:118,1,47.5,2|0,0:0|0:0,0:0:0:0:
90,162,140326,2,0,P|32:127|61:55,1,142.5,2|0,0:0|0:0,0:0:0:0:
393,168,140843,6,0,L|393:34,1,113.999996520996,8|0,0:0|0:0,0:0:0:0:
275,139,141154,2,0,P|224:111|296:64,1,170.999994781494,2|2,1:0|1:0,0:0:0:0:
183,50,141568,1,0,0:0:0:0:
81,96,141671,2,0,L|89:9,1,56.9999982604981,8|0,0:0|0:0,0:0:0:0:
350,58,141981,2,0,L|145:57,1,170.999994781494,4|4,0:0|0:0,0:0:0:0:
110,50,142395,1,0,0:0:0:0:
312,128,142499,6,0,L|439:127,1,113.999996520996,6|0,1:0|0:0,0:0:0:0:
235,115,142809,2,0,L|45:114,1,170.999994781494,2|2,1:0|1:0,0:0:0:0:
387,126,143326,2,0,L|479:264,1,113.999996520996,8|0,0:0|0:0,0:0:0:0:
324,217,143636,2,0,P|378:145|473:174,1,170.999994781494,4|4,0:0|0:0,0:0:0:0:
344,137,144050,1,0,0:0:0:0:
231,135,144154,6,0,L|59:132,2,170.999994781494,8|2|2,0:0|1:0|1:0,0:0:0:0:
496,167,144981,2,0,L|496:45,1,113.999996520996,8|0,0:0|0:0,0:0:0:0:
376,113,145292,2,0,P|416:53|522:36,1,170.999994781494,2|0,1:0|0:0,0:0:0:0:
445,30,145705,1,0,0:0:0:0:
275,57,145809,2,0,L|105:55,2,170.999994781494,2|2|2,1:0|1:0|1:0,0:0:0:0:
211,55,146533,1,0,0:0:0:0:
387,159,146636,6,0,L|338:42,1,113.999996520996,12|0,3:0|0:0,0:0:0:0:
143,150,146946,2,0,L|192:33,1,113.999996520996,12|0,0:0|0:0,0:0:0:0:
387,159,147257,2,0,P|448:119|340:83,1,227.999993041992,4|0,1:0|0:0,0:0:0:0:
141,159,147878,2,0,L|20:142,1,113.999996520996,4|0,0:0|0:0,0:0:0:0:
237,181,148292,2,0,L|273:47,1,113.999996520996,8|0,0:0|0:0,0:0:0:0:
483,219,148602,2,0,P|489:149|392:124,1,170.999994781494,4|4,0:0|0:0,0:0:0:0:
338,119,149016,1,0,0:0:0:0:
167,127,149119,6,0,L|53:127,1,113.999996520996,2|0,1:0|0:0,0:0:0:0:
122,126,149430,1,2,1:0:0:0:
190,127,149533,1,0,0:0:0:0:
55,102,149740,1,8,0:0:0:0:
386,139,149947,2,0,L|215:140,2,170.999994781494,2|2|2,1:0|1:0|1:0,0:0:0:0:
317,132,150671,1,0,0:0:0:0:
115,134,150774,6,0,L|317:135,1,170.999994781494,2|2,1:0|1:0,0:0:0:0:
217,131,151188,1,0,0:0:0:0:
43,139,151395,1,2,1:0:0:0:
340,149,151602,1,2,0:0:0:0:
203,144,151809,1,2,0:0:0:0:
339,143,152016,1,8,0:0:0:0:
25,144,152223,2,0,L|292:141,1,227.999993041992,4|0,1:0|0:0,0:0:0:0:
57,157,152843,2,0,L|53:18,1,113.999996520996,4|0,0:0|0:0,0:0:0:0:
359,56,153257,6,0,L|234:53,1,113.999996520996,8|0,0:0|0:0,0:0:0:0:
127,55,153568,2,0,L|243:58,1,113.999996520996,4|0,0:0|0:0,0:0:0:0:
172,55,153878,1,4,0:0:0:0:
104,45,153981,1,0,0:0:0:0:
310,144,154085,6,0,L|437:147,1,113.999996520996,4|0,1:0|0:0,0:0:0:0:
307,127,154395,2,0,L|514:130,1,170.999994781494,2|2,1:0|1:0,0:0:0:0:
368,125,154809,1,0,0:0:0:0:
262,135,154912,2,0,L|408:125,1,113.999996520996,8|0,0:0|0:0,0:0:0:0:
254,130,155223,2,0,L|61:116,1,170.999994781494,4|4,0:0|0:0,0:0:0:0:
83,28,155636,1,0,0:0:0:0:
307,72,155740,6,0,L|150:75,1,113.999996520996,4|0,1:0|0:0,0:0:0:0:
362,158,156050,2,0,P|461:138|450:46,1,170.999994781494,2|2,1:0|1:0,0:0:0:0:
146,87,156568,2,0,L|260:84,1,113.999996520996,8|0,0:0|0:0,0:0:0:0:
449,135,156878,2,0,P|425:41|339:73,1,170.999994781494,4|4,0:0|0:0,0:0:0:0:
238,52,157292,1,0,0:0:0:0:
122,49,157395,6,0,L|310:46,2,170.999994781494,2|2|2,1:0|1:0|1:0,0:0:0:0:
455,118,158223,2,0,L|456:252,1,113.999996520996,8|0,0:0|0:0,0:0:0:0:
341,228,158533,2,0,P|323:169|438:168,1,170.999994781494,4|4,0:0|0:0,0:0:0:0:
470,128,158947,1,0,0:0:0:0:
208,144,159050,6,0,L|37:146,2,170.999994781494,4|2|2,1:0|1:0|1:0,0:0:0:0:
481,215,159878,2,0,L|420:96,1,113.999996520996,12|0,3:0|0:0,0:0:0:0:
242,146,160188,2,0,L|189:34,1,113.999996520996,12|0,0:0|0:0,0:0:0:0:
423,157,160499,6,0,P|422:68|291:83,1,227.999993041992,4|0,1:0|0:0,0:0:0:0:
97,74,161119,2,0,L|225:71,1,113.999996520996,4|0,0:0|0:0,0:0:0:0:
141,66,161430,1,0,0:0:0:0:
60,146,161533,2,0,L|53:3,1,113.999996520996,8|0,0:0|0:0,0:0:0:0:
227,47,161947,2,0,L|114:42,1,113.999996520996,0|4,0:0|0:0,0:0:0:0:
181,41,162257,1,0,0:0:0:0:
377,201,162361,6,0,P|430:148|353:120,1,170.999994781494,4|0,0:0|0:0,0:0:0:0:
298,107,162774,1,4,0:0:0:0:
434,104,162981,1,2,0:0:0:0:
114,114,163188,2,0,L|284:116,2,170.999994781494,2|2|0,1:0|1:0|0:0,0:0:0:0:
182,108,163912,1,0,0:0:0:0:
378,190,164016,6,0,L|504:184,1,113.999996520996,4|0,0:0|0:0,0:0:0:0:
378,165,164326,2,0,L|204:160,1,170.999994781494,4|4,0:0|0:0,0:0:0:0:
419,162,164843,2,0,L|305:163,2,113.999996520996,10|2|4,0:0|0:0|0:0,0:0:0:0:
281,157,165464,2,0,L|365:157,1,56.9999982604981,2|0,0:0|0:0,0:0:0:0:
173,213,165671,6,0,L|2:213,2,170.999994781494,4|2|2,0:0|1:0|1:0,0:0:0:0:
241,217,166395,1,0,0:0:0:0:
404,232,166499,1,4,1:0:0:0:
457,219,166602,1,2,0:0:0:0:
462,166,166705,1,2,0:0:0:0:
414,144,166809,1,2,0:0:0:0:
239,141,166912,2,0,L|181:97,1,56.9999982604981,0|0,0:0|0:0,0:0:0:0:
297,118,167119,2,0,L|355:74,1,56.9999982604981
116,59,167326,2,0,L|325:49,1,170.999994781494
86,53,167740,6,0,P|28:176|352:309,1,569.999982604981,4|0,1:0|0:0,0:0:0:0:
264,310,168877,1,0,0:0:0:0:
109,272,168981,6,0,P|66:227|126:186,1,142.5,2|2,0:0|0:0,0:0:0:0:
308,196,169602,1,4,0:0:0:0:
137,197,169809,2,0,L|118:128,1,47.5,2|0,0:0|0:0,0:0:0:0:
225,142,170015,2,0,L|244:73,1,47.5,2|0,0:0|0:0,0:0:0:0:
61,105,170222,1,4,0:0:0:0:
71,49,170325,1,0,0:0:0:0:
126,35,170428,1,8,0:0:0:0:
183,35,170532,1,8,0:0:0:0:
362,93,170636,6,0,L|476:91,2,95,4|0|8,1:0|0:0|0:0,0:0:0:0:
476,87,171257,1,0,0:0:0:0:
306,130,171464,2,0,L|182:126,1,95,8|0,0:0|0:0,0:0:0:0:
477,196,171877,2,0,L|477:83,1,95,8|0,0:0|0:0,0:0:0:0:
419,95,172188,1,0,0:0:0:0:
250,106,172291,6,0,L|102:90,1,142.5,8|0,0:0|0:0,0:0:0:0:
164,100,172705,1,0,0:0:0:0:
278,97,172912,1,2,0:0:0:0:
14,209,173119,2,0,P|41:126|142:146,1,190,8|8,0:0|0:0,0:0:0:0:
202,137,173636,1,0,0:0:0:0:
114,113,173740,1,0,0:0:0:0:
67,97,173843,1,0,0:0:0:0:
239,121,173946,6,0,L|344:122,2,95,8|0|8,0:0|0:0|0:0,0:0:0:0:
124,119,174567,1,0,0:0:0:0:
290,153,174774,2,0,L|401:152,1,95,2|0,0:0|0:0,0:0:0:0:
220,126,175188,2,0,L|115:124,1,95,8|0,0:0|0:0,0:0:0:0:
182,120,175498,1,0,0:0:0:0:
364,184,175602,6,0,P|421:146|372:100,1,142.5,8|0,0:0|0:0,0:0:0:0:
328,104,176015,1,0,0:0:0:0:
213,103,176222,2,0,L|291:100,1,47.5,0|0,0:0|0:0,0:0:0:0:
85,139,176429,2,0,P|42:95|108:67,1,142.5,4|4,0:0|0:0,0:0:0:0:
268,67,176843,2,0,L|376:64,1,95,0|2,0:0|0:0,0:0:0:0:
305,64,177153,1,2,0:0:0:0:
125,108,177257,6,0,P|140:45|233:50,1,142.5,4|0,1:0|0:0,0:0:0:0:
266,34,177671,1,8,0:0:0:0:
152,40,177877,1,0,0:0:0:0:
329,165,178084,2,0,L|336:36,1,95,8|0,0:0|0:0,0:0:0:0:
219,65,178498,2,0,L|311:66,2,63.3333333333333,8|0|0,0:0|0:0|0:0,0:0:0:0:
435,215,178912,6,0,L|436:88,1,95,4|0,1:0|0:0,0:0:0:0:
379,111,179222,1,0,0:0:0:0:
210,157,179326,1,8,0:0:0:0:
153,159,179429,1,0,0:0:0:0:
151,102,179532,1,0,0:0:0:0:
207,95,179636,1,0,0:0:0:0:
370,95,179740,6,0,L|444:93,1,47.5,8|0,0:0|0:0,0:0:0:0:
258,78,179946,2,0,L|184:76,1,47.5,0|0,0:0|0:0,0:0:0:0:
386,109,180153,1,12,0:0:0:0:
368,55,180256,1,0,0:0:0:0:
319,27,180359,1,0,0:0:0:0:
262,31,180463,1,0,0:0:0:0:
90,160,180567,6,0,L|11:159,1,47.5,4|0,1:0|0:0,0:0:0:0:
94,154,180774,2,0,L|165:152,1,47.5
325,91,180981,2,0,L|372:92,1,47.5,8|0,0:0|0:0,0:0:0:0:
432,93,181188,2,0,L|438:157,1,47.5
257,175,181395,6,0,L|136:177,1,95,8|0,0:0|0:0,0:0:0:0:
256,156,181705,2,0,L|389:159,1,95,0|0,0:0|0:0,0:0:0:0:
364,102,182015,1,0,0:0:0:0:
306,97,182119,1,0,0:0:0:0:
138,144,182222,6,2,L|126:88,1,47.5,6|2,1:0|0:0,0:0:0:0:
200,93,182429,2,2,L|212:37,1,47.5,2|2,0:0|0:0,0:0:0:0:
372,47,182636,2,2,L|433:45,1,47.5,2|2,0:0|0:0,0:0:0:0:
243,44,182843,2,2,L|195:42,1,47.5,2|2,0:0|0:0,0:0:0:0:
387,126,183050,2,2,L|465:126,2,47.5,2|2|2,0:0|0:0|0:0,0:0:0:0:
329,127,183360,1,2,0:0:0:0:
154,127,183464,2,0,L|224:109,1,47.5,4|2,0:0|0:0,0:0:0:0:
381,118,183671,2,2,L|319:104,1,47.5
169,160,183877,6,0,P|78:137|43:96,2,142.5,4|0|0,1:0|0:0|0:0,0:0:0:0:
349,169,184705,2,0,L|328:99,1,47.5,4|0,0:0|0:0,0:0:0:0:
179,126,185015,2,0,P|218:80|307:89,1,142.5,2|2,0:0|0:0,0:0:0:0:
352,82,185429,1,0,0:0:0:0:
170,88,185533,6,0,L|-5:94,2,142.5,2|2|2,0:0|0:0|0:0,0:0:0:0:
344,100,186360,2,0,L|267:103,1,47.5,12|0,0:0|0:0,0:0:0:0:
468,210,186671,2,0,L|471:51,1,142.5,2|2,0:0|0:0,0:0:0:0:
413,70,187084,1,0,0:0:0:0:
235,144,187188,6,0,P|281:81|360:89,1,142.5,2|2,0:0|0:0,0:0:0:0:
169,72,187809,1,2,0:0:0:0:
352,114,188015,2,0,L|267:110,1,47.5,4|0,0:0|0:0,0:0:0:0:
128,108,188326,2,0,L|313:107,1,142.5,2|0,0:0|0:0,0:0:0:0:
327,105,188740,1,0,0:0:0:0:
154,126,188843,6,0,L|6:126,2,142.5,2|2|2,0:0|0:0|0:0,0:0:0:0:
434,225,189671,2,0,L|449:124,1,95,12|0,0:0|0:0,0:0:0:0:
287,146,189981,2,0,L|272:45,1,95,12|0,0:0|0:0,0:0:0:0:
98,124,190291,2,0,P|141:37|220:71,1,190,8|0,0:0|0:0,0:0:0:0:
404,66,191119,1,8,0:0:0:0:
136,126,191326,1,12,0:0:0:0:
231,128,191533,2,0,P|270:85|172:29,1,190,0|0,0:0|0:0,0:0:0:0:
141,21,192050,1,0,0:0:0:0:
316,35,192153,6,0,L|461:41,2,142.5,2|2|2,0:0|0:0|0:0,0:0:0:0:
136,59,192981,2,0,L|278:67,2,142.5,12|2|2,0:0|0:0|0:0,0:0:0:0:
188,58,193705,1,0,0:0:0:0:
371,155,193809,6,0,L|390:49,1,95,8|0,0:0|0:0,0:0:0:0:
215,135,194222,2,0,L|196:29,1,95,8|0,0:0|0:0,0:0:0:0:
376,45,194636,1,2,0:0:0:0:
224,45,194843,1,8,0:0:0:0:
376,45,195050,1,4,0:0:0:0:
106,156,195257,6,0,P|113:94|231:115,1,190,4|0,1:0|0:0,0:0:0:0:
393,84,195877,2,0,L|277:86,1,95,8|0,0:0|0:0,0:0:0:0:
244,85,196188,1,2,0:0:0:0:
419,116,196291,2,2,L|395:36,1,47.5,2|2,0:0|0:0,0:0:0:0:
238,86,196498,2,2,L|262:6,1,47.5,2|2,0:0|0:0,0:0:0:0:
311,40,196705,1,2,0:0:0:0:
33,135,196912,6,0,P|63:63|163:86,1,190,4|0,1:0|0:0,0:0:0:0:
106,79,197429,1,0,0:0:0:0:
299,100,197533,2,0,L|429:93,1,95,4|0,1:0|0:0,0:0:0:0:
126,191,197946,6,0,L|129:69,1,95,8|8,0:0|0:0,0:0:0:0:
181,92,198257,1,8,0:0:0:0:
353,102,198360,2,0,L|486:93,1,95,8|0,1:0|0:0,0:0:0:0:
395,87,198671,1,0,0:0:0:0:
137,142,198774,6,0,P|104:82|172:75,1,113.999996520996,6|0,1:0|0:0,0:0:0:0:
247,85,199084,2,0,L|51:84,1,170.999994781494,2|2,1:0|1:0,0:0:0:0:
188,87,199498,1,0,0:0:0:0:
305,162,199602,2,0,L|268:40,1,113.999996520996,8|0,0:0|0:0,0:0:0:0:
103,185,199912,2,0,L|167:-22,1,170.999994781494,4|4,0:0|0:0,0:0:0:0:
215,28,200325,1,0,0:0:0:0:
482,89,200429,6,0,L|483:244,1,113.999996520996,6|0,1:0|0:0,0:0:0:0:
365,201,200739,2,0,L|162:189,1,170.999994781494,2|2,1:0|1:0,0:0:0:0:
478,172,201257,2,0,L|364:169,1,113.999996520996,8|0,0:0|0:0,0:0:0:0:
227,150,201567,2,0,L|444:152,1,170.999994781494,4|4,0:0|0:0,0:0:0:0:
291,151,201981,1,0,0:0:0:0:
183,151,202084,6,0,L|-5:148,2,170.999994781494,8|2|2,0:0|1:0|1:0,0:0:0:0:
476,142,202912,2,0,L|348:143,1,113.999996520996,8|0,0:0|0:0,0:0:0:0:
240,200,203222,2,0,L|245:19,1,170.999994781494,4|4,0:0|0:0,0:0:0:0:
307,31,203636,1,0,0:0:0:0:
102,81,203739,6,0,L|298:78,2,170.999994781494,4|2|2,1:0|1:0|1:0,0:0:0:0:
405,187,204567,2,0,L|352:75,1,113.999996520996,12|0,3:0|0:0,0:0:0:0:
194,118,204877,2,0,L|310:76,1,113.999996520996,12|0,0:0|0:0,0:0:0:0:
66,168,205188,6,0,P|67:79|198:94,1,227.999993041992,4|0,1:0|0:0,0:0:0:0:
380,90,205808,2,0,L|493:92,1,113.999996520996,4|0,0:0|0:0,0:0:0:0:
430,85,206119,1,0,0:0:0:0:
225,172,206222,2,0,L|232:29,1,113.999996520996,8|0,0:0|0:0,0:0:0:0:
443,74,206636,2,0,L|326:63,1,113.999996520996,4|0,0:0|0:0,0:0:0:0:
392,63,206946,1,0,0:0:0:0:
193,212,207050,6,0,P|133:130|203:120,1,170.999994781494,4|2,0:0|1:0,0:0:0:0:
222,109,207463,1,0,0:0:0:0:
347,110,207670,1,2,1:0:0:0:
73,110,207877,2,0,L|271:107,2,170.999994781494,8|2|2,0:0|1:0|1:0,0:0:0:0:
136,108,208601,1,0,0:0:0:0:
347,189,208705,6,0,L|353:42,1,113.999996520996,4|0,0:0|0:0,0:0:0:0:
190,91,209015,2,0,L|179:285,1,170.999994781494,4|4,0:0|0:0,0:0:0:0:
382,239,209533,2,0,L|259:237,2,113.999996520996,8|0|4,0:0|0:0|0:0,0:0:0:0:
256,224,210153,2,0,L|172:222,1,56.9999982604981,2|0,0:0|0:0,0:0:0:0:
406,190,210360,6,0,L|202:189,2,170.999994781494,4|2|2,0:0|1:0|1:0,0:0:0:0:
342,191,211084,1,0,0:0:0:0:
138,173,211188,1,4,1:0:0:0:
85,160,211291,1,2,0:0:0:0:
80,107,211394,1,2,0:0:0:0:
128,85,211498,1,2,0:0:0:0:
328,88,211601,2,0,L|331:15,1,56.9999982604981,8|0,0:0|0:0,0:0:0:0:
153,82,211808,2,0,L|159:9,1,56.9999982604981,8|0,0:0|0:0,0:0:0:0:
403,39,212015,6,0,L|498:207,1,170.999994781494
277,31,212429,2,0,P|182:74|404:296,1,569.999982604981,4|0,1:0|0:0,0:0:0:0:
439,319,213567,1,0,0:0:0:0:
257,317,213671,2,0,L|93:315,1,142.5,2|2,0:0|0:0,0:0:0:0:
480,315,214291,5,2,0:0:0:0:
256,192,214498,12,0,217188,0:0:0:0:
