osu file format v14

[General]
AudioFilename: audio.mp3
AudioLeadIn: 0
PreviewTime: 139342
Countdown: 0
SampleSet: Soft
StackLeniency: 0.7
Mode: 2
LetterboxInBreaks: 0
WidescreenStoryboard: 0

[Editor]
Bookmarks: 97855,180820,182889,202441
DistanceSpacing: 1.1
BeatDivisor: 4
GridSize: 16
TimelineZoom: 3.999998

[Metadata]
Title:Unknown Actor (feat. Ishadoh Sakura)
TitleUnicode:Unknown Actor (feat. 伊舎堂さくら)
Artist:Raito
ArtistUnicode:来兎
Creator:JierYagtama
Version:Hollow Night
Source:アンダーナイトインヴァース エクセレイト エスト
Tags:jeiryagtama UNDER NIGHT IN-BIRTH Exe:Late[st]. unist French-Bread Japanese Video Game
BeatmapID:2395462
BeatmapSetID:1147176

[Difficulty]
HPDrainRate:6
CircleSize:4.5
OverallDifficulty:9
ApproachRate:9
SliderMultiplier:2
SliderTickRate:1

[Events]
//Background and Video events
0,0,"unist.jpg",0,0
//Break Periods
//Storyboard Layer 0 (Background)
//Storyboard Layer 1 (Fail)
//Storyboard Layer 2 (Pass)
//Storyboard Layer 3 (Foreground)
//Storyboard Layer 4 (Overlay)
//Storyboard Sound Samples

[TimingPoints]
774,413.793103448276,4,2,0,70,1,0
1809,413.793103448276,4,2,1,70,1,0
3050,-100,4,2,0,70,0,0
5119,-100,4,2,1,70,0,0
6774,-100,4,2,0,70,0,0
7809,-100,4,2,1,70,0,0
8015,-100,4,2,2,70,0,0
8119,-100,4,2,1,70,0,0
8429,-100,4,2,2,70,0,0
8636,-100,4,2,1,70,0,0
9877,-100,4,2,0,70,0,0
10912,-71.4285714285714,4,2,1,70,0,0
11740,-100,4,2,2,70,0,0
11946,-100,4,2,1,70,0,0
15050,-100,4,2,2,70,0,0
15257,-100,4,2,1,70,0,0
15360,-83.3333333333333,4,2,1,70,0,0
15567,-83.3333333333333,4,2,0,70,0,0
16084,-100,4,2,1,70,0,0
16291,-100,4,2,0,70,0,0
16498,-100,4,2,1,70,0,0
16705,-100,4,2,0,70,0,0
17946,-100,4,2,1,70,0,0
18671,-83.3333333333333,4,2,1,70,0,0
18877,-83.3333333333333,4,2,0,70,0,0
19395,-100,4,2,1,70,0,0
19602,-100,4,2,0,70,0,0
19809,-100,4,2,1,70,0,0
20015,-100,4,2,0,70,0,0
21050,-100,4,2,1,70,0,0
21981,-83.3333333333333,4,2,1,70,0,0
22188,-83.3333333333333,4,2,0,70,0,0
22912,-100,4,2,0,70,0,0
24567,-100,4,2,1,70,0,0
25602,-100,4,2,0,70,0,0
27981,-83.3333333333333,4,2,0,70,0,0
28291,-100,4,2,0,70,0,0
28602,-83.3333333333333,4,2,0,70,0,0
29119,-100,4,2,1,70,0,0
29946,-100,4,2,0,70,0,0
31188,-100,4,2,1,70,0,0
31912,-83.3333333333333,4,2,0,70,0,0
32429,-100,4,2,1,70,0,0
33257,-100,4,2,0,70,0,0
33567,-83.3333333333333,4,2,0,70,0,0
34084,-100,4,2,1,70,0,0
34602,-34.4827586206897,4,2,0,70,0,0
34912,-100,4,2,1,70,0,0
35222,-83.3333333333333,4,2,0,70,0,0
35740,-100,4,2,1,70,0,0
36360,-100,4,2,0,70,0,0
37291,-76.9230769230769,4,2,0,70,0,0
37809,-100,4,2,1,70,0,0
38222,-100,4,2,0,70,0,0
38429,-100,4,2,1,70,0,0
39050,-83.3333333333333,4,2,0,70,0,0
40705,-100,4,2,0,70,0,0
44222,-100,4,2,1,70,0,0
44636,-100,4,2,0,70,0,0
45877,-100,4,2,1,70,0,0
53946,-100,4,2,0,70,0,0
54774,-100,4,2,1,70,0,0
57257,-100,4,2,0,70,0,0
58084,-71.4285714285714,4,2,1,75,0,1
79602,-71.4285714285714,4,2,0,75,0,1
79912,-71.4285714285714,4,2,1,75,0,1
81050,-71.4285714285714,4,2,2,75,0,1
81153,-71.4285714285714,4,2,1,75,0,1
81257,-71.4285714285714,4,2,0,75,0,1
81464,-71.4285714285714,4,2,1,75,0,1
82912,-71.4285714285714,4,2,0,75,0,1
83222,-71.4285714285714,4,2,1,75,0,1
84567,-83.3333333333333,4,2,1,75,0,0
84981,-100,4,2,1,75,0,1
86222,-100,4,2,2,70,0,0
86533,-100,4,2,1,70,0,0
86843,-100,4,2,2,70,0,0
86946,-100,4,2,1,70,0,0
87257,-100,4,2,2,70,0,0
87464,-100,4,2,1,70,0,0
87671,-100,4,2,2,70,0,0
87774,-100,4,2,1,70,0,0
88084,-100,4,2,2,70,0,0
88291,-100,4,2,1,70,0,0
88498,-100,4,2,2,70,0,0
88705,-100,4,2,1,70,0,0
88912,-100,4,2,2,70,0,0
89119,-100,4,2,1,70,0,0
89326,-100,4,2,2,70,0,0
89429,-100,4,2,1,70,0,0
89740,-100,4,2,2,70,0,0
89843,-100,4,2,1,70,0,0
90153,-100,4,2,2,70,0,0
90257,-100,4,2,1,70,0,0
90567,-100,4,2,2,70,0,0
90671,-100,4,2,1,70,0,0
91188,-100,4,2,2,70,0,0
91395,-100,4,2,1,70,0,0
91602,-100,4,2,2,70,0,0
91809,-100,4,2,1,70,0,0
92015,-100,4,2,2,70,0,0
92222,-100,4,2,1,70,0,0
92429,-100,4,2,2,70,0,0
92636,-100,4,2,1,70,0,0
92843,-100,4,2,2,70,0,0
93050,-100,4,2,1,70,0,0
93153,-100,4,2,2,70,0,0
93360,-100,4,2,1,70,0,0
93464,-100,4,2,2,70,0,0
93671,-100,4,2,1,70,0,0
93877,-100,4,2,2,70,0,0
94084,-100,4,2,1,70,0,0
94291,-100,4,2,2,70,0,0
94498,-100,4,2,1,70,0,0
94705,-100,4,2,2,70,0,0
94809,-100,4,2,1,70,0,0
95119,-100,4,2,2,70,0,0
95188,-100,4,2,1,70,0,0
95533,-100,4,2,2,70,0,0
95637,-100,4,2,1,70,0,0
95947,-100,4,2,2,70,0,0
96015,-100,4,2,1,70,0,0
96360,-100,4,2,2,70,0,0
96464,-100,4,2,1,70,0,0
96774,-100,4,2,2,70,0,0
96878,-100,4,2,1,70,0,0
97188,-100,4,2,2,70,0,0
97292,-100,4,2,1,70,0,0
97602,-100,4,2,2,70,0,0
97706,-100,4,2,1,70,0,0
98119,-83.3333333333333,4,2,1,70,0,0
98326,-83.3333333333333,4,2,0,70,0,0
98843,-100,4,2,0,70,0,0
100705,-100,4,2,1,70,0,0
101429,-83.3333333333333,4,2,1,70,0,0
101636,-83.3333333333333,4,2,0,70,0,0
102154,-100,4,2,0,70,0,0
103809,-100,4,2,1,70,0,0
104740,-83.3333333333333,4,2,1,70,0,0
104946,-83.3333333333333,4,2,0,70,0,0
105671,-100,4,2,0,70,0,0
107326,-100,4,2,1,70,0,0
108567,-100,4,2,0,70,0,0
110740,-83.3333333333333,4,2,0,70,0,0
111050,-100,4,2,1,70,0,0
111360,-83.3333333333333,4,2,0,70,0,0
111878,-100,4,2,1,70,0,0
112705,-100,4,2,0,70,0,0
113946,-100,4,2,1,70,0,0
114671,-83.3333333333333,4,2,0,70,0,0
115188,-100,4,2,1,70,0,0
116015,-100,4,2,0,70,0,0
116326,-83.3333333333333,4,2,0,70,0,0
116843,-100,4,2,1,70,0,0
117361,-40,4,2,0,70,0,0
117671,-100,4,2,1,70,0,0
117981,-83.3333333333333,4,2,0,70,0,0
118499,-100,4,2,1,70,0,0
119119,-100,4,2,0,70,0,0
120050,-76.9230769230769,4,2,0,70,0,0
120568,-100,4,2,1,70,0,0
120981,-100,4,2,0,70,0,0
121395,-100,4,2,1,70,0,0
121809,-83.3333333333333,4,2,0,70,0,0
123464,-100,4,2,0,70,0,0
126929,-100,4,2,1,70,0,0
127395,-100,4,2,0,70,0,0
128636,-100,4,2,1,70,0,0
129671,-100,4,2,0,70,0,0
130084,-100,4,2,1,70,0,0
135877,-100,4,2,0,70,0,0
136084,-100,4,2,1,70,0,0
136705,-100,4,2,0,70,0,0
137533,-100,4,2,1,70,0,0
140015,-100,4,2,0,70,0,0
140843,-71.4285714285714,4,2,1,70,0,1
162360,-71.4285714285714,4,2,0,70,0,1
162774,-71.4285714285714,4,2,1,70,0,1
163809,-71.4285714285714,4,2,2,70,0,1
163912,-71.4285714285714,4,2,1,70,0,1
164015,-71.4285714285714,4,2,0,70,0,1
164222,-71.4285714285714,4,2,1,70,0,1
165671,-71.4285714285714,4,2,0,70,0,1
166602,-71.4285714285714,4,2,1,70,0,1
167326,-83.3333333333333,4,2,1,70,0,0
167740,-100,4,2,1,70,0,1
168981,-100,4,2,1,70,0,0
171257,-100,4,2,2,70,0,0
171464,-100,4,2,1,70,0,0
171671,-100,4,2,2,70,0,0
171877,-100,4,2,1,70,0,0
172084,-100,4,2,2,70,0,0
172188,-100,4,2,1,70,0,0
172498,-100,4,2,2,70,0,0
173119,-100,4,2,1,70,0,0
173326,-100,4,2,2,70,0,0
173533,-100,4,2,1,70,0,0
173740,-100,4,2,2,70,0,0
173843,-100,4,2,1,70,0,0
174153,-100,4,2,2,70,0,0
174360,-100,4,2,1,70,0,0
174567,-100,4,2,2,70,0,0
174774,-100,4,2,1,70,0,0
174981,-100,4,2,2,70,0,0
175395,-100,4,2,1,70,0,0
175809,-100,4,2,2,70,0,0
176015,-100,4,2,1,70,0,0
176222,-100,4,2,2,70,0,0
176429,-100,4,2,1,70,0,0
176636,-100,4,2,2,70,0,0
176740,-100,4,2,1,70,0,0
177050,-100,4,2,2,70,0,0
177257,-100,4,2,1,70,0,0
177464,-100,4,2,2,70,0,0
177671,-100,4,2,1,70,0,0
177878,-100,4,2,2,70,0,0
178084,-100,4,2,1,70,0,0
178291,-100,4,2,2,70,0,0
178498,-100,4,2,1,70,0,0
179119,-100,4,2,1,70,0,0
179326,-100,4,2,1,70,0,0
179533,-100,4,2,1,70,0,0
179602,-100,4,2,1,70,0,0
179947,-100,4,2,2,70,0,0
180015,-100,4,2,1,70,0,0
180360,-100,4,2,2,70,0,0
180412,-100,4,2,1,70,0,0
180774,-100,4,2,2,70,0,0
180826,-100,4,2,1,70,0,0
181188,-100,4,2,2,70,0,0
181257,-100,4,2,1,70,0,0
181602,-100,4,2,2,70,0,0
181705,-100,4,2,1,70,0,0
185015,-100,4,2,0,70,0,0
185533,-100,4,2,1,70,0,0
186671,-100,4,2,0,70,0,0
187189,-100,4,2,1,70,0,0
188326,-100,4,2,0,70,0,0
188844,-100,4,2,1,70,0,0
195257,-76.9230769230769,4,2,1,70,0,0
198774,-71.4285714285714,4,2,1,70,0,1
207050,-71.4285714285714,4,2,0,70,0,1
207360,-71.4285714285714,4,2,1,70,0,1
208705,-71.4285714285714,4,2,0,70,0,1
209015,-71.4285714285714,4,2,1,70,0,1
210360,-71.4285714285714,4,2,0,70,0,1
211291,-71.4285714285714,4,2,1,70,0,1
212015,-71.4285714285714,4,2,1,70,0,0
212429,-71.4285714285714,4,2,1,70,0,1
213671,-71.4285714285714,4,2,0,70,0,0
217188,-71.4285714285714,4,2,0,20,0,0

[Colours]
Combo1 : 198,0,0
Combo2 : 0,0,160
Combo3 : 255,255,106
Combo4 : 207,27,95
Combo5 : 233,233,233

[HitObjects]
104,191,774,5,2,0:0:0:0:
417,191,980,1,0,0:0:0:0:
286,192,1187,1,2,0:0:0:0:
399,193,1291,1,0,0:0:0:0:
417,191,1601,1,2,0:0:0:0:
117,183,1809,6,0,L|90:53,1,100,4|0,0:1|0:0,0:0:0:0:
230,133,2119,2,0,L|257:3,1,100,2|0,0:0|0:0,0:0:0:0:
76,37,2429,2,0,L|312:37,1,200,2|0,0:0|0:0,0:0:0:0:
145,38,3050,1,0,0:0:0:0:
264,42,3257,2,0,L|187:40,1,50,2|0,0:0|0:0,0:0:0:0:
388,199,3464,6,0,L|348:88,1,100,2|0,0:0|0:0,0:0:0:0:
237,134,3774,2,0,L|277:23,1,100,2|0,0:0|0:0,0:0:0:0:
436,48,4084,1,2,0:0:0:0:
133,134,4291,2,0,L|15:138,1,100,2|0,0:0|0:0,0:0:0:0:
231,121,4602,2,0,L|349:125,1,100,2|0,0:0|0:0,0:0:0:0:
126,109,4912,1,2,0:0:0:0:
434,109,5119,6,0,L|315:103,1,100,2|0,0:0|0:0,0:0:0:0:
218,74,5429,2,0,L|337:68,1,100,2|0,0:0|0:0,0:0:0:0:
80,150,5740,2,0,P|98:92|249:76,1,200,2|0,0:0|0:0,0:0:0:0:
80,61,6360,1,0,0:0:0:0:
210,63,6567,2,0,L|137:63,1,50,0|0,0:0|0:0,0:0:0:0:
355,185,6774,2,0,P|450:177|495:92,1,200,2|0,0:0|0:0,0:0:0:0:
344,88,7395,1,2,0:0:0:0:
27,97,7602,5,2,0:0:0:0:
186,98,7809,1,2,0:0:0:0:
27,97,7912,1,0,0:0:0:0:
27,97,8015,1,2,0:0:0:0:
91,105,8119,1,2,0:0:0:0:
27,97,8222,1,0,0:0:0:0:
329,169,8429,6,0,L|331:52,1,100,4|0,0:1|0:0,0:0:0:0:
213,125,8740,2,0,L|215:8,1,100,2|0,0:0|0:0,0:0:0:0:
398,157,9050,2,0,P|423:94|301:73,1,200,2|0,0:0|0:0,0:0:0:0:
464,49,9671,1,0,0:0:0:0:
334,47,9877,2,0,L|406:45,1,50,2|0,0:0|0:0,0:0:0:0:
195,133,10084,6,0,L|96:133,1,100,2|0,0:0|0:0,0:0:0:0:
214,111,10395,2,0,L|313:111,1,100,2|0,0:0|0:0,0:0:0:0:
131,94,10705,1,2,0:0:0:0:
460,162,10912,2,0,L|220:158,2,209.999993591309,4|4|4,2:3|2:3|0:3,0:0:0:0:
265,159,11636,1,0,0:0:0:0:
36,158,11740,6,0,L|42:35,1,100,4|0,1:0|0:0,0:0:0:0:
212,72,12153,2,0,L|86:68,1,100,8|0,0:0|0:0,0:0:0:0:
167,70,12464,1,0,0:0:0:0:
351,122,12567,1,2,0:0:0:0:
47,144,12774,2,0,P|76:66|194:60,1,200,8|0,0:0|0:0,0:0:0:0:
105,50,13291,1,0,0:0:0:0:
308,86,13395,6,0,L|422:84,1,100,2|0,0:0|0:0,0:0:0:0:
217,63,13809,2,0,L|103:61,1,100,8|0,0:0|0:0,0:0:0:0:
313,222,14222,1,2,0:0:0:0:
202,216,14429,1,4,0:0:0:0:
207,168,14533,1,2,0:0:0:0:
371,184,14636,1,2,0:0:0:0:
179,164,14740,2,0,L|180:39,1,100,0|0,1:2|0:0,0:0:0:0:
334,147,15050,6,0,L|469:152,1,100,4|0,1:0|0:0,0:0:0:0:
317,151,15360,2,0,L|179:146,2,119.999996337891,2|2|2,0:0|0:0|0:0,0:0:0:0:
80,147,15981,1,0,0:0:0:0:
80,147,16084,1,0,0:0:0:0:
200,146,16291,1,2,0:0:0:0:
80,147,16498,2,0,L|79:216,1,50,0|0,0:0|0:0,0:0:0:0:
257,151,16705,6,0,L|391:147,1,100,2|0,0:0|0:0,0:0:0:0:
238,125,17015,2,0,L|131:125,1,100,2|0,0:0|0:0,0:0:0:0:
435,191,17429,2,0,L|436:51,1,100,2|0,0:0|0:0,0:0:0:0:
375,95,17740,1,0,0:0:0:0:
78,89,17946,2,0,L|177:89,1,100,4|0,0:0|0:0,0:0:0:0:
497,95,18360,6,0,L|380:94,1,100,2|0,0:0|0:0,0:0:0:0:
274,96,18671,2,0,L|425:98,2,119.999996337891,2|2|2,0:0|0:0|0:0,0:0:0:0:
75,106,19291,1,0,0:0:0:0:
142,99,19395,2,0,L|-1:98,1,100,0|2,0:0|0:0,0:0:0:0:
142,99,19809,1,0,0:0:0:0:
139,38,19912,1,0,0:0:0:0:
309,66,20015,6,0,L|436:63,1,100,2|0,0:0|0:0,0:0:0:0:
278,111,20326,2,0,L|377:112,1,100,2|0,0:0|0:0,0:0:0:0:
64,164,20740,2,0,L|63:33,1,100,2|0,0:0|0:0,0:0:0:0:
243,61,21050,1,2,0:0:0:0:
124,43,21257,2,0,L|52:46,1,50,4|0,0:0|0:0,0:0:0:0:
182,26,21464,2,0,L|273:30,1,50,0|0,0:0|0:0,0:0:0:0:
451,159,21671,6,0,L|451:50,1,100,2|0,0:0|0:0,0:0:0:0:
272,69,21981,2,0,L|401:66,2,119.999996337891,2|2|2,3:2|0:0|0:0,0:0:0:0:
127,69,22602,1,0,0:0:0:0:
126,15,22705,1,0,0:0:0:0:
401,35,22912,2,0,L|399:166,1,100,2|0,0:0|0:0,0:0:0:0:
342,142,23222,1,0,0:0:0:0:
143,186,23326,6,0,L|144:57,1,100,2|0,0:0|0:0,0:0:0:0:
266,89,23636,2,0,L|385:91,1,100,2|0,0:0|0:0,0:0:0:0:
50,189,24050,2,0,P|71:103|128:122,1,150,2|0,0:0|0:0,0:0:0:0:
173,108,24464,1,0,0:0:0:0:
390,142,24567,2,0,L|391:37,1,100,4|0,0:0|0:0,0:0:0:0:
84,67,24981,6,0,L|209:61,1,100,2|0,0:0|0:0,0:0:0:0:
113,67,25291,1,2,0:0:0:0:
261,54,25498,1,0,0:0:0:0:
192,54,25602,1,2,0:0:0:0:
127,52,25705,1,0,0:0:0:0:
308,134,25809,2,0,L|141:134,2,150,2|2|2,0:0|0:0|0:0,0:0:0:0:
28,137,26636,6,0,L|71:13,1,100,2|0,0:0|0:0,0:0:0:0:
183,120,26946,2,0,L|140:-4,1,100,2|0,0:0|0:0,0:0:0:0:
83,25,27257,1,2,0:0:0:0:
23,25,27360,1,0,0:0:0:0:
114,26,27464,1,2,0:0:0:0:
461,135,27671,2,0,L|355:133,1,100,4|0,0:0|0:0,0:0:0:0:
191,127,27981,2,0,L|332:122,1,119.999996337891,4|0,0:0|0:0,0:0:0:0:
77,164,28291,6,0,L|101:49,1,100,4|0,1:0|0:0,0:0:0:0:
259,73,28602,2,0,L|410:71,2,119.999996337891,2|2|2,0:0|0:0|0:0,0:0:0:0:
430,185,29119,2,0,L|432:53,1,100,2|0,0:0|0:0,0:0:0:0:
229,90,29533,2,0,L|96:88,1,100,8|0,0:0|0:0,0:0:0:0:
445,144,29946,6,0,L|326:143,1,100,2|0,0:0|0:0,0:0:0:0:
222,154,30257,2,0,L|329:157,1,100,2|0,0:0|0:0,0:0:0:0:
387,158,30567,1,0,0:0:0:0:
214,102,30671,2,0,L|49:100,1,150,2|0,0:0|0:0,0:0:0:0:
257,72,31188,2,0,L|157:73,1,100,8|0,0:0|0:0,0:0:0:0:
471,170,31602,6,0,L|347:164,1,100,2|0,0:0|0:0,0:0:0:0:
241,159,31912,2,0,L|113:158,2,119.999996337891,2|2|2,0:0|0:0|0:0,0:0:0:0:
411,165,32429,2,0,L|412:54,1,100,2|0,0:0|0:0,0:0:0:0:
211,70,32843,2,0,L|331:72,1,100,8|0,0:0|0:0,0:0:0:0:
376,71,33153,1,0,0:0:0:0:
177,145,33257,6,0,L|39:140,1,100,2|0,0:0|0:0,0:0:0:0:
199,137,33567,2,0,L|68:130,2,119.999996337891,2|0|2,0:0|0:0|0:0,0:0:0:0:
366,137,34084,2,0,L|218:126,1,100,2|2,0:0|0:0,0:0:0:0:
75,122,34498,1,2,0:0:0:0:
291,146,34602,2,0,P|406:143|401:-13,1,290.000008850098,4|0,0:2|0:0,0:0:0:0:
188,23,34912,6,0,L|42:23,1,100,4|0,1:0|0:0,0:0:0:0:
270,83,35222,2,0,L|140:43,2,119.999996337891,2|2|2,0:0|0:0|0:0,0:0:0:0:
76,79,35740,2,0,L|79:214,1,100,8|0,0:0|0:0,0:0:0:0:
267,176,36153,1,8,0:0:0:0:
136,175,36360,2,0,L|45:174,1,50,2|0,0:0|0:0,0:0:0:0:
284,209,36567,6,0,L|394:205,1,100,2|0,0:0|0:0,0:0:0:0:
259,161,36877,2,0,L|134:158,1,100,2|0,0:0|0:0,0:0:0:0:
93,158,37188,1,0,0:0:0:0:
285,199,37291,2,0,L|498:193,1,194.999991073609,2|2,0:0|0:0,0:0:0:0:
298,194,37809,2,0,L|430:187,1,100,8|0,0:0|0:0,0:0:0:0:
42,206,38222,6,0,L|50:90,1,100,4|0,2:0|0:0,0:0:0:0:
221,100,38636,2,0,L|101:102,1,100,8|0,0:0|0:0,0:0:0:0:
433,174,39050,2,0,L|218:167,2,179.999994506836,2|2|2,0:0|0:0|0:0,0:0:0:0:
100,168,39877,2,0,L|297:169,2,179.999994506836,2|2|2,0:0|0:0|0:0,0:0:0:0:
411,228,40705,6,0,L|447:114,1,100,2|0,0:0|0:0,0:0:0:0:
268,138,41015,2,0,L|232:24,1,100,2|0,0:0|0:0,0:0:0:0:
421,38,41326,1,2,0:0:0:0:
364,34,41429,1,0,0:0:0:0:
114,159,41533,6,0,P|76:51|149:44,1,200,4|0,1:0|0:0,0:0:0:0:
245,47,42153,1,2,0:0:0:0:
459,45,42360,2,0,L|341:46,2,100,2|0|2,0:0|0:0|0:0,0:0:0:0:
136,163,42981,6,0,P|152:98|369:93,1,300,4|0,0:0|0:0,0:0:0:0:
230,67,43809,1,2,0:0:0:0:
110,63,44015,1,2,0:0:0:0:
395,124,44222,2,0,L|497:121,1,100,2|0,0:0|0:0,0:0:0:0:
177,250,44636,6,0,P|251:252|355:59,1,300,4|0,0:0|0:0,0:0:0:0:
164,78,45464,1,2,0:0:0:0:
169,138,45567,1,0,0:0:0:0:
276,66,45671,1,2,0:0:0:0:
164,78,45877,2,0,L|227:74,1,50,0|0,0:0|0:0,0:0:0:0:
372,78,46084,1,0,0:0:0:0:
70,142,46291,6,0,P|75:32|140:42,1,200,4|0,3:1|0:0,0:0:0:0:
328,42,46912,2,0,L|456:40,1,100,0|0,0:0|0:0,0:0:0:0:
328,42,47326,2,0,L|249:44,1,50,0|0,0:0|0:0,0:0:0:0:
73,42,47533,2,0,L|200:43,1,100,12|0,0:0|0:0,0:0:0:0:
492,171,47946,2,0,L|498:43,1,100,4|0,1:0|0:0,0:0:0:0:
376,61,48360,2,0,L|432:63,1,50,2|0,0:0|0:0,0:0:0:0:
306,104,48567,6,0,L|176:103,1,100,8|0,0:0|0:0,0:0:0:0:
509,143,48981,1,2,0:0:0:0:
388,141,49188,1,2,0:0:0:0:
183,138,49291,2,0,L|188:24,1,100,8|0,0:0|0:0,0:0:0:0:
388,141,49602,6,0,P|443:89|351:64,1,200,4|0,1:0|0:0,0:0:0:0:
298,57,50119,1,0,0:0:0:0:
206,57,50222,1,8,0:0:0:0:
325,61,50429,1,0,0:0:0:0:
206,80,50636,1,2,0:0:0:0:
398,93,50843,1,2,0:0:0:0:
103,124,51050,1,8,0:0:0:0:
405,186,51257,6,0,L|182:181,1,200,4|0,1:0|0:0,0:0:0:0:
203,121,51774,1,0,0:0:0:0:
388,117,51877,2,0,L|381:-7,1,100,8|0,0:0|0:0,0:0:0:0:
262,28,52291,2,0,L|406:15,1,100,2|0,0:0|0:0,0:0:0:0:
169,83,52705,1,8,0:0:0:0:
288,90,52912,2,0,L|294:17,1,50,0|0,0:0|0:0,0:0:0:0:
104,44,53119,6,0,L|222:43,1,100,2|0,0:0|0:0,0:0:0:0:
386,73,53533,2,0,L|277:75,1,100,8|0,0:0|0:0,0:0:0:0:
458,221,53946,2,0,L|469:99,1,100,2|0,0:0|0:0,0:0:0:0:
339,137,54257,2,0,L|328:15,1,100,2|0,0:0|0:0,0:0:0:0:
146,49,54567,1,2,0:0:0:0:
428,54,54774,5,8,0:0:0:0:
340,53,54912,1,8,0:0:0:0:
428,54,55050,1,8,0:0:0:0:
159,57,55188,1,8,0:0:0:0:
240,60,55326,1,8,0:0:0:0:
159,57,55464,1,8,0:0:0:0:
424,197,55602,6,0,L|419:83,1,66.6666666666667,8|0,0:0|0:0,0:0:0:0:
159,130,55877,2,0,L|164:41,1,66.6666666666667,8|0,0:0|0:0,0:0:0:0:
419,76,56153,2,0,L|334:75,1,66.6666666666667,8|0,0:0|0:0,0:0:0:0:
83,121,56429,5,4,1:0:0:0:
83,121,57050,1,0,0:0:0:0:
270,123,57257,2,0,L|367:121,1,66.6666666666667,2|0,0:0|0:0,0:0:0:0:
174,173,57533,2,0,L|-8:166,1,166.666666666667,2|0,0:0|0:0,0:0:0:0:
419,246,58084,6,0,L|420:89,1,139.999995727539,2|0,1:0|0:0,0:0:0:0:
238,110,58395,2,0,L|423:110,1,139.999995727539,2|0,1:0|0:0,0:0:0:0:
378,110,58705,1,2,1:0:0:0:
293,108,58809,1,0,0:0:0:0:
98,124,58912,6,0,L|88:5,1,69.9999978637696,8|0,0:0|0:0,0:0:0:0:
249,55,59222,2,0,L|99:53,1,139.999995727539,4|0,0:0|0:0,0:0:0:0:
38,47,59533,1,4,0:0:0:0:
216,68,59636,1,0,0:0:0:0:
408,149,59740,6,0,L|366:3,1,139.999995727539,6|0,1:0|0:0,0:0:0:0:
168,150,60050,2,0,L|338:152,1,139.999995727539,2|0,1:0|0:0,0:0:0:0:
476,154,60360,1,2,1:0:0:0:
177,149,60567,5,8,0:0:0:0:
307,155,60774,1,0,0:0:0:0:
376,150,60877,1,4,0:0:0:0:
194,140,60981,2,0,L|54:142,1,139.999995727539,0|4,0:0|0:0,0:0:0:0:
240,159,61291,1,0,0:0:0:0:
424,149,61395,2,0,L|316:42,1,139.999995727539,8|0,0:0|0:0,0:0:0:0:
121,143,61705,2,0,L|229:36,1,139.999995727539,2|0,1:0|0:0,0:0:0:0:
382,45,62015,1,2,1:0:0:0:
100,104,62222,6,0,L|97:5,1,69.9999978637696,8|0,0:0|0:0,0:0:0:0:
161,32,62429,1,0,0:0:0:0:
326,36,62533,2,0,L|116:36,1,209.999993591309,4|4,0:0|0:0,0:0:0:0:
303,103,62946,1,0,0:0:0:0:
500,108,63050,2,0,L|296:57,2,209.999993591309,2|2|2,1:0|1:0|1:0,0:0:0:0:
35,164,63877,2,0,L|199:163,1,139.999995727539,12|0,3:0|0:0,0:0:0:0:
486,169,64188,2,0,L|322:168,1,139.999995727539,12|0,0:0|0:0,0:0:0:0:
87,180,64498,6,0,P|129:101|324:120,1,279.999991455078,4|8,1:0|0:0,0:0:0:0:
386,100,65015,1,0,0:0:0:0:
191,144,65119,2,0,L|20:141,1,139.999995727539,4|0,0:0|0:0,0:0:0:0:
236,201,65533,2,0,L|68:198,1,139.999995727539,8|0,0:0|0:0,0:0:0:0:
180,200,65843,1,4,0:0:0:0:
263,206,65946,2,0,L|99:205,1,139.999995727539,0|4,0:0|0:0,0:0:0:0:
208,207,66257,1,0,0:0:0:0:
416,215,66360,6,0,L|418:44,1,139.999995727539,2|0,1:0|0:0,0:0:0:0:
236,167,66671,2,0,L|234:1,1,139.999995727539,2|0,1:0|0:0,0:0:0:0:
414,28,66981,1,2,0:0:0:0:
91,60,67188,2,0,L|349:0,2,209.999993591309,2|2|2,1:0|1:0|1:0,0:0:0:0:
263,76,67912,1,0,0:0:0:0:
435,77,68015,6,0,L|177:17,2,209.999993591309,2|2|2,1:0|1:0|1:0,0:0:0:0:
149,111,68843,1,2,0:0:0:0:
303,111,69050,1,2,0:0:0:0:
24,109,69257,1,4,0:0:0:0:
379,156,69464,6,0,P|341:91|141:71,1,279.999991455078,6|0,1:0|0:0,0:0:0:0:
215,66,69981,1,0,0:0:0:0:
273,72,70084,2,0,L|104:68,1,139.999995727539,4|0,0:0|0:0,0:0:0:0:
37,65,70395,1,0,0:0:0:0:
222,150,70498,6,0,L|374:153,1,139.999995727539,8|8,0:0|0:0,0:0:0:0:
177,147,70809,2,0,L|29:148,1,139.999995727539,4|0,0:0|0:0,0:0:0:0:
40,89,71119,1,4,0:0:0:0:
231,85,71222,1,0,0:0:0:0:
421,87,71326,6,0,L|276:83,1,139.999995727539,2|0,1:0|0:0,0:0:0:0:
90,51,71636,2,0,L|229:54,1,139.999995727539,2|0,1:0|0:0,0:0:0:0:
152,49,71946,1,2,1:0:0:0:
74,41,72050,1,0,0:0:0:0:
333,85,72153,6,0,L|441:87,1,69.9999978637696,8|0,0:0|0:0,0:0:0:0:
239,197,72464,2,0,L|406:196,1,139.999995727539,4|0,0:0|0:0,0:0:0:0:
378,196,72774,1,4,0:0:0:0:
202,196,72877,1,0,0:0:0:0:
18,193,72981,6,0,L|22:37,1,139.999995727539,6|0,1:0|0:0,0:0:0:0:
200,48,73291,2,0,L|349:49,1,139.999995727539,2|0,1:0|0:0,0:0:0:0:
146,77,73602,1,2,1:0:0:0:
426,170,73809,2,0,L|331:169,1,69.9999978637696,8|0,0:0|0:0,0:0:0:0:
279,164,74015,1,0,0:0:0:0:
89,186,74119,2,0,P|52:176|138:72,1,209.999993591309,4|4,0:0|0:0,0:0:0:0:
253,47,74533,1,0,0:0:0:0:
421,43,74636,6,0,L|419:232,1,139.999995727539,2|0,1:0|0:0,0:0:0:0:
253,171,74946,2,0,L|67:166,1,139.999995727539,2|0,1:0|0:0,0:0:0:0:
325,166,75257,1,2,1:0:0:0:
62,168,75464,2,0,L|57:60,1,69.9999978637696,8|0,0:0|0:0,0:0:0:0:
132,87,75671,1,0,0:0:0:0:
329,87,75774,2,0,P|422:156|331:177,1,209.999993591309,4|4,0:0|0:0,0:0:0:0:
213,238,76188,1,0,0:0:0:0:
26,217,76291,6,0,L|267:162,2,209.999993591309,4|2|2,1:0|1:0|1:0,0:0:0:0:
96,223,77015,1,0,0:0:0:0:
334,200,77119,2,0,L|473:203,1,139.999995727539,12|0,3:0|0:0,0:0:0:0:
187,198,77429,2,0,L|10:202,1,139.999995727539,12|0,0:0|0:0,0:0:0:0:
298,314,77740,6,0,P|395:286|291:203,1,279.999991455078,4|0,1:0|0:0,0:0:0:0:
214,195,78257,1,0,0:0:0:0:
123,191,78360,2,0,L|277:195,1,139.999995727539,4|0,0:0|0:0,0:0:0:0:
62,183,78774,2,0,L|69:-6,1,139.999995727539,8|0,0:0|0:0,0:0:0:0:
158,46,79084,1,4,0:0:0:0:
249,40,79188,2,0,L|91:39,1,139.999995727539,0|4,0:0|0:0,0:0:0:0:
405,155,79602,6,0,L|172:149,1,209.999993591309,4|0,2:0|0:0,0:0:0:0:
298,150,80015,1,4,0:0:0:0:
302,58,80222,1,2,0:0:0:0:
107,155,80429,2,0,L|334:153,2,209.999993591309,2|2|0,1:0|1:0|0:0,0:0:0:0:
273,161,81153,1,0,0:0:0:0:
446,159,81257,6,0,L|444:17,1,139.999995727539,4|0,2:0|0:0,0:0:0:0:
321,25,81567,2,0,L|172:27,1,139.999995727539,4|0,0:0|0:0,0:0:0:0:
369,87,81877,1,4,0:0:0:0:
186,104,82084,2,0,L|334:102,2,139.999995727539,8|2|4,0:0|0:0|0:0,0:0:0:0:
369,142,82705,1,2,0:0:0:0:
191,146,82809,1,0,0:0:0:0:
21,135,82912,6,0,L|246:136,2,209.999993591309,4|2|2,0:0|1:0|1:0,0:0:0:0:
208,49,83636,1,0,0:0:0:0:
391,187,83740,1,4,1:0:0:0:
459,174,83843,1,2,0:0:0:0:
459,104,83946,1,2,0:0:0:0:
393,77,84050,1,2,0:0:0:0:
226,84,84153,2,0,L|310:78,1,69.9999978637696,0|0,0:0|0:0,0:0:0:0:
115,74,84360,2,0,L|31:68,1,69.9999978637696
288,80,84567,2,0,L|505:76,1,179.999994506836
153,275,84981,6,0,P|48:237|226:49,1,500,4|0,1:0|0:0,0:0:0:0:
285,40,86119,1,0,0:0:0:0:
111,233,86222,6,0,L|103:107,1,100,8|0,0:0|0:0,0:0:0:0:
175,130,86533,1,0,0:0:0:0:
244,130,86636,2,0,L|111:130,1,100,8|0,0:0|0:0,0:0:0:0:
141,59,86946,1,0,0:0:0:0:
328,73,87050,6,0,L|441:67,2,100,8|0|8,0:0|0:0|0:0,0:0:0:0:
197,72,87671,2,0,L|195:-5,1,50,0|0,0:0|0:0,0:0:0:0:
358,173,87877,2,0,L|360:42,1,100,8|0,0:0|0:0,0:0:0:0:
222,74,88291,1,8,0:0:0:0:
352,74,88498,1,0,0:0:0:0:
70,166,88705,2,0,L|72:36,1,100,8|0,0:0|0:0,0:0:0:0:
202,67,89119,2,0,L|67:63,1,100,8|0,0:0|0:0,0:0:0:0:
167,66,89429,1,0,0:0:0:0:
324,83,89533,6,0,L|441:82,1,100,8|0,0:0|0:0,0:0:0:0:
358,82,89843,1,0,0:0:0:0:
294,69,89946,2,0,L|410:64,1,100,8|0,0:0|0:0,0:0:0:0:
459,61,90257,1,0,0:0:0:0:
247,137,90360,2,0,L|127:137,1,100,8|0,0:0|0:0,0:0:0:0:
272,88,90671,2,0,L|399:84,1,100,8|0,0:0|0:0,0:0:0:0:
306,87,90981,1,8,0:0:0:0:
241,87,91084,1,0,0:0:0:0:
68,93,91188,6,0,L|69:194,1,100,8|0,0:0|0:0,0:0:0:0:
199,195,91602,1,8,0:0:0:0:
471,195,91809,2,0,L|346:194,2,100,0|8|0,0:0|0:0|0:0,0:0:0:0:
340,194,92429,2,0,L|472:188,1,100,8|0,0:0|0:0,0:0:0:0:
373,190,92740,1,0,0:0:0:0:
203,240,92843,6,0,L|186:108,1,100,8|0,0:0|0:0,0:0:0:0:
309,134,93153,2,0,L|326:2,1,100,0|0,0:0|0:0,0:0:0:0:
192,33,93464,1,0,0:0:0:0:
494,31,93671,2,0,L|395:34,2,100,8|0|8,0:0|0:0|0:0,0:0:0:0:
495,39,94291,2,0,L|411:44,1,50,0|0,0:0|0:0,0:0:0:0:
259,188,94498,5,8,0:0:0:0:
189,184,94601,1,0,0:0:0:0:
123,160,94704,1,0,0:0:0:0:
123,89,94808,1,0,0:0:0:0:
225,124,94912,1,8,0:0:0:0:
155,120,95015,1,0,0:0:0:0:
89,96,95118,1,0,0:0:0:0:
89,25,95188,1,0,0:0:0:0:
302,46,95326,6,0,L|361:42,1,50,8|0,0:0|0:0,0:0:0:0:
156,41,95533,2,0,L|103:37,1,50
357,142,95740,1,8,0:0:0:0:
427,137,95843,1,0,0:0:0:0:
432,67,95946,1,0,0:0:0:0:
436,23,96015,1,0,0:0:0:0:
392,23,96084,1,0,0:0:0:0:
179,70,96153,6,0,L|101:67,2,50,8|0|0,0:0|0:0|0:0,0:0:0:0:
363,70,96464,2,0,L|441:67,2,50,8|0|0,0:0|0:0|0:0,0:0:0:0:
177,77,96774,2,0,L|88:79,1,50,8|0,0:0|0:0,0:0:0:0:
405,154,96981,2,0,L|326:149,1,50,8|0,0:0|0:0,0:0:0:0:
255,128,97188,2,0,L|334:123,1,50,8|0,0:0|0:0,0:0:0:0:
76,113,97395,2,0,L|143:112,1,50,0|0,0:0|0:0,0:0:0:0:
360,113,97602,2,0,L|421:109,1,50,0|0,0:0|0:0,0:0:0:0:
178,147,97809,6,0,L|43:152,1,100,4|0,1:0|0:0,0:0:0:0:
199,146,98119,2,0,L|337:141,2,119.999996337891,2|2|2,0:0|0:0|0:0,0:0:0:0:
33,138,98740,1,0,0:0:0:0:
35,79,98843,1,2,0:0:0:0:
154,88,99050,1,2,0:0:0:0:
35,79,99257,2,0,L|31:138,1,50,0|0,0:0|0:0,0:0:0:0:
221,130,99464,6,0,L|352:131,1,100,2|0,0:0|0:0,0:0:0:0:
445,137,99774,2,0,L|446:267,1,100,2|0,0:0|0:0,0:0:0:0:
129,175,100188,2,0,L|6:177,1,100,2|0,0:0|0:0,0:0:0:0:
37,95,100499,1,2,0:0:0:0:
350,102,100705,2,0,L|345:247,1,100,4|0,0:0|0:0,0:0:0:0:
276,203,101015,1,0,0:0:0:0:
62,189,101119,6,0,L|179:188,1,100,2|0,0:0|0:0,0:0:0:0:
277,178,101429,2,0,L|124:177,2,119.999996337891,2|2|2,0:0|0:0|0:0,0:0:0:0:
119,182,102050,1,0,0:0:0:0:
64,179,102154,2,0,L|63:45,1,100,2|2,0:0|0:0,0:0:0:0:
203,75,102568,1,0,0:0:0:0:
133,78,102671,1,0,0:0:0:0:
312,84,102774,6,0,L|439:81,1,100,2|0,0:0|0:0,0:0:0:0:
296,88,103084,2,0,L|199:88,2,50,2|0|2,0:0|0:0|0:0,0:0:0:0:
366,92,103395,1,0,0:0:0:0:
176,157,103498,2,0,L|147:77,1,50,2|0,0:0|0:0,0:0:0:0:
250,104,103705,2,0,L|165:98,2,50,0|2|0,0:0|0:0|0:0,0:0:0:0:
340,100,104015,1,2,0:0:0:0:
143,137,104119,2,0,L|24:135,1,100,4|0,0:0|0:0,0:0:0:0:
257,125,104430,6,0,L|401:127,1,100,2|0,0:0|0:0,0:0:0:0:
187,106,104740,2,0,L|58:103,1,119.999996337891,2|2,0:0|0:0,0:0:0:0:
278,103,105153,1,0,0:0:0:0:
422,104,105361,1,0,0:0:0:0:
356,101,105464,1,2,0:0:0:0:
134,44,105671,2,0,L|136:175,1,100,2|0,0:0|0:0,0:0:0:0:
195,141,105981,1,0,0:0:0:0:
376,178,106085,6,0,L|274:174,1,100,2|0,0:0|0:0,0:0:0:0:
391,156,106395,2,0,L|490:151,1,100,2|0,0:0|0:0,0:0:0:0:
159,180,106809,2,0,P|180:94|237:113,1,150,2|0,0:0|0:0,0:0:0:0:
281,107,107223,1,0,0:0:0:0:
76,141,107326,2,0,L|77:36,1,100,4|0,0:0|0:0,0:0:0:0:
358,52,107740,6,0,L|483:46,1,100,2|0,0:0|0:0,0:0:0:0:
397,43,108050,1,2,0:0:0:0:
336,39,108154,1,0,0:0:0:0:
192,54,108361,1,2,0:0:0:0:
127,52,108464,1,0,0:0:0:0:
306,102,108567,2,0,L|455:102,2,150,2|2|2,0:0|0:0|0:0,0:0:0:0:
245,101,109291,1,0,0:0:0:0:
23,123,109395,6,0,L|22:252,1,100,4|0,0:0|0:0,0:0:0:0:
144,225,109705,2,0,L|243:228,1,100,2|0,0:0|0:0,0:0:0:0:
183,230,110016,1,2,0:0:0:0:
123,227,110119,1,0,0:0:0:0:
243,228,110223,1,2,0:0:0:0:
487,220,110430,2,0,L|486:342,1,100,4|0,0:0|0:0,0:0:0:0:
301,314,110740,2,0,L|456:307,1,119.999996337891,4|0,2:0|0:0,0:0:0:0:
166,298,111050,6,0,L|165:177,1,100,4|0,1:0|0:0,0:0:0:0:
308,203,111360,2,0,L|452:204,2,119.999996337891,2|2|2,0:0|0:0|0:0,0:0:0:0:
142,199,111878,2,0,L|144:67,1,100,2|0,0:0|0:0,0:0:0:0:
321,103,112292,2,0,L|420:104,1,100,8|0,0:0|0:0,0:0:0:0:
120,150,112705,6,0,L|124:37,1,100,2|0,0:0|0:0,0:0:0:0:
250,56,113016,2,0,L|143:59,1,100,2|0,0:0|0:0,0:0:0:0:
155,118,113326,1,0,0:0:0:0:
326,117,113430,2,0,L|491:115,1,150,2|2,0:0|0:0,0:0:0:0:
257,72,113947,2,0,L|157:73,1,100,8|0,0:0|0:0,0:0:0:0:
471,170,114361,6,0,L|347:164,1,100,2|0,0:0|0:0,0:0:0:0:
241,159,114671,2,0,L|113:158,2,119.999996337891,2|2|2,0:0|0:0|0:0,0:0:0:0:
66,154,115188,2,0,L|67:43,1,100,2|0,0:0|0:0,0:0:0:0:
233,59,115602,2,0,L|133:57,1,100,8|0,0:0|0:0,0:0:0:0:
72,58,115912,1,0,0:0:0:0:
252,122,116016,6,0,L|351:125,1,100,2|0,0:0|0:0,0:0:0:0:
211,123,116326,2,0,L|346:128,2,119.999996337891,2|2|2,0:0|0:0|0:0,0:0:0:0:
46,118,116843,2,0,L|42:236,1,100,2|2,0:0|0:0,0:0:0:0:
329,216,117257,1,2,0:0:0:0:
103,216,117361,2,0,B|13:211|13:211|206:211,1,250,4|0,0:0|0:0,0:0:0:0:
392,174,117671,6,0,L|395:59,1,100,4|0,1:0|0:0,0:0:0:0:
199,81,117981,2,0,L|338:78,2,119.999996337891,2|2|2,0:0|0:0|0:0,0:0:0:0:
23,78,118499,2,0,L|20:213,1,100,2|0,0:0|0:0,0:0:0:0:
239,204,118912,1,8,0:0:0:0:
116,200,119119,2,0,L|25:199,1,50,2|0,0:0|0:0,0:0:0:0:
239,204,119326,6,0,L|349:200,1,100,2|0,0:0|0:0,0:0:0:0:
224,172,119636,2,0,L|99:169,1,100,2|0,0:0|0:0,0:0:0:0:
134,110,119947,1,0,0:0:0:0:
332,151,120050,2,0,P|456:131|446:50,1,194.999991073609,2|0,0:0|0:0,0:0:0:0:
296,84,120568,2,0,L|424:82,1,100,8|0,0:0|0:0,0:0:0:0:
68,159,120981,6,0,L|76:43,1,100,4|0,0:0|0:0,0:0:0:0:
231,49,121395,2,0,L|111:51,1,100,8|0,0:0|0:0,0:0:0:0:
467,176,121809,2,0,L|252:169,2,179.999994506836,2|2|2,0:0|0:0|0:0,0:0:0:0:
107,169,122636,2,0,L|304:170,2,179.999994506836,2|2|2,0:0|0:0|0:0,0:0:0:0:
411,228,123464,6,0,L|265:226,1,100,2|0,0:0|0:0,0:0:0:0:
193,189,123774,2,0,L|329:186,1,100,2|0,0:0|0:0,0:0:0:0:
453,195,124085,1,0,0:0:0:0:
462,111,124188,1,0,0:0:0:0:
164,178,124292,6,0,P|184:93|299:80,1,200,4|0,1:0|0:0,0:0:0:0:
146,68,124912,1,0,0:0:0:0:
336,183,125119,2,0,L|339:77,1,100,2|0,0:0|0:0,0:0:0:0:
218,83,125533,1,2,0:0:0:0:
502,153,125740,6,0,P|486:88|269:83,1,300,4|0,0:0|0:0,0:0:0:0:
369,57,126515,1,2,0:0:0:0:
424,58,126619,1,0,0:0:0:0:
424,112,126722,1,2,0:0:0:0:
174,124,126929,2,0,L|30:134,1,125,8|0,0:0|0:0,0:0:0:0:
362,169,127395,6,0,P|293:42|157:74,1,300,4|0,0:0|0:0,0:0:0:0:
280,80,128223,1,2,0:0:0:0:
275,140,128326,1,0,0:0:0:0:
168,68,128430,1,2,0:0:0:0:
280,80,128636,2,0,L|217:76,1,50,0|0,0:0|0:0,0:0:0:0:
72,80,128843,1,8,0:0:0:0:
381,165,129050,6,0,P|366:102|217:98,1,200,4|0,1:0|0:0,0:0:0:0:
425,80,129671,2,0,L|425:201,1,100,2|0,0:0|0:0,0:0:0:0:
304,178,130085,2,0,L|383:180,1,50,0|0,0:0|0:0,0:0:0:0:
184,151,130292,2,0,L|57:152,1,100,4|0,0:0|0:0,0:0:0:0:
387,175,130705,2,0,L|393:47,1,100,4|0,1:0|0:0,0:0:0:0:
271,79,131119,2,0,L|221:77,1,50,0|0,0:0|0:0,0:0:0:0:
404,160,131326,6,0,L|396:272,1,100,8|0,0:0|0:0,0:0:0:0:
225,248,131740,1,2,0:0:0:0:
345,248,131947,1,2,0:0:0:0:
147,220,132050,2,0,L|152:106,1,100,8|0,0:0|0:0,0:0:0:0:
365,137,132361,6,0,P|467:129|491:37,1,200,4|0,1:0|0:0,0:0:0:0:
418,38,132877,1,0,0:0:0:0:
357,33,132981,1,8,0:0:0:0:
174,85,133188,1,0,0:0:0:0:
293,89,133395,1,2,0:0:0:0:
22,101,133602,1,2,0:0:0:0:
306,121,133809,1,8,0:0:0:0:
12,176,134016,6,0,L|235:171,1,200,4|0,1:0|0:0,0:0:0:0:
277,169,134533,1,0,0:0:0:0:
116,166,134636,2,0,L|123:42,1,100,8|0,0:0|0:0,0:0:0:0:
283,68,135050,2,0,L|425:63,1,100,2|0,0:0|0:0,0:0:0:0:
211,91,135464,1,8,0:0:0:0:
330,98,135671,2,0,L|336:25,1,50,2|0,0:0|0:0,0:0:0:0:
145,52,135878,6,0,L|263:51,1,100,4|0,0:0|0:0,0:0:0:0:
427,81,136292,2,0,L|318:83,1,100,8|0,0:0|0:0,0:0:0:0:
147,224,136705,2,0,L|136:102,1,100,2|0,0:0|0:0,0:0:0:0:
268,139,137016,2,0,L|279:17,1,100,2|0,0:0|0:0,0:0:0:0:
459,52,137326,1,2,0:0:0:0:
186,63,137533,5,8,0:0:0:0:
274,62,137671,1,8,0:0:0:0:
277,143,137809,1,8,0:0:0:0:
53,136,137947,1,8,0:0:0:0:
146,138,138085,1,8,0:0:0:0:
53,136,138223,1,8,0:0:0:0:
299,197,138361,6,0,L|294:83,1,66.6666666666667,8|0,0:0|0:0,0:0:0:0:
53,136,138636,2,0,L|160:135,1,66.6666666666667,8|0,0:0|0:0,0:0:0:0:
352,132,138912,2,0,L|267:131,1,66.6666666666667,8|0,0:0|0:0,0:0:0:0:
512,135,139188,5,4,1:0:0:0:
371,121,139809,1,0,0:0:0:0:
184,123,140016,2,0,L|259:123,1,50,2|0,0:0|0:0,0:0:0:0:
50,126,140326,2,0,P|63:81|163:65,1,150,2|0,0:0|0:0,0:0:0:0:
419,246,140843,6,0,L|241:246,1,139.999995727539,8|0,0:0|0:0,0:0:0:0:
87,202,141154,2,0,L|272:202,1,139.999995727539,2|0,1:0|0:0,0:0:0:0:
327,203,141464,1,2,1:0:0:0:
325,118,141568,1,0,0:0:0:0:
98,124,141671,6,0,L|88:5,1,69.9999978637696,8|0,0:0|0:0,0:0:0:0:
253,56,141981,2,0,L|392:57,1,139.999995727539,4|0,0:0|0:0,0:0:0:0:
395,126,142292,1,4,0:0:0:0:
230,125,142395,1,0,0:0:0:0:
408,200,142499,6,0,L|481:71,1,139.999995727539,6|0,1:0|0:0,0:0:0:0:
258,172,142809,2,0,L|329:37,1,139.999995727539,2|0,1:0|0:0,0:0:0:0:
489,54,143119,1,2,1:0:0:0:
214,153,143326,5,8,0:0:0:0:
344,154,143533,1,0,0:0:0:0:
413,154,143636,1,4,0:0:0:0:
231,144,143740,2,0,L|91:146,1,139.999995727539,0|4,0:0|0:0,0:0:0:0:
279,199,144050,1,0,0:0:0:0:
98,203,144154,2,0,L|23:42,1,139.999995727539,8|0,0:0|0:0,0:0:0:0:
196,145,144464,2,0,L|304:38,1,139.999995727539,2|0,1:0|0:0,0:0:0:0:
134,48,144774,1,2,1:0:0:0:
418,138,144981,6,0,L|421:39,1,69.9999978637696,8|0,0:0|0:0,0:0:0:0:
364,65,145188,1,0,0:0:0:0:
198,111,145292,2,0,P|242:41|365:31,1,209.999993591309,2|0,1:0|0:0,0:0:0:0:
197,58,145705,1,0,0:0:0:0:
26,57,145809,2,0,L|230:6,2,209.999993591309,2|2|2,1:0|1:0|1:0,0:0:0:0:
331,90,146636,2,0,L|495:89,1,139.999995727539,12|0,3:0|0:0,0:0:0:0:
205,86,146947,2,0,L|41:85,1,139.999995727539,12|0,0:0|0:0,0:0:0:0:
371,177,147257,6,0,P|349:85|161:64,1,279.999991455078,4|0,1:0|0:0,0:0:0:0:
159,46,147774,1,0,0:0:0:0:
331,208,147878,2,0,L|419:57,1,139.999995727539,4|0,0:0|0:0,0:0:0:0:
131,165,148292,2,0,L|54:22,1,139.999995727539,8|0,0:0|0:0,0:0:0:0:
159,46,148602,1,4,0:0:0:0:
249,45,148705,2,0,L|109:45,1,139.999995727539,0|4,0:0|0:0,0:0:0:0:
201,51,149016,1,0,0:0:0:0:
371,240,149119,6,0,L|373:69,1,139.999995727539,2|0,1:0|0:0,0:0:0:0:
191,192,149430,2,0,L|189:26,1,139.999995727539,2|0,1:0|0:0,0:0:0:0:
369,53,149740,1,8,0:0:0:0:
72,104,149947,2,0,L|330:44,2,209.999993591309,2|2|2,1:0|1:0|1:0,0:0:0:0:
243,107,150671,1,0,0:0:0:0:
418,98,150774,6,0,L|160:38,2,209.999993591309,2|2|2,1:0|1:0|1:0,0:0:0:0:
147,106,151602,1,2,0:0:0:0:
301,106,151809,1,2,0:0:0:0:
22,104,152016,1,8,0:0:0:0:
355,150,152223,6,0,P|317:85|117:65,1,279.999991455078,4|0,1:0|0:0,0:0:0:0:
37,55,152740,1,0,0:0:0:0:
129,57,152843,2,0,L|114:208,1,139.999995727539,4|0,0:0|0:0,0:0:0:0:
30,189,153154,1,0,0:0:0:0:
246,154,153257,6,0,L|352:149,1,69.9999978637696,8|0,0:0|0:0,0:0:0:0:
380,145,153464,1,0,0:0:0:0:
175,142,153568,2,0,L|27:143,1,139.999995727539,4|0,0:0|0:0,0:0:0:0:
38,84,153878,1,4,0:0:0:0:
229,80,153981,1,0,0:0:0:0:
419,82,154085,6,0,L|274:78,1,139.999995727539,4|0,1:0|0:0,0:0:0:0:
88,46,154395,2,0,L|227:49,1,139.999995727539,2|0,1:0|0:0,0:0:0:0:
150,44,154705,1,2,1:0:0:0:
152,128,154809,1,0,0:0:0:0:
356,141,154912,6,0,L|464:143,1,69.9999978637696,8|0,0:0|0:0,0:0:0:0:
265,192,155223,2,0,L|432:191,1,139.999995727539,4|0,0:0|0:0,0:0:0:0:
404,191,155533,1,4,0:0:0:0:
219,195,155636,1,0,0:0:0:0:
404,191,155740,6,0,L|510:69,1,139.999995727539,4|0,1:0|0:0,0:0:0:0:
283,71,156050,2,0,L|130:72,1,139.999995727539,2|0,1:0|0:0,0:0:0:0:
322,97,156361,1,2,1:0:0:0:
48,171,156568,2,0,L|143:170,1,69.9999978637696,8|0,0:0|0:0,0:0:0:0:
195,165,156774,1,0,0:0:0:0:
385,187,156878,2,0,P|422:177|336:73,1,209.999993591309,4|4,0:0|0:0,0:0:0:0:
221,48,157292,1,0,0:0:0:0:
391,50,157395,6,0,P|431:116|355:123,1,139.999995727539,2|0,1:0|0:0,0:0:0:0:
206,141,157705,2,0,L|392:136,1,139.999995727539,2|0,1:0|0:0,0:0:0:0:
508,182,158016,1,2,1:0:0:0:
202,152,158223,2,0,L|145:103,2,69.9999978637696,8|0|0,0:0|0:0|0:0,0:0:0:0:
375,178,158533,2,0,P|472:155|491:36,1,209.999993591309,4|4,0:0|0:0,0:0:0:0:
301,56,158947,1,0,0:0:0:0:
111,72,159050,6,0,L|315:25,2,209.999993591309,4|2|2,1:0|1:0|1:0,0:0:0:0:
198,72,159774,1,0,0:0:0:0:
472,117,159878,2,0,L|321:107,1,139.999995727539,12|0,3:0|0:0,0:0:0:0:
53,110,160188,2,0,L|227:103,1,139.999995727539,12|0,0:0|0:0,0:0:0:0:
457,267,160499,6,0,P|462:195|274:117,1,279.999991455078,4|0,1:0|0:0,0:0:0:0:
258,101,161016,1,0,0:0:0:0:
430,99,161119,2,0,L|418:270,1,139.999995727539,4|0,0:0|0:0,0:0:0:0:
188,225,161533,2,0,L|368:227,1,139.999995727539,8|0,0:0|0:0,0:0:0:0:
412,228,161843,1,4,0:0:0:0:
321,175,161947,2,0,L|163:174,1,139.999995727539,0|4,0:0|0:0,0:0:0:0:
89,169,162257,1,0,0:0:0:0:
342,121,162361,6,0,L|115:119,1,209.999993591309,4|0,0:0|0:0,0:0:0:0:
229,120,162774,1,4,0:0:0:0:
304,64,162981,1,2,0:0:0:0:
15,103,163188,2,0,L|242:101,2,209.999993591309,2|2|0,1:0|1:0|0:0,0:0:0:0:
182,99,163912,1,0,0:0:0:0:
359,174,164016,6,0,P|403:137|347:96,1,139.999995727539,4|0,0:0|0:0,0:0:0:0:
176,93,164326,2,0,L|27:95,1,139.999995727539,4|0,0:0|0:0,0:0:0:0:
209,85,164636,1,4,0:0:0:0:
370,80,164843,2,0,L|230:81,2,139.999995727539,10|2|4,0:0|0:0|0:0,0:0:0:0:
479,117,165464,1,2,0:0:0:0:
310,119,165567,1,0,0:0:0:0:
143,112,165671,6,0,L|388:111,2,209.999993591309,4|2|2,0:0|1:0|1:0,0:0:0:0:
230,105,166395,1,0,0:0:0:0:
432,216,166499,1,4,1:0:0:0:
500,203,166602,1,2,0:0:0:0:
500,133,166705,1,2,0:0:0:0:
434,106,166809,1,2,0:0:0:0:
277,96,166912,2,0,L|193:90,1,69.9999978637696,0|0,0:0|0:0,0:0:0:0:
388,86,167119,2,0,L|472:80,1,69.9999978637696,0|0,0:0|0:0,0:0:0:0:
212,124,167326,6,0,L|16:118,1,179.999994506836,0|0,0:0|0:0,0:0:0:0:
326,269,167740,2,0,P|352:207|52:133,1,500,4|0,1:0|0:0,0:0:0:0:
130,99,168877,1,0,0:0:0:0:
299,114,168981,6,0,L|418:117,1,100,2|0,0:0|0:0,0:0:0:0:
278,110,169291,2,0,L|145:107,1,100,2|0,0:0|0:0,0:0:0:0:
354,163,169602,1,4,0:0:0:0:
223,161,169809,2,0,L|203:88,1,50,2|0,0:0|0:0,0:0:0:0:
311,103,170015,2,0,L|331:30,1,50,2|0,0:0|0:0,0:0:0:0:
149,156,170222,1,4,0:0:0:0:
88,157,170325,1,0,0:0:0:0:
36,126,170428,1,8,0:0:0:0:
39,67,170532,1,8,0:0:0:0:
227,127,170636,6,0,P|314:87|275:32,1,150,4|0,1:0|0:0,0:0:0:0:
250,57,171050,1,8,0:0:0:0:
119,57,171257,1,0,0:0:0:0:
410,55,171464,1,8,0:0:0:0:
306,55,171671,1,0,0:0:0:0:
102,56,171877,1,8,0:0:0:0:
221,61,172084,2,0,L|270:60,1,50,0|0,0:0|0:0,0:0:0:0:
110,153,172291,6,0,L|69:20,1,100,8|0,0:0|0:0,0:0:0:0:
220,120,172602,2,0,L|261:-13,1,100,0|0,0:0|0:0,0:0:0:0:
131,26,172912,1,2,0:0:0:0:
400,54,173119,2,0,L|403:175,1,100,8|0,0:0|0:0,0:0:0:0:
281,150,173533,1,8,0:0:0:0:
345,150,173636,1,0,0:0:0:0:
408,150,173739,1,0,0:0:0:0:
472,150,173843,1,0,0:0:0:0:
294,230,173946,6,0,P|227:192|269:130,1,150,8|0,0:0|0:0,0:0:0:0:
315,135,174360,1,8,0:0:0:0:
185,128,174567,1,0,0:0:0:0:
467,124,174774,2,0,L|360:120,2,100,2|0|8,0:0|0:0|0:0,0:0:0:0:
336,112,175395,2,0,L|408:112,1,50,0|0,0:0|0:0,0:0:0:0:
216,136,175602,6,0,L|87:136,1,100,8|0,0:0|0:0,0:0:0:0:
231,115,175912,2,0,L|346:112,1,100,0|0,0:0|0:0,0:0:0:0:
266,103,176222,1,0,0:0:0:0:
200,99,176326,1,0,0:0:0:0:
375,171,176429,6,0,L|422:56,1,100,4|0,0:0|0:0,0:0:0:0:
233,130,176740,2,0,L|186:15,1,100,4|0,0:0|0:0,0:0:0:0:
260,35,177050,1,2,0:0:0:0:
324,33,177153,1,2,0:0:0:0:
86,124,177257,6,0,P|131:42|202:58,1,150,4|0,1:0|0:0,0:0:0:0:
242,46,177671,1,8,0:0:0:0:
112,53,177877,1,0,0:0:0:0:
295,119,178084,2,0,L|152:121,2,100,8|0|8,0:0|0:0|0:0,0:0:0:0:
207,116,178636,1,0,0:0:0:0:
120,113,178774,1,0,0:0:0:0:
343,212,178912,6,0,L|359:128,1,83.3333333333333,4|0,1:0|0:0,0:0:0:0:
332,123,179119,1,0,0:0:0:0:
297,122,179171,1,0,0:0:0:0:
266,121,179222,1,0,0:0:0:0:
107,100,179326,5,8,0:0:0:0:
58,100,179429,1,0,0:0:0:0:
23,101,179481,1,0,0:0:0:0:
57,88,179533,1,0,0:0:0:0:
104,86,179584,1,0,0:0:0:0:
139,82,179636,1,0,0:0:0:0:
174,82,179688,1,0,0:0:0:0:
296,71,179740,5,8,0:0:0:0:
330,58,179791,1,0,0:0:0:0:
295,42,179843,1,0,0:0:0:0:
134,65,179946,1,0,0:0:0:0:
90,65,180015,1,0,0:0:0:0:
132,59,180084,1,0,0:0:0:0:
333,77,180153,5,12,0:0:0:0:
370,77,180205,1,0,0:0:0:0:
407,76,180257,1,0,0:0:0:0:
408,26,180360,1,0,0:0:0:0:
370,23,180412,1,2,0:0:0:0:
332,17,180464,1,0,0:0:0:0:
94,125,180567,6,0,L|91:58,1,66.6666666666667,4|0,1:0|0:0,0:0:0:0:
135,53,180774,1,0,0:0:0:0:
203,56,180843,1,0,0:0:0:0:
181,55,180912,1,0,0:0:0:0:
394,72,180981,6,0,L|434:67,1,33.3333333333333,8|0,0:0|0:0,0:0:0:0:
362,64,181084,2,0,L|326:61,1,33.3333333333333,0|0,0:0|0:0,0:0:0:0:
352,64,181188,1,0,0:0:0:0:
394,72,181257,1,0,0:0:0:0:
396,0,181326,1,0,0:0:0:0:
181,129,181395,6,0,L|108:125,1,66.6666666666667,8|0,0:0|0:0,0:0:0:0:
116,101,181567,1,0,0:0:0:0:
139,102,181602,1,0,0:0:0:0:
393,47,181705,2,0,L|213:54,1,150
224,69,182067,1,0,0:0:0:0:
234,99,182119,1,0,0:0:0:0:
266,100,182171,1,0,0:0:0:0:
455,130,182222,6,2,L|457:48,1,50,6|2,1:0|0:0,0:0:0:0:
367,69,182429,2,2,L|369:-13,1,50,2|2,0:0|0:0,0:0:0:0:
196,51,182636,2,2,L|115:51,1,50,2|2,0:0|0:0,0:0:0:0:
354,25,182843,2,2,L|435:25,1,50,2|2,0:0|0:0,0:0:0:0:
153,127,183050,6,2,L|203:127,1,50
395,100,183257,2,2,L|321:100,1,50,2|2,0:0|0:0,0:0:0:0:
155,109,183464,2,2,L|105:109,1,50,4|2,0:0|0:0,0:0:0:0:
377,114,183671,2,2,L|427:113,1,50,2|2,0:0|0:0,0:0:0:0:
163,108,183877,6,0,L|-18:107,2,150,4|0|0,1:0|0:0|0:0,0:0:0:0:
459,165,184705,2,0,L|457:52,1,100,4|0,0:0|0:0,0:0:0:0:
304,103,185015,2,0,P|373:111|352:28,1,150,2|2,0:0|0:0,0:0:0:0:
309,39,185429,1,0,0:0:0:0:
83,95,185533,5,2,0:0:0:0:
323,90,185843,1,2,0:0:0:0:
83,95,186153,1,2,0:0:0:0:
388,146,186360,2,0,L|380:68,1,50,12|0,0:0|0:0,0:0:0:0:
216,107,186671,2,0,L|398:101,1,150,2|2,0:0|0:0,0:0:0:0:
301,100,187084,1,0,0:0:0:0:
87,134,187188,6,0,P|107:67|181:59,1,150,2|2,0:0|0:0,0:0:0:0:
391,58,187809,1,2,0:0:0:0:
90,112,188015,2,0,L|21:105,1,50,4|0,0:0|0:0,0:0:0:0:
201,116,188326,2,0,L|376:116,1,150,2|0,0:0|0:0,0:0:0:0:
285,114,188740,1,0,0:0:0:0:
98,116,188843,6,0,L|287:112,2,150,2|2|2,0:0|0:0|0:0,0:0:0:0:
411,235,189671,2,0,L|414:136,1,100,12|0,0:0|0:0,0:0:0:0:
149,230,189981,2,0,L|146:131,1,100,12|0,0:0|0:0,0:0:0:0:
414,135,190291,6,0,P|407:79|266:57,1,200,8|0,0:0|0:0,0:0:0:0:
78,47,191119,1,8,0:0:0:0:
263,49,191326,1,12,0:0:0:0:
149,141,191533,2,0,P|70:142|54:26,1,200,0|0,0:0|0:0,0:0:0:0:
98,38,192050,1,0,0:0:0:0:
263,49,192153,6,0,L|412:53,2,150,2|2|2,0:0|0:0|0:0,0:0:0:0:
78,51,192981,2,0,L|227:55,2,150,12|2|2,0:0|0:0|0:0,0:0:0:0:
133,53,193705,1,0,0:0:0:0:
310,118,193809,6,0,L|453:113,1,100,8|0,0:0|0:0,0:0:0:0:
228,92,194222,2,0,L|85:87,1,100,8|0,0:0|0:0,0:0:0:0:
310,118,194636,1,2,0:0:0:0:
138,127,194843,1,8,0:0:0:0:
430,123,195050,1,4,0:0:0:0:
120,159,195257,6,0,L|414:156,1,259.999988098145,4|0,1:0|0:0,0:0:0:0:
186,128,195877,2,0,L|332:126,1,129.999994049073,8|0,0:0|0:0,0:0:0:0:
401,128,196188,1,0,0:0:0:0:
144,151,196291,2,8,L|110:73,1,64.9999970245363,8|8,0:0|0:0,0:0:0:0:
303,103,196498,2,8,L|337:25,1,64.9999970245363,8|8,0:0|0:0,0:0:0:0:
27,28,196705,1,2,0:0:0:0:
458,294,196912,6,0,L|465:-1,1,259.999988098145,4|0,1:0|0:0,0:0:0:0:
392,34,197429,1,0,0:0:0:0:
169,103,197533,2,0,L|358:104,1,129.999994049073,4|0,1:0|0:0,0:0:0:0:
250,106,197843,1,0,0:0:0:0:
44,195,197946,6,0,L|43:44,1,129.999994049073,8|8,0:0|0:0,0:0:0:0:
114,54,198257,1,8,0:0:0:0:
312,57,198360,1,8,1:0:0:0:
155,58,198567,2,0,L|72:59,1,64.9999970245363
420,87,198774,6,0,L|421:234,1,139.999995727539,6|0,1:0|0:0,0:0:0:0:
222,192,199084,2,0,L|228:355,1,139.999995727539,2|0,1:0|0:0,0:0:0:0:
149,334,199394,1,2,1:0:0:0:
226,339,199498,1,0,0:0:0:0:
395,321,199601,6,0,L|503:323,1,69.9999978637696,8|0,0:0|0:0,0:0:0:0:
294,301,199912,2,0,L|154:301,1,139.999995727539,4|0,0:0|0:0,0:0:0:0:
156,240,200222,1,4,0:0:0:0:
326,236,200325,1,0,0:0:0:0:
159,233,200429,6,0,L|59:103,1,139.999995727539,6|0,1:0|0:0,0:0:0:0:
237,150,200740,2,0,L|337:20,1,139.999995727539,2|0,1:0|0:0,0:0:0:0:
150,34,201050,1,2,1:0:0:0:
462,157,201257,2,0,L|462:251,1,69.9999978637696,8|0,0:0|0:0,0:0:0:0:
385,227,201463,1,0,0:0:0:0:
203,217,201567,2,0,P|166:207|252:103,1,209.999993591309,4|4,0:0|0:0,0:0:0:0:
365,80,201981,1,0,0:0:0:0:
181,183,202084,6,0,L|288:54,1,139.999995727539,8|0,0:0|0:0,0:0:0:0:
439,141,202395,2,0,L|332:12,1,139.999995727539,2|0,1:0|0:0,0:0:0:0:
179,42,202705,1,2,1:0:0:0:
451,168,202912,2,0,L|484:90,1,69.9999978637696,8|0,0:0|0:0,0:0:0:0:
420,87,203119,1,0,0:0:0:0:
232,112,203222,2,0,B|79:102|79:102|86:37,1,209.999993591309,4|4,0:0|0:0,0:0:0:0:
279,62,203636,1,0,0:0:0:0:
472,78,203739,6,0,L|231:23,2,209.999993591309,4|2|2,1:0|1:0|1:0,0:0:0:0:
390,76,204463,1,0,0:0:0:0:
162,197,204567,2,0,L|23:200,1,139.999995727539,12|0,3:0|0:0,0:0:0:0:
312,201,204877,2,0,L|489:205,1,139.999995727539,12|0,0:0|0:0,0:0:0:0:
214,313,205188,6,0,P|117:285|221:202,1,279.999991455078,4|0,1:0|0:0,0:0:0:0:
299,195,205705,1,0,0:0:0:0:
206,193,205808,2,0,L|52:197,1,139.999995727539,4|0,0:0|0:0,0:0:0:0:
395,227,206222,2,0,L|218:230,1,139.999995727539,8|0,0:0|0:0,0:0:0:0:
163,221,206532,1,4,0:0:0:0:
254,224,206636,2,0,L|114:224,1,139.999995727539,0|4,0:0|0:0,0:0:0:0:
413,191,207050,6,0,L|186:189,2,209.999993591309,4|2|2,0:0|1:0|1:0,0:0:0:0:
115,191,207877,2,0,L|342:189,2,209.999993591309,8|2|2,0:0|1:0|1:0,0:0:0:0:
302,203,208601,1,0,0:0:0:0:
468,199,208705,6,0,L|466:57,1,139.999995727539,4|0,0:0|0:0,0:0:0:0:
338,60,209015,2,0,L|503:58,1,139.999995727539,4|0,0:0|0:0,0:0:0:0:
297,61,209325,1,4,0:0:0:0:
84,100,209533,2,0,L|232:98,2,139.999995727539,8|0|4,0:0|0:0|0:0,0:0:0:0:
84,100,210153,1,2,0:0:0:0:
280,103,210257,1,0,0:0:0:0:
464,100,210360,6,0,L|254:99,2,209.999993591309,4|2|2,0:0|1:0|1:0,0:0:0:0:
365,100,211084,1,0,0:0:0:0:
113,223,211188,1,4,1:0:0:0:
46,174,211291,1,2,0:0:0:0:
129,160,211394,1,2,0:0:0:0:
214,161,211498,1,2,0:0:0:0:
414,137,211601,2,0,L|344:132,1,69.9999978637696,8|0,0:0|0:0,0:0:0:0:
145,108,211809,2,0,L|214:103,1,69.9999978637696,8|0,0:0|0:0,0:0:0:0:
433,101,212015,6,0,P|484:179|404:229,1,209.999993591309,0|0,0:0|0:0,0:0:0:0:
123,294,212429,6,0,P|332:122|61:112,1,699.999978637696,4|0,1:0|0:0,0:0:0:0:
147,109,213567,1,0,0:0:0:0:
330,225,213671,2,0,L|385:96,1,139.999995727539,2|0,0:0|0:0,0:0:0:0:
257,162,213981,2,0,L|201:33,1,139.999995727539,2|0,0:0|0:0,0:0:0:0:
408,41,214291,5,2,0:0:0:0:
256,192,214498,12,0,217188,0:0:0:0:
