osu file format v14

[General]
AudioFilename: audio.mp3
AudioLeadIn: 0
PreviewTime: 62832
Countdown: 0
SampleSet: Soft
StackLeniency: 0.4
Mode: 0
LetterboxInBreaks: 0
WidescreenStoryboard: 1

[Editor]
Bookmarks: 10332,20437,108858,119279,207384,217490
DistanceSpacing: 0.4
BeatDivisor: 4
GridSize: 8
TimelineZoom: 2.4

[Metadata]
Title:Blood Drain -Again-
TitleUnicode:Blood Drain -Again-
Artist:raito
ArtistUnicode:来兎
Creator:DeviousPanda
Version:Knight's Insane
Source:アンダーナイトインヴァース
Tags:らいと UNIST Under Night In-Birth In Birth Exe:Late[cl-r] exe late cl-r cl r fighting Sion Eltnam Altasia melty blood actress VGM OST original sound track Eltnum Theme sho Halgoh PaRaDogi KnightC0re Knightcore xLolicore- Lolicore My Angel Watame Video Game Instrumental electronic
BeatmapID:2430721
BeatmapSetID:1152554

[Difficulty]
HPDrainRate:5
CircleSize:4
OverallDifficulty:7
ApproachRate:8.5
SliderMultiplier:1.6
SliderTickRate:1

[Events]
//Background and Video events
0,0,"Blood Drain BG.jpg",0,0
//Break Periods
2,40899,42235
2,43426,44604
2,51004,52182
2,53531,54709
2,110373,112814
2,114478,117077
2,139425,140761
2,141952,143130
2,149530,150709
2,152057,153235
//Storyboard Layer 0 (Background)
//Storyboard Layer 1 (Fail)
//Storyboard Layer 2 (Pass)
//Storyboard Layer 3 (Foreground)
//Storyboard Layer 4 (Overlay)
//Storyboard Sound Samples

[TimingPoints]
279,315.789473684211,4,2,1,69,1,0
9121,-142.857142857143,4,2,1,69,0,0
9436,-125,4,2,1,69,0,0
9752,-111.111111111111,4,2,1,69,0,0
10700,-100,4,2,1,69,0,0
20173,-66.6666666666667,4,2,1,69,0,0
20410,-66.6666666666667,4,2,1,5,0,0
20489,-66.6666666666667,4,2,1,64,0,0
20805,-100,4,2,1,64,0,0
21042,-100,4,2,1,5,0,0
21121,-100,4,2,1,64,0,0
21594,-133.333333333333,4,2,1,64,0,0
21910,-100,4,2,1,64,0,0
22384,-133.333333333333,4,2,1,64,0,0
23331,-100,4,2,1,64,0,0
23568,-100,4,2,1,5,0,0
23647,-100,4,2,1,64,0,0
24121,-133.333333333333,4,2,1,64,0,0
24594,-100,4,2,1,64,0,0
26094,-100,4,2,1,5,0,0
26173,-100,4,2,1,64,0,0
26647,-133.333333333333,4,2,1,64,0,0
26963,-100,4,2,1,64,0,0
27436,-133.333333333333,4,2,1,64,0,0
28700,-100,4,2,1,64,0,0
29015,-133.333333333333,4,2,1,64,0,0
29252,-133.333333333333,4,2,1,5,0,0
29331,-133.333333333333,4,2,1,64,0,0
30200,-133.333333333333,4,2,1,5,0,0
30279,-66.6666666666667,4,2,1,64,0,0
30515,-66.6666666666667,4,2,1,5,0,0
30594,-66.6666666666667,4,2,1,64,0,0
30910,-100,4,2,1,64,0,0
31147,-100,4,2,1,5,0,0
31226,-100,4,2,1,64,0,0
31700,-133.333333333333,4,2,1,64,0,0
32015,-100,4,2,1,64,0,0
32489,-133.333333333333,4,2,1,64,0,0
33436,-100,4,2,1,64,0,0
33673,-100,4,2,1,5,0,0
33752,-100,4,2,1,64,0,0
34226,-133.333333333333,4,2,1,64,0,0
34700,-100,4,2,1,64,0,0
36200,-100,4,2,1,5,0,0
36279,-100,4,2,1,64,0,0
36752,-133.333333333333,4,2,1,64,0,0
37068,-100,4,2,1,64,0,0
37542,-133.333333333333,4,2,1,64,0,0
39121,-100,4,2,1,64,0,0
40384,-100,4,2,1,54,0,0
40660,-100,4,2,1,54,0,0
40699,-100,4,2,1,59,0,0
45752,-100,4,2,1,64,0,0
45989,-100,4,2,1,5,0,0
46068,-133.333333333333,4,2,1,64,0,0
48594,-100,4,2,1,64,0,0
48910,-100,4,2,1,64,0,0
50489,-100,4,2,1,54,0,0
50805,-100,4,2,1,59,0,0
55779,-100,4,2,1,5,0,0
55857,-100,4,2,1,64,0,0
56489,-133.333333333333,4,2,1,64,0,0
60279,-100,4,2,1,64,0,0
60910,-133.333333333333,4,2,1,64,0,0
62805,-133.333333333333,4,2,1,74,0,0
63121,-66.6666666666667,4,2,1,74,0,0
63357,-66.6666666666667,4,2,1,5,0,0
63436,-100,4,2,1,89,0,1
74331,-100,4,2,1,89,0,0
75594,-66.6666666666667,4,2,1,89,0,0
76068,-100,4,2,1,89,0,1
81121,-100,4,2,1,69,0,0
82068,-250,4,2,1,69,0,0
83252,-250,4,2,1,5,0,0
83331,-250,4,2,1,69,0,0
83647,-100,4,2,1,69,0,0
84594,-333.333333333333,4,2,1,59,0,0
86094,-333.333333333333,4,2,1,5,0,0
86173,-333.333333333333,4,2,1,59,0,0
88384,-66.6666666666667,4,2,1,59,0,0
88700,-200,4,2,1,59,0,0
93673,-200,4,2,1,5,0,0
93752,-200,4,2,1,59,0,0
106384,-133.333333333333,4,2,1,59,0,0
107015,-100,4,2,1,59,0,0
107647,-133.333333333333,4,2,1,59,0,0
108279,-100,4,2,1,59,0,0
108910,-100,4,2,1,69,0,0
118384,-133.333333333333,4,2,1,69,0,0
118700,-66.6666666666667,4,2,1,69,0,0
118936,-66.6666666666667,4,2,1,5,0,0
119015,-66.6666666666667,4,2,1,64,0,0
119331,-100,4,2,1,64,0,0
119568,-100,4,2,1,5,0,0
119647,-100,4,2,1,64,0,0
120121,-133.333333333333,4,2,1,64,0,0
120357,-133.333333333333,4,2,1,5,0,0
120436,-133.333333333333,4,2,1,64,0,0
121226,-100,4,2,1,64,0,0
121463,-100,4,2,1,5,0,0
121542,-100,4,2,1,64,0,0
122094,-100,4,2,1,5,0,0
122173,-100,4,2,1,64,0,0
122647,-133.333333333333,4,2,1,64,0,0
123121,-100,4,2,1,64,0,0
123436,-80,4,2,1,64,0,0
123673,-80,4,2,1,5,0,0
123752,-80,4,2,1,64,0,0
124384,-100,4,2,1,64,0,0
124621,-100,4,2,1,5,0,0
124700,-100,4,2,1,64,0,0
125173,-133.333333333333,4,2,1,64,0,0
125410,-133.333333333333,4,2,1,5,0,0
125489,-133.333333333333,4,2,1,64,0,0
126279,-100,4,2,1,64,0,0
126594,-133.333333333333,4,2,1,64,0,0
127226,-100,4,2,1,64,0,0
127542,-133.333333333333,4,2,1,64,0,0
127779,-133.333333333333,4,2,1,5,0,0
127857,-133.333333333333,4,2,1,64,0,0
128489,-200,4,2,1,64,0,0
128726,-200,4,2,1,5,0,0
128805,-50,4,2,1,64,0,0
129042,-50,4,2,1,5,0,0
129121,-50,4,2,1,64,0,0
129436,-100,4,2,1,64,0,0
129673,-100,4,2,1,5,0,0
129752,-100,4,2,1,64,0,0
130226,-133.333333333333,4,2,1,64,0,0
130463,-133.333333333333,4,2,1,5,0,0
130542,-133.333333333333,4,2,1,64,0,0
131331,-100,4,2,1,64,0,0
131568,-100,4,2,1,5,0,0
131647,-100,4,2,1,64,0,0
132200,-100,4,2,1,5,0,0
132279,-100,4,2,1,64,0,0
132752,-133.333333333333,4,2,1,64,0,0
133226,-100,4,2,1,64,0,0
133542,-80,4,2,1,64,0,0
133779,-80,4,2,1,5,0,0
133857,-80,4,2,1,64,0,0
134489,-100,4,2,1,64,0,0
135279,-133.333333333333,4,2,1,64,0,0
136384,-100,4,2,1,64,0,0
137015,-133.333333333333,4,2,1,64,0,0
137647,-100,4,2,1,64,0,0
138910,-100,4,2,1,54,0,0
139186,-100,4,2,1,54,0,0
139226,-100,4,2,1,59,0,0
144278,-100,4,2,1,64,0,0
144515,-100,4,2,1,5,0,0
144594,-100,4,2,1,64,0,0
146173,-133.333333333333,4,2,1,64,0,0
146489,-100,4,2,1,64,0,0
148384,-133.333333333333,4,2,1,64,0,0
148700,-100,4,2,1,64,0,0
149015,-100,4,2,1,54,0,0
149331,-100,4,2,1,59,0,0
154068,-133.333333333333,4,2,1,59,0,0
154305,-133.333333333333,4,2,1,5,0,0
154383,-133.333333333333,4,2,1,64,0,0
155805,-100,4,2,1,64,0,0
156121,-133.333333333333,4,2,1,64,0,0
157226,-100,4,2,1,64,0,0
158173,-133.333333333333,4,2,1,64,0,0
158805,-100,4,2,1,64,0,0
159436,-133.333333333333,4,2,1,64,0,0
161331,-133.333333333333,4,2,1,74,0,0
161647,-66.6666666666667,4,2,1,74,0,0
161884,-66.6666666666667,4,2,1,5,0,0
161963,-100,4,2,1,89,0,1
167252,-100,4,2,1,5,0,1
167331,-100,4,2,1,89,0,1
172857,-100,4,2,1,89,0,0
174121,-66.6666666666667,4,2,1,89,0,1
174594,-100,4,2,1,89,0,1
177357,-100,4,2,1,5,0,1
177436,-100,4,2,1,89,0,1
179647,-100,4,2,1,69,0,0
180594,-250,4,2,1,69,0,0
181779,-250,4,2,1,5,0,0
181857,-250,4,2,1,69,0,0
182647,-100,4,2,1,69,0,0
183121,-250,4,2,1,59,0,0
184621,-250,4,2,1,5,0,0
184700,-250,4,2,1,59,0,0
186910,-66.6666666666667,4,2,1,59,0,0
187226,-200,4,2,1,59,0,0
192200,-200,4,2,1,5,0,0
192279,-200,4,2,1,59,0,0
204910,-133.333333333333,4,2,1,59,0,0
205542,-100,4,2,1,59,0,0
206173,-133.333333333333,4,2,1,59,0,0
207515,-133.333333333333,4,2,1,69,0,0
207752,-133.333333333333,4,2,1,67,0,0
208068,-133.333333333333,4,2,1,65,0,0
208384,-133.333333333333,4,2,1,63,0,0
208700,-133.333333333333,4,2,1,61,0,0
209015,-133.333333333333,4,2,1,59,0,0
209331,-133.333333333333,4,2,1,57,0,0
209647,-133.333333333333,4,2,1,55,0,0
209963,-133.333333333333,4,2,1,53,0,0
210279,-133.333333333333,4,2,1,51,0,0
210594,-133.333333333333,4,2,1,49,0,0
210910,-133.333333333333,4,2,1,47,0,0
211226,-133.333333333333,4,2,1,45,0,0
211542,-133.333333333333,4,2,1,43,0,0
211858,-133.333333333333,4,2,1,41,0,0
212173,-133.333333333333,4,2,1,39,0,0
212489,-133.333333333333,4,2,1,37,0,0
212805,-133.333333333333,4,2,1,35,0,0
213121,-133.333333333333,4,2,1,33,0,0
213437,-133.333333333333,4,2,1,31,0,0
213752,-133.333333333333,4,2,1,29,0,0
214068,-133.333333333333,4,2,1,27,0,0
214384,-133.333333333333,4,2,1,25,0,0
214700,-133.333333333333,4,2,1,23,0,0
215016,-133.333333333333,4,2,1,21,0,0
215331,-133.333333333333,4,2,1,19,0,0
215647,-133.333333333333,4,2,1,17,0,0
215963,-133.333333333333,4,2,1,15,0,0
216279,-133.333333333333,4,2,1,13,0,0
216595,-133.333333333333,4,2,1,11,0,0
216910,-133.333333333333,4,2,1,9,0,0
217226,-133.333333333333,4,2,1,7,0,0
217542,-133.333333333333,4,2,2,5,0,0

[Colours]
Combo1 : 254,92,238
Combo2 : 0,187,117
Combo3 : 0,145,44
Combo4 : 255,183,237

[HitObjects]
256,192,5331,5,6,0:0:0:0:
256,192,5410,12,0,8963,0:0:0:0:
86,384,9121,6,0,P|82:353|74:330,1,55.9999982910157,8|8,0:3|3:3,0:0:0:0:
20,280,9357,1,8,3:3:0:0:
9,270,9436,2,0,P|19:239|22:207,1,64,4|4,3:3|3:3,0:0:0:0:
91,166,9673,1,4,3:3:0:0:
101,154,9752,37,0,3:3:0:0:
100,136,9831,1,0,3:0:0:0:
97,119,9909,1,8,3:3:0:0:
92,101,9988,1,8,3:3:0:0:
86,85,10068,2,0,P|97:50|101:15,1,71.9999978027344,4|0,3:3|3:0,0:0:0:0:
7,28,10384,5,6,3:1:0:0:
224,70,10700,2,0,L|328:59,1,80,8|4,0:1|0:3,0:0:0:0:
371,18,11015,37,0,3:0:0:0:
342,169,11173,1,0,0:0:0:0:
402,218,11331,2,0,L|418:301,1,80,8|0,0:1|0:0,0:0:0:0:
490,344,11647,6,0,P|435:372|422:385,1,80,2|0,3:0|0:0,0:0:0:0:
498,332,11963,1,8,0:1:0:0:
332,312,12121,2,0,P|258:293|160:252,1,160,4|2,0:0|0:3,0:0:0:0:
114,218,12594,2,0,P|138:274|152:319,1,80,8|0,0:1|0:0,0:0:0:0:
119,366,12910,37,0,3:0:0:0:
123,379,13068,1,0,0:0:0:0:
22,338,13226,2,0,P|46:282|60:237,1,80,8|0,0:1|0:0,0:0:0:0:
36,192,13542,5,0,3:0:0:0:
0,67,13700,1,0,0:0:0:0:
47,5,13857,2,0,L|140:11,1,80,8|0,0:1|0:0,0:0:0:0:
179,68,14173,38,0,P|140:88|129:183,1,120,2|0,3:0|0:0,0:0:0:0:
125,168,14489,1,8,0:1:0:0:
208,202,14647,2,0,L|309:207,1,80,4|0,0:0|3:0,0:0:0:0:
433,198,14963,1,2,0:3:0:0:
433,198,15042,1,4,0:3:0:0:
433,198,15121,1,8,0:1:0:0:
395,123,15279,1,2,0:0:0:0:
475,14,15436,5,6,0:1:0:0:
283,69,15752,2,0,P|302:115|312:152,1,80,8|4,0:1|0:3,0:0:0:0:
284,215,16068,37,0,3:0:0:0:
249,348,16226,1,0,0:0:0:0:
314,383,16384,2,0,L|400:374,1,80,8|0,0:1|0:0,0:0:0:0:
238,341,16700,6,0,L|144:367,1,80,2|0,3:3|0:0,0:0:0:0:
88,343,17015,1,8,0:1:0:0:
29,202,17173,2,0,P|51:122|63:24,1,160,4|2,0:0|0:3,0:0:0:0:
152,35,17647,2,0,P|107:53|70:86,1,80,8|0,0:1|0:0,0:0:0:0:
34,128,17963,37,0,3:0:0:0:
245,153,18279,2,0,L|334:137,1,80,8|0,0:1|0:0,0:0:0:0:
380,85,18594,5,0,3:0:0:0:
374,232,18752,1,0,0:0:0:0:
446,274,18910,2,0,L|469:363,1,80,8|0,0:1|0:0,0:0:0:0:
451,264,19226,37,4,3:0:0:0:
374,232,19384,1,8,0:3:0:0:
342,309,19542,1,8,0:1:0:0:
189,359,19700,5,6,3:1:0:0:
189,359,20173,2,0,P|136:328|190:353,1,180.000006866455,6|0,0:0|0:0,0:0:0:0:
92,356,20489,1,6,0:1:0:0:
5,133,20805,38,0,P|50:117|49:44,1,120,8|0,0:1|0:0,0:0:0:0:
49,61,21121,1,0,3:0:0:0:
133,76,21279,1,2,0:3:0:0:
217,91,21436,1,8,3:1:0:0:
272,172,21594,2,0,P|241:190|221:216,1,60.0000022888184,2|0,0:3|3:0,0:0:0:0:
375,186,21910,2,0,P|351:133|347:95,1,80,2|8,0:3|0:1,0:0:0:0:
446,244,22226,1,2,0:3:0:0:
443,248,22384,2,0,L|450:312,1,60.0000022888184,0|2,3:0|0:3,0:0:0:0:
499,172,22700,1,8,0:1:0:0:
420,25,23015,5,0,3:0:0:0:
420,25,23331,2,0,P|367:40|312:4,1,120,8|0,0:1|0:0,0:0:0:0:
320,3,23647,1,0,3:0:0:0:
333,81,23805,1,2,0:3:0:0:
346,159,23963,1,8,0:1:0:0:
294,246,24121,2,0,P|242:273|208:324,1,120.000004577637,2|2,0:3|0:3,0:0:0:0:
328,313,24594,2,0,P|314:288|303:236,1,80,8|2,0:1|0:3,0:0:0:0:
354,155,24910,2,0,L|255:140,1,80,0|2,3:0|0:3,0:0:0:0:
147,210,25226,1,8,0:1:0:0:
66,231,25384,1,2,0:3:0:0:
87,312,25542,37,6,3:1:0:0:
87,312,25857,2,0,P|100:275|97:183,1,120,8|0,0:1|0:0,0:0:0:0:
96,179,26173,1,0,3:0:0:0:
179,216,26331,1,2,0:3:0:0:
239,148,26489,1,8,0:1:0:0:
322,185,26647,2,0,P|312:216|308:256,1,60.0000022888184,2|0,0:3|3:0,0:0:0:0:
409,325,26963,2,0,P|394:293|383:242,1,80,2|8,0:3|0:1,0:0:0:0:
462,157,27279,1,2,0:3:0:0:
459,161,27436,2,0,L|453:225,1,60.0000022888184,0|2,3:0|0:3,0:0:0:0:
504,380,27752,1,8,0:1:0:0:
301,327,28068,6,0,P|265:316|230:313,1,60.0000022888184,0|2,3:0|0:3,0:0:0:0:
116,286,28384,2,0,P|150:271|185:265,1,60.0000022888184,8|2,0:1|0:3,0:0:0:0:
351,213,28700,2,0,P|296:200|268:186,1,80,0|2,3:0|0:3,0:0:0:0:
71,163,29015,38,0,B|118:149|118:149|148:122,1,90.0000034332277,8|0,0:1|0:0,0:0:0:0:
152,110,29331,6,0,P|125:81|99:69,1,60.0000022888184,0|2,3:0|0:3,0:0:0:0:
234,6,29647,1,8,3:1:0:0:
263,2,29725,1,0,3:0:0:0:
292,10,29804,1,2,3:3:0:0:
316,28,29883,1,0,3:0:0:0:
332,53,29963,38,0,L|426:69,1,90.0000034332277,12|0,0:1|0:0,0:0:0:0:
458,91,30279,6,0,B|398:80|398:80|355:41|355:41|292:30,1,180.000006866455,12|0,0:1|0:0,0:0:0:0:
242,79,30594,1,6,3:1:0:0:
383,247,30910,38,0,P|426:239|424:165,1,120,8|0,0:1|0:0,0:0:0:0:
422,176,31226,1,0,3:0:0:0:
389,256,31384,1,2,0:3:0:0:
422,336,31542,1,8,0:1:0:0:
419,340,31700,2,0,P|390:348|365:364,1,60.0000022888184,2|0,0:3|3:0,0:0:0:0:
242,341,32015,2,0,P|285:306|295:273,1,80,2|8,0:3|0:1,0:0:0:0:
149,254,32331,1,2,0:3:0:0:
149,254,32489,2,0,P|161:280|169:311,1,60.0000022888184,0|2,3:0|0:3,0:0:0:0:
130,378,32805,1,8,0:1:0:0:
47,174,33121,5,0,3:0:0:0:
47,174,33436,2,0,P|104:168|118:108,1,120,8|0,3:1|0:0,0:0:0:0:
113,110,33752,1,0,3:0:0:0:
126,186,33910,1,2,0:3:0:0:
60,250,34068,1,8,0:1:0:0:
124,316,34226,2,0,P|178:332|232:370,1,120.000004577637,2|2,0:3|0:3,0:0:0:0:
322,336,34700,2,0,P|328:289|305:257,1,80,8|2,0:1|0:3,0:0:0:0:
204,184,35015,2,0,P|235:213|270:198,1,80,0|2,3:0|0:3,0:0:0:0:
357,89,35331,1,8,0:1:0:0:
429,153,35489,1,2,0:3:0:0:
399,221,35647,37,6,3:1:0:0:
399,221,35963,2,0,P|437:277|452:337,1,120,8|0,0:1|0:0,0:0:0:0:
447,334,36279,1,0,3:0:0:0:
372,355,36436,1,2,0:3:0:0:
297,376,36594,1,8,0:1:0:0:
205,340,36752,2,0,P|175:344|147:356,1,60.0000022888184,2|0,0:3|3:0,0:0:0:0:
30,274,37068,2,0,P|85:297|128:287,1,80,2|8,0:3|0:1,0:0:0:0:
197,214,37384,1,2,0:3:0:0:
197,214,37542,2,0,P|180:251|175:288,1,60.0000022888184,0|2,3:0|0:3,0:0:0:0:
210,346,37857,1,8,0:1:0:0:
389,233,38173,5,6,3:1:0:0:
389,233,38331,1,6,0:3:0:0:
404,153,38489,2,0,L|388:71,1,60.0000022888184,8|2,0:1|0:3,0:0:0:0:
292,63,38805,37,0,3:0:0:0:
292,63,38963,1,6,0:3:0:0:
277,143,39121,2,0,L|293:225,1,80,12|10,0:1|3:0,0:0:0:0:
294,229,39357,1,4,0:3:0:0:
296,236,39436,5,6,3:1:0:0:
111,175,39752,2,0,L|70:183,3,40,0|0|2|0,3:3|3:3|3:3|3:3,3:3:0:0:
54,112,40068,2,0,L|34:105,6,20,0|0|0|0|2|0|0,3:0|3:0|3:0|3:0|3:0|3:0|3:0,3:0:0:0:
30,35,40384,2,0,L|16:19,8,20,0|0|0|0|2|0|0|0|4,3:0|3:0|3:0|3:0|3:0|3:0|3:0|0:0|3:2,3:0:0:0:
491,90,42910,37,8,0:1:0:0:
304,30,43226,1,4,3:2:0:0:
208,354,45279,5,0,3:0:0:0:
144,300,45436,1,8,0:1:0:0:
315,231,45752,38,0,P|384:242|448:261,1,120,4|0,3:1|0:0,0:0:0:0:
436,264,46068,2,0,L|443:335,1,60.0000022888184,8|0,0:1|0:0,0:0:0:0:
358,357,46384,5,0,3:0:0:0:
364,341,46542,1,2,0:3:0:0:
335,265,46700,2,0,L|342:194,1,60.0000022888184,8|0,0:1|0:0,0:0:0:0:
390,134,47015,37,0,3:0:0:0:
206,98,47331,2,0,P|235:94|264:87,1,60.0000022888184,8|2,0:1|0:3,0:0:0:0:
125,166,47647,2,0,P|95:169|66:176,1,60.0000022888184,0|2,3:0|0:3,0:0:0:0:
131,91,47964,2,0,P|128:61|121:32,1,60.0000022888184,8|2,0:1|0:3,0:0:0:0:
199,172,48279,5,6,3:2:0:0:
137,285,48436,1,2,3:3:0:0:
137,285,48515,1,2,3:2:0:0:
137,285,48594,2,0,P|86:253|22:242,1,120,8|2,0:1|3:2,0:0:0:0:
14,250,48910,2,0,L|3:298,1,40,4|2,3:0|3:2,0:0:0:0:
21,317,49068,2,0,L|10:365,1,40,2|2,3:0|3:2,0:0:0:0:
28,384,49226,1,12,0:1:0:0:
47,380,49304,1,2,0:0:0:0:
67,376,49383,1,2,2:0:0:0:
86,372,49462,1,2,2:0:0:0:
106,368,49542,38,0,L|190:379,1,80,4|2,3:2|3:0,0:0:0:0:
328,303,49857,2,0,L|248:292,1,80,8|2,3:1|3:0,0:0:0:0:
398,384,50173,6,0,L|439:379,3,40,0|0|2|0,3:0|3:0|3:0|3:0,3:0:0:0:
470,345,50489,2,0,L|511:340,4,40,0|0|2|0|4,3:0|3:0|3:0|3:0|3:2,3:0:0:0:
42,345,52857,37,0,3:0:0:0:
13,247,53015,1,8,0:1:0:0:
107,98,53331,5,4,3:2:0:0:
405,286,55384,37,2,3:0:0:0:
469,226,55542,2,0,P|438:278|422:335,1,120,8|0,0:1|0:0,0:0:0:0:
430,352,55857,5,4,3:1:0:0:
240,320,56094,37,2,0:0:0:0:
54,376,56331,5,2,0:3:0:0:
89,306,56489,2,0,L|78:245,1,60.0000022888184,0|2,3:0|0:3,0:0:0:0:
64,174,56805,1,8,0:1:0:0:
5,31,57121,37,0,3:0:0:0:
80,12,57279,2,0,P|123:18|147:30,1,60.0000022888184,2|8,0:3|0:1,0:0:0:0:
220,76,57594,2,0,P|176:93|156:169,1,120.000004577637,2|2,0:3|0:3,0:0:0:0:
256,213,58068,2,0,L|325:200,1,60.0000022888184,8|2,0:1|0:3,0:0:0:0:
394,228,58384,5,0,3:0:0:0:
394,228,58700,2,0,L|381:159,1,60.0000022888184,8|2,0:1|0:3,0:0:0:0:
423,108,59015,37,0,3:3:0:0:
497,207,59173,1,2,0:3:0:0:
458,276,59331,2,0,L|445:345,1,60.0000022888184,8|2,0:1|0:3,0:0:0:0:
370,371,59647,6,0,P|341:355|312:351,1,60.0000022888184,0|0,3:3|0:0,0:0:0:0:
167,310,59963,2,0,P|203:291|228:285,1,60.0000022888184,8|0,0:1|0:0,0:0:0:0:
391,199,60279,38,0,L|309:213,1,80,0|0,3:0|0:0,0:0:0:0:
230,274,60594,2,0,L|148:288,1,80,8|0,0:1|3:0,0:0:0:0:
38,234,60910,6,0,L|25:163,1,60.0000022888184,4|2,3:2|3:0,0:0:0:0:
114,157,61226,2,0,L|127:228,1,60.0000022888184,8|2,3:1|3:0,0:0:0:0:
27,218,61542,38,0,L|39:147,1,60.0000022888184,0|2,3:0|3:0,0:0:0:0:
124,172,61858,2,0,L|112:243,1,60.0000022888184,8|2,3:1|3:0,0:0:0:0:
113,240,62094,1,0,3:0:0:0:
111,248,62173,5,4,3:0:0:0:
203,232,62331,1,2,3:0:0:0:
211,319,62489,1,8,3:1:0:0:
338,372,62647,1,2,3:2:0:0:
338,372,62963,37,0,3:0:0:0:
338,372,63121,2,0,P|368:318|334:367,1,180.000006866455,6|0,0:0|0:0,0:0:0:0:
420,351,63436,22,0,P|426:288|461:188,1,160,6|8,3:1|0:1,0:0:0:0:
510,142,63910,1,4,0:3:0:0:
436,116,64068,1,8,3:3:0:0:
438,39,64226,2,0,P|461:20|509:8,1,80,2|8,0:3|0:1,0:0:0:0:
421,123,64542,6,0,P|382:110|343:102,1,80,2|0,0:3|3:0,0:0:0:0:
209,58,64857,2,0,P|248:49|286:37,1,80,2|8,0:3|0:1,0:0:0:0:
350,95,65173,1,8,0:3:0:0:
310,173,65331,1,4,3:0:0:0:
317,184,65489,1,4,0:3:0:0:
359,249,65647,2,0,P|325:226|284:222,1,80,8|0,0:1|0:0,0:0:0:0:
209,285,65963,38,0,P|227:341|146:360,1,160,0|8,3:0|0:1,0:0:0:0:
120,261,66436,1,4,0:3:0:0:
29,293,66594,1,8,3:3:0:0:
37,307,66752,2,0,L|20:386,1,80,2|8,0:3|0:1,0:0:0:0:
128,247,67068,6,0,P|129:202|93:177,1,80,2|0,0:3|3:0,0:0:0:0:
16,128,67384,2,0,P|50:140|101:151,1,80,2|8,0:3|0:1,0:0:0:0:
225,82,67700,1,10,0:3:0:0:
188,163,67857,1,4,3:3:0:0:
209,199,68015,1,4,0:3:0:0:
198,274,68173,2,0,L|181:357,1,80,8|0,0:1|0:0,0:0:0:0:
278,374,68489,38,0,P|340:366|318:277,1,160,6|8,3:1|0:1,0:0:0:0:
270,247,68963,1,4,0:3:0:0:
309,182,69121,1,8,3:3:0:0:
243,101,69279,2,0,P|196:106|172:132,1,80,2|8,0:3|0:1,0:0:0:0:
385,161,69594,6,0,P|403:139|420:88,1,80,2|0,0:3|3:0,0:0:0:0:
474,194,69910,2,0,P|456:216|439:267,1,80,10|8,0:3|0:1,0:0:0:0:
466,347,70226,1,8,0:3:0:0:
466,347,70384,2,0,L|387:365,1,80,4|4,3:3|0:3,0:0:0:0:
286,290,70700,1,8,0:1:0:0:
297,217,70857,1,0,0:0:0:0:
312,298,71015,37,0,3:0:0:0:
215,316,71173,2,0,P|182:324|138:342,1,80,2|8,0:3|0:1,0:0:0:0:
46,353,71489,2,0,P|69:319|61:282,1,80,4|8,0:3|0:3,0:0:0:0:
9,233,71805,1,2,0:3:0:0:
87,150,71963,2,0,L|97:60,1,80,8|2,0:1|0:3,0:0:0:0:
22,14,72279,5,6,0:1:0:0:
36,22,72436,1,2,0:3:0:0:
146,14,72594,1,8,0:1:0:0:
199,110,72752,1,2,3:3:0:0:
199,110,72831,1,2,3:2:0:0:
199,110,72910,37,4,3:3:0:0:
270,126,73067,1,6,3:3:0:0:
318,43,73226,2,0,L|323:2,3,40,8|8|2|8,3:1|3:0|3:3|3:0,0:0:0:0:
411,147,73700,5,6,3:0:0:0:
411,147,73779,1,4,3:0:0:0:
411,147,73857,1,6,3:1:0:0:
435,230,74015,1,6,0:3:0:0:
502,163,74173,1,10,0:3:0:0:
478,80,74331,5,2,3:1:0:0:
435,230,74647,5,2,3:1:0:0:
392,380,74963,37,2,3:1:0:0:
435,230,75279,5,10,0:1:0:0:
361,306,75436,1,2,3:0:0:0:
392,380,75594,2,0,B|413:371|413:371|430:378|430:378|460:375,5,60.0000022888184,8|8|4|4|0|0,3:3|3:3|3:3|3:3|3:0|3:0,0:0:0:0:
375,373,76068,6,0,L|282:381,1,80,6|0,3:1|0:0,0:0:0:0:
197,321,76384,1,8,0:1:0:0:
215,366,76542,1,4,0:3:0:0:
115,310,76700,1,8,3:3:0:0:
87,375,76857,2,0,P|98:308|104:286,1,80,2|8,0:3|0:1,0:0:0:0:
164,207,77173,6,0,P|117:197|95:164,1,80,2|0,0:3|3:0,0:0:0:0:
276,103,77489,2,0,P|240:112|207:137,1,80,2|8,0:3|0:1,0:0:0:0:
372,170,77805,1,10,0:3:0:0:
385,190,77963,37,4,3:0:0:0:
361,286,78121,1,4,0:3:0:0:
417,339,78279,2,0,P|452:348|496:373,1,80,8|0,0:1|0:0,0:0:0:0:
288,313,78594,6,0,P|239:292|287:220,1,160,6|8,3:1|0:1,0:0:0:0:
354,271,79068,1,4,0:3:0:0:
287,209,79226,1,8,3:3:0:0:
382,115,79384,2,0,P|419:123|450:155,1,80,2|8,0:3|0:1,0:0:0:0:
239,80,79700,1,2,0:3:0:0:
239,80,79857,38,0,L|279:70,3,40,4|0|0|0,3:1|3:0|3:0|3:0,0:0:0:0:
347,114,80173,2,0,L|385:123,3,40,8|0|8|0,3:1|3:0|3:0|3:0,0:0:0:0:
278,156,80489,2,0,L|239:165,3,40,4|4|4|4,3:3|3:3|3:3|3:3,0:0:0:0:
183,215,80805,2,0,L|148:223,6,20,8|0|8|0|8|0|8,3:3|3:0|3:3|3:0|3:3|3:0|3:3,0:0:0:0:
94,196,81121,22,0,P|100:157|109:116,1,80,6|2,3:2|0:0,0:0:0:0:
156,55,81436,1,2,0:3:0:0:
271,147,81594,2,0,B|241:259|241:259|255:300,1,160,4|2,3:2|0:0,0:0:0:0:
451,301,82068,6,0,P|374:233|335:328,1,240,4|0,3:2|0:0,0:0:0:0:
342,335,83331,1,8,3:3:0:0:
322,339,83409,1,8,3:3:0:0:
302,343,83488,1,4,3:3:0:0:
283,348,83567,1,4,3:3:0:0:
263,352,83647,38,0,P|232:362|189:384,1,80,4|2,3:2|0:0,0:0:0:0:
116,352,83963,1,2,0:0:0:0:
183,250,84121,2,0,B|210:192|210:192|141:126,1,160,4|2,3:2|0:0,0:0:0:0:
2,41,84594,6,0,P|77:107|115:14,1,227.999993041992,6|0,3:2|0:0,0:0:0:0:
114,12,86173,37,4,3:2:0:0:
110,23,86489,1,0,3:0:0:0:
119,28,86805,1,0,3:0:0:0:
124,19,87121,1,0,3:0:0:0:
115,14,87436,1,0,3:0:0:0:
197,40,87752,1,0,3:0:0:0:
279,66,88068,1,8,3:3:0:0:
283,58,88146,1,8,3:3:0:0:
286,49,88225,1,8,3:3:0:0:
288,40,88304,1,8,3:3:0:0:
288,30,88384,2,0,P|267:70|353:62,1,180.000006866455,4|4,3:3|3:3,0:0:0:0:
281,137,88700,5,4,3:1:0:0:
281,137,89173,1,0,3:0:0:0:
418,106,89331,1,8,0:1:0:0:
418,106,89805,1,2,0:0:0:0:
440,194,89963,1,2,3:2:0:0:
440,194,90436,1,2,3:2:0:0:
307,226,90594,2,0,L|294:305,1,80,8|2,0:1|0:0,0:0:0:0:
319,379,91226,37,2,3:2:0:0:
319,379,91700,1,0,3:0:0:0:
177,339,91857,1,8,0:1:0:0:
177,339,92331,1,2,0:0:0:0:
104,315,92489,1,2,3:2:0:0:
228,279,92647,1,8,0:1:0:0:
228,279,92963,1,2,3:2:0:0:
141,189,93121,2,0,L|101:193,1,40,8|2,0:1|0:0,0:0:0:0:
152,196,93436,2,0,L|220:202,1,60,2|0,0:0|0:0,0:0:0:0:
222,198,93752,5,4,3:1:0:0:
222,198,94226,1,2,3:2:0:0:
363,163,94384,1,8,0:1:0:0:
363,163,94857,1,0,0:0:0:0:
339,233,95015,1,2,3:2:0:0:
339,233,95489,1,2,3:2:0:0:
437,330,95647,1,8,0:1:0:0:
437,330,96121,1,0,0:0:0:0:
461,260,96279,37,2,3:2:0:0:
461,260,96752,1,2,3:2:0:0:
363,163,96910,1,8,0:1:0:0:
363,163,97542,1,2,3:2:0:0:
469,123,97700,1,8,0:1:0:0:
469,123,98015,1,2,3:2:0:0:
318,65,98173,1,8,0:1:0:0:
318,65,98489,2,0,L|335:149,1,80,2|4,3:2|3:1,0:0:0:0:
321,146,99121,5,8,0:1:0:0:
318,133,99436,1,8,0:1:0:0:
331,130,99752,1,8,0:1:0:0:
334,143,100069,1,8,0:1:0:0:
321,146,100384,1,8,0:1:0:0:
318,133,100699,1,8,0:1:0:0:
331,130,101015,37,8,0:1:0:0:
242,150,101173,1,2,3:2:0:0:
153,170,101331,5,12,0:1:0:0:
141,166,101647,1,8,0:1:0:0:
139,153,101963,1,8,0:1:0:0:
151,157,102279,1,8,0:1:0:0:
153,170,102594,1,8,0:1:0:0:
141,166,102910,1,8,0:1:0:0:
139,153,103226,1,8,0:1:0:0:
151,157,103542,37,8,0:1:0:0:
97,228,103700,1,0,3:0:0:0:
98,237,103778,1,0,3:0:0:0:
99,247,103857,1,12,0:1:0:0:
23,160,104173,5,8,0:1:0:0:
32,137,104489,1,8,0:1:0:0:
9,128,104805,1,8,0:1:0:0:
0,151,105121,1,8,0:1:0:0:
23,160,105436,1,8,0:1:0:0:
32,137,105752,1,8,0:1:0:0:
9,128,106068,1,8,0:1:0:0:
67,227,106384,38,0,L|133:221,1,60.0000022888184,12|8,3:1|3:1,0:0:0:0:
195,173,106700,2,0,L|261:167,1,60.0000022888184,8|8,3:1|3:1,0:0:0:0:
358,86,107015,2,0,L|279:78,1,80,8|8,3:1|3:1,0:0:0:0:
209,23,107331,2,0,L|130:15,1,80,8|8,3:1|3:1,0:0:0:0:
59,76,107647,22,0,L|65:106,7,30.0000011444092,8|8|8|8|8|8|8|8,0:3|0:3|0:3|0:3|3:3|3:3|3:3|3:3,0:0:0:0:
142,150,108279,2,0,L|129:197,3,40,12|12|12|12,3:3|3:3|3:3|3:3,0:0:0:0:
67,244,108594,1,4,3:3:0:0:
88,258,108672,1,4,3:3:0:0:
103,278,108751,1,4,3:3:0:0:
111,301,108830,1,4,3:3:0:0:
112,326,108910,22,0,B|167:285|228:307|228:307|242:327|242:327|306:352|358:296|358:296|304:224|376:103|559:172|544:316|463:327|439:285,1,640,6|0,3:1|3:0,0:0:0:0:
375,127,113489,5,2,0:3:0:0:
375,127,113647,2,0,L|381:78,1,40,8|0,0:1|0:0,0:0:0:0:
459,91,113805,2,0,L|465:42,1,40,2|0,0:0|0:0,0:0:0:0:
353,6,113963,38,0,B|231:21|231:21|271:32,1,160,14|8,3:1|0:1,0:0:0:0:
403,257,117752,5,4,3:3:0:0:
488,281,117910,1,8,0:3:0:0:
393,244,118068,1,8,3:1:0:0:
346,340,118226,1,6,3:1:0:0:
217,371,118384,38,0,L|256:375,3,30.0000011444092,0|0|0|0,3:0|3:0|3:0|3:0,0:0:0:0:
205,373,118700,2,0,P|159:356|215:363,1,180.000006866455,6|0,0:0|0:0,0:0:0:0:
116,374,119015,1,6,3:1:0:0:
242,245,119331,6,0,P|252:198|187:188,1,120,8|0,0:1|0:0,0:0:0:0:
191,191,119647,1,0,3:0:0:0:
113,228,119805,1,2,0:3:0:0:
12,154,119963,1,8,0:1:0:0:
20,150,120121,2,0,P|37:182|34:238,1,90.0000034332277,2|0,0:3|0:0,0:0:0:0:
27,249,120436,1,2,0:3:0:0:
116,216,120594,1,8,0:1:0:0:
177,275,120752,1,2,0:3:0:0:
180,280,120910,2,0,L|169:345,1,60.0000022888184,0|2,3:0|0:3,0:0:0:0:
275,222,121226,2,0,L|243:92,1,120,8|0,0:1|0:0,0:0:0:0:
252,91,121542,37,0,3:0:0:0:
441,117,121857,2,0,P|488:93|464:36,1,120,8|0,0:1|0:0,0:0:0:0:
458,43,122173,1,0,3:0:0:0:
381,67,122331,1,2,0:3:0:0:
465,189,122489,1,8,0:1:0:0:
471,198,122647,2,0,P|458:236|456:260,2,60.0000022888184,2|0|2,0:3|3:0|0:3,0:0:0:0:
377,192,123121,2,0,P|338:186|321:144,1,80,8|2,0:1|0:3,0:0:0:0:
189,102,123436,2,0,P|251:99|277:22,1,150,0|0,3:0|0:0,0:0:0:0:
259,12,123752,1,8,0:1:0:0:
166,30,123910,1,2,0:3:0:0:
73,48,124068,5,6,3:1:0:0:
114,230,124384,2,0,P|107:192|35:177,1,120,8|0,0:1|0:0,0:0:0:0:
31,186,124700,1,0,3:3:0:0:
45,262,124857,1,2,0:3:0:0:
5,370,125015,1,8,0:1:0:0:
0,363,125173,2,0,P|23:345|91:336,1,90.0000034332277,2|0,0:3|0:0,0:0:0:0:
88,342,125489,1,2,0:3:0:0:
33,259,125647,1,8,0:1:0:0:
120,206,125805,2,0,P|149:207|184:215,2,60.0000022888184,2|0|2,0:3|3:0|0:3,0:0:0:0:
20,150,126279,2,0,L|9:71,1,80,8|2,0:1|0:3,0:0:0:0:
111,0,126594,38,0,P|150:4|174:21,1,60.0000022888184,0|2,3:0|0:3,0:0:0:0:
264,32,126910,2,0,P|285:41|307:72,1,60.0000022888184,8|2,0:1|0:3,0:0:0:0:
437,136,127226,2,0,P|397:140|356:161,1,80,0|2,3:0|0:3,0:0:0:0:
243,177,127542,6,0,B|206:209|206:209|197:252,1,90.0000034332277,8|0,0:1|0:0,0:0:0:0:
205,255,127857,38,0,P|172:243|142:243,1,60.0000022888184,0|2,3:0|0:3,0:0:0:0:
273,340,128173,1,8,3:1:0:0:
302,336,128251,1,0,3:0:0:0:
332,332,128330,1,2,3:0:0:0:
362,328,128409,1,0,3:0:0:0:
392,324,128489,6,0,L|450:315,1,60,12|0,3:1|0:0,0:0:0:0:
490,317,128805,38,0,B|493:339|493:339|423:349|423:349|416:296|416:296|348:305|348:305|351:328,1,240,12|0,3:1|0:0,0:0:0:0:
430,383,129121,1,6,3:1:0:0:
344,151,129436,6,0,P|336:180|409:203,1,120,8|0,0:1|0:0,0:0:0:0:
408,200,129752,1,0,3:0:0:0:
335,230,129910,1,2,0:3:0:0:
483,249,130068,1,8,0:1:0:0:
483,249,130226,2,0,P|466:223|461:156,1,90.0000034332277,2|0,0:3|0:0,0:0:0:0:
466,160,130542,1,2,0:3:0:0:
495,74,130700,1,8,0:1:0:0:
381,119,130857,1,2,0:3:0:0:
376,121,131015,2,0,P|341:122|318:115,1,60.0000022888184,0|2,3:0|0:3,0:0:0:0:
177,56,131331,2,0,P|233:50|293:26,1,120,8|0,0:1|0:0,0:0:0:0:
299,16,131647,37,0,3:0:0:0:
25,34,131963,2,0,P|70:52|80:122,1,120,8|0,0:1|0:0,0:0:0:0:
76,121,132279,1,0,3:0:0:0:
24,182,132436,1,2,0:3:0:0:
65,298,132594,1,8,0:1:0:0:
68,293,132752,2,0,P|37:288|12:358,1,120.000004577637,2|2,0:3|0:3,0:0:0:0:
145,377,133226,2,0,P|173:364|182:317,1,80,8|2,0:1|0:3,0:0:0:0:
136,177,133542,2,0,P|124:208|209:212,1,150,0|0,3:0|0:0,0:0:0:0:
204,214,133857,1,8,0:1:0:0:
136,257,134015,1,2,0:3:0:0:
255,293,134173,5,6,3:1:0:0:
445,344,134489,2,0,P|428:308|420:254,1,80,8|2,3:1|0:3,0:0:0:0:
482,98,134805,1,0,3:0:0:0:
463,169,134963,1,2,0:3:0:0:
509,282,135121,1,8,0:1:0:0:
512,276,135279,2,0,P|486:272|448:275,1,60.0000022888184,2|0,0:3|3:0,0:0:0:0:
341,314,135594,1,2,0:3:0:0:
381,231,135752,1,8,0:1:0:0:
321,175,135910,2,0,L|259:183,2,60.0000022888184,2|0|2,0:3|3:0|0:3,0:0:0:0:
404,116,136384,2,0,L|411:33,1,80,8|2,0:1|0:3,0:0:0:0:
477,0,136700,37,6,3:1:0:0:
485,8,136857,1,6,0:3:0:0:
399,47,137015,2,0,L|334:52,1,60.0000022888184,8|2,0:1|0:3,0:0:0:0:
168,89,137331,5,0,3:0:0:0:
160,81,137488,1,6,0:3:0:0:
246,42,137647,2,0,L|328:35,1,80,8|2,0:1|3:3,0:0:0:0:
459,100,137963,37,6,3:1:0:0:
456,119,138041,1,0,3:3:0:0:
453,139,138120,1,2,3:3:0:0:
451,159,138199,1,0,3:3:0:0:
448,179,138279,2,0,L|408:184,3,40,8|0|2|0,3:1|3:0|3:0|3:0,0:0:0:0:
333,128,138594,2,0,L|352:121,6,20,0|0|0|0|2|0|0,3:1|3:0|3:0|3:0|3:3|3:3|3:3,0:0:0:0:
401,58,138910,2,0,L|387:43,8,20,8|0|0|0|2|0|0|0|6,3:1|3:3|3:3|3:3|3:3|3:3|3:3|0:0|0:0,0:0:0:0:
111,58,141436,5,8,0:1:0:0:
19,249,141752,1,4,3:2:0:0:
493,249,143805,37,0,3:0:0:0:
398,199,143963,1,8,0:1:0:0:
230,361,144279,6,0,P|275:334|345:319,1,120,4|0,3:1|0:0,0:0:0:0:
346,324,144594,2,0,L|261:297,1,80,8|0,0:1|0:0,0:0:0:0:
151,272,144910,37,0,3:0:0:0:
158,284,145068,1,2,0:3:0:0:
107,351,145226,2,0,L|121:259,1,80,8|2,0:1|0:3,0:0:0:0:
83,186,145542,5,0,3:0:0:0:
150,38,145857,2,0,P|97:31|69:21,1,80,8|2,0:1|0:3,0:0:0:0:
198,137,146173,2,0,P|235:126|265:123,1,60.0000022888184,0|2,3:0|0:3,0:0:0:0:
380,61,146489,2,0,P|340:48|298:19,1,80,8|2,0:1|0:3,0:0:0:0:
464,12,146805,37,4,3:1:0:0:
400,157,146963,1,2,3:1:0:0:
400,157,147042,1,2,3:2:0:0:
400,157,147121,2,0,P|415:211|474:207,1,120,8|2,3:1|3:2,0:0:0:0:
475,203,147436,1,2,3:2:0:0:
460,228,147514,1,2,3:2:0:0:
450,257,147593,1,2,3:0:0:0:
447,287,147672,1,2,3:2:0:0:
449,316,147752,2,0,L|470:362,3,40,8|2|2|2,0:1|0:0|0:3|0:0,0:0:0:0:
372,297,148068,6,0,L|328:293,1,40,4|0,3:0|0:0,0:0:0:0:
293,314,148226,2,0,L|249:310,1,40,2|0,3:0|0:0,0:0:0:0:
181,269,148384,2,0,L|128:280,1,30.0000011444092,8|0,3:1|0:0,0:0:0:0:
115,302,148542,2,0,L|62:313,1,30.0000011444092,2|0,3:0|0:0,0:0:0:0:
7,344,148700,38,0,L|16:298,3,40,0|0|2|0,3:0|3:0|3:0|3:0,0:0:0:0:
0,232,149015,2,0,L|9:186,4,40,8|0|2|0|6,3:1|3:0|3:0|3:0|0:0,0:0:0:0:
512,232,151384,5,0,3:0:0:0:
413,169,151542,1,8,0:1:0:0:
511,27,151857,37,4,3:2:0:0:
1,357,153910,5,0,3:0:0:0:
87,278,154068,2,0,P|117:315|110:366,1,90.0000034332277,8|0,0:1|0:0,0:0:0:0:
109,359,154384,37,4,3:1:0:0:
286,370,154621,5,2,0:0:0:0:
463,381,154857,37,2,0:3:0:0:
511,312,155015,1,0,3:0:0:0:
503,301,155173,1,2,0:3:0:0:
473,230,155331,2,0,L|482:153,1,60.0000022888184,8|2,0:1|0:3,0:0:0:0:
494,63,155647,5,0,3:0:0:0:
390,92,155805,2,0,P|334:86|300:73,1,80,2|8,0:3|0:1,0:0:0:0:
200,40,156121,2,0,P|225:64|224:97,2,60.0000022888184,2|0|2,0:3|3:0|0:3,0:0:0:0:
93,111,156594,2,0,P|109:70|99:19,1,90.0000034332277,8|0,0:1|0:0,0:0:0:0:
90,15,156910,37,0,3:0:0:0:
25,60,157068,1,2,0:3:0:0:
95,189,157226,2,0,L|183:175,1,80,8|2,0:1|0:3,0:0:0:0:
287,268,157542,5,0,3:0:0:0:
280,261,157700,2,0,L|186:247,2,80,2|8|2,0:3|0:1|0:3,0:0:0:0:
391,363,158173,38,0,P|367:330|371:304,1,60.0000022888184,0|0,3:0|0:0,0:0:0:0:
470,237,158489,2,0,P|469:204|445:179,1,60.0000022888184,8|0,0:1|0:0,0:0:0:0:
310,190,158805,6,0,P|263:177|253:141,1,80,0|0,3:0|0:0,0:0:0:0:
255,3,159121,2,0,P|285:41|278:72,1,80,8|0,0:1|3:0,0:0:0:0:
188,99,159436,38,0,L|117:91,1,60.0000022888184,4|2,3:2|3:0,0:0:0:0:
53,193,159752,2,0,L|112:186,1,60.0000022888184,8|2,3:1|3:0,0:0:0:0:
199,91,160068,6,0,L|132:64,1,60.0000022888184,0|2,3:0|3:0,0:0:0:0:
42,201,160384,2,0,L|101:209,1,60.0000022888184,8|2,3:1|3:0,0:0:0:0:
109,213,160621,1,0,3:0:0:0:
117,215,160700,37,4,3:0:0:0:
196,202,160857,1,2,3:0:0:0:
255,144,161015,1,8,3:1:0:0:
337,281,161173,1,2,3:2:0:0:
197,362,161489,5,0,3:0:0:0:
197,362,161647,2,0,P|149:320|201:356,1,180.000006866455,6|0,0:0|0:0,0:0:0:0:
117,365,161963,6,0,L|25:352,1,80,6|0,3:1|0:0,0:0:0:0:
2,255,162279,1,8,0:1:0:0:
77,267,162436,1,4,0:3:0:0:
180,179,162594,1,8,3:0:0:0:
115,137,162752,2,0,P|107:91|124:61,1,80,2|8,0:3|0:1,0:0:0:0:
249,47,163068,6,0,P|260:101|281:128,1,80,2|0,0:3|3:0,0:0:0:0:
426,122,163384,2,0,P|374:122|347:106,1,80,2|8,0:3|0:1,0:0:0:0:
496,68,163700,1,8,0:3:0:0:
432,134,163857,2,0,L|445:225,1,80,4|4,3:3|0:3,0:0:0:0:
472,347,164173,1,8,0:1:0:0:
504,277,164331,1,0,0:0:0:0:
401,309,164489,38,0,P|349:300|330:274,1,80,0|2,3:0|0:3,0:0:0:0:
346,194,164805,1,8,0:1:0:0:
330,271,164963,1,4,0:3:0:0:
244,222,165121,1,8,3:3:0:0:
228,299,165279,2,0,L|242:382,1,80,2|8,0:3|0:1,0:0:0:0:
99,354,165594,6,0,P|143:326|134:271,1,80,2|0,0:3|3:0,0:0:0:0:
71,220,165910,2,0,P|27:232|-8:259,1,80,2|8,0:3|0:1,0:0:0:0:
3,325,166226,1,10,0:3:0:0:
74,212,166384,1,4,3:0:0:0:
33,151,166542,1,6,0:3:0:0:
44,130,166700,2,0,L|34:228,1,80,8|0,0:1|0:0,0:0:0:0:
208,261,167015,38,0,P|220:209|169:177,1,120,6|0,3:1|0:0,0:0:0:0:
162,183,167331,1,8,0:1:0:0:
241,192,167489,1,6,0:3:0:0:
327,110,167647,1,8,3:0:0:0:
248,101,167805,2,0,P|224:66|223:24,1,80,2|8,0:3|0:1,0:0:0:0:
368,20,168121,6,0,P|329:46|322:78,1,80,2|0,0:3|3:0,0:0:0:0:
400,150,168436,2,0,P|410:209|426:247,1,80,10|8,0:3|0:1,0:0:0:0:
473,281,168752,1,10,0:3:0:0:
426,372,168910,37,4,3:0:0:0:
380,338,169068,1,6,0:3:0:0:
291,368,169226,2,0,L|209:378,1,80,8|2,0:1|0:3,0:0:0:0:
105,273,169542,5,0,3:0:0:0:
178,316,169700,2,0,P|167:360|130:371,1,80,2|8,0:3|0:1,0:0:0:0:
45,316,170015,2,0,P|72:278|72:236,1,80,6|8,0:3|3:0,0:0:0:0:
19,156,170331,1,2,0:3:0:0:
19,156,170489,2,0,P|13:108|-1:71,1,80,8|2,0:1|0:3,0:0:0:0:
103,38,170805,38,0,P|80:81|41:79,1,80,6|0,3:1|0:0,0:0:0:0:
178,3,171121,1,8,0:1:0:0:
273,62,171279,1,2,3:0:0:0:
273,62,171357,1,2,3:2:0:0:
273,62,171436,6,0,L|320:56,1,40,4|4,3:0|3:0,0:0:0:0:
379,110,171594,2,0,L|426:116,1,40,6|4,3:0|3:0,0:0:0:0:
497,64,171752,1,8,3:1:0:0:
493,44,171830,1,8,3:0:0:0:
490,24,171909,1,10,3:0:0:0:
487,4,171988,1,8,3:0:0:0:
377,120,172226,37,6,3:0:0:0:
374,129,172304,1,4,3:0:0:0:
372,139,172383,1,6,3:1:0:0:
380,218,172542,1,6,0:3:0:0:
498,281,172700,1,10,0:3:0:0:
506,202,172857,21,2,3:1:0:0:
380,218,173173,5,2,3:1:0:0:
254,234,173489,37,2,3:1:0:0:
128,250,173805,5,10,0:1:0:0:
72,198,173963,1,0,3:0:0:0:
107,72,174121,2,0,B|108:54|108:54|126:33|126:33|119:4,5,60.0000022888184,8|8|4|4|0|0,3:3|3:3|3:3|3:3|3:0|3:0,0:0:0:0:
95,13,174594,6,0,L|129:123,1,80,6|0,3:1|0:0,0:0:0:0:
80,187,174910,1,8,0:1:0:0:
63,265,175068,1,6,0:3:0:0:
187,206,175226,1,8,3:0:0:0:
208,301,175384,2,0,P|183:340|172:377,1,80,2|8,0:3|0:1,0:0:0:0:
362,332,175700,6,0,P|354:286|310:264,1,80,2|0,0:3|3:0,0:0:0:0:
284,356,176015,2,0,P|333:364|369:376,1,80,2|8,0:3|0:1,0:0:0:0:
441,365,176331,1,10,0:3:0:0:
507,265,176489,37,4,3:0:0:0:
468,197,176647,1,6,0:3:0:0:
486,165,176805,2,0,L|498:82,1,80,8|0,0:1|0:0,0:0:0:0:
351,26,177121,6,0,P|344:70|404:106,1,120,6|0,3:1|0:0,0:0:0:0:
408,101,177436,1,8,0:1:0:0:
331,122,177594,1,6,0:3:0:0:
209,40,177752,1,8,3:0:0:0:
286,61,177910,2,0,P|300:108|285:149,1,80,2|8,0:3|0:1,0:0:0:0:
189,186,178226,1,2,0:3:0:0:
185,191,178384,38,0,L|137:186,3,40,4|0|0|0,3:1|3:0|3:0|3:0,0:0:0:0:
254,243,178700,2,0,L|302:238,3,40,8|0|4|0,3:1|3:0|3:0|3:0,0:0:0:0:
168,297,179015,1,12,3:0:0:0:
138,293,179093,1,4,3:0:0:0:
108,289,179172,1,4,3:0:0:0:
78,285,179251,1,4,3:0:0:0:
49,281,179331,2,0,L|35:251,6,20,8|0|8|0|8|0|8,3:0|3:0|3:0|3:0|3:0|3:0|3:0,0:0:0:0:
15,194,179647,21,6,3:2:0:0:
55,123,179805,1,0,0:0:0:0:
2,21,179963,1,2,0:0:0:0:
146,50,180121,2,0,B|111:74|111:74|98:195,1,160,6|2,3:2|0:0,0:0:0:0:
223,355,180594,6,0,P|272:313|160:275,1,240,6|0,3:2|0:0,0:0:0:0:
169,277,181857,1,8,3:3:0:0:
200,272,181935,1,8,3:3:0:0:
232,267,182014,1,4,3:3:0:0:
263,262,182093,1,4,3:3:0:0:
295,257,182172,37,6,3:2:0:0:
341,192,182331,1,2,0:0:0:0:
283,87,182489,1,2,0:0:0:0:
398,26,182647,2,0,B|440:54|440:54|416:171,1,160,6|2,3:2|0:0,0:0:0:0:
287,258,183121,6,0,P|216:204|347:180,1,304,6|0,3:2|0:0,0:0:0:0:
346,185,184700,37,4,3:2:0:0:
341,192,185015,1,0,3:0:0:0:
334,187,185331,1,0,3:0:0:0:
339,180,185647,1,0,3:0:0:0:
346,185,185963,1,0,3:0:0:0:
277,136,186279,1,0,3:0:0:0:
326,67,186594,1,8,3:3:0:0:
341,65,186672,1,8,3:0:0:0:
357,63,186751,1,8,3:0:0:0:
373,62,186830,1,8,3:0:0:0:
389,60,186910,2,0,P|409:136|343:108,1,180.000006866455,4|4,3:0|3:0,0:0:0:0:
430,153,187226,5,4,3:1:0:0:
430,153,187700,1,2,3:2:0:0:
380,277,187857,1,8,0:1:0:0:
380,277,188331,1,2,3:2:0:0:
460,306,188489,1,2,3:2:0:0:
460,306,188963,1,2,3:2:0:0:
325,344,189121,2,0,L|240:351,1,80,8|2,0:1|0:0,0:0:0:0:
169,360,189752,37,2,3:2:0:0:
169,360,190226,1,2,3:2:0:0:
231,224,190384,1,8,0:1:0:0:
231,224,190857,1,2,3:2:0:0:
150,239,191015,1,2,3:2:0:0:
252,145,191173,1,8,0:1:0:0:
252,145,191489,1,2,3:2:0:0:
158,43,191647,2,0,L|105:47,1,40,8|2,0:1|3:2,0:0:0:0:
50,59,191963,2,0,L|109:54,1,60,6|0,0:2|0:0,0:0:0:0:
116,60,192279,5,4,0:1:0:0:
116,60,192752,1,2,3:2:0:0:
3,149,192910,1,8,0:1:0:0:
3,149,193384,1,0,0:0:0:0:
47,209,193542,1,2,3:2:0:0:
47,209,194015,1,2,3:2:0:0:
2,342,194173,1,8,0:1:0:0:
2,342,194647,1,0,0:0:0:0:
75,373,194805,37,2,3:2:0:0:
75,373,195279,1,2,3:2:0:0:
208,331,195436,1,8,0:1:0:0:
208,331,196068,1,2,3:2:0:0:
68,296,196226,1,8,0:1:0:0:
68,296,196542,1,2,3:2:0:0:
168,192,196700,1,8,0:1:0:0:
168,192,197015,2,0,L|149:275,1,80,0|12,3:0|3:1,0:0:0:0:
159,280,197647,5,8,0:1:0:0:
162,269,197963,1,8,0:1:0:0:
153,258,198279,1,8,0:1:0:0:
150,269,198594,1,8,0:1:0:0:
159,280,198910,1,8,0:1:0:0:
162,269,199226,1,8,0:1:0:0:
153,258,199542,37,8,0:1:0:0:
178,354,199700,1,0,3:0:0:0:
274,329,199857,5,12,0:1:0:0:
281,319,200173,1,8,0:1:0:0:
273,310,200489,1,8,0:1:0:0:
266,320,200805,1,8,0:1:0:0:
274,329,201121,1,8,0:1:0:0:
281,319,201437,1,8,0:1:0:0:
273,310,201753,1,8,0:1:0:0:
266,320,202068,37,8,0:1:0:0:
373,297,202226,1,0,3:0:0:0:
374,287,202304,1,0,3:0:0:0:
375,277,202383,1,12,0:1:0:0:
335,173,202700,5,8,0:1:0:0:
316,158,203015,1,8,0:1:0:0:
295,169,203331,1,8,0:1:0:0:
314,184,203646,1,8,0:1:0:0:
335,173,203963,1,8,0:1:0:0:
316,158,204278,1,8,0:1:0:0:
295,169,204594,1,8,0:1:0:0:
386,234,204910,38,0,L|457:223,1,60.0000022888184,12|8,3:1|3:1,0:0:0:0:
498,127,205226,2,0,L|427:116,1,60.0000022888184,8|8,3:1|3:1,0:0:0:0:
377,245,205542,6,0,L|455:232,1,80,8|8,3:1|3:1,0:0:0:0:
509,119,205857,2,0,L|430:106,1,80,8|8,3:1|3:1,0:0:0:0:
278,160,206173,6,0,L|285:196,3,30.0000011444092,8|8|8|8,0:3|0:3|0:3|0:3,0:0:0:0:
260,260,206489,2,0,L|267:296,3,30.0000011444092,8|8|8|8,3:3|3:3|3:3|3:3,0:0:0:0:
223,354,206805,1,12,3:3:0:0:
200,349,206883,1,12,3:3:0:0:
178,346,206962,1,12,3:3:0:0:
156,347,207041,1,12,3:3:0:0:
134,354,207120,1,4,3:3:0:0:
114,364,207199,1,4,3:3:0:0:
92,369,207278,1,4,3:3:0:0:
70,371,207357,1,4,3:3:0:0:
47,369,207436,5,6,3:1:0:0:
256,192,207515,12,0,217542,0:0:0:0:
