osu file format v14

[General]
AudioFilename: audio.mp3
AudioLeadIn: 0
PreviewTime: 62832
Countdown: 0
SampleSet: Soft
StackLeniency: 0.2
Mode: 0
LetterboxInBreaks: 0
WidescreenStoryboard: 1

[Editor]
Bookmarks: 9121,10384,20489,30910,40700,45752,50805,55857,63436,76068,81121,86173,88700,98805,106384,108910,119331,129121,139226,144279,149331,154384,161963,174594,179647,184700,187226,197331,207436,217542
DistanceSpacing: 1
BeatDivisor: 4
GridSize: 32
TimelineZoom: 3.3

[Metadata]
Title:Blood Drain -Again-
TitleUnicode:Blood Drain -Again-
Artist:raito
ArtistUnicode:来兎
Creator:DeviousPanda
Version:Halgoh's Etherlite Shift
Source:アンダーナイトインヴァース
Tags:らいと UNIST Under Night In-Birth In Birth Exe:Late[cl-r] exe late cl-r cl r fighting Sion Eltnam Altasia melty blood actress VGM OST original sound track Eltnum Theme sho Halgoh PaRaDogi KnightC0re Knightcore xLolicore- Lolicore My Angel Watame Video Game Instrumental electronic
BeatmapID:2559639
BeatmapSetID:1152554

[Difficulty]
HPDrainRate:5
CircleSize:3.8
OverallDifficulty:8.6
ApproachRate:9.3
SliderMultiplier:2
SliderTickRate:1

[Events]
//Background and Video events
0,0,"Blood Drain BG.jpg",0,0
//Break Periods
//Storyboard Layer 0 (Background)
//Storyboard Layer 1 (Fail)
//Storyboard Layer 2 (Pass)
//Storyboard Layer 3 (Foreground)
//Storyboard Layer 4 (Overlay)
//Storyboard Sound Samples

[TimingPoints]
279,315.789473684211,4,2,1,69,1,0
279,-76.9230769230769,4,2,1,69,0,0
910,-90.9090909090909,4,2,1,69,0,0
1068,-76.9230769230769,4,2,1,69,0,0
1542,-90.9090909090909,4,2,1,69,0,0
2015,-76.9230769230769,4,2,1,69,0,0
2805,-90.9090909090909,4,2,1,69,0,0
3436,-90.9090909090909,4,2,1,69,0,0
3594,-76.9230769230769,4,2,1,69,0,0
4068,-90.9090909090909,4,2,1,69,0,0
4542,-111.111111111111,4,2,1,69,0,0
5015,-166.666666666666,4,2,1,69,0,0
5331,-76.9230769230769,4,2,1,69,0,0
5962,-90.9090909090909,4,2,1,69,0,0
6120,-76.9230769230769,4,2,1,69,0,0
6594,-90.9090909090909,4,2,1,69,0,0
7067,-74.0740740740741,4,2,1,69,0,0
7857,-90.9090909090909,4,2,1,69,0,0
8489,-90.9090909090909,4,2,1,69,0,0
8646,-76.9230769230769,4,2,1,69,0,0
10384,-66.6666666666667,4,2,1,69,0,1
12121,-133.333333333333,4,2,1,69,0,1
12594,-66.6666666666667,4,2,1,69,0,1
12910,-57.1428571428571,4,2,1,69,0,1
13700,-66.6666666666667,4,2,1,69,0,1
14173,-399.999999999997,4,2,1,69,0,1
14331,-200,4,2,1,69,0,1
14489,-133.333333333333,4,2,1,69,0,1
14647,-100,4,2,1,69,0,1
14805,-66.6666666666667,4,2,1,69,0,1
15121,-100,4,2,1,69,0,1
15436,-66.6666666666667,4,2,1,69,0,1
17173,-133.333333333333,4,2,1,69,0,1
17646,-66.6666666666667,4,2,1,69,0,1
17962,-57.1428571428571,4,2,1,69,0,1
18752,-66.6666666666667,4,2,1,69,0,1
19225,-133.333333333333,4,2,1,69,0,1
19384,-100,4,2,1,69,0,1
19542,-80,4,2,1,69,0,1
20173,-100,4,2,1,69,0,0
20489,-133.333333333333,4,2,1,64,0,0
20805,-66.6666666666667,4,2,1,64,0,0
21121,-133.333333333333,4,2,1,64,0,0
21436,-100,4,2,1,64,0,0
21594,-80,4,2,1,64,0,0
21752,-66.6666666666667,4,2,1,64,0,0
23331,-100,4,2,1,64,0,0
23805,-79.9999999999999,4,2,1,64,0,0
25857,-100,4,2,1,64,0,0
26331,-80,4,2,1,64,0,0
26647,-66.6666666666667,4,2,1,64,0,0
27279,-133.333333333333,4,2,1,64,0,0
27752,-100,4,2,1,64,0,0
28068,-66.6666666666667,4,2,1,64,0,0
29331,-57.1428571428571,4,2,1,64,0,0
29963,-50,4,2,1,64,0,0
30279,-44.4444444444445,4,2,1,64,0,0
30594,-100,4,2,1,64,0,0
30910,-66.6666666666667,4,2,1,64,0,0
31226,-133.333333333333,4,2,1,64,0,0
31541,-100,4,2,1,64,0,0
31699,-80,4,2,1,64,0,0
31857,-66.6666666666667,4,2,1,64,0,0
33436,-100,4,2,1,64,0,0
33910,-79.9999999999999,4,2,1,64,0,0
35962,-100,4,2,1,64,0,0
36436,-80,4,2,1,64,0,0
36752,-66.6666666666667,4,2,1,64,0,0
37384,-133.333333333333,4,2,1,64,0,0
37857,-100,4,2,1,64,0,0
38173,-66.6666666666667,4,2,1,64,0,0
40068,-100,4,2,1,64,0,0
40384,-100,4,2,1,54,0,0
40699,-100,4,2,1,59,0,0
40700,-200,4,2,1,59,0,0
41015,-166.666666666667,4,2,1,59,0,0
41173,-333.333333333334,4,2,1,59,0,0
41489,-333.333333333334,4,2,1,59,0,0
41805,-111.111111111111,4,2,1,59,0,0
42121,-333.333333333332,4,2,1,59,0,0
42436,-111.111111111111,4,2,1,59,0,0
43226,-133.333333333333,4,2,1,59,0,0
43542,-166.666666666667,4,2,1,59,0,0
43700,-333.333333333334,4,2,1,59,0,0
44015,-333.333333333334,4,2,1,59,0,0
44331,-111.111111111111,4,2,1,59,0,0
44647,-333.333333333332,4,2,1,59,0,0
44963,-111.111111111111,4,2,1,59,0,0
45279,-166.666666666666,4,2,1,59,0,0
45436,-83.3333333333333,4,2,1,59,0,0
45594,-111.111111111111,4,2,1,59,0,0
45752,-74.0740740740741,4,2,1,64,0,0
46384,-100,4,2,1,64,0,0
46700,-74.0740740740741,4,2,1,64,0,0
47015,-66.6666666666667,4,2,1,64,0,0
47647,-200,4,2,1,64,0,0
47805,-133.333333333333,4,2,1,64,0,0
47963,-100,4,2,1,64,0,0
48279,-66.6666666666667,4,2,1,64,0,0
48436,-133.333333333333,4,2,1,64,0,0
48910,-222.222222222222,4,2,1,64,0,0
48989,-181.818181818182,4,2,1,64,0,0
49068,-153.846153846153,4,2,1,64,0,0
49147,-125,4,2,1,64,0,0
49226,-500,4,2,1,64,0,0
50173,-100,4,2,1,64,0,0
50489,-100,4,2,1,54,0,0
50805,-200,4,2,1,59,0,0
51120,-166.666666666667,4,2,1,59,0,0
51278,-333.333333333334,4,2,1,59,0,0
51594,-333.333333333334,4,2,1,59,0,0
51910,-111.111111111111,4,2,1,59,0,0
52226,-333.333333333332,4,2,1,59,0,0
52541,-111.111111111111,4,2,1,59,0,0
53331,-133.333333333333,4,2,1,59,0,0
53647,-166.666666666667,4,2,1,59,0,0
53805,-333.333333333334,4,2,1,59,0,0
54120,-333.333333333334,4,2,1,59,0,0
54436,-111.111111111111,4,2,1,59,0,0
54752,-333.333333333332,4,2,1,59,0,0
55068,-111.111111111111,4,2,1,59,0,0
55384,-111.111111111111,4,2,1,59,0,0
55542,-83.3333333333333,4,2,1,59,0,0
55700,-66.6666666666667,4,2,1,59,0,0
55857,-76.9230769230769,4,2,1,64,0,0
57594,-62.5,4,2,1,64,0,0
58068,-76.9230769230769,4,2,1,64,0,0
58384,-62.5,4,2,1,64,0,0
59015,-142.857142857143,4,2,1,64,0,0
59173,-100,4,2,1,64,0,0
59331,-76.9230769230769,4,2,1,64,0,0
59647,-100,4,2,1,64,0,0
59963,-80,4,2,1,64,0,0
60279,-66.6666666666667,4,2,1,64,0,0
60594,-57.1428571428571,4,2,1,64,0,0
62173,-399.999999999997,4,2,1,64,0,0
62331,-200,4,2,1,64,0,0
62489,-133.333333333333,4,2,1,64,0,0
62647,-200,4,2,1,64,0,0
62805,-200,4,2,1,74,0,0
62963,-100,4,2,1,74,0,0
63121,-76.9230769230769,4,2,1,74,0,0
63279,-153.846153846153,4,2,1,74,0,0
63436,-51.2820512820513,4,2,1,89,0,1
63752,-153.846153846153,4,2,1,89,0,1
63910,-76.9230769230769,4,2,1,89,0,1
64226,-38.4615384615385,4,2,1,89,0,1
64384,-76.9230769230769,4,2,1,89,0,1
64542,-51.2820512820513,4,2,1,89,0,1
65173,-153.846153846153,4,2,1,89,0,1
65647,-51.2820512820513,4,2,1,89,0,1
65963,-62.5,4,2,1,89,0,1
66436,-76.9230769230769,4,2,1,89,0,1
67384,-62.5,4,2,1,89,0,1
67700,-153.846153846154,4,2,1,89,0,1
67857,-51.2820512820513,4,2,1,89,0,1
68489,-51.2820512820513,4,2,1,89,0,1
68805,-153.846153846153,4,2,1,89,0,1
68963,-76.9230769230769,4,2,1,89,0,1
69279,-38.4615384615385,4,2,1,89,0,1
69437,-76.9230769230769,4,2,1,89,0,1
69594,-51.2820512820513,4,2,1,89,0,1
70226,-153.846153846153,4,2,1,89,0,1
70700,-51.2820512820513,4,2,1,89,0,1
71015,-62.5,4,2,1,89,0,1
72279,-62.5,4,2,1,89,0,1
73857,-55.5555555555556,4,2,1,89,0,1
74015,-71.4285714285714,4,2,1,89,0,1
74173,-100,4,2,1,89,0,1
74331,-76.9230769230769,4,2,1,89,0,0
74647,-62.5,4,2,1,89,0,0
74963,-52.6315789473684,4,2,1,89,0,0
75279,-76.9230769230769,4,2,1,89,0,0
75436,-153.846153846153,4,2,1,89,0,0
75594,-51.2820512820513,4,2,1,89,0,0
76068,-51.2820512820513,4,2,1,89,0,1
76384,-285.714285714282,4,2,1,89,0,1
76700,-76.9230769230769,4,2,1,89,0,1
76857,-51.2820512820513,4,2,1,89,0,1
77173,-40.8163265306122,4,2,1,89,0,1
77331,-153.846153846153,4,2,1,89,0,1
77489,-51.2820512820512,4,2,1,89,0,1
77647,-40.8163265306122,4,2,1,89,0,1
77805,-399.999999999997,4,2,1,89,0,1
77963,-44.4444444444445,4,2,1,89,0,1
78279,-38.4615384615385,4,2,1,89,0,1
78594,-62.5,4,2,1,89,0,1
78910,-250,4,2,1,89,0,1
79068,-166.666666666667,4,2,1,89,0,1
79384,-55.5555555555556,4,2,1,89,0,1
79542,-51.2820512820513,4,2,1,89,0,1
79700,-55.5555555555556,4,2,1,89,0,1
81121,-55.5555555555556,4,2,1,69,0,0
81594,-666.666666666667,4,2,1,69,0,0
81910,-55.5555555555556,4,2,1,69,0,0
82068,-100,4,2,1,69,0,0
83963,-71.4285714285714,4,2,1,69,0,0
84121,-62.5,4,2,1,69,0,0
84436,-55.5555555555556,4,2,1,69,0,0
84594,-75.7575757575758,4,2,1,59,0,0
88463,-62.5,4,2,1,59,0,0
88700,-250,4,2,1,59,0,0
88857,-250,4,2,1,59,0,0
89015,-166.666666666667,4,2,1,59,0,0
89173,-125,4,2,1,59,0,0
89331,-100,4,2,1,59,0,0
89805,-71.4285714285714,4,2,1,59,0,0
90121,-142.857142857143,4,2,1,59,0,0
90279,-142.857142857143,4,2,1,59,0,0
90436,-71.4285714285714,4,2,1,59,0,0
90594,-142.857142857143,4,2,1,59,0,0
90752,-100,4,2,1,59,0,0
90910,-200,4,2,1,59,0,0
91068,-100,4,2,1,59,0,0
91384,-133.333333333333,4,2,1,59,0,0
91542,-66.6666666666667,4,2,1,59,0,0
91700,-66.6666666666667,4,2,1,59,0,0
91857,-100,4,2,1,59,0,0
92015,-133.333333333333,4,2,1,59,0,0
92173,-200,4,2,1,59,0,0
92331,-133.333333333333,4,2,1,59,0,0
92489,-100,4,2,1,59,0,0
92805,-200,4,2,1,59,0,0
92963,-399.999999999997,4,2,1,59,0,0
93279,-133.333333333333,4,2,1,59,0,0
93436,-100,4,2,1,59,0,0
93752,-66.6666666666667,4,2,1,59,0,0
94068,-133.333333333333,4,2,1,59,0,0
94384,-66.6666666666667,4,2,1,59,0,0
94542,-80,4,2,1,59,0,0
95173,-200,4,2,1,59,0,0
95647,-100,4,2,1,59,0,0
95805,-200,4,2,1,59,0,0
95963,-100,4,2,1,59,0,0
96279,-79.8722044728435,4,2,1,59,0,0
96910,-66.6666666666667,4,2,1,59,0,0
97068,-100,4,2,1,59,0,0
97384,-133.333333333333,4,2,1,59,0,0
97542,-66.6666666666667,4,2,1,59,0,0
97700,-133.333333333333,4,2,1,59,0,0
98015,-133.333333333333,4,2,1,59,0,0
98173,-79.9999999999999,4,2,1,59,0,0
98331,-133.333333333333,4,2,1,59,0,0
98489,-79.9999999999999,4,2,1,59,0,0
98647,-86.9565217391304,4,2,1,59,0,0
98805,-133.333333333333,4,2,1,59,0,0
99436,-200,4,2,1,59,0,0
99752,-80,4,2,1,59,0,0
100068,-100,4,2,1,59,0,0
100384,-100,4,2,1,59,0,0
100542,-86.9565217391304,4,2,1,59,0,0
101331,-80,4,2,1,59,0,0
101805,-74.0740740740741,4,2,1,59,0,0
102279,-74.0740740740741,4,2,1,59,0,0
102595,-66.6666666666667,4,2,1,59,0,0
102910,-100,4,2,1,59,0,0
103068,-68.9655172413793,4,2,1,59,0,0
103463,-66.6666666666667,4,2,1,59,0,0
103542,-57.1428571428571,4,2,1,59,0,0
103857,-64.5161290322581,4,2,1,59,0,0
104647,-58.8235294117647,4,2,1,59,0,0
105121,-60.6060606060606,4,2,1,59,0,0
106068,-200,4,2,1,59,0,0
106384,-166.666666666667,4,2,1,59,0,0
106542,-142.857142857143,4,2,1,59,0,0
106700,-125,4,2,1,59,0,0
106857,-111.111111111111,4,2,1,59,0,0
107015,-100,4,2,1,59,0,0
107173,-90.9090909090909,4,2,1,59,0,0
107331,-83.3333333333333,4,2,1,59,0,0
107489,-76.9230769230769,4,2,1,59,0,0
108910,-62.5,4,2,1,69,0,1
110173,-76.9230769230769,4,2,1,69,0,1
110647,-111.111111111111,4,2,1,69,0,1
111120,-55.5555555555556,4,2,1,69,0,1
111436,-44.4444444444445,4,2,1,69,0,1
111594,-133.333333333333,4,2,1,69,0,1
111752,-100,4,2,1,69,0,1
111910,-133.333333333333,4,2,1,69,0,1
112700,-100,4,2,1,69,0,1
113173,-55.5555555555556,4,2,1,69,0,1
113489,-74.0740740740741,4,2,1,69,0,1
113647,-66.6666666666667,4,2,1,69,0,1
115226,-76.9230769230769,4,2,1,69,0,1
115700,-111.111111111111,4,2,1,69,0,1
116173,-55.5555555555556,4,2,1,69,0,1
116489,-44.4444444444445,4,2,1,69,0,1
117121,-57.1428571428571,4,2,1,69,0,1
117279,-68.9655172413793,4,2,1,69,0,1
117436,-57.1428571428571,4,2,1,69,0,1
117752,-133.333333333333,4,2,1,69,0,1
117910,-100,4,2,1,69,0,1
118068,-80,4,2,1,69,0,1
118700,-100,4,2,1,69,0,0
119015,-133.333333333333,4,2,1,64,0,0
119331,-66.6666666666667,4,2,1,64,0,0
119647,-133.333333333333,4,2,1,64,0,0
119962,-100,4,2,1,64,0,0
120120,-80,4,2,1,64,0,0
120278,-66.6666666666667,4,2,1,64,0,0
121857,-100,4,2,1,64,0,0
122331,-79.9999999999999,4,2,1,64,0,0
122489,-90.9090909090909,4,2,1,64,0,0
122647,-79.9999999999999,4,2,1,64,0,0
124383,-133.333333333333,4,2,1,64,0,0
124542,-100,4,2,1,64,0,0
124700,-86.9565217391304,4,2,1,64,0,0
124857,-80,4,2,1,64,0,0
125173,-66.6666666666667,4,2,1,64,0,0
125805,-80,4,2,1,64,0,0
126278,-100,4,2,1,64,0,0
126594,-66.6666666666667,4,2,1,64,0,0
127857,-57.1428571428571,4,2,1,64,0,0
128489,-50,4,2,1,64,0,0
128805,-44.4444444444445,4,2,1,64,0,0
129120,-100,4,2,1,64,0,0
129436,-66.6666666666667,4,2,1,64,0,0
129752,-133.333333333333,4,2,1,64,0,0
130067,-100,4,2,1,64,0,0
130225,-80,4,2,1,64,0,0
130383,-66.6666666666667,4,2,1,64,0,0
131331,-71.4285714285714,4,2,1,64,0,0
131647,-66.6666666666667,4,2,1,64,0,0
131962,-100,4,2,1,64,0,0
132436,-133.333333333333,4,2,1,64,0,0
132752,-200,4,2,1,64,0,0
133226,-79.9999999999999,4,2,1,64,0,0
134489,-133.333333333333,4,2,1,64,0,0
134647,-100,4,2,1,64,0,0
134805,-86.9565217391304,4,2,1,64,0,0
134963,-86.9565217391304,4,2,1,64,0,0
135121,-80,4,2,1,64,0,0
135279,-66.6666666666667,4,2,1,64,0,0
135910,-133.333333333333,4,2,1,64,0,0
136383,-111.111111111111,4,2,1,64,0,0
136699,-66.6666666666667,4,2,1,64,0,0
138594,-100,4,2,1,64,0,0
138910,-100,4,2,1,54,0,0
139226,-200,4,2,1,59,0,0
139541,-166.666666666667,4,2,1,59,0,0
139699,-333.333333333334,4,2,1,59,0,0
140015,-333.333333333334,4,2,1,59,0,0
140331,-111.111111111111,4,2,1,59,0,0
140647,-333.333333333332,4,2,1,59,0,0
140962,-111.111111111111,4,2,1,59,0,0
141752,-133.333333333333,4,2,1,59,0,0
142068,-166.666666666667,4,2,1,59,0,0
142226,-333.333333333334,4,2,1,59,0,0
142541,-333.333333333334,4,2,1,59,0,0
142857,-111.111111111111,4,2,1,59,0,0
143173,-333.333333333332,4,2,1,59,0,0
143489,-111.111111111111,4,2,1,59,0,0
143805,-166.666666666666,4,2,1,59,0,0
143963,-83.3333333333333,4,2,1,59,0,0
144120,-111.111111111111,4,2,1,59,0,0
144278,-74.0740740740741,4,2,1,64,0,0
144279,-74.0740740740741,4,2,1,64,0,0
144911,-100,4,2,1,64,0,0
145226,-74.0740740740741,4,2,1,64,0,0
145542,-66.6666666666667,4,2,1,64,0,0
146173,-200,4,2,1,64,0,0
146331,-133.333333333333,4,2,1,64,0,0
146489,-100,4,2,1,64,0,0
146805,-66.6666666666667,4,2,1,64,0,0
146963,-133.333333333333,4,2,1,64,0,0
147437,-222.222222222222,4,2,1,64,0,0
147752,-62.5,4,2,1,64,0,0
148700,-100,4,2,1,64,0,0
149015,-100,4,2,1,54,0,0
149331,-200,4,2,1,59,0,0
149646,-166.666666666667,4,2,1,59,0,0
149804,-333.333333333334,4,2,1,59,0,0
150120,-333.333333333334,4,2,1,59,0,0
150436,-111.111111111111,4,2,1,59,0,0
150752,-333.333333333332,4,2,1,59,0,0
151067,-111.111111111111,4,2,1,59,0,0
151857,-133.333333333333,4,2,1,59,0,0
152173,-166.666666666667,4,2,1,59,0,0
152331,-333.333333333334,4,2,1,59,0,0
152646,-333.333333333334,4,2,1,59,0,0
152962,-111.111111111111,4,2,1,59,0,0
153278,-333.333333333332,4,2,1,59,0,0
153594,-111.111111111111,4,2,1,59,0,0
153910,-111.111111111111,4,2,1,59,0,0
154068,-83.3333333333333,4,2,1,59,0,0
154226,-66.6666666666667,4,2,1,59,0,0
154383,-76.9230769230769,4,2,1,64,0,0
156120,-62.5,4,2,1,64,0,0
156594,-76.9230769230769,4,2,1,64,0,0
156910,-62.5,4,2,1,64,0,0
157541,-142.857142857143,4,2,1,64,0,0
157699,-100,4,2,1,64,0,0
157857,-76.9230769230769,4,2,1,64,0,0
158173,-100,4,2,1,64,0,0
158489,-80,4,2,1,64,0,0
158805,-66.6666666666667,4,2,1,64,0,0
159120,-57.1428571428571,4,2,1,64,0,0
160699,-399.999999999997,4,2,1,64,0,0
160857,-200,4,2,1,64,0,0
161015,-133.333333333333,4,2,1,64,0,0
161173,-200,4,2,1,64,0,0
161331,-200,4,2,1,74,0,0
161489,-100,4,2,1,74,0,0
161647,-76.9230769230769,4,2,1,74,0,0
161805,-153.846153846153,4,2,1,74,0,0
161963,-51.2820512820513,4,2,1,89,0,1
162278,-153.846153846153,4,2,1,89,0,1
162436,-76.9230769230769,4,2,1,89,0,1
162752,-39.2156862745098,4,2,1,89,0,1
162910,-76.9230769230769,4,2,1,89,0,1
163068,-51.2820512820513,4,2,1,89,0,1
163699,-153.846153846153,4,2,1,89,0,1
164173,-51.2820512820513,4,2,1,89,0,1
164489,-51.2820512820513,4,2,1,89,0,1
164962,-76.9230769230769,4,2,1,89,0,1
165121,-100,4,2,1,89,0,1
165279,-57.1428571428571,4,2,1,89,0,1
165594,-51.2820512820513,4,2,1,89,0,1
165910,-62.5,4,2,1,89,0,1
166226,-153.846153846154,4,2,1,89,0,1
166383,-51.2820512820513,4,2,1,89,0,1
167015,-51.2820512820513,4,2,1,89,0,1
167331,-153.846153846153,4,2,1,89,0,1
167489,-76.9230769230769,4,2,1,89,0,1
167805,-40,4,2,1,89,0,1
167963,-76.9230769230769,4,2,1,89,0,1
168121,-51.2820512820513,4,2,1,89,0,1
168752,-153.846153846153,4,2,1,89,0,1
169226,-51.2820512820513,4,2,1,89,0,1
169541,-62.5,4,2,1,89,0,1
170805,-62.5,4,2,1,89,0,1
172384,-55.5555555555556,4,2,1,89,0,1
172541,-71.4285714285714,4,2,1,89,0,1
172699,-100,4,2,1,89,0,1
172857,-76.9230769230769,4,2,1,89,0,0
173173,-62.5,4,2,1,89,0,0
173489,-52.6315789473684,4,2,1,89,0,0
173805,-76.9230769230769,4,2,1,89,0,0
173963,-153.846153846153,4,2,1,89,0,0
174120,-51.2820512820513,4,2,1,89,0,0
174594,-51.2820512820513,4,2,1,89,0,1
174910,-285.714285714282,4,2,1,89,0,1
175226,-76.9230769230769,4,2,1,89,0,1
175383,-51.2820512820513,4,2,1,89,0,1
175699,-40.8163265306122,4,2,1,89,0,1
175857,-153.846153846153,4,2,1,89,0,1
176015,-80,4,2,1,89,0,1
176173,-40,4,2,1,89,0,1
176331,-399.999999999997,4,2,1,89,0,1
176489,-44.4444444444445,4,2,1,89,0,1
176805,-38.4615384615385,4,2,1,89,0,1
177120,-62.5,4,2,1,89,0,1
177436,-250,4,2,1,89,0,1
177594,-166.666666666667,4,2,1,89,0,1
177910,-55.5555555555556,4,2,1,89,0,1
178068,-55.5555555555556,4,2,1,89,0,1
178226,-51.2820512820513,4,2,1,89,0,1
179647,-55.5555555555556,4,2,1,69,0,0
180121,-666.666666666667,4,2,1,69,0,0
180436,-55.5555555555556,4,2,1,69,0,0
180594,-100,4,2,1,69,0,0
182489,-71.4285714285714,4,2,1,69,0,0
182963,-55.5555555555556,4,2,1,69,0,0
183121,-75.7575757575758,4,2,1,59,0,0
186989,-62.5,4,2,1,59,0,0
187384,-250,4,2,1,59,0,0
187542,-166.666666666667,4,2,1,59,0,0
187700,-125,4,2,1,59,0,0
187857,-100,4,2,1,59,0,0
188331,-71.4285714285714,4,2,1,59,0,0
188647,-142.857142857143,4,2,1,59,0,0
188806,-142.857142857143,4,2,1,59,0,0
188963,-71.4285714285714,4,2,1,59,0,0
189121,-142.857142857143,4,2,1,59,0,0
189279,-100,4,2,1,59,0,0
189437,-200,4,2,1,59,0,0
189594,-100,4,2,1,59,0,0
189910,-133.333333333333,4,2,1,59,0,0
190068,-66.6666666666667,4,2,1,59,0,0
190227,-66.6666666666667,4,2,1,59,0,0
190384,-100,4,2,1,59,0,0
190542,-133.333333333333,4,2,1,59,0,0
190700,-200,4,2,1,59,0,0
190857,-133.333333333333,4,2,1,59,0,0
191015,-100,4,2,1,59,0,0
191331,-200,4,2,1,59,0,0
191489,-399.999999999997,4,2,1,59,0,0
191805,-133.333333333333,4,2,1,59,0,0
191963,-100,4,2,1,59,0,0
192279,-66.6666666666667,4,2,1,59,0,0
192594,-133.333333333333,4,2,1,59,0,0
192910,-66.6666666666667,4,2,1,59,0,0
193068,-80,4,2,1,59,0,0
193700,-200,4,2,1,59,0,0
194173,-100,4,2,1,59,0,0
194331,-200,4,2,1,59,0,0
194489,-100,4,2,1,59,0,0
194805,-79.8722044728435,4,2,1,59,0,0
195437,-66.6666666666667,4,2,1,59,0,0
195595,-100,4,2,1,59,0,0
195910,-133.333333333333,4,2,1,59,0,0
196068,-66.6666666666667,4,2,1,59,0,0
196226,-133.333333333333,4,2,1,59,0,0
196542,-133.333333333333,4,2,1,59,0,0
196700,-79.9999999999999,4,2,1,59,0,0
196857,-133.333333333333,4,2,1,59,0,0
197015,-79.9999999999999,4,2,1,59,0,0
197173,-86.9565217391304,4,2,1,59,0,0
197331,-133.333333333333,4,2,1,59,0,0
197962,-200,4,2,1,59,0,0
198278,-80,4,2,1,59,0,0
198594,-100,4,2,1,59,0,0
198910,-100,4,2,1,59,0,0
199068,-86.9565217391304,4,2,1,59,0,0
199857,-80,4,2,1,59,0,0
200331,-74.0740740740741,4,2,1,59,0,0
200805,-74.0740740740741,4,2,1,59,0,0
201121,-66.6666666666667,4,2,1,59,0,0
201436,-100,4,2,1,59,0,0
201594,-68.9655172413793,4,2,1,59,0,0
201989,-66.6666666666667,4,2,1,59,0,0
202068,-57.1428571428571,4,2,1,59,0,0
202383,-64.5161290322581,4,2,1,59,0,0
203173,-58.8235294117647,4,2,1,59,0,0
203647,-60.6060606060606,4,2,1,59,0,0
204594,-200,4,2,1,59,0,0
204910,-142.857142857143,4,2,1,59,0,0
205068,-111.111111111111,4,2,1,59,0,0
205226,-125,4,2,1,59,0,0
205383,-166.666666666666,4,2,1,59,0,0
205541,-90.9090909090909,4,2,1,59,0,0
205699,-76.9230769230769,4,2,1,59,0,0
205857,-83.3333333333333,4,2,1,59,0,0
206015,-100,4,2,1,59,0,0
207515,-100,4,2,1,69,0,0
207752,-100,4,2,1,67,0,0
208068,-100,4,2,1,65,0,0
208384,-100,4,2,1,63,0,0
208700,-100,4,2,1,61,0,0
209015,-100,4,2,1,59,0,0
209331,-100,4,2,1,57,0,0
209647,-100,4,2,1,55,0,0
209963,-100,4,2,1,53,0,0
210279,-100,4,2,1,51,0,0
210594,-100,4,2,1,49,0,0
210910,-100,4,2,1,47,0,0
211226,-100,4,2,1,45,0,0
211542,-100,4,2,1,43,0,0
211858,-100,4,2,1,41,0,0
212173,-100,4,2,1,39,0,0
212489,-100,4,2,1,37,0,0
212805,-100,4,2,1,35,0,0
213121,-100,4,2,1,33,0,0
213437,-100,4,2,1,31,0,0
213752,-100,4,2,1,29,0,0
214068,-100,4,2,1,27,0,0
214384,-100,4,2,1,25,0,0
214700,-100,4,2,1,23,0,0
215016,-100,4,2,1,21,0,0
215331,-100,4,2,1,19,0,0
215647,-100,4,2,1,17,0,0
215963,-100,4,2,1,15,0,0
216279,-100,4,2,1,13,0,0
216595,-100,4,2,1,11,0,0
216910,-100,4,2,1,9,0,0
217226,-100,4,2,1,7,0,0
217542,-100,4,2,2,5,0,0

[Colours]
Combo1 : 254,92,238
Combo2 : 0,187,117
Combo3 : 0,145,44
Combo4 : 255,183,237

[HitObjects]
411,294,279,6,0,B|457:308|469:292|517:316|517:316|457:252|353:228|257:264|257:264|281:288|285:324,1,454.999979171754,4|0,0:0|0:0,0:0:0:0:
354,375,910,2,0,P|361:377|350:369,1,55.0000016784668,2|0,0:0|0:0,0:0:0:0:
232,259,1068,2,0,B|200:248|204:232|192:211|162:199|162:199|236:228|272:283|272:343|232:380,1,324.999985122681,2|0,0:0|0:0,0:0:0:0:
158,380,1542,2,0,B|60:176|188:200|195:166|208:109,1,275.000008392334,2|0,0:0|0:0,0:0:0:0:
140,30,2015,2,0,B|155:86|94:234|118:58|26:120|-30:257|65:281|78:135|32:27|-32:189|-13:50|21:3,1,389.999982147218,2|0,0:0|0:0,0:0:0:0:
328,190,2805,6,0,B|290:124|348:123|340:63|282:-2|216:14|216:14|257:24|282:52|269:59|298:89|339:90,1,385.000011749268,2|0,0:0|0:0,0:0:0:0:
419,75,3436,2,0,B|428:55|428:55|395:86,1,55.0000016784668,2|0,0:0|0:0,0:0:0:0:
239,190,3594,2,0,B|299:163|256:37|502:171|450:159|450:159|423:144|388:150,1,324.999985122681,2|0,0:0|0:0,0:0:0:0:
370,256,4068,2,0,B|157:306|257:132|135:135,1,275.000008392334,2|0,0:0|0:0,0:0:0:0:
52,122,4542,2,0,B|89:115|133:-9|57:93|67:132,1,134.999995880127,2|0,0:0|0:0,0:0:0:0:
89,197,4857,1,0,0:0:0:0:
0,263,5015,2,0,P|45:265|83:289,1,89.9999972534181,2|0,0:0|0:0,0:0:0:0:
151,354,5331,38,0,B|211:294|143:289|192:206|316:180|379:251|385:293|385:293|366:268|336:256|331:272|305:245|300:215,1,454.999979171754,4|0,0:0|0:0,0:0:0:0:
350,153,5963,2,0,P|349:145|355:157,1,55.0000016784668,2|0,0:0|0:0,0:0:0:0:
295,333,6121,2,0,B|338:347|335:359|348:376|380:385|380:385|304:364|270:309|268:253|302:212,1,324.999985122681,2|0,0:0|0:0,0:0:0:0:
385,294,6594,2,0,B|483:90|355:114|348:80|335:23,1,275.000008392334,2|0,0:0|0:0,0:0:0:0:
412,27,7068,2,0,B|427:85|365:239|389:56|294:121|234:263|334:288|347:136|300:24|232:193|252:48|289:-1,1,405.000001544952,2|0,0:0|0:0,0:0:0:0:
88,214,7857,6,0,B|50:148|108:147|100:87|42:21|-23:38|-23:38|16:45|44:75|29:83|58:113|99:114,1,385.000011749268,2|0,0:0|0:0,0:0:0:0:
179,98,8489,2,0,B|188:78|188:78|155:109,1,55.0000016784668,2|0,0:0|0:0,0:0:0:0:
10,271,8647,2,0,B|144:280|64:112|200:120|256:160|214:249|139:163,1,324.999985122681,2|0,0:0|0:0,0:0:0:0:
128,25,9121,37,8,0:3:0:0:
159,268,9279,5,8,3:3:0:0:
157,274,9357,1,8,3:3:0:0:
159,280,9436,1,4,3:3:0:0:
256,299,9594,37,4,3:3:0:0:
258,309,9672,1,4,3:3:0:0:
264,318,9751,1,0,3:3:0:0:
370,241,9910,5,8,3:3:0:0:
382,249,9988,1,8,3:3:0:0:
398,252,10067,37,4,3:3:0:0:
467,226,10147,1,4,3:3:0:0:
506,268,10226,1,0,3:0:0:0:
499,325,10305,1,0,3:0:0:0:
429,356,10384,6,0,B|373:335|343:271|398:267|371:199|317:180,1,225.000008583069,6|0,3:1|0:0,0:0:0:0:
256,64,10700,37,8,0:1:0:0:
294,255,10857,1,4,0:3:0:0:
76,147,11015,5,0,3:0:0:0:
67,145,11173,1,0,0:0:0:0:
113,368,11331,37,8,0:1:0:0:
125,296,11489,1,0,0:0:0:0:
229,179,11647,5,2,3:0:0:0:
238,177,11805,1,0,0:0:0:0:
188,356,11963,37,8,0:1:0:0:
58,143,12121,2,0,B|50:123|50:123|54:119|54:119|37:106,1,37.5000014305115,4|0,0:0|0:0,0:0:0:0:
56,321,12279,5,0,3:0:0:0:
133,126,12436,2,0,B|141:106|141:106|137:102|137:102|154:89,1,37.5000014305115,2|0,0:3|0:0,0:0:0:0:
234,294,12594,2,0,B|172:293|123:324|140:357|96:378,1,150.000005722046,8|0,0:1|0:0,0:0:0:0:
412,332,12910,38,0,B|427:344|435:359|435:359|385:320|310:303,1,175.00000166893,0|0,3:0|0:0,0:0:0:0:
255,103,13226,2,0,B|251:90|251:90|274:63|285:25|285:25|274:63|281:98|281:98|271:108,1,175.00000166893,8|0,0:1|0:0,0:0:0:0:
234,294,13542,6,0,P|251:250|301:226,1,87.500000834465,0|0,3:0|0:0,0:0:0:0:
391,54,13700,2,0,B|412:114|340:126|353:195,2,150.000005722046,0|8|0,0:0|0:1|0:0,0:0:0:0:
434,262,14173,38,0,L|430:240,1,12.5,2|0,3:0|0:0,0:0:0:0:
495,177,14331,2,0,L|501:134,1,25
255,103,14489,6,0,L|263:61,1,37.5000014305115,8|0,0:1|0:0,0:0:0:0:
195,0,14647,2,0,B|197:16|197:16|184:31|184:31|186:51,1,50,4|0,0:0|0:0,0:0:0:0:
86,153,14805,38,0,B|65:156|65:156|173:191|173:191|173:195|173:195|201:204,1,150.000005722046,0|2,3:0|0:3,0:0:0:0:
195,202,15042,1,4,0:3:0:0:
201,209,15121,6,0,B|207:235|207:235|194:262,1,50,8|0,0:1|0:0,0:0:0:0:
123,288,15279,2,0,B|100:282|100:282|84:260,1,50,2|0,0:0|0:0,0:0:0:0:
46,67,15436,38,0,B|112:68|156:136|112:140|144:200|199:208,1,225.000008583069,6|0,0:1|0:0,0:0:0:0:
187,335,15752,5,8,0:1:0:0:
255,103,15910,1,4,0:3:0:0:
422,334,16068,37,0,3:0:0:0:
431,336,16226,1,0,0:0:0:0:
385,113,16384,5,8,0:1:0:0:
373,185,16542,1,0,0:0:0:0:
269,302,16700,37,2,3:3:0:0:
260,304,16858,1,0,0:0:0:0:
385,113,17016,5,8,0:1:0:0:
431,336,17173,2,0,B|433:357|433:357|428:360|428:360|441:377,1,37.5000014305115,4|0,0:0|0:0,0:0:0:0:
442,160,17331,37,0,3:0:0:0:
363,274,17489,2,0,B|355:294|355:294|359:298|359:298|342:311,1,37.5000014305115,2|0,0:3|0:0,0:0:0:0:
251,111,17647,2,0,B|313:110|362:141|345:174|389:195,1,150.000005722046,8|0,0:1|0:0,0:0:0:0:
260,304,17963,6,0,B|245:316|237:331|237:331|287:292|362:275,1,175.00000166893,0|0,3:0|0:0,0:0:0:0:
486,66,18279,2,0,B|503:45|503:45|484:17|484:-12|484:-12|464:13|435:24|435:24|437:49,1,175.00000166893,8|0,0:1|0:0,0:0:0:0:
446,237,18594,38,0,P|463:189|455:144,1,87.500000834465,0|0,3:0|0:0,0:0:0:0:
334,45,18752,2,0,B|313:105|385:117|372:186,2,150.000005722046,0|8|0,0:0|0:1|0:0,0:0:0:0:
140,294,19226,6,0,P|144:263|138:232,1,37.5000014305115,4|0,3:0|0:0,0:0:0:0:
165,173,19384,2,0,P|189:191|219:201,1,50,8|0,0:3|0:0,0:0:0:0:
260,304,19542,2,0,P|231:315|207:336,1,62.5,8|0,0:1|0:0,0:0:0:0:
221,120,19700,37,6,3:1:0:0:
372,183,19857,5,0,3:2:0:0:
378,164,19936,1,0,3:2:0:0:
409,136,20015,37,0,3:0:0:0:
407,115,20094,1,0,3:3:0:0:
437,49,20173,6,0,B|457:45|512:-40|445:37|448:57,1,100,6|0,0:0|0:0,0:0:0:0:
374,282,20489,38,0,L|377:318,1,37.5000014305115,6|0,0:1|0:0,0:0:0:0:
453,332,20647,2,0,B|473:298|451:328|467:296,1,37.5000014305115,2|0,0:3|0:0,0:0:0:0:
487,188,20805,6,0,B|484:197|481:208|481:208|441:226|389:210|377:162,1,150.000005722046,8|2,0:1|0:3,0:0:0:0:
240,19,21121,38,0,B|243:28|243:28|229:59,1,37.5000014305115,0|0,3:0|0:0,0:0:0:0:
169,101,21279,2,0,B|166:110|166:110|191:136,1,37.5000014305115,2|0,0:3|0:0,0:0:0:0:
282,224,21436,6,0,B|284:197|284:197|312:163,1,50,8|0,3:1|0:0,0:0:0:0:
316,39,21594,2,0,L|324:115,1,62.5,2|0,0:3|0:0,0:0:0:0:
298,305,21752,38,0,B|279:270|243:251|192:251|192:251|205:258|212:267,1,150.000005722046,0|2,3:0|0:3,0:0:0:0:
357,356,22068,5,8,0:1:0:0:
364,356,22147,1,2,0:0:0:0:
360,362,22226,1,2,0:3:0:0:
377,162,22384,37,0,3:0:0:0:
465,298,22542,1,2,0:3:0:0:
211,350,22700,6,0,L|361:363,1,150.000005722046,8|2,0:1|0:3,0:0:0:0:
211,266,23015,2,0,B|102:272|135:332|71:342,1,150.000005722046,0|2,3:0|0:3,0:0:0:0:
2,152,23331,38,0,B|0:135|0:135|25:112,1,50,8|0,0:1|0:0,0:0:0:0:
103,98,23489,2,0,B|118:104|118:104|133:177,1,50,2|0,0:3|0:0,0:0:0:0:
99,213,23647,2,0,B|85:222|85:222|14:199,1,50,0|0,3:0|0:0,0:0:0:0:
24,112,23805,2,0,B|14:66|14:66|18:60|18:60|16:50,1,62.5,2|0,0:3|0:0,0:0:0:0:
211,98,23963,2,0,B|208:144|208:144|203:148|203:148|202:158,1,62.5,8|0,0:1|0:0,0:0:0:0:
256,273,24121,6,0,B|248:221|193:211|193:211|183:228|162:240,2,125,2|0|2,0:3|3:0|0:3,0:0:0:0:
216,349,24594,38,0,P|201:282|160:218,1,125,8|2,0:1|0:3,0:0:0:0:
325,142,24910,2,0,P|339:75|381:11,1,125,0|2,3:0|0:3,0:0:0:0:
411,308,25226,6,0,B|377:304|377:304|356:278,1,62.5,8|0,0:1|0:0,0:0:0:0:
378,204,25384,2,0,B|411:207|411:207|432:233,1,62.5,2|0,0:3|0:0,0:0:0:0:
489,322,25542,38,0,B|363:334|363:334|357:346|357:346|302:373,1,187.5,6|0,3:1|0:0,0:0:0:0:
216,349,25857,6,0,B|192:339|192:339|186:312,1,50,8|0,0:1|0:0,0:0:0:0:
149,247,26015,2,0,B|169:231|169:231|196:239,1,50,2|0,0:3|0:0,0:0:0:0:
271,239,26173,2,0,B|274:264|274:264|253:283,1,50,0|0,3:0|0:0,0:0:0:0:
114,141,26331,2,0,L|125:80,1,62.5,2|0,0:3|0:0,0:0:0:0:
202,94,26489,2,0,L|191:155,1,62.5,8|0,0:1|0:0,0:0:0:0:
25,291,26647,2,0,B|12:332|45:368|88:370|88:370|96:356|110:347,1,150.000005722046,2|0,0:3|3:0,0:0:0:0:
345,233,26963,38,0,L|265:239,1,75.0000028610231,2|0,0:3|0:0,0:0:0:0:
149,247,27121,1,8,0:1:0:0:
306,338,27279,6,0,B|297:338|297:338|279:311,1,37.5000014305115,2|0,0:3|0:0,0:0:0:0:
270,238,27436,2,0,B|265:230|265:230|279:202,1,37.5000014305115,0|0,3:0|0:0,0:0:0:0:
335,160,27594,2,0,B|338:152|338:152|370:150,1,37.5000014305115,2|0,0:3|0:0,0:0:0:0:
488,322,27752,38,0,L|506:223,1,100,8|6,0:1|0:3,0:0:0:0:
425,55,28068,2,0,P|490:125|468:52,1,225.000008583069,0|0,3:0|0:0,0:0:0:0:
483,8,28384,5,8,0:1:0:0:
479,3,28542,1,2,0:3:0:0:
335,160,28700,2,0,B|330:114|297:88|289:106|250:96|235:54,1,150.000005722046,0|2,3:0|0:3,0:0:0:0:
130,230,29015,2,0,P|168:134|148:50,1,150.000005722046,8|2,0:1|0:3,0:0:0:0:
63,268,29331,2,0,B|59:256|51:246|51:246|133:226|196:284,1,175.00000166893,0|2,3:0|0:3,0:0:0:0:
309,381,29647,37,8,3:1:0:0:
339,384,29725,1,0,3:0:0:0:
365,378,29804,1,2,3:3:0:0:
395,360,29883,1,0,3:0:0:0:
424,292,29963,6,0,B|442:191|315:114|259:187|278:262|333:274,1,300,12|0,0:1|0:0,0:0:0:0:
512,316,30279,2,0,B|338:287|366:379|298:383,1,225.000008583069,12|0,0:1|0:0,0:0:0:0:
80,165,30594,38,0,B|75:135|94:115|94:115|101:143|84:162,1,100,6|2,3:1|0:3,0:0:0:0:
25,328,30910,6,0,B|-26:424|-35:360|36:321|92:315|143:348,1,225.000008583069,8|0,0:1|0:0,0:0:0:0:
258,177,31226,38,0,B|261:186|261:186|247:217,1,37.5000014305115,0|0,3:0|0:0,0:0:0:0:
187,263,31384,2,0,B|184:272|184:272|204:298,1,37.5000014305115,2|0,0:3|0:0,0:0:0:0:
311,380,31542,6,0,B|313:353|313:353|341:319,1,50,8|0,0:1|0:0,0:0:0:0:
341,195,31700,2,0,L|349:271,1,62.5,2|0,0:3|0:0,0:0:0:0:
141,347,31857,38,0,B|132:352|124:364|124:364|128:314|150:279|187:263,1,150.000005722046,0|2,3:0|0:3,0:0:0:0:
220,368,32173,5,8,0:1:0:0:
218,374,32252,1,2,0:2:0:0:
211,374,32331,1,2,0:3:0:0:
275,281,32489,1,0,3:0:0:0:
249,211,32647,1,2,0:3:0:0:
477,321,32805,38,0,L|328:336,1,150.000005722046,8|2,0:1|0:3,0:0:0:0:
173,179,33121,2,0,B|276:213|229:262|288:288,1,150.000005722046,0|2,3:0|0:3,0:0:0:0:
363,55,33436,6,0,B|352:60|352:60|345:87|345:87|349:101,1,50,8|0,3:1|0:0,0:0:0:0:
347,176,33594,2,0,B|356:180|356:180|383:174|383:174|393:162,1,50,2|0,0:3|0:0,0:0:0:0:
461,129,33752,2,0,B|461:116|461:116|440:97|440:97|426:94,1,50,0|0,3:0|0:0,0:0:0:0:
347,176,33910,2,0,L|363:252,1,62.5,2|0,0:3|0:0,0:0:0:0:
263,86,34068,2,0,L|278:26,1,62.5,8|0,0:1|0:0,0:0:0:0:
121,255,34226,38,0,B|102:206|144:170|144:170|159:178|173:179,2,125,2|0|2,0:3|3:0|0:3,0:0:0:0:
392,166,34700,6,0,P|406:99|448:35,1,125,8|2,0:1|0:3,0:0:0:0:
282,337,35015,2,0,P|267:270|226:206,1,125,0|2,3:0|0:3,0:0:0:0:
57,44,35331,38,0,B|67:17|67:17|97:3,1,62.5,8|0,0:1|0:0,0:0:0:0:
142,68,35489,2,0,B|133:95|133:95|103:111,1,62.5,2|0,0:3|0:0,0:0:0:0:
0,125,35647,6,0,B|124:147|124:147|129:160|129:160|181:192,1,187.5,6|0,3:1|0:0,0:0:0:0:
250,151,35963,38,0,B|271:124|271:124|274:126|274:126|285:114,1,50,8|0,0:1|0:0,0:0:0:0:
364,58,36121,2,0,B|330:51|330:51|330:47|330:47|314:45,1,50,2|0,0:3|0:0,0:0:0:0:
229,5,36279,2,0,B|241:35|241:35|237:38|237:38|242:53,1,50,0|0,3:0|0:0,0:0:0:0:
398,223,36436,2,0,L|382:163,1,62.5,2|0,0:3|0:0,0:0:0:0:
468,86,36594,2,0,L|459:149,1,62.5,8|0,0:1|0:0,0:0:0:0:
459,356,36752,2,0,B|445:365|437:379|437:379|394:377|361:341|374:300,1,150.000005722046,2|0,0:3|3:0,0:0:0:0:
169,184,37068,6,0,L|175:264,1,75.0000028610231,2|0,0:3|0:0,0:0:0:0:
183,380,37226,1,8,0:1:0:0:
98,249,37384,38,0,B|80:217|104:241|84:205,1,37.5000014305115,2|0,0:3|0:0,0:0:0:0:
161,180,37542,2,0,B|161:143|170:176|170:134,1,37.5000014305115,0|0,3:0|0:0,0:0:0:0:
250,151,37700,2,0,B|268:119|259:152|281:116,1,37.5000014305115,2|0,0:3|0:0,0:0:0:0:
374,299,37857,6,0,B|301:309|301:309|294:320|282:327,1,100,8|2,0:1|0:3,0:0:0:0:
275,325,38094,1,2,0:0:0:0:
268,323,38173,37,6,3:1:0:0:
310,203,38331,1,6,0:3:0:0:
459,356,38489,5,8,0:1:0:0:
381,162,38647,1,2,0:3:0:0:
338,382,38805,37,0,3:0:0:0:
452,121,38963,1,6,0:3:0:0:
268,323,39121,6,0,P|259:280|243:240,1,75.0000028610231,12|0,0:1|0:0,0:0:0:0:
60,152,39279,37,10,3:0:0:0:
53,159,39357,1,4,0:3:0:0:
51,168,39436,5,6,3:1:0:0:
64,208,39514,1,0,3:0:0:0:
92,243,39593,1,2,3:3:0:0:
133,259,39672,1,0,3:0:0:0:
174,258,39752,37,0,3:3:0:0:
187,188,39830,1,0,3:3:0:0:
158,122,39910,1,2,3:3:0:0:
171,52,39989,1,0,3:3:0:0:
239,24,40068,6,0,L|243:0,6,25,0|0|0|0|2|0|0,3:0|3:0|3:0|3:0|3:0|3:0|3:0,3:0:0:0:
171,52,40384,38,0,L|163:34,12,12.5,0|0|0|0|0|0|0|0|2|0|0|0|0,3:0|3:0|3:0|3:0|3:0|3:0|3:0|3:0|3:0|3:0|3:0|3:0|3:0,3:0:0:0:
273,119,40700,6,0,P|262:155|256:192,1,75,4|0,3:2|0:0,0:0:0:0:
318,232,41015,2,0,P|327:244|332:260,1,29.9999990844727,2|0,0:0|0:0,0:0:0:0:
265,293,41173,2,0,P|255:280|251:265,1,29.9999990844727,2|0,0:0|0:0,0:0:0:0:
341,258,41489,38,0,P|347:243|358:231,1,29.9999990844727,2|0,0:0|0:0,0:0:0:0:
241,266,41805,2,0,L|227:363,1,89.9999972534181,2|0,0:0|0:0,0:0:0:0:
129,156,42121,6,0,P|122:141|111:129,1,29.9999990844727,2|0,0:0|0:0,0:0:0:0:
74,281,42436,2,0,B|92:276|110:256|102:252|121:230|148:228,2,89.9999972534181,2|0|0,0:0|0:0|0:0,0:0:0:0:
43,211,42910,37,8,0:1:0:0:
34,207,43068,1,2,0:0:0:0:
146,371,43226,6,0,P|156:320|170:296,1,75.0000028610231,4|0,3:2|0:0,0:0:0:0:
314,250,43542,2,0,B|320:256|320:256|321:290,1,29.9999990844727,2|0,0:0|0:0,0:0:0:0:
247,293,43700,2,0,B|241:287|241:287|240:253,1,29.9999990844727,2|0,0:0|0:0,0:0:0:0:
394,298,44015,38,0,P|400:283|411:271,1,29.9999990844727,2|0,0:0|0:0,0:0:0:0:
512,384,44331,2,0,L|414:370,1,89.9999972534181,2|0,0:0|0:0,0:0:0:0:
376,200,44647,6,0,P|369:185|358:173,1,29.9999990844727,2|0,0:0|0:0,0:0:0:0:
201,102,44963,2,0,B|178:104|160:125|167:130|154:148|130:156,1,89.9999972534181,2|0,0:0|0:0,0:0:0:0:
12,96,45279,38,0,L|16:66,1,29.9999990844727,0|0,3:0|0:0,0:0:0:0:
81,30,45436,2,0,L|102:86,1,59.9999981689454,8|0,0:1|0:0,0:0:0:0:
10,104,45594,2,0,L|0:147,1,44.999998626709,2|0,3:0|0:0,0:0:0:0:
28,355,45752,6,0,B|99:320|75:276|139:268,1,135.000000514984,4|2,3:1|0:3,0:0:0:0:
283,186,46068,38,0,P|251:281|248:382,1,202.500000772476,8|0,0:1|0:0,0:0:0:0:
350,229,46384,2,0,B|360:231|371:240|371:240|366:227|350:223,1,50,0|0,3:0|0:0,0:0:0:0:
144,163,46542,1,2,0:3:0:0:
201,102,46700,6,0,P|232:197|235:298,1,202.500000772476,8|0,0:1|0:0,0:0:0:0:
351,142,47015,2,0,B|355:130|365:119|365:119|346:76|358:35|358:35|335:70|289:85|289:85|288:99|283:114,1,225.000008583069,0|0,3:0|0:0,0:0:0:0:
283,186,47331,37,8,0:1:0:0:
129,82,47489,6,0,L|149:-4,1,75.0000028610231,2|0,0:3|0:0,0:0:0:0:
226,6,47647,2,0,L|233:38,1,25,0|0,3:0|0:0,0:0:0:0:
292,72,47805,2,0,L|281:121,1,37.5000014305115,2|0,0:3|0:0,0:0:0:0:
144,163,47963,38,0,B|172:165|172:165|178:173|178:173|191:178,1,50,8|0,0:1|0:0,0:0:0:0:
350,229,48121,2,0,B|321:231|321:231|315:239|315:239|302:244,1,50,2|0,0:3|0:0,0:0:0:0:
102,366,48279,6,0,L|78:263,1,75.0000028610231,6|0,3:2|0:0,0:0:0:0:
16,149,48436,38,0,L|11:166,1,18.7500007152558,2|0,3:3|0:0,0:0:0:0:
11,143,48515,2,0,L|7:161,1,18.7500007152558,2|0,3:2|0:0,0:0:0:0:
67,96,48594,5,8,0:1:0:0:
91,101,48673,1,0,3:0:0:0:
117,124,48752,1,2,3:3:0:0:
118,154,48831,1,2,3:2:0:0:
169,210,48910,38,0,L|167:226,1,11.2499996566773,4|0,3:0|0:0,0:0:0:0:
242,223,48989,6,0,L|240:239,1,13.7500004196167,2|0,3:2|0:0,0:0:0:0:
315,236,49068,38,0,L|313:252,1,16.2499992561341,2|0,3:0|0:0,0:0:0:0:
388,249,49147,6,0,L|386:268,1,20,2|0,3:2|0:0,0:0:0:0:
461,262,49226,38,0,L|459:282,1,20,12|2,0:1|2:0,0:0:0:0:
501,346,49542,5,4,3:2:0:0:
313,252,49700,1,2,3:0:0:0:
491,155,49857,1,8,3:1:0:0:
341,8,50015,1,2,3:0:0:0:
480,321,50173,38,0,L|503:326,6,25,0|0|0|0|2|0|0,3:0|3:0|3:0|3:0|3:0|3:0|3:0,3:0:0:0:
407,336,50489,6,0,L|389:340,12,12.5,0|0|0|0|0|0|0|0|2|0|0|0|0,3:0|3:0|3:0|3:0|3:0|3:0|3:0|3:0|3:0|3:0|3:0|3:0|3:0,3:0:0:0:
382,241,50805,38,0,P|417:228|456:225,1,75,4|0,3:2|0:0,0:0:0:0:
490,294,51121,2,0,P|488:308|480:323,1,29.9999990844727,2|0,0:0|0:0,0:0:0:0:
407,336,51279,2,0,P|393:327|383:314,1,29.9999990844727,2|0,0:0|0:0,0:0:0:0:
320,194,51594,6,0,P|310:182|296:172,1,29.9999990844727,2|0,0:0|0:0,0:0:0:0:
390,76,51910,2,0,L|295:94,1,89.9999972534181,2|0,0:0|0:0,0:0:0:0:
491,155,52226,38,0,P|494:140|503:126,1,29.9999990844727,2|0,0:0|0:0,0:0:0:0:
302,94,52542,2,0,B|298:75|298:75|282:59|282:59|277:61|277:61|259:44|259:44|258:23,1,89.9999972534181,2|0,0:0|0:0,0:0:0:0:
441,20,52857,5,0,3:0:0:0:
341,8,53015,1,8,0:1:0:0:
383,68,53173,1,2,0:0:0:0:
251,194,53331,38,0,P|241:143|227:119,1,75.0000028610231,4|0,3:2|0:0,0:0:0:0:
153,187,53647,2,0,P|155:172|162:157,1,29.9999990844727,2|0,0:0|0:0,0:0:0:0:
60,188,53805,2,0,P|71:197|80:211,1,29.9999990844727,2|0,0:0|0:0,0:0:0:0:
144,291,54121,6,0,L|137:262,1,29.9999990844727,2|0,0:0|0:0,0:0:0:0:
209,357,54437,2,0,L|234:268,1,89.9999972534181,2|0,0:0|0:0,0:0:0:0:
382,241,54752,38,0,L|416:250,1,29.9999990844727,2|0,0:0|0:0,0:0:0:0:
144,291,55068,2,0,B|120:292|101:314|109:318|91:338|73:343,1,89.9999972534181,2|0,0:0|0:0,0:0:0:0:
13,133,55384,6,0,P|10:111|37:79,1,44.999998626709,2|0,3:0|0:0,0:0:0:0:
84,54,55542,2,0,P|103:58|124:95,1,59.9999981689454,8|0,0:1|0:0,0:0:0:0:
124,165,55700,2,0,P|107:183|58:187,1,75.0000028610231,2|0,0:3|0:0,0:0:0:0:
256,0,55857,38,0,P|288:43|304:139,1,129.999994049073,4|2,3:1|0:3,0:0:0:0:
381,143,56094,5,2,0:0:0:0:
390,139,56173,2,0,P|415:79|461:34,1,129.999994049073,8|2,0:1|0:3,0:0:0:0:
488,180,56489,2,0,B|390:176|406:204|370:220,1,129.999994049073,0|2,3:0|0:3,0:0:0:0:
364,6,56805,37,8,0:1:0:0:
460,34,56963,1,2,0:3:0:0:
260,197,57121,6,0,P|292:240|308:336,1,129.999994049073,0|2,3:0|0:3,0:0:0:0:
385,340,57358,37,2,0:0:0:0:
394,336,57436,1,8,0:1:0:0:
369,220,57594,6,0,B|349:192|405:152|405:220|369:220,1,80,2|0,0:3|0:0,0:0:0:0:
237,350,57752,1,0,3:0:0:0:
219,274,57910,1,2,0:3:0:0:
305,116,58068,38,0,P|250:153|182:158,1,129.999994049073,8|2,0:1|0:3,0:0:0:0:
16,64,58384,2,0,B|16:50|9:36|9:36|73:35|102:78|102:128,1,160,0|2,3:0|0:3,0:0:0:0:
47,295,58700,6,0,B|34:331|27:318|12:331|0:356|0:356|7:314|24:298|43:289,1,160,8|2,0:1|0:3,0:0:0:0:
245,214,59015,38,0,B|255:205|255:205|256:198|256:198|269:193,1,34.9999989318848,0|0,3:3|0:0,0:0:0:0:
187,158,59173,2,0,B|194:140|194:140|190:130|190:130|203:114,1,50,2|0,0:3|0:0,0:0:0:0:
100,110,59331,6,0,B|96:132|96:132|107:142|107:142|111:169,1,64.9999970245363,8|0,0:1|0:0,0:0:0:0:
36,183,59489,1,2,0:3:0:0:
47,295,59647,38,0,P|118:314|128:384,1,150,0|0,3:3|0:0,0:0:0:0:
164,231,59963,2,0,P|86:279|59:367,1,187.5,8|0,0:1|0:0,0:0:0:0:
202,114,60279,6,0,P|286:187|393:216,1,225.000008583069,0|0,3:0|0:0,0:0:0:0:
266,69,60594,2,0,P|246:198|239:329,1,262.500002503395,8|2,0:1|0:0,0:0:0:0:
311,384,60910,37,4,3:2:0:0:
393,216,61068,1,2,3:0:0:0:
195,36,61226,5,8,3:1:0:0:
314,0,61384,1,2,3:0:0:0:
164,231,61542,37,0,3:0:0:0:
202,114,61700,1,2,3:0:0:0:
311,384,61857,5,8,3:1:0:0:
465,115,62015,1,2,3:0:0:0:
465,115,62094,1,0,3:0:0:0:
465,115,62173,38,0,L|462:132,1,12.5,4|0,3:0|0:0,0:0:0:0:
390,191,62331,6,0,L|392:215,1,25,2|0,3:0|0:0,0:0:0:0:
473,328,62489,38,0,L|466:366,1,37.5000014305115,8|0,3:1|0:0,0:0:0:0:
238,329,62647,6,0,L|213:333,1,25,2|0,3:2|0:0,0:0:0:0:
213,332,62963,38,0,P|203:320|218:330,1,50,0|0,3:0|0:0,0:0:0:0:
315,344,63121,38,0,B|315:356|304:374|304:374|314:357|327:351,1,64.9999970245363,6|0,0:0|0:0,0:0:0:0:
473,328,63279,22,0,L|481:289,1,32.4999985122681,2|0,0:0|0:0,0:0:0:0:
465,115,63436,6,0,B|361:91|361:91|357:95|357:95|249:75|249:75|273:147,1,292.500001115799,6|0,3:1|0:0,0:0:0:0:
499,43,63752,6,0,L|514:10,1,32.4999985122681,8|0,0:1|0:0,0:0:0:0:
273,215,63910,2,0,B|275:200|284:191|284:191|273:152,1,64.9999970245363,4|0,0:3|0:0,0:0:0:0:
177,39,64068,1,8,3:3:0:0:
346,242,64226,38,0,B|416:264|404:200|460:196,1,129.999994049073,2|0,0:3|0:0,0:0:0:0:
458,196,64384,6,0,P|455:219|453:195,1,64.9999970245363,8|0,0:1|0:0,0:0:0:0:
355,384,64542,2,0,P|313:261|267:206,1,195.000000743866,2|0,0:3|3:0,0:0:0:0:
87,104,64857,38,0,B|106:71|106:71|89:130,1,97.500000371933,2|0,0:3|0:0,0:0:0:0:
47,320,65015,5,8,0:1:0:0:
41,325,65173,2,0,L|30:285,1,32.4999985122681,8|0,0:3|0:0,0:0:0:0:
67,211,65331,37,4,3:0:0:0:
91,384,65489,1,4,0:3:0:0:
272,211,65647,6,0,B|300:211|329:224|329:224|256:223|192:259,1,195.000000743866,8|0,0:1|0:0,0:0:0:0:
0,93,65963,38,0,B|26:13|54:107|81:-52|145:-106|150:-23|54:107|143:63|102:137,1,320,0|8,3:0|0:1,0:0:0:0:
198,255,66436,6,0,B|154:270|171:291|144:303,1,64.9999970245363,4|0,0:3|0:0,0:0:0:0:
41,325,66594,2,0,B|84:340|67:361|94:373,1,64.9999970245363,8|0,3:3|0:0,0:0:0:0:
198,255,66752,38,0,B|204:192|204:192|220:176|220:176|216:172|216:172|220:128,1,129.999994049073,2|8,0:3|0:1,0:0:0:0:
307,351,67068,2,0,B|313:288|313:288|325:268|325:268|329:224,1,129.999994049073,2|0,0:3|3:0,0:0:0:0:
475,63,67384,6,0,B|468:90|468:90|418:111,1,80,2|0,0:3|0:0,0:0:0:0:
335,140,67542,1,8,0:1:0:0:
396,0,67700,38,0,L|401:42,1,32.4999985122681,10|0,0:3|0:0,0:0:0:0:
508,194,67857,2,0,B|489:178|484:157|484:157|316:137,1,195.000000743866,4|4,3:3|0:3,0:0:0:0:
152,97,68173,6,0,P|164:11|217:64,1,195.000000743866,8|0,0:1|0:0,0:0:0:0:
73,349,68489,38,0,B|53:345|27:354|27:354|213:279|213:279|215:304|232:321,1,292.500001115799,6|0,3:1|0:0,0:0:0:0:
50,261,68805,6,0,L|38:222,1,32.4999985122681,8|0,0:1|0:0,0:0:0:0:
248,141,68963,2,0,L|231:213,1,64.9999970245363,4|0,0:3|0:0,0:0:0:0:
304,342,69121,1,8,3:3:0:0:
507,193,69279,38,0,B|405:197|426:243|392:253,1,129.999994049073,2|0,0:3|0:0,0:0:0:0:
313,211,69437,6,0,P|329:194|321:215,1,64.9999970245363,8|0,0:1|0:0,0:0:0:0:
396,384,69594,2,0,P|354:261|308:206,1,195.000000743866,2|0,0:3|3:0,0:0:0:0:
288,14,69910,38,0,B|307:-19|307:-19|290:40,1,97.500000371933,10|0,0:3|0:0,0:0:0:0:
233,204,70068,5,8,0:1:0:0:
226,201,70226,2,0,L|215:161,1,32.4999985122681,8|0,0:3|0:0,0:0:0:0:
231,91,70384,37,4,3:3:0:0:
147,209,70542,1,4,0:3:0:0:
430,41,70700,6,0,B|458:41|487:54|487:54|414:53|350:89,1,195.000000743866,8|0,0:1|0:0,0:0:0:0:
251,279,71015,38,0,B|265:291|270:313|270:313|282:296|306:289,1,80,0|0,3:0|0:0,0:0:0:0:
449,261,71173,2,0,B|435:249|430:227|430:227|418:244|394:251,1,80,2|0,0:3|0:0,0:0:0:0:
331,363,71331,5,8,0:1:0:0:
299,185,71489,2,0,B|283:312|453:236|402:391,1,240,4|0,0:3|0:0,0:0:0:0:
445,154,71805,2,0,P|405:156|373:178,1,80,2|0,0:3|0:0,0:0:0:0:
200,330,71963,37,8,0:1:0:0:
194,336,72042,1,2,0:0:0:0:
200,342,72121,1,2,0:3:0:0:
85,53,72279,6,0,B|59:53|37:78|37:78|55:39|107:10|176:31|202:82|165:94|180:138|220:156,1,320,6|8,0:1|0:1,0:0:0:0:
121,317,72752,37,2,3:3:0:0:
87,302,72831,1,2,3:2:0:0:
53,287,72910,2,0,P|67:257|112:235,1,80,4|4,3:3|3:0,0:0:0:0:
180,257,73068,2,0,P|200:285|197:334,1,80,6|4,3:3|3:0,0:0:0:0:
283,115,73226,5,8,3:1:0:0:
299,185,73305,1,8,3:0:0:0:
286,211,73384,1,2,3:3:0:0:
270,214,73463,1,8,3:0:0:0:
266,223,73542,1,0,3:0:0:0:
58,62,73700,37,6,3:0:0:0:
50,65,73778,1,4,3:0:0:0:
46,72,73857,6,0,B|106:64|95:98|133:105,1,89.9999972534181,6|0,3:1|0:0,0:0:0:0:
193,20,74015,2,0,B|229:69|194:76|207:112,1,69.9999978637696,6|0,0:3|0:0,0:0:0:0:
298,69,74173,2,0,B|303:114|277:106|272:134,1,50,10|0,0:3|0:0,0:0:0:0:
59,286,74331,6,0,P|44:213|6:163,1,129.999994049073,2|0,3:1|0:0,0:0:0:0:
133,224,74647,2,0,P|193:131|207:37,1,160,2|0,3:1|0:0,0:0:0:0:
229,232,74963,2,0,P|337:209|413:152,1,189.999994926453,2|0,3:1|0:0,0:0:0:0:
401,165,75279,6,0,L|405:252,1,64.9999970245363,10|0,0:1|0:0,0:0:0:0:
410,343,75436,2,0,L|412:386,1,32.4999985122681,2|0,3:0|0:0,0:0:0:0:
425,383,75594,38,0,B|434:365|434:365|409:310|409:310|382:299,1,97.500000371933,8|8,3:3|3:3,0:0:0:0:
266,130,75752,5,4,3:3:0:0:
260,151,75831,1,4,3:3:0:0:
271,204,75910,1,0,3:0:0:0:
331,243,75989,1,0,3:0:0:0:
403,229,76068,6,0,B|374:185|390:137|423:160|393:60|302:51|302:51|330:71|336:106,1,292.500001115799,6|0,3:1|0:0,0:0:0:0:
474,185,76384,6,0,L|510:190,1,34.9999989318848,8|4,0:1|0:3,0:0:0:0:
121,94,76700,38,0,B|132:69|132:69|123:114,1,64.9999970245363,8|0,3:3|0:0,0:0:0:0:
90,253,76857,2,0,B|148:247|148:247|157:257|157:257|190:253,1,97.500000371933,2|0,0:3|0:0,0:0:0:0:
403,229,77015,5,8,0:1:0:0:
153,364,77173,2,0,B|131:322|166:291|166:291|188:268|180:238,1,122.500001168251,2|0,0:3|0:0,0:0:0:0:
178,174,77331,38,0,L|212:168,1,32.4999985122681,0|0,3:0|0:0,0:0:0:0:
63,333,77489,2,0,B|137:331|129:359|161:367,1,97.500000371933,2|0,0:3|0:0,0:0:0:0:
300,201,77647,6,0,B|292:191|288:179|288:179|276:343,1,122.500001168251,8|0,0:1|0:0,0:0:0:0:
270,356,77805,2,0,L|249:359,1,12.5,10|0,0:3|0:0,0:0:0:0:
81,219,77963,38,0,B|39:40|134:73|139:3,1,225.000008583069,4|4,3:0|0:3,0:0:0:0:
83,226,78279,2,0,B|98:249|49:278|11:217|61:115|151:159|156:220|113:260|261:206|293:123|261:32|147:50|134:150|247:188,1,389.999982147218,8|0,0:1|0:0,0:0:0:0:
344,328,78594,6,0,B|401:212|289:167|319:81,1,240,6|0,3:1|0:0,0:0:0:0:
427,109,78910,38,0,L|449:116,1,20,8|0,0:1|0:0,0:0:0:0:
280,276,79068,2,0,L|251:284,1,29.9999990844727,4|0,0:3|0:0,0:0:0:0:
314,99,79226,5,8,3:3:0:0:
412,367,79384,2,0,B|435:360|434:332|491:330,1,89.9999972534181,2|0,0:3|0:0,0:0:0:0:
446,115,79542,38,0,P|457:160|426:204,1,97.500000371933,8|0,0:1|0:0,0:0:0:0:
270,372,79700,2,0,L|247:260,1,89.9999972534181,2|0,0:3|0:0,0:0:0:0:
45,180,79857,5,4,3:1:0:0:
49,137,79935,1,0,3:0:0:0:
82,108,80014,1,0,3:0:0:0:
126,107,80093,1,0,3:0:0:0:
160,132,80173,37,8,3:1:0:0:
209,125,80251,1,0,3:0:0:0:
238,85,80330,1,8,3:0:0:0:
237,35,80409,1,0,3:0:0:0:
204,0,80489,5,4,3:3:0:0:
220,52,80567,1,4,3:3:0:0:
260,92,80646,1,4,3:3:0:0:
312,110,80725,1,4,3:3:0:0:
367,102,80805,37,8,3:3:0:0:
434,128,80884,1,8,3:3:0:0:
475,190,80963,1,8,3:3:0:0:
471,264,81042,1,8,3:3:0:0:
411,306,81121,21,6,3:2:0:0:
424,57,81279,1,2,0:0:0:0:
393,217,81436,1,2,0:3:0:0:
505,14,81594,6,0,L|497:39,1,22.4999993133545,4|0,3:2|0:0,0:0:0:0:
411,306,81910,38,0,L|391:206,1,89.9999972534181,2|0,0:0|0:0,0:0:0:0:
237,35,82068,6,0,B|239:14|231:-6|231:-6|286:43|286:43|296:43|296:43|341:82|341:82|320:118|272:122|272:122|232:155|240:203|250:195|263:224|258:273|224:294|224:294|200:271|167:267|167:267|164:215|120:163|120:163|137:180|161:183|161:183|176:222|209:230,1,750,4|0,3:2|0:0,0:0:0:0:
127,333,83331,37,8,3:3:0:0:
105,339,83410,1,8,3:3:0:0:
80,326,83489,1,4,3:3:0:0:
73,305,83568,1,4,3:3:0:0:
80,234,83647,5,4,3:2:0:0:
7,344,83805,1,2,0:0:0:0:
241,368,83963,38,0,P|238:331|227:282,1,69.9999978637696,2|0,0:0|0:0,0:0:0:0:
170,111,84121,6,0,B|259:124|255:228|230:210|163:212|151:276,1,240,4|0,3:2|0:0,0:0:0:0:
323,350,84436,38,0,P|324:304|344:258,1,89.9999972534181,2|0,0:0|0:0,0:0:0:0:
431,72,84594,6,0,B|459:88|463:80|489:70|515:88|515:88|459:47|390:106|390:106|390:110|390:110|386:110|386:110|342:146|390:162|371:242|328:171|288:219|278:260|278:260|259:230|217:219|217:219|216:213|216:213|171:183|171:183|224:183|224:183|229:179|229:179|264:196|298:185|298:185|345:202|345:202|366:208|366:208|369:212|369:212|374:210|374:210|399:218|399:218|404:244|415:265|434:257|426:310|426:310|455:316|471:332|471:332|489:315|528:317|528:317|490:307|475:286|475:286|451:296|429:292|429:292|392:284|358:306|363:312|351:339|318:351,1,1253.9999961731,4|0,3:2|0:0,0:0:0:0:
241,368,86173,37,4,3:2:0:0:
272,106,86489,1,0,3:0:0:0:
419,384,86805,1,0,3:0:0:0:
499,112,87121,1,0,3:0:0:0:
319,350,87436,1,0,3:0:0:0:
272,106,87752,1,0,3:0:0:0:
0,384,88068,5,8,3:3:0:0:
2,361,88147,1,8,3:3:0:0:
28,325,88226,1,8,3:3:0:0:
90,292,88305,1,8,3:3:0:0:
116,221,88384,1,4,3:3:0:0:
111,218,88463,38,0,B|113:208|120:197|120:197|73:105|76:208|76:208|89:213|96:222,1,160,4|4,3:3|3:3,0:0:0:0:
261,382,88700,5,4,3:1:0:0:
275,306,88857,38,0,B|279:290|266:294|265:278,1,20,2|0,0:0|0:0,0:0:0:0:
331,241,89015,2,0,B|342:229|329:226|336:211,1,29.9999990844727,2|0,0:0|0:0,0:0:0:0:
410,220,89173,2,0,B|427:209|412:201|426:186,1,40,0|0,3:0|0:0,0:0:0:0:
185,178,89331,6,0,B|191:153|170:159|169:133,1,50,8|0,0:1|0:0,0:0:0:0:
192,57,89489,2,0,B|209:74|215:54|238:65,1,50,2|0,0:0|0:0,0:0:0:0:
294,123,89647,2,0,B|269:129|284:144|263:158,1,50,2|0,0:0|0:0,0:0:0:0:
185,178,89805,38,0,B|117:223|165:260|117:301,1,139.999995727539,2|2,0:0|3:2,0:0:0:0:
346,64,90121,6,0,B|351:68|349:74|353:77,1,17.4999994659424,2|0,0:0|0:0,0:0:0:0:
369,63,90200,2,0,B|368:69|363:72|363:78,1,17.4999994659424,2|0,0:0|0:0,0:0:0:0:
436,95,90279,2,0,B|440:101|438:107|442:110,2,17.4999994659424,2|0|2,0:0|0:0|0:0,0:0:0:0:
475,28,90436,38,0,B|473:49|451:49|437:86,1,69.9999978637696,2|0,3:2|0:0,0:0:0:0:
262,158,90594,6,0,B|259:145|267:139|260:124,1,34.9999989318848,8|0,0:1|0:0,0:0:0:0:
285,0,90752,2,0,B|284:26|271:22|268:47,1,50,2|0,0:0|0:0,0:0:0:0:
123,97,90910,38,0,B|136:106|129:112|141:123,1,25,2|0,0:0|0:0,0:0:0:0:
259,123,91068,2,0,B|191:132|215:162|178:181,1,100,0|2,0:0|3:2,0:0:0:0:
426,185,91384,6,0,B|430:195|417:189|420:200,1,18.7500007152558,2|0,0:0|0:0,0:0:0:0:
431,189,91463,2,0,B|435:199|422:193|425:204,1,18.7500007152558,2|0,0:0|0:0,0:0:0:0:
438,202,91542,38,0,B|470:233|444:259|465:283,1,75.0000028610231,2|0,0:0|0:0,0:0:0:0:
458,271,91700,2,0,B|472:228|506:240|519:210,1,75.0000028610231,0|0,3:0|0:0,0:0:0:0:
312,299,91857,6,0,B|311:267|295:274|287:241,1,50,8|0,0:1|0:0,0:0:0:0:
319,186,92015,2,0,B|335:157|317:155|327:123,1,37.5000014305115,2|0,0:0|0:0,0:0:0:0:
257,122,92173,2,0,B|257:105|249:109|245:92,1,25,2|0,0:0|0:0,0:0:0:0:
312,299,92331,38,0,B|344:300|337:316|370:324,1,37.5000014305115,2|0,0:0|0:0,0:0:0:0:
452,373,92489,2,0,B|451:341|435:348|427:315,1,50,2|0,3:2|0:0,0:0:0:0:
420,200,92647,6,0,B|408:215|425:222|403:246,1,50,8|0,0:1|0:0,0:0:0:0:
220,357,92805,38,0,B|219:344|212:340|213:325,1,25,2|0,0:0|0:0,0:0:0:0:
139,321,92963,6,0,B|139:308|146:304|145:289,1,25,2|8,3:2|0:1,0:0:0:0:
144,296,93279,38,0,B|133:294|143:259|132:258,1,37.5000014305115,2|0,0:0|0:0,0:0:0:0:
58,259,93436,2,0,B|126:253|123:290|148:298,1,100,2|0,0:0|0:0,0:0:0:0:
284,155,93752,6,0,B|295:111|318:121|336:87,1,75.0000028610231,4|0,3:1|0:0,0:0:0:0:
356,11,93910,2,0,B|312:22|309:-2|271:0,1,75.0000028610231,2|0,0:0|0:0,0:0:0:0:
196,21,94068,38,0,B|228:52|207:67|228:99,1,75.0000028610231,2|2,0:0|3:2,0:0:0:0:
402,266,94384,6,0,B|406:247|423:233|422:239|438:226|446:205,1,75.0000028610231,8|0,0:1|0:0,0:0:0:0:
445,206,94542,38,0,B|435:312|499:286|496:333,2,125,2|0|0,0:0|0:0|0:0,0:0:0:0:
356,11,95015,5,2,3:2:0:0:
197,153,95173,38,0,B|196:136|205:133|206:122,1,25,2|0,0:0|0:0,0:0:0:0:
142,84,95331,2,0,B|129:72|133:64|126:55,1,25,2|0,0:0|0:0,0:0:0:0:
196,21,95489,2,0,B|208:9|204:1|211:-7,1,25,2|0,3:2|0:0,0:0:0:0:
30,190,95647,6,0,B|27:220|48:220|55:250,1,50,8|0,0:1|0:0,0:0:0:0:
42,313,95805,2,0,B|33:325|42:330|37:345,1,25,2|0,0:0|0:0,0:0:0:0:
39,187,95963,38,0,B|77:320|90:267|117:316,1,150,2|0,0:0|0:0,0:0:0:0:
272,285,96279,6,0,B|223:262|174:317|199:331|180:372|132:384,1,187.799992549439,2|0,3:2|0:0,0:0:0:0:
167,233,96594,2,0,B|144:221|152:205|120:193,2,62.5999975164796,2|2|2,0:0|0:0|3:2,0:0:0:0:
313,368,96910,38,0,B|314:349|328:332|329:338|342:323|346:301,1,75.0000028610231,8|0,0:1|0:0,0:0:0:0:
272,285,97068,2,0,B|232:291|243:305|222:315,1,50,2|0,0:0|0:0,0:0:0:0:
390,240,97226,2,0,B|430:246|419:260|440:270,1,50,2|0,0:0|0:0,0:0:0:0:
501,298,97384,6,0,B|496:308|509:303|505:314,1,18.7500007152558,2|0,0:0|0:0,0:0:0:0:
497,306,97463,2,0,B|492:316|505:311|501:322,1,18.7500007152558,2|0,0:0|0:0,0:0:0:0:
497,306,97542,38,0,B|523:240|487:233|496:185,1,112.500004291535,2|0,3:2|0:0,0:0:0:0:
425,169,97700,2,0,B|430:146|455:137|457:115,2,56.2500021457673,8|2|2,0:1|0:0|0:0,0:0:0:0:
350,312,98015,6,0,B|354:323|373:314|376:323,1,18.7500007152558,2|0,3:2|0:0,0:0:0:0:
345,308,98094,2,0,B|341:311|346:330|338:334,1,18.7500007152558,2|0,0:0|0:0,0:0:0:0:
345,301,98173,38,0,B|335:271|317:275|315:243,1,62.5,8|0,0:1|0:0,0:0:0:0:
208,189,98331,6,0,B|208:186|198:190|194:179,1,18.7500007152558,2|0,0:0|0:0,0:0:0:0:
205,182,98410,2,0,B|204:179|195:183|190:171,1,18.7500007152558,2|0,0:0|0:0,0:0:0:0:
232,110,98489,38,0,B|208:99|221:85|199:71,1,31.25,2|0,3:2|0:0,0:0:0:0:
240,90,98568,2,0,B|223:68|242:64|230:39,1,31.25,2|0,0:0|0:0,0:0:0:0:
309,65,98647,6,0,B|318:96|334:91|340:121,1,57.5000010967255,2|0,0:0|0:0,0:0:0:0:
352,191,98805,38,0,B|308:308|392:292|408:280|392:284|412:288|500:272|464:379,1,262.500010013581,4|0,3:1|0:0,0:0:0:0:
393,363,99436,6,0,B|355:368|366:393|318:384,1,50,8|0,0:1|0:0,0:0:0:0:
317,316,99752,38,0,B|299:287|324:280|313:247,1,62.5,8|0,0:1|0:0,0:0:0:0:
222,162,99910,2,0,B|256:160|249:186|283:193,1,62.5,2|0,0:0|0:0,0:0:0:0:
352,191,100068,6,0,B|226:199|272:240|220:268,1,150,8|0,0:1|0:0,0:0:0:0:
165,223,100384,38,0,B|160:185|135:196|144:148,1,50,8|0,0:1|0:0,0:0:0:0:
179,33,100542,2,0,B|204:67|257:138|139:145|139:133|99:136|99:125|-17:129|12:182|56:265,1,345.000006580353,2|8,0:0|0:1,0:0:0:0:
108,60,101173,5,2,3:2:0:0:
143,178,101331,2,0,B|50:291|135:293|120:358,1,187.5,12|0,0:1|0:0,0:0:0:0:
46,346,101647,37,8,0:1:0:0:
268,327,101805,2,0,B|216:315|198:276|230:240|199:214,2,135.000000514984,2|8|0,0:0|0:1|0:0,0:0:0:0:
332,286,102279,6,0,B|354:249|323:241|337:199,1,67.5000002574921,8|0,0:1|0:0,0:0:0:0:
441,133,102437,2,0,B|398:130|407:163|364:171,1,67.5000002574921,2|0,0:0|0:0,0:0:0:0:
305,121,102595,38,0,B|296:173|381:201|379:194|480:224|418:312,1,225.000008583069,8|0,0:1|0:0,0:0:0:0:
453,360,102910,6,0,B|476:356|481:340|498:337,1,50,8|0,0:1|0:0,0:0:0:0:
499,339,103068,38,0,B|327:315|335:311|279:311|314:380|215:359,1,290.000008850098,2|2,0:0|0:0,0:0:0:0:
131,160,103463,6,0,B|150:137|105:145|116:102,1,37.5000014305115,2|0,0:0|0:0,0:0:0:0:
133,167,103542,2,0,B|132:209|103:212|112:259,1,87.500000834465,8|0,0:1|0:0,0:0:0:0:
91,357,103700,37,0,3:0:0:0:
104,365,103779,1,0,3:0:0:0:
98,369,103857,6,0,B|70:273|65:291|154:272|247:253|239:269|209:155,2,310.000002365112,12|8|8,0:1|0:1|0:1,0:0:0:0:
33,130,104647,38,0,B|0:208|20:264|104:196|227:289|224:376,1,340.000006484985,2|2,0:0|0:0,0:0:0:0:
179,59,105121,6,0,B|302:133|-89:294|29:387,1,412.500003933907,8|0,0:1|0:0,0:0:0:0:
298,348,105594,38,0,B|329:303|308:198|225:147|90:354|80:82|209:42,1,412.500003933907,2|0,0:0|0:0,0:0:0:0:
248,22,106068,6,0,B|281:27|278:41|292:47,1,50,8|0,0:1|0:0,0:0:0:0:
218,345,106384,38,0,L|207:299,1,29.9999990844727,12|0,3:1|0:0,0:0:0:0:
108,276,106542,6,0,L|154:265,1,34.9999989318848,8|0,3:1|0:0,0:0:0:0:
180,159,106700,38,0,L|191:205,1,40,8|0,3:1|0:0,0:0:0:0:
301,233,106857,6,0,L|255:244,1,44.999998626709,8|0,3:1|0:0,0:0:0:0:
291,123,107015,38,0,L|353:135,1,50,8|0,3:1|0:0,0:0:0:0:
419,32,107173,6,0,L|406:94,1,55.0000016784668,8|0,3:1|0:0,0:0:0:0:
512,164,107331,38,0,L|449:151,1,59.9999981689454,8|0,3:1|0:0,0:0:0:0:
374,263,107489,6,0,L|386:200,1,64.9999970245363,8|0,3:1|0:0,0:0:0:0:
147,13,107647,5,8,0:3:0:0:
219,6,107726,1,8,0:3:0:0:
266,41,107805,1,8,0:3:0:0:
293,84,107884,1,8,0:3:0:0:
291,123,107963,1,8,3:3:0:0:
270,150,108042,1,8,3:3:0:0:
251,158,108121,1,8,3:3:0:0:
233,152,108200,1,8,3:3:0:0:
173,99,108279,5,12,3:3:0:0:
95,116,108357,1,12,3:3:0:0:
42,172,108436,1,12,3:3:0:0:
33,246,108515,1,12,3:3:0:0:
63,312,108594,1,4,3:3:0:0:
107,332,108673,1,4,3:3:0:0:
133,315,108752,1,4,3:3:0:0:
138,300,108831,1,4,3:3:0:0:
135,293,108910,6,0,P|156:249|225:242,1,80,6|0,3:1|0:0,0:0:0:0:
241,161,109068,2,0,B|280:176|269:197|291:221,1,80
481,244,109226,6,0,P|460:288|391:295,1,80,8|0,0:1|0:0,0:0:0:0:
375,376,109384,2,0,B|335:360|346:339|324:315,1,80,4|0,0:3|0:0,0:0:0:0:
343,170,109542,37,0,3:0:0:0:
353,165,109700,1,0,0:0:0:0:
271,368,109857,5,8,0:1:0:0:
261,363,110015,1,0,0:0:0:0:
101,151,110173,38,0,B|72:180|58:158|31:176,1,64.9999970245363,0|0,3:0|0:0,0:0:0:0:
312,248,110331,2,0,B|341:277|319:291|337:317,1,64.9999970245363
158,310,110489,6,0,B|158:351|132:345|127:377,1,64.9999970245363,8|0,0:1|0:0,0:0:0:0:
211,51,110647,2,0,B|204:84|204:84|209:88|209:88|206:105,1,44.999998626709,4|0,0:0|0:0,0:0:0:0:
182,235,110805,37,0,3:0:0:0:
318,49,110963,2,0,B|328:81|328:81|324:86|324:86|327:102,1,44.999998626709,2|0,0:3|0:0,0:0:0:0:
372,375,111121,6,0,B|421:349|397:286|511:274,1,179.999994506836,8|0,0:1|0:0,0:0:0:0:
182,235,111436,38,0,B|158:201|158:201|237:263,1,112.500004291535,0|0,3:0|0:0,0:0:0:0:
271,368,111594,2,0,L|276:330,1,37.5000014305115
398,164,111752,2,0,L|389:221,1,50,8|0,0:1|0:0,0:0:0:0:
511,355,111910,2,0,P|487:357|476:369,1,37.5000014305115
315,202,112068,5,0,3:0:0:0:
318,190,112226,1,0,0:0:0:0:
285,9,112384,37,8,0:1:0:0:
293,17,112542,1,0,0:0:0:0:
389,225,112700,6,0,P|397:253|419:277,1,50,2|0,3:0|0:0,0:0:0:0:
330,98,112857,2,0,P|301:91|269:98,1,50
457,39,113015,2,0,P|485:30|509:8,1,50,8|0,0:1|0:0,0:0:0:0:
183,240,113173,38,0,B|164:245|150:259|150:259|259:229|261:261|290:272,1,179.999994506836,4|0,0:0|3:0,0:0:0:0:
439,160,113489,6,0,B|442:153|442:153|436:127|436:127|420:149|420:149|421:156,1,67.5000002574921,2|2,0:3|0:0,0:0:0:0:
512,317,113647,2,0,B|467:321|467:321|463:330|463:330|430:345,1,75.0000028610231,8|0,0:1|0:0,0:0:0:0:
285,270,113805,2,0,B|325:289|325:289|326:299|326:299|351:325,1,75.0000028610231,2|0,0:0|0:0,0:0:0:0:
379,384,113963,37,14,3:1:0:0:
409,247,114121,1,0,0:0:0:0:
457,39,114279,5,8,0:1:0:0:
468,47,114436,1,4,0:3:0:0:
324,200,114594,37,0,3:0:0:0:
309,194,114751,1,0,0:0:0:0:
240,1,114910,5,8,0:1:0:0:
226,4,115067,1,0,0:0:0:0:
77,163,115226,38,0,B|37:152|49:129|20:114,1,64.9999970245363,2|0,3:0|0:0,0:0:0:0:
276,69,115384,2,0,B|308:53|304:33|332:24,1,64.9999970245363
123,277,115542,6,0,B|83:287|95:310|66:325,1,64.9999970245363,8|0,0:1|0:0,0:0:0:0:
363,299,115700,2,0,B|372:310|372:310|358:345,1,44.999998626709,4|0,0:0|0:0,0:0:0:0:
157,147,115857,37,0,3:0:0:0:
270,315,116015,2,0,B|265:328|265:328|289:356,1,44.999998626709,2|0,0:3|0:0,0:0:0:0:
403,101,116173,2,0,B|296:170|343:200|304:243,1,179.999994506836,8|0,0:1|0:0,0:0:0:0:
76,319,116489,6,0,B|34:322|34:322|107:301|107:301|114:304|114:304|170:288|170:288|182:328,1,225.000008583069,0|0,3:0|0:0,0:0:0:0:
453,258,116805,2,0,B|461:251|472:245|472:245|459:203|461:155|461:155|447:201|420:236|420:236|432:247|436:259,1,225.000008583069,8|0,0:1|0:0,0:0:0:0:
157,147,117121,38,0,P|130:112|91:94,1,87.500000834465,0|0,3:0|0:0,0:0:0:0:
93,85,117279,2,0,P|117:48|122:5,1,72.5000022125245
253,55,117436,6,0,B|248:112|184:108|197:215,1,175.00000166893,8|0,0:1|0:0,0:0:0:0:
404,356,117752,38,0,P|417:343|433:333,1,37.5000014305115,4|0,3:3|0:0,0:0:0:0:
303,243,117910,6,0,P|303:221|311:191,1,50,8|0,0:3|0:0,0:0:0:0:
111,223,118068,38,0,P|93:205|77:171,1,62.5,8|0,3:1|0:0,0:0:0:0:
0,0,118226,5,6,3:1:0:0:
31,352,118384,37,0,3:0:0:0:
26,332,118463,1,0,3:0:0:0:
57,291,118542,5,0,3:0:0:0:
59,270,118621,1,0,3:0:0:0:
111,223,118700,38,0,B|129:213|160:117|115:209|123:227,1,100,6|0,0:0|0:0,0:0:0:0:
237,322,119015,6,0,L|240:358,1,37.5000014305115,6|0,3:1|0:0,0:0:0:0:
316,372,119173,2,0,B|336:338|314:368|330:336,1,37.5000014305115,2|0,0:3|0:0,0:0:0:0:
512,337,119331,38,0,B|509:346|506:357|506:357|466:375|414:359|402:311,1,150.000005722046,8|2,0:1|0:3,0:0:0:0:
403,101,119647,6,0,B|412:100|412:100|438:121,1,37.5000014305115,0|0,3:0|0:0,0:0:0:0:
460,194,119805,2,0,B|467:199|467:199|499:181,1,37.5000014305115,2|0,0:3|0:0,0:0:0:0:
324,100,119963,38,0,B|297:102|297:102|263:130,1,50,8|0,0:1|0:0,0:0:0:0:
236,234,120121,2,0,L|222:166,1,62.5,2|0,0:3|0:0,0:0:0:0:
126,84,120278,6,0,B|134:40|168:18|219:20|219:20|209:26|201:37,1,150.000005722046,0|2,3:0|0:3,0:0:0:0:
111,167,120594,37,8,0:1:0:0:
117,168,120673,1,2,0:0:0:0:
112,173,120752,1,2,0:3:0:0:
64,20,120910,5,0,3:0:0:0:
200,37,121068,1,2,0:3:0:0:
11,235,121226,38,0,L|161:255,1,150.000005722046,8|2,0:1|0:3,0:0:0:0:
331,255,121542,2,0,B|222:270|261:327|198:342,1,150.000005722046,0|2,3:0|0:3,0:0:0:0:
11,235,121857,6,0,B|4:204|4:204|24:199,1,50,8|0,0:1|0:0,0:0:0:0:
83,147,122015,2,0,B|114:140|114:140|119:160,1,50,2|0,0:3|0:0,0:0:0:0:
170,219,122173,2,0,B|177:250|177:250|157:255,1,50,0|0,3:0|0:0,0:0:0:0:
16,314,122331,2,0,L|30:374,1,62.5,2|0,0:3|0:0,0:0:0:0:
129,384,122489,2,0,L|142:322,1,55.0000016784668,8|0,0:1|0:0,0:0:0:0:
170,219,122647,38,0,B|182:167|238:162|238:162|246:180|266:194,2,125,2|0|2,0:3|3:0|0:3,0:0:0:0:
308,129,123121,6,0,P|319:67|350:14,1,125,8|2,0:1|0:3,0:0:0:0:
128,103,123436,2,0,P|158:157|169:219,1,125,0|2,3:0|0:3,0:0:0:0:
448,287,123753,38,0,B|469:268|469:268|472:234,1,62.5,8|0,0:1|0:0,0:0:0:0:
402,205,123911,2,0,B|379:224|379:224|377:257,1,62.5,2|0,0:3|0:0,0:0:0:0:
263,324,124068,6,0,B|389:336|389:336|395:348|395:348|450:375,1,187.5,6|0,3:1|0:0,0:0:0:0:
238,251,124384,38,0,L|201:260,1,37.5000014305115,8|0,0:1|0:0,0:0:0:0:
169,189,124542,2,0,L|182:139,1,50,2|0,0:3|0:0,0:0:0:0:
260,126,124700,2,0,L|284:178,1,57.5000010967255,0|0,3:3|0:0,0:0:0:0:
263,324,124857,2,0,B|224:334|224:334|221:341|221:341|205:346,1,62.5,2|0,0:3|0:0,0:0:0:0:
284,178,125015,2,0,B|322:188|322:188|325:195|325:195|341:200,1,62.5,8|0,0:1|0:0,0:0:0:0:
437,368,125173,2,0,B|446:354|460:346|460:346|458:303|422:270|381:283,1,150.000005722046,2|0,0:3|3:0,0:0:0:0:
379,3,125489,6,0,L|395:76,1,75.0000028610231,2|0,0:3|0:0,0:0:0:0:
420,197,125647,1,8,0:1:0:0:
261,53,125805,2,0,B|228:64|212:96|224:108|208:128|173:141,2,125,2|0|2,0:3|3:0|0:3,0:0:0:0:
508,40,126279,38,0,L|494:139,1,100,8|2,0:1|0:3,0:0:0:0:
413,305,126594,2,0,P|478:365|480:276,1,225.000008583069,0|0,3:0|0:0,0:0:0:0:
424,226,126910,5,8,0:1:0:0:
417,231,127068,1,2,0:3:0:0:
274,351,127226,2,0,B|266:305|292:271|304:286|339:267|343:222,1,150.000005722046,0|2,3:0|0:3,0:0:0:0:
493,139,127542,2,0,P|446:46|459:-38,1,150.000005722046,8|2,0:1|0:3,0:0:0:0:
150,198,127857,2,0,B|146:186|138:176|138:176|201:150|249:174|273:218,1,175.00000166893,0|2,3:0|0:3,0:0:0:0:
350,380,128173,37,8,3:1:0:0:
368,352,128251,1,0,3:0:0:0:
353,322,128331,1,2,3:0:0:0:
373,294,128410,1,0,3:0:0:0:
342,227,128489,6,0,B|384:173|472:172|566:311|510:287|488:252|488:252|471:226|442:223,1,300,12|0,3:1|0:0,0:0:0:0:
350,380,128805,2,0,B|331:205|418:239|431:183,1,225.000008583069,12|0,3:1|0:0,0:0:0:0:
256,2,129121,38,0,B|242:-19|209:-20|209:-20|237:-13|250:6,1,100,6|2,3:1|0:3,0:0:0:0:
145,167,129436,6,0,B|101:149|123:105|28:80|-56:159|-16:210|10:163,1,225.000008583069,8|0,0:1|0:0,0:0:0:0:
181,92,129752,38,0,B|178:83|178:83|192:52,1,37.5000014305115,0|0,3:0|0:0,0:0:0:0:
71,212,129910,2,0,B|56:233|34:246,1,37.5000014305115,2|0,0:3|0:0,0:0:0:0:
300,225,130068,6,0,B|317:210|317:210|344:208,1,50,8|0,0:1|0:0,0:0:0:0:
166,362,130226,2,0,L|158:296,1,62.5,2|0,0:3|0:0,0:0:0:0:
145,167,130384,38,0,B|139:158|126:151|126:151|184:144|214:166|223:219,1,150.000005722046,0|2,3:0|0:3,0:0:0:0:
273,364,130700,5,8,0:1:0:0:
271,370,130779,1,2,0:0:0:0:
264,370,130858,1,2,0:3:0:0:
366,133,131015,37,0,3:0:0:0:
261,288,131173,1,2,0:3:0:0:
486,340,131331,2,0,L|337:355,1,139.999995727539,8|2,0:1|0:3,0:0:0:0:
189,163,131647,2,0,B|279:222|221:257|271:298,1,150.000005722046,0|2,3:0|0:3,0:0:0:0:
289,137,131963,6,0,B|294:111|294:111|290:103|290:103|294:83,1,50,8|0,0:1|0:0,0:0:0:0:
362,54,132121,2,0,B|387:59|387:59|395:55|395:55|415:59,1,50,2|0,0:3|0:0,0:0:0:0:
444,127,132279,2,0,B|438:153|438:153|443:161|443:161|440:175,1,50,0|0,3:0|0:0,0:0:0:0:
298,12,132436,2,0,L|256:18,1,37.5000014305115,2|0,0:3|0:0,0:0:0:0:
334,202,132594,2,0,L|374:211,1,37.5000014305115,8|0,0:1|0:0,0:0:0:0:
486,62,132752,38,0,B|495:34|495:34|504:29|504:29|513:1,2,50,2|0|2,0:3|3:0|0:3,0:0:0:0:
375,352,133226,6,0,P|322:318|261:303,1,125,8|2,0:1|0:3,0:0:0:0:
188,41,133542,2,0,P|239:79|300:89,1,125,0|2,3:0|0:3,0:0:0:0:
15,193,133857,38,0,B|-3:170|-3:170|0:137,1,62.5,8|0,0:1|0:0,0:0:0:0:
73,118,134015,2,0,B|91:140|91:140|88:173,1,62.5,2|0,0:3|0:0,0:0:0:0:
105,366,134173,6,0,B|127:242|127:242|140:237|140:237|172:185,1,187.5,6|0,3:1|0:0,0:0:0:0:
241,179,134489,38,0,L|292:190,1,37.5000014305115,8|0,3:1|0:0,0:0:0:0:
353,207,134647,2,0,L|404:218,1,50,2|0,0:3|0:0,0:0:0:0:
187,122,134805,2,0,L|169:67,1,57.5000010967255,0|0,3:0|0:0,0:0:0:0:
262,6,134963,2,0,L|256:64,1,57.5000010967255,2|0,0:3|0:0,0:0:0:0:
262,304,135121,2,0,L|198:290,1,62.5,8|0,0:1|0:0,0:0:0:0:
65,356,135279,2,0,B|56:342|42:334|42:334|44:291|80:258|121:271,1,150.000005722046,2|0,0:3|3:0,0:0:0:0:
357,131,135594,6,0,L|351:210,1,75.0000028610231,2|0,0:3|0:0,0:0:0:0:
339,384,135752,1,8,0:1:0:0:
402,282,135910,38,0,B|391:300|386:292|371:303,1,37.5000014305115,2|0,0:3|0:0,0:0:0:0:
352,206,136068,2,0,B|352:227|344:223|336:240,1,37.5000014305115,0|0,3:0|0:0,0:0:0:0:
270,165,136226,2,0,B|281:184|272:184|274:202,1,37.5000014305115,2|0,0:3|0:0,0:0:0:0:
200,290,136384,6,0,B|261:315|261:315|265:329|273:342,1,89.9999972534181,8|2,0:1|0:3,0:0:0:0:
276,337,136621,1,2,0:0:0:0:
284,336,136700,37,6,3:1:0:0:
402,282,136857,1,6,0:3:0:0:
200,290,137015,5,8,0:1:0:0:
411,368,137172,1,2,0:3:0:0:
158,151,137331,37,0,3:0:0:0:
443,201,137489,1,6,0:3:0:0:
142,342,137647,6,0,P|136:302|117:265,1,75.0000028610231,8|0,0:1|0:0,0:0:0:0:
41,169,137805,37,2,3:3:0:0:
41,169,137884,1,0,3:0:0:0:
41,169,137963,5,6,3:1:0:0:
72,139,138041,1,0,3:3:0:0:
116,133,138120,1,2,3:3:0:0:
157,151,138199,1,0,3:3:0:0:
179,187,138279,37,8,3:1:0:0:
224,208,138357,1,0,3:0:0:0:
273,201,138436,1,2,3:0:0:0:
319,143,138515,1,0,3:0:0:0:
313,70,138594,6,0,L|303:47,6,25,0|0|0|0|2|0|0,3:1|3:0|3:0|3:0|3:3|3:3|3:3,0:0:0:0:
372,19,138910,38,0,L|376:0,12,12.5,8|0|0|0|0|0|0|0|2|0|0|0|0,3:1|3:0|3:3|3:0|3:3|3:0|3:3|3:0|3:3|3:0|3:3|3:0|3:3,0:0:0:0:
459,133,139226,6,0,P|421:144|390:164,1,75,6|0,0:0|0:0,0:0:0:0:
391,238,139542,2,0,P|394:256|404:273,1,29.9999990844727,2|0,0:0|0:0,0:0:0:0:
470,286,139700,2,0,P|484:273|493:256,1,29.9999990844727,2|0,0:0|0:0,0:0:0:0:
512,351,140015,38,0,P|497:363|488:380,1,29.9999990844727,2|0,0:0|0:0,0:0:0:0:
399,266,140331,2,0,L|309:276,1,89.9999972534181,2|0,0:0|0:0,0:0:0:0:
106,244,140647,6,0,P|115:256|122:270,1,29.9999990844727,2|0,0:0|0:0,0:0:0:0:
228,288,140963,2,0,B|203:291|187:313|195:317|177:337|159:342,2,89.9999972534181,2|0|0,0:0|0:0|0:0,0:0:0:0:
257,212,141436,37,8,0:1:0:0:
248,208,141594,1,2,0:0:0:0:
330,347,141752,6,0,P|320:296|306:272,1,75.0000028610231,4|0,3:2|0:0,0:0:0:0:
237,115,142068,38,0,B|238:107|238:107|253:91,1,29.9999990844727,2|0,0:0|0:0,0:0:0:0:
322,119,142226,2,0,B|324:127|324:127|321:149,1,29.9999990844727,2|0,0:0|0:0,0:0:0:0:
377,228,142542,6,0,P|390:230|406:238,1,29.9999990844727,2|0,0:0|0:0,0:0:0:0:
237,115,142857,2,0,L|147:125,1,89.9999972534181,2|0,0:0|0:0,0:0:0:0:
368,22,143173,38,0,B|357:28|357:28|354:45,1,29.9999990844727,2|0,0:0|0:0,0:0:0:0:
257,212,143489,2,0,B|243:208|233:198|233:198|170:206,1,89.9999972534181,2|0,0:0|0:0,0:0:0:0:
100,384,143805,6,0,L|104:354,1,29.9999990844727,0|0,3:0|0:0,0:0:0:0:
116,278,143963,2,0,L|95:222,1,59.9999981689454,8|0,0:1|0:0,0:0:0:0:
27,183,144121,2,0,L|37:140,1,44.999998626709,2|0,0:3|0:0,0:0:0:0:
11,37,144279,38,0,B|82:72|58:116|122:124,1,135.000000514984,4|2,3:1|0:3,0:0:0:0:
221,16,144595,6,0,P|258:126|252:227,1,202.500000772476,8|0,0:1|0:0,0:0:0:0:
304,279,144911,38,0,B|311:285|316:299|316:299|318:285|307:273,1,50,0|0,3:0|0:0,0:0:0:0:
171,206,145068,1,2,0:3:0:0:
342,78,145226,6,0,P|311:173|308:274,1,202.500000772476,8|0,0:1|0:0,0:0:0:0:
483,130,145542,2,0,B|486:120|496:109|496:109|512:64|490:25|490:25|443:33|420:75|420:75|419:89|414:104,1,225.000008583069,0|0,3:0|0:0,0:0:0:0:
422,174,145857,37,8,0:1:0:0:
461,304,146015,6,0,B|409:305|412:322|395:332,1,75.0000028610231,2|0,0:3|0:0,0:0:0:0:
254,383,146173,2,0,L|261:351,1,25,0|0,3:0|0:0,0:0:0:0:
320,308,146331,2,0,L|309:259,1,37.5000014305115,2|0,0:3|0:0,0:0:0:0:
168,220,146489,38,0,B|193:217|193:217|219:226,1,50,8|0,0:1|0:0,0:0:0:0:
353,144,146647,2,0,B|328:140|328:140|305:125,1,50,2|0,0:3|0:0,0:0:0:0:
132,4,146805,6,0,L|146:98,1,75.0000028610231,4|0,3:1|0:0,0:0:0:0:
30,332,146963,38,0,L|12:338,1,18.7500007152558,2|0,3:1|0:0,0:0:0:0:
31,324,147042,2,0,L|13:329,1,18.7500007152558,2|0,3:2|0:0,0:0:0:0:
47,255,147121,5,8,3:1:0:0:
64,248,147199,1,2,3:2:0:0:
103,254,147279,1,2,3:2:0:0:
138,286,147358,1,2,3:2:0:0:
172,350,147437,38,0,L|170:368,1,11.2499996566773,2|0,3:2|0:0,0:0:0:0:
246,347,147515,6,0,L|244:365,1,11.2499996566773,2|0,3:2|0:0,0:0:0:0:
320,344,147594,38,0,L|317:362,1,11.2499996566773,2|0,3:0|0:0,0:0:0:0:
394,341,147673,6,0,L|392:359,1,11.2499996566773,2|0,3:2|0:0,0:0:0:0:
468,338,147752,38,0,B|343:310|377:367|308:377,1,160,8|2,0:1|0:3,0:0:0:0:
132,4,148068,5,4,3:0:0:0:
95,144,148226,1,2,3:0:0:0:
250,239,148383,1,8,3:1:0:0:
95,368,148541,1,2,3:0:0:0:
23,123,148700,38,0,L|13:100,6,25,0|0|0|0|2|0|0,3:0|3:0|3:0|3:0|3:0|3:0|3:0,0:0:0:0:
82,72,149016,6,0,L|86:53,12,12.5,8|0|0|0|0|0|0|0|2|0|0|0|0,3:1|3:0|3:0|3:0|3:0|3:0|3:0|3:0|3:0|3:0|3:0|3:0|3:0,0:0:0:0:
218,87,149331,38,0,P|204:122|175:145,1,75,6|0,0:0|0:0,0:0:0:0:
95,144,149647,2,0,L|90:181,1,29.9999990844727,2|0,0:0|0:0,0:0:0:0:
153,223,149805,2,0,L|157:252,1,29.9999990844727,2|0,0:0|0:0,0:0:0:0:
236,243,150121,6,0,P|237:229|230:208,1,29.9999990844727,2|0,0:0|0:0,0:0:0:0:
17,333,150436,2,0,L|111:314,1,89.9999972534181,2|0,0:0|0:0,0:0:0:0:
247,247,150752,38,0,B|254:233|254:233|275:226,1,29.9999990844727,2|0,0:0|0:0,0:0:0:0:
152,384,151068,2,0,B|147:363|147:363|108:334|108:334|104:313,1,89.9999972534181,2|0,0:0|0:0,0:0:0:0:
252,106,151384,5,0,3:0:0:0:
177,137,151542,1,8,0:1:0:0:
173,210,151700,1,2,0:0:0:0:
104,314,151858,38,0,P|94:263|80:239,1,75.0000028610231,4|0,3:2|0:0,0:0:0:0:
7,219,152173,2,0,P|14:198|16:184,1,29.9999990844727,2|0,0:0|0:0,0:0:0:0:
111,169,152331,2,0,P|90:160|79:152,1,29.9999990844727,2|0,0:0|0:0,0:0:0:0:
179,309,152647,6,0,P|181:289|188:268,1,29.9999990844727,2|0,0:0|0:0,0:0:0:0:
275,373,152963,2,0,L|261:258,1,89.9999972534181,2|0,0:0|0:0,0:0:0:0:
378,197,153279,38,0,B|362:202|362:202|352:214,1,29.9999990844727,2|0,0:0|0:0,0:0:0:0:
356,384,153594,2,0,B|373:378|391:357|382:354|401:331|425:329,1,89.9999972534181,2|0,0:0|0:0,0:0:0:0:
385,195,153910,6,0,P|373:170|338:143,1,44.999998626709,0|0,3:0|0:0,0:0:0:0:
406,95,154068,2,0,P|441:107|478:109,1,59.9999981689454,8|0,0:1|0:0,0:0:0:0:
504,178,154226,2,0,P|471:195|453:227,1,75.0000028610231,2|0,0:3|0:0,0:0:0:0:
503,350,154384,38,0,P|488:285|451:233,1,129.999994049073,4|2,3:1|0:3,0:0:0:0:
247,319,154621,5,2,0:0:0:0:
238,322,154700,2,0,P|266:263|314:220,1,129.999994049073,8|2,0:1|0:3,0:0:0:0:
409,324,155015,2,0,B|311:337|332:361|299:383,1,129.999994049073,0|2,3:0|0:3,0:0:0:0:
451,233,155331,37,8,0:1:0:0:
313,220,155489,1,2,0:3:0:0:
504,178,155647,6,0,P|489:113|452:61,1,129.999994049073,0|2,3:0|0:3,0:0:0:0:
311,56,155884,37,2,0:0:0:0:
304,65,155963,1,8,0:1:0:0:
232,20,156121,6,0,B|212:-8|268:-48|268:20|232:20,1,80,2|0,0:3|0:0,0:0:0:0:
245,166,156279,37,0,3:0:0:0:
330,143,156436,1,2,0:3:0:0:
124,13,156594,6,0,P|161:68|166:136,1,129.999994049073,8|2,0:1|0:3,0:0:0:0:
56,289,156910,2,0,B|42:289|28:296|28:296|27:232|70:203|120:203,1,160,0|2,3:0|0:3,0:0:0:0:
276,289,157226,38,0,B|151:313|151:313|148:331|137:346,1,160,8|2,0:1|0:3,0:0:0:0:
180,220,157542,5,0,3:0:0:0:
192,223,157700,1,2,0:3:0:0:
297,376,157857,37,8,0:1:0:0:
315,369,158015,1,2,0:3:0:0:
379,217,158173,6,0,P|448:242|449:323,1,150,0|0,3:0|0:0,0:0:0:0:
503,177,158489,2,0,P|419:214|378:297,1,187.5,8|0,0:1|0:0,0:0:0:0:
291,276,158805,38,0,P|297:167|223:86,1,225.000008583069,0|0,3:0|0:0,0:0:0:0:
211,278,159120,2,0,P|228:148|282:29,1,262.500002503395,8|2,0:1|0:2,0:0:0:0:
360,0,159436,5,4,3:2:0:0:
379,217,159594,1,2,3:0:0:0:
114,90,159752,37,8,3:1:0:0:
152,0,159910,1,2,3:0:0:0:
133,217,160068,5,0,3:0:0:0:
398,90,160226,1,2,3:0:0:0:
211,278,160384,37,8,3:1:0:0:
284,17,160542,1,2,3:0:0:0:
284,17,160621,1,0,3:0:0:0:
284,17,160700,6,0,B|280:25|283:30|280:39,1,12.5,4|0,3:0|0:0,0:0:0:0:
218,86,160857,38,0,B|223:96|219:102|223:114,1,25,2|0,3:0|0:0,0:0:0:0:
297,239,161015,6,0,B|290:253|295:261|291:276,1,37.5000014305115,8|0,3:1|0:0,0:0:0:0:
229,360,161173,38,0,L|233:390,1,25,2|0,3:2|0:0,0:0:0:0:
232,384,161489,6,0,P|236:366|227:379,1,50,0|0,3:0|0:0,0:0:0:0:
211,278,161647,22,0,B|203:237|227:228|228:201,1,64.9999970245363,6|0,0:0|0:0,0:0:0:0:
320,121,161805,22,0,P|325:101|322:71,1,32.4999985122681,2|0,0:0|0:0,0:0:0:0:
469,327,161963,6,0,B|417:311|394:258|435:245|388:171|300:215|300:215|317:235|321:271,1,292.500001115799,6|0,3:1|0:0,0:0:0:0:
494,247,162279,6,0,P|499:223|512:200,1,32.4999985122681,8|0,0:1|0:0,0:0:0:0:
357,343,162436,2,0,P|344:353|362:345,1,64.9999970245363,4|0,0:3|0:0,0:0:0:0:
224,216,162594,1,8,3:0:0:0:
449,152,162752,38,0,B|413:141|385:110|411:82|370:58,1,127.499998297691,2|0,0:3|0:0,0:0:0:0:
283,26,162910,2,0,B|260:22|260:22|317:58,1,64.9999970245363,8|0,0:1|0:0,0:0:0:0:
497,60,163068,2,0,B|485:69|479:86|479:86|287:127,1,195.000000743866,2|0,0:3|3:0,0:0:0:0:
38,65,163384,6,0,B|18:41|31:17|31:17|51:36|41:61,1,97.500000371933,2|0,0:3|0:0,0:0:0:0:
74,323,163542,37,8,0:1:0:0:
78,332,163700,2,0,L|89:292,1,32.4999985122681,8|0,0:3|0:0,0:0:0:0:
301,215,163858,5,4,3:3:0:0:
229,360,164016,1,4,0:3:0:0:
48,147,164174,38,0,B|20:147|-9:160|-9:160|64:159|128:195,1,195.000000743866,8|0,0:1|0:0,0:0:0:0:
377,325,164489,6,0,B|341:336|326:368|326:368|342:276|426:228|503:233|503:233|478:232|466:240|458:256|445:242|430:240,1,390.000001487732,0|8,3:0|0:1,0:0:0:0:
441,384,164963,38,0,B|439:352|464:344|450:301,1,64.9999970245363,4|0,0:3|0:0,0:0:0:0:
329,213,165121,2,0,B|325:188|308:189|305:160,1,50,8|0,3:3|0:0,0:0:0:0:
497,193,165279,6,0,B|508:172|508:172|476:137|476:137|441:128|441:128|397:142|397:142|395:164,1,175.00000166893,2|8,0:3|0:1,0:0:0:0:
229,350,165594,2,0,B|223:369|223:369|148:386|148:386|88:333|88:333|93:313,1,195.000000743866,2|0,0:3|3:0,0:0:0:0:
64,16,165910,38,0,B|73:28|73:44|73:44|122:62,1,80,2|0,0:3|0:0,0:0:0:0:
304,131,166068,1,8,0:1:0:0:
143,138,166226,6,0,B|147:169|145:137|151:168,1,32.4999985122681,10|0,0:3|0:0,0:0:0:0:
121,241,166384,2,0,B|122:226|118:209|118:209|232:163|232:163|222:143|225:121,1,195.000000743866,4|6,3:0|0:3,0:0:0:0:
390,283,166700,38,0,P|368:366|321:308,1,195.000000743866,8|0,0:1|0:0,0:0:0:0:
512,24,167015,6,0,B|503:39|500:60|500:60|408:76|408:76|403:73|403:73|294:89|294:89|305:111|302:135,1,292.500001115799,6|0,3:1|0:0,0:0:0:0:
480,145,167331,38,0,L|522:151,1,32.4999985122681,8|0,0:1|0:0,0:0:0:0:
358,1,167489,2,0,L|350:70,1,64.9999970245363,6|0,0:3|0:0,0:0:0:0:
327,238,167647,1,8,3:0:0:0:
71,139,167805,6,0,B|111:126|128:100|115:90|138:67|170:56,1,125,2|0,0:3|0:0,0:0:0:0:
256,15,167963,2,0,B|277:16|277:16|225:35,1,64.9999970245363,8|0,0:1|0:0,0:0:0:0:
47,64,168121,2,0,B|59:73|65:90|65:90|257:131,1,195.000000743866,2|0,0:3|3:0,0:0:0:0:
475,294,168436,38,0,B|495:318|482:342|482:342|462:323|472:298,1,97.500000371933,10|0,0:3|0:0,0:0:0:0:
440,60,168594,5,8,0:1:0:0:
436,51,168752,2,0,L|425:91,1,32.4999985122681,10|0,0:3|0:0,0:0:0:0:
373,152,168910,37,4,3:0:0:0:
358,1,169068,1,6,0:3:0:0:
454,208,169226,6,0,B|473:200|491:200|491:200|447:172|378:189|354:236,1,195.000000743866,8|2,0:1|0:3,0:0:0:0:
168,330,169542,38,0,B|154:342|149:364|149:364|137:347|113:340,1,80,0|0,3:0|0:0,0:0:0:0:
101,266,169700,2,0,B|115:254|120:232|120:232|132:249|156:256,1,80,2|0,0:3|0:0,0:0:0:0:
276,354,169858,5,8,0:1:0:0:
19,319,170015,2,0,L|255:274,1,240,6|0,0:3|0:0,0:0:0:0:
354,235,170332,2,0,B|344:268|358:275|357:296|348:313,1,80,2|0,0:3|0:0,0:0:0:0:
178,186,170489,37,8,0:1:0:0:
184,171,170568,1,2,0:0:0:0:
197,158,170647,1,2,0:3:0:0:
455,302,170805,6,0,B|411:298|379:250|398:202|398:202|395:198|395:198|411:150|364:109|283:126|287:206|287:206|299:174|332:165,1,400,6|0,3:1|0:0,0:0:0:0:
510,171,171279,37,2,3:0:0:0:
510,171,171357,1,2,3:2:0:0:
510,171,171437,6,0,P|501:202|460:232,1,80,4|4,3:0|3:0,0:0:0:0:
331,165,171595,2,0,P|306:140|300:92,1,80,6|4,3:0|3:0,0:0:0:0:
417,15,171752,37,8,3:1:0:0:
484,41,171831,1,8,3:0:0:0:
495,66,171910,1,10,3:0:0:0:
487,78,171989,1,8,3:0:0:0:
491,88,172068,1,0,3:0:0:0:
186,16,172226,5,6,3:0:0:0:
202,9,172304,1,4,3:0:0:0:
190,8,172384,38,0,B|238:44|206:61|228:92,1,89.9999972534181,6|0,3:1|0:0,0:0:0:0:
298,97,172542,2,0,B|288:151|260:140|247:172,1,69.9999978637696,6|0,0:3|0:0,0:0:0:0:
191,171,172700,2,0,B|197:211|221:207|226:229,1,50,10|0,0:3|0:0,0:0:0:0:
354,332,172857,22,0,P|301:296|237:285,1,129.999994049073,2|0,3:1|0:0,0:0:0:0:
215,212,173173,2,0,P|137:223|72:268,1,160,2|0,3:1|0:0,0:0:0:0:
73,66,173489,2,0,P|20:143|0:236,1,189.999994926453,2|0,3:1|0:0,0:0:0:0:
348,329,173805,6,0,L|359:242,1,64.9999970245363,10|0,0:1|0:0,0:0:0:0:
371,164,173963,2,0,L|376:121,1,32.4999985122681,0|0,3:0|0:0,0:0:0:0:
404,63,174121,38,0,B|422:65|422:65|453:117|453:117|446:146,1,97.500000371933,8|8,3:3|3:3,0:0:0:0:
348,329,174279,5,4,3:3:0:0:
416,360,174358,1,4,3:3:0:0:
485,336,174437,1,0,3:0:0:0:
511,269,174516,1,0,3:0:0:0:
492,199,174595,6,0,B|448:228|400:212|423:179|323:209|314:300|314:300|334:272|369:266,1,292.500001115799,6|0,3:1|0:0,0:0:0:0:
502,54,174910,6,0,L|509:16,1,34.9999989318848,8|6,0:1|0:3,0:0:0:0:
291,165,175226,38,0,B|282:154|282:154|288:113|288:113|303:106,1,64.9999970245363,8|0,3:0|0:0,0:0:0:0:
190,8,175384,2,0,B|201:23|201:23|190:76|190:76|168:85,1,97.500000371933,2|0,0:3|0:0,0:0:0:0:
0,143,175542,5,8,0:1:0:0:
0,152,175700,2,0,B|-19:170|-19:170|80:188,1,122.500001168251,2|0,0:3|0:0,0:0:0:0:
291,165,175857,38,0,L|285:197,1,32.4999985122681,0|0,3:0|0:0,0:0:0:0:
84,50,176015,2,0,L|94:112,1,62.5,2|0,0:3|0:0,0:0:0:0:
91,331,176173,6,0,B|89:283|122:263|122:263|147:250|155:225,1,125,8|0,0:1|0:0,0:0:0:0:
168,85,176331,1,10,0:3:0:0:
400,186,176489,38,0,B|408:172|424:165|424:165|337:170|298:231|298:231|312:253|309:283,1,225.000008583069,4|6,3:0|0:3,0:0:0:0:
91,331,176805,6,0,B|69:363|64:352|36:352|12:381|12:381|56:304|140:280|192:320|160:344|228:372|274:337,1,389.999982147218,8|0,0:1|0:0,0:0:0:0:
381,308,177121,38,0,B|335:154|253:268|293:108,1,240,6|0,3:1|0:0,0:0:0:0:
311,34,177436,6,0,L|314:15,1,20,8|0,0:1|0:0,0:0:0:0:
168,85,177594,2,0,L|175:114,1,29.9999990844727,6|0,0:3|0:0,0:0:0:0:
400,186,177752,1,8,3:0:0:0:
267,341,177910,38,0,B|259:344|250:346|250:346|293:353|323:378,1,89.9999972534181,2|0,0:3|0:0,0:0:0:0:
263,182,178068,6,0,P|242:221|236:266,1,89.9999972534181,8|0,0:1|0:0,0:0:0:0:
91,331,178226,2,0,B|73:300|92:273|58:242,1,97.500000371933,2|0,0:3|0:0,0:0:0:0:
43,30,178384,37,4,3:1:0:0:
87,12,178462,1,0,3:0:0:0:
133,25,178541,1,0,3:0:0:0:
163,63,178620,1,0,3:0:0:0:
164,111,178699,5,8,3:1:0:0:
201,146,178779,1,0,3:0:0:0:
255,150,178858,1,4,3:0:0:0:
302,122,178937,1,0,3:0:0:0:
321,72,179015,37,12,3:0:0:0:
260,74,179093,1,4,3:0:0:0:
209,106,179172,1,4,3:0:0:0:
180,159,179251,1,4,3:0:0:0:
180,219,179330,5,8,3:0:0:0:
235,265,179410,1,8,3:0:0:0:
307,255,179489,1,8,3:0:0:0:
373,286,179568,1,8,3:0:0:0:
391,357,179647,5,6,3:2:0:0:
448,96,179805,1,0,0:0:0:0:
367,214,179963,1,2,0:0:0:0:
56,104,180121,6,0,L|30:110,1,22.4999993133545,6|0,3:2|0:0,0:0:0:0:
234,354,180436,38,0,P|239:305|233:258,1,89.9999972534181,2|0,0:0|0:0,0:0:0:0:
263,30,180594,6,0,B|237:67|148:131|158:-48|93:63|47:-29|-55:94|-65:363|-57:154|13:84|76:29|152:63|221:92|93:193|179:149|186:178|180:205|155:218|133:212|126:222|104:271|104:271|133:212|112:200|126:166|175:142,1,750,6|0,3:2|0:0,0:0:0:0:
239,163,181857,37,8,3:3:0:0:
250,170,181936,1,8,3:3:0:0:
254,183,182015,1,4,3:3:0:0:
256,194,182094,1,4,3:3:0:0:
234,264,182173,5,6,3:2:0:0:
159,151,182331,1,2,0:0:0:0:
370,287,182489,38,0,P|379:237|396:214,1,69.9999978637696,2|0,0:0|0:0,0:0:0:0:
407,21,182647,6,0,B|483:57|491:153|491:153|467:153|447:169,1,209.999993591309,6|0,3:2|0:0,0:0:0:0:
328,22,182963,38,0,B|293:70|317:78|296:111,1,89.9999972534181,2|0,0:0|0:0,0:0:0:0:
156,232,183121,6,0,B|157:260|170:286|170:286|167:290|167:290|170:289|170:289|199:302|216:333|216:333|215:336|215:336|220:334|220:334|256:336|310:396|246:346|245:308|245:308|214:290|199:257|199:257|172:240|134:220|72:192|57:223|24:292|-40:190|-31:119|28:92|28:92|28:89|28:89|37:88|37:88|38:84|38:84|127:44|127:44|127:40|127:40|129:44|129:44|186:20|290:21|290:21|291:19|291:19|293:21|293:21|421:24|231:20|237:34|177:56|193:77|123:109|76:67|75:39,1,1253.9999961731,6|0,3:2|0:0,0:0:0:0:
26,0,184700,37,4,3:2:0:0:
92,297,185015,1,0,3:0:0:0:
84,58,185331,1,0,3:0:0:0:
141,366,185647,1,0,3:0:0:0:
166,32,185963,1,0,3:0:0:0:
215,336,186279,1,0,3:0:0:0:
401,111,186594,5,8,3:3:0:0:
336,84,186673,1,8,3:0:0:0:
299,105,186752,1,8,3:0:0:0:
282,160,186831,1,8,3:0:0:0:
205,150,186910,1,4,3:0:0:0:
198,147,186989,38,0,B|191:139|179:134|179:134|175:30|222:121|222:121|214:132|212:143,1,160,4|4,3:0|3:0,0:0:0:0:
215,336,187226,5,4,3:1:0:0:
438,302,187384,38,0,B|435:285|448:290|450:274,1,20,2|0,0:0|0:0,0:0:0:0:
366,318,187542,2,0,B|356:305|369:303|363:287,1,29.9999990844727,2|0,0:0|0:0,0:0:0:0:
301,360,187700,2,0,B|285:347|300:340|288:324,1,40,2|0,3:2|0:0,0:0:0:0:
120,263,187857,6,0,B|145:257|130:241|154:229,1,50,8|0,0:1|0:0,0:0:0:0:
232,216,188015,2,0,B|223:238|244:235|244:261,1,50,2|0,0:0|0:0,0:0:0:0:
215,336,188173,2,0,B|198:315|191:335|170:322,1,50,2|0,0:0|0:0,0:0:0:0:
232,216,188331,38,0,B|230:134|287:152|294:89,1,139.999995727539,2|2,3:2|3:2,0:0:0:0:
455,58,188647,6,0,B|450:63|444:61|441:65,1,17.4999994659424,2|0,0:0|0:0,0:0:0:0:
459,78,188726,2,0,B|451:77|448:72|442:72,1,17.4999994659424,2|0,0:0|0:0,0:0:0:0:
473,150,188805,2,0,B|480:153|486:151|489:155,2,17.4999994659424,2|0|2,0:0|0:0|0:0,0:0:0:0:
399,156,188963,38,0,B|393:121|375:124|368:93,1,69.9999978637696,2|0,3:2|0:0,0:0:0:0:
227,47,189121,6,0,B|229:63|219:66|218:80,1,34.9999989318848,8|0,0:1|0:0,0:0:0:0:
281,127,189279,2,0,B|277:152|264:151|259:171,1,50,2|0,0:0|0:0,0:0:0:0:
126,137,189437,38,0,B|137:148|129:152|139:165,1,25,2|0,0:0|0:0,0:0:0:0:
260,172,189594,2,0,B|192:177|214:208|176:225,1,100,2|2,0:0|3:2,0:0:0:0:
436,190,189910,6,0,B|446:192|433:198|444:203,1,18.7500007152558,2|0,0:0|0:0,0:0:0:0:
435,196,189989,2,0,B|445:198|432:204|442:210,1,18.7500007152558,2|0,0:0|0:0,0:0:0:0:
431,210,190068,38,0,B|399:243|426:268|405:292,1,75.0000028610231,2|0,0:0|0:0,0:0:0:0:
413,278,190226,2,0,B|396:235|363:248|349:219,1,75.0000028610231,2|0,3:2|0:0,0:0:0:0:
323,79,190384,6,0,B|290:80|298:96|265:104,1,50,8|0,0:1|0:0,0:0:0:0:
260,172,190542,2,0,B|269:204|283:193|298:223,1,37.5000014305115,2|0,0:0|0:0,0:0:0:0:
257,273,190700,2,0,B|233:280|241:291|219:303,1,25,2|0,0:0|0:0,0:0:0:0:
92,159,190857,38,0,B|99:191|82:188|83:221,1,37.5000014305115,2|0,3:2|0:0,0:0:0:0:
8,334,191015,6,0,B|31:311|38:327|66:309,1,50,2|0,3:2|0:0,0:0:0:0:
193,373,191173,2,0,B|161:363|172:349|142:334,1,50,8|0,0:1|0:0,0:0:0:0:
6,231,191331,38,0,B|7:218|14:214|13:199,1,25,2|0,0:0|0:0,0:0:0:0:
92,159,191489,6,0,B|92:146|85:142|86:127,1,25,2|8,3:2|0:1,0:0:0:0:
86,134,191805,38,0,B|75:133|82:97|70:97,1,37.5000014305115,2|0,3:2|0:0,0:0:0:0:
0,96,191963,6,0,B|68:90|65:127|90:135,1,100,6|0,0:2|0:0,0:0:0:0:
295,145,192279,38,0,B|297:106|322:103|317:44,1,75.0000028610231,4|0,0:1|0:0,0:0:0:0:
340,5,192437,2,0,B|306:21|291:1|243:35,1,75.0000028610231,2|0,0:0|0:0,0:0:0:0:
196,36,192595,6,0,B|227:57|217:79|272:103,1,75.0000028610231,2|2,0:0|3:2,0:0:0:0:
489,66,192910,2,0,B|488:89|477:105|475:99|463:118|463:136,1,75.0000028610231,8|0,0:1|0:0,0:0:0:0:
464,136,193068,38,0,B|473:29|409:55|412:8,2,125,2|0|0,0:0|0:0|0:0,0:0:0:0:
400,351,193542,5,2,3:2:0:0:
204,352,193700,38,0,B|201:335|210:331|210:320,1,25,2|0,0:0|0:0,0:0:0:0:
143,289,193858,2,0,B|129:278|132:269|124:261,1,25,2|0,0:0|0:0,0:0:0:0:
187,220,194016,2,0,B|199:207|195:200|202:192,1,25,2|0,3:2|0:0,0:0:0:0:
41,116,194173,6,0,B|39:101|18:101|21:71,1,50,8|0,0:1|0:0,0:0:0:0:
34,195,194331,2,0,B|25:207|34:212|29:227,1,25,2|0,0:0|0:0,0:0:0:0:
31,69,194489,38,0,B|62:172|86:145|109:198,1,150,2|0,0:0|0:0,0:0:0:0:
266,166,194805,6,0,B|217:143|168:198|193:212|174:253|129:267,1,187.799992549439,2|0,3:2|0:0,0:0:0:0:
335,203,195121,2,0,B|355:218|344:233|374:250,2,62.5999975164796,2|2|2,0:0|0:0|3:2,0:0:0:0:
321,24,195437,38,0,B|317:45|304:60|303:54|289:71|288:90,1,75.0000028610231,8|0,0:1|0:0,0:0:0:0:
266,166,195595,2,0,B|226:172|237:186|216:196,1,50,2|0,0:0|0:0,0:0:0:0:
359,128,195753,2,0,B|399:134|388:148|409:158,1,50,2|0,0:0|0:0,0:0:0:0:
212,293,195910,6,0,B|202:299|216:300|207:308,1,18.7500007152558,2|0,0:0|0:0,0:0:0:0:
203,293,195989,2,0,B|193:299|207:300|198:308,1,18.7500007152558,2|0,0:0|0:0,0:0:0:0:
193,295,196068,38,0,B|184:224|221:227|225:178,1,112.500004291535,2|0,3:2|0:0,0:0:0:0:
174,133,196226,2,0,B|171:109|146:98|146:76,2,56.2500021457673,8|2|2,0:1|0:0|0:0,0:0:0:0:
128,354,196542,6,0,B|116:353|117:374|108:373,1,18.7500007152558,2|0,3:2|0:0,0:0:0:0:
136,351,196621,2,0,B|136:356|155:361|154:370,1,18.7500007152558,2|0,0:0|0:0,0:0:0:0:
134,345,196700,38,0,B|111:323|122:308|90:284,1,62.5,8|0,0:1|0:0,0:0:0:0:
114,186,196857,6,0,B|113:198|123:199|132:210,1,18.7500007152558,2|0,0:0|0:0,0:0:0:0:
118,181,196936,2,0,B|117:193|127:194|136:205,1,18.7500007152558,2|0,0:0|0:0,0:0:0:0:
174,133,197015,38,0,B|169:107|186:111|186:84,1,31.25,0|0,3:0|0:0,0:0:0:0:
190,137,197094,2,0,B|197:112|211:125|225:100,1,31.25,2|0,0:0|0:0,0:0:0:0:
253,181,197173,6,0,B|273:217|257:225|262:251,1,57.5000010967255,2|0,0:0|0:0,0:0:0:0:
264,367,197331,38,0,B|191:265|276:259|295:266|278:266|295:258|385:250|323:156,1,262.500010013581,12|0,3:1|0:0,0:0:0:0:
383,353,197963,6,0,B|345:358|356:383|308:374,1,50,8|0,0:1|0:0,0:0:0:0:
312,308,198279,38,0,B|294:279|319:272|308:239,1,62.5,8|0,0:1|0:0,0:0:0:0:
204,147,198437,2,0,B|238:145|231:171|265:178,1,62.5,2|0,0:0|0:0,0:0:0:0:
331,168,198595,6,0,B|208:197|260:230|214:266,1,150,8|0,0:1|0:0,0:0:0:0:
151,225,198910,38,0,B|146:187|121:198|130:150,1,50,8|0,0:1|0:0,0:0:0:0:
51,46,199068,2,0,B|92:52|180:65|101:153|93:144|67:175|59:167|-19:252|38:269|128:297,1,345.000006580353,2|8,0:0|0:1,0:0:0:0:
103,289,199699,5,0,3:0:0:0:
201,60,199857,2,0,B|89:155|173:171|147:233,1,187.5,12|0,0:1|0:0,0:0:0:0:
144,226,200173,37,8,0:1:0:0:
312,308,200331,2,0,B|300:360|261:378|225:346|199:377,2,135.000000514984,2|8|2,0:0|0:1|0:0,0:0:0:0:
314,299,200805,6,0,B|325:257|293:257|296:213,1,67.5000002574921,8|0,0:1|0:0,0:0:0:0:
427,146,200963,2,0,B|384:143|393:176|350:184,1,67.5000002574921,2|0,0:0|0:0,0:0:0:0:
290,155,201121,38,0,B|281:207|366:235|364:228|465:258|403:346,1,225.000008583069,8|0,0:1|0:0,0:0:0:0:
497,363,201436,6,0,B|459:368|470:393|422:384,1,50,8|0,0:1|0:0,0:0:0:0:
418,315,201594,38,0,B|246:291|254:287|198:287|233:356|134:335,1,290.000008850098,2|2,0:0|0:0,0:0:0:0:
86,166,201989,6,0,B|71:140|113:156|109:111,1,37.5000014305115,2|0,0:0|0:0,0:0:0:0:
78,165,202068,2,0,B|81:206|50:209|53:258,1,87.500000834465,8|0,0:1|0:0,0:0:0:0:
62,351,202226,37,0,3:0:0:0:
75,359,202305,1,0,3:0:0:0:
69,363,202384,6,0,B|41:267|36:285|125:266|218:247|210:263|180:149,1,310.000002365112,12|8,0:1|0:1,0:0:0:0:
403,336,203015,37,8,0:1:0:0:
242,17,203173,6,0,B|275:95|255:151|171:83|48:176|51:263,1,340.000006484985,2|2,0:0|0:0,0:0:0:0:
248,13,203647,38,0,B|125:87|516:248|398:341,1,412.500003933907,8|0,0:1|0:0,0:0:0:0:
329,375,204121,6,0,B|298:330|319:225|402:174|537:381|547:109|418:69,1,412.500003933907,2|0,0:0|0:0,0:0:0:0:
378,58,204594,38,0,B|345:63|348:77|334:83,1,50,8|2,0:1|0:0,0:0:0:0:
404,297,204910,6,0,L|439:306,1,34.9999989318848,12|0,3:1|0:0,0:0:0:0:
289,273,205068,38,0,L|246:263,1,44.999998626709,8|0,3:1|0:0,0:0:0:0:
357,227,205226,6,0,L|367:189,1,40,8|0,3:1|0:0,0:0:0:0:
335,345,205384,38,0,L|329:375,1,29.9999990844727,8|0,3:1|0:0,0:0:0:0:
139,115,205542,6,0,L|128:62,1,55.0000016784668,8|0,3:1|0:0,0:0:0:0:
161,230,205700,38,0,L|173:293,1,64.9999970245363,8|0,3:1|0:0,0:0:0:0:
93,181,205857,6,0,L|35:194,1,59.9999981689454,8|0,3:1|0:0,0:0:0:0:
206,162,206015,38,0,L|256:153,1,50,8|0,3:1|0:0,0:0:0:0:
198,18,206173,21,8,0:3:0:0:
268,36,206252,1,8,0:3:0:0:
297,70,206331,1,8,0:3:0:0:
300,108,206410,1,8,0:3:0:0:
289,140,206489,1,8,3:3:0:0:
276,154,206568,1,8,3:3:0:0:
262,156,206647,1,8,3:3:0:0:
256,153,206726,1,8,3:3:0:0:
216,89,206805,5,12,3:3:0:0:
286,84,206884,1,12,3:3:0:0:
340,103,206963,1,12,3:3:0:0:
378,140,207042,1,12,3:3:0:0:
396,182,207121,1,4,3:3:0:0:
390,214,207200,1,4,3:3:0:0:
376,226,207279,1,4,3:3:0:0:
369,239,207357,1,4,3:3:0:0:
369,246,207436,37,6,3:1:0:0:
256,192,207515,12,0,217542,0:0:0:0:
