osu file format v14

[General]
AudioFilename: audio.mp3
AudioLeadIn: 0
PreviewTime: 55187
Countdown: 1
SampleSet: Soft
StackLeniency: 0.4
Mode: 0
LetterboxInBreaks: 0
WidescreenStoryboard: 0

[Editor]
DistanceSpacing: 1.5
BeatDivisor: 4
GridSize: 32
TimelineZoom: 1.6

[Metadata]
Title:Lights Go Down
TitleUnicode:Lights Go Down
Artist:Raise Spirit
ArtistUnicode:€‘Raise Spirit
Creator:Begissor
Version:SEX
Source:
Tags:dnb drum and bass
BeatmapID:924365
BeatmapSetID:428272

[Difficulty]
HPDrainRate:6
CircleSize:4
OverallDifficulty:8
ApproachRate:9
SliderMultiplier:1.8
SliderTickRate:1

[Events]
//Background and Video events
0,0,"anime-white-birds-sky-art-1920x1200.jpg",0,0
//Break Periods
2,33318,43552
//Storyboard Layer 0 (Background)
//Storyboard Layer 1 (Fail)
//Storyboard Layer 2 (Pass)
//Storyboard Layer 3 (Foreground)
//Storyboard Sound Samples

[TimingPoints]
15,344.827586206897,4,1,0,100,1,0
15,-133.333333333333,4,2,0,20,0,0
11049,-133.333333333333,4,2,0,30,0,0
22083,-133.333333333333,4,2,0,40,0,0
44152,-133.333333333333,4,2,0,20,0,0
46911,-117.647058823529,4,2,0,40,0,0
48290,-100,4,2,0,50,0,0
49670,-100,4,2,0,60,0,0
51049,-100,4,2,0,70,0,0
53980,-100,4,2,0,70,0,0
55187,-80,4,2,0,100,0,1
76911,-133.333333333333,4,2,0,100,0,0
77256,-80,4,2,0,100,0,1
96566,-100,4,2,0,100,0,0
99325,-80,4,2,0,100,0,0
132428,-100,4,2,0,10,0,1
132773,-100,4,2,0,15,0,1
133118,-100,4,2,0,20,0,1
133463,-100,4,2,0,25,0,1
133808,-100,4,2,0,30,0,1
134152,-100,4,2,0,35,0,1
134497,-100,4,2,0,40,0,1
134842,-100,4,2,0,45,0,1
135187,-100,4,2,0,50,0,1
135532,-100,4,2,0,55,0,1
135877,-100,4,2,0,60,0,1
136221,-100,4,2,0,65,0,1
136566,-100,4,2,0,70,0,1
136911,-100,4,2,0,75,0,1
136911,-100,4,2,0,80,0,1
137256,-100,4,2,0,85,0,1
137601,-100,4,2,0,90,0,1
137946,-100,4,2,0,100,0,0
143463,-133.333333333333,4,2,0,20,0,0

[Colours]
Combo1 : 211,211,211
Combo2 : 0,202,0
Combo3 : 18,124,255
Combo4 : 0,255,255

[HitObjects]
256,192,8290,12,0,10704,0:0:0:0:
86,101,11049,6,0,P|156:78|235:108,1,135.000005149842
295,152,11739,2,0,P|320:167|379:164,2,67.5000025749208
104,219,12428,2,0,P|106:279|172:342,1,135.000005149842
211,139,13118,2,0,L|211:70,2,67.5000025749208
263,335,13808,6,0,P|307:286|311:219,1,135.000005149842
241,147,14497,2,0,P|208:139|159:155,2,67.5000025749208
52,223,15187,2,0,P|34:119|53:67,1,135.000005149842
211,203,15877,2,0,P|219:244|204:294,2,67.5000025749208
41,92,16566,6,0,P|98:48|181:29,1,135.000005149842
137,129,17256,2,0,P|88:163|74:187,2,67.5000025749208
302,247,17946,2,0,P|372:289|435:280,1,135.000005149842
285,135,18635,2,0,P|238:157|206:187,2,67.5000025749208
171,303,19325,6,0,P|103:252|92:191,1,135.000005149842
187,207,20015,2,0,P|173:177|176:125,2,67.5000025749208
369,294,20704,2,0,P|423:256|431:170,1,135.000005149842
239,144,21394,2,0,P|217:191|217:227,2,67.5000025749208
437,191,22083,6,0,P|422:256|369:294,1,135.000005149842
266,294,22773,2,0,P|229:258|222:228,2,67.5000025749208
437,191,23463,2,0,P|422:126|368:88,1,135.000005149842
266,89,24153,2,0,P|229:125|222:155,2,67.5000025749208
386,251,24842,6,0,P|321:272|241:238,1,135.000005149842
320,172,25532,2,0,P|373:153|391:132,2,67.5000025749208
161,298,26221,2,0,P|215:352|301:354,1,135.000005149842
148,198,26911,2,0,P|98:221|72:254,2,67.5000025749208
337,271,27601,6,0,P|392:241|418:166,1,135.000005149842
316,170,28290,2,0,P|278:185|253:212,2,67.5000025749208
163,304,28980,2,0,P|118:246|134:162,1,135.000005149842
278,314,29670,2,0,P|305:328|369:316,2,67.5000025749208
162,147,30359,6,0,P|186:70|246:35,1,135.000005149842
261,136,31049,2,0,P|273:174|300:194,2,67.5000025749208
256,192,31739,12,0,33118,0:0:0:0:
81,73,44152,6,0,L|131:84,3,33.7500012874604
113,131,44497,2,0,L|163:142,3,33.7500012874604
169,93,44842,2,0,L|219:104,3,33.7500012874604
201,151,45187,2,0,L|251:162,3,33.7500012874604
258,113,45532,5,0,0:0:0:0:
291,113,45618,1,0,0:0:0:0:
323,122,45704,1,0,0:0:0:0:
351,141,45790,1,0,0:0:0:0:
372,167,45876,1,0,0:0:0:0:
385,199,45963,1,0,0:0:0:0:
388,232,46049,1,0,0:0:0:0:
380,265,46135,1,0,0:0:0:0:
364,294,46221,5,0,0:0:0:0:
340,318,46307,1,0,0:0:0:0:
310,333,46394,1,0,0:0:0:0:
277,338,46480,1,0,0:0:0:0:
243,334,46566,2,0,P|210:317|178:293,1,67.5000025749208
213,201,46911,6,0,L|260:194,3,38.2500007295609
288,239,47256,2,0,L|335:232,3,38.2500007295609
334,176,47601,2,0,L|381:169,3,38.2500007295609
409,214,47946,2,0,L|456:207,3,38.2500007295609
476,174,48290,5,0,0:0:0:0:
490,132,48376,1,0,0:0:0:0:
476,90,48462,1,0,0:0:0:0:
441,63,48548,1,0,0:0:0:0:
397,62,48635,2,0,P|323:115|220:71,1,180
113,138,49152,2,0,P|76:183|69:236,2,90
247,146,49670,6,0,L|307:165,2,45
115,176,50015,2,0,L|72:162,2,45
196,227,50359,2,0,L|177:287,2,45
166,95,50704,2,0,L|179:52,2,45
265,238,51049,6,0,L|205:219,2,45
397,208,51394,2,0,L|440:222,2,45
316,157,51738,2,0,L|335:97,2,45
346,289,52083,2,0,L|333:332,2,45
256,192,52428,12,0,53808,0:0:0:0:
63,77,53980,6,0,P|104:48|164:48,1,90
270,86,54325,2,0,P|342:140|448:110,1,180
321,41,54842,1,0,0:0:0:0:
217,128,55015,1,0,0:0:0:0:
342,240,55187,6,0,P|431:236|482:123,1,225
313,140,55705,1,0,0:0:0:0:
265,169,55791,1,0,0:0:0:0:
240,218,55877,1,0,0:0:0:0:
244,274,55963,1,0,0:0:0:0:
275,319,56049,1,0,0:0:0:0:
425,240,56222,1,0,0:0:0:0:
196,129,56395,1,0,0:0:0:0:
317,354,56567,5,0,0:0:0:0:
351,101,56740,1,0,0:0:0:0:
175,286,56912,1,0,0:0:0:0:
209,33,57084,1,0,0:0:0:0:
169,73,57170,1,0,0:0:0:0:
130,113,57256,1,0,0:0:0:0:
297,83,57429,1,0,0:0:0:0:
144,10,57602,1,0,0:0:0:0:
225,158,57774,1,0,0:0:0:0:
72,85,57947,5,0,0:0:0:0:
153,233,58119,2,0,P|224:262|281:247,1,112.5
399,165,58464,1,0,0:0:0:0:
427,117,58550,1,0,0:0:0:0:
429,61,58636,1,0,0:0:0:0:
425,230,58809,2,0,P|394:289|399:348,2,112.5
291,332,59325,6,0,P|304:236|326:198,1,112.5
221,52,59670,2,0,P|208:148|186:186,1,112.5
396,157,60015,2,0,P|300:144|262:122,1,112.5
116,227,60359,2,0,P|212:240|250:262,1,112.5
62,292,60704,6,0,P|34:216|160:156,1,225
251,272,61221,1,0,0:0:0:0:
301,296,61307,1,0,0:0:0:0:
356,304,61393,1,0,0:0:0:0:
412,296,61479,1,0,0:0:0:0:
462,271,61565,1,0,0:0:0:0:
356,141,61739,1,0,0:0:0:0:
194,335,61911,1,0,0:0:0:0:
440,274,62083,5,0,0:0:0:0:
296,184,62256,1,0,0:0:0:0:
451,118,62428,1,0,0:0:0:0:
216,23,62601,1,0,0:0:0:0:
161,36,62687,1,0,0:0:0:0:
106,49,62773,1,0,0:0:0:0:
205,179,62946,1,0,0:0:0:0:
233,99,63118,2,0,P|158:109|124:155,1,112.5
262,243,63463,6,0,P|290:173|268:120,1,112.5
122,196,63808,2,0,P|168:255|224:262,1,112.5
257,265,64066,1,0,0:0:0:0:
310,247,64152,1,0,0:0:0:0:
168,340,64325,2,0,P|105:310|60:262,2,112.5
88,190,64842,6,0,P|77:118|90:53,1,112.5
169,224,65187,2,0,P|225:178|288:157,1,112.5
180,311,65532,2,0,P|247:337|297:381,1,112.5
19,244,65877,1,0,0:0:0:0:
158,139,66049,1,0,0:0:0:0:
180,311,66221,6,0,P|246:352|395:340,1,225
321,186,66739,1,0,0:0:0:0:
270,161,66825,1,0,0:0:0:0:
215,152,66911,1,0,0:0:0:0:
160,161,66997,1,0,0:0:0:0:
109,186,67083,1,0,0:0:0:0:
439,257,67256,1,0,0:0:0:0:
313,38,67428,1,0,0:0:0:0:
312,330,67601,5,0,0:0:0:0:
439,111,67773,1,0,0:0:0:0:
186,111,67946,1,0,0:0:0:0:
439,257,68118,1,0,0:0:0:0:
419,219,68204,1,0,0:0:0:0:
397,182,68290,1,0,0:0:0:0:
313,38,68463,1,0,0:0:0:0:
186,257,68635,1,0,0:0:0:0:
375,146,68808,1,0,0:0:0:0:
249,220,68980,5,0,0:0:0:0:
313,110,69152,1,0,0:0:0:0:
375,220,69325,1,0,0:0:0:0:
249,146,69497,1,0,0:0:0:0:
216,172,69583,1,0,0:0:0:0:
197,211,69670,1,0,0:0:0:0:
311,256,69842,1,0,0:0:0:0:
313,110,70015,1,0,0:0:0:0:
375,220,70187,1,0,0:0:0:0:
156,135,70359,6,0,P|113:188|104:250,1,112.5
408,230,70704,2,0,P|393:176|356:135,1,112.5
204,211,71049,2,0,P|267:228|326:204,1,112.5
310,45,71394,2,0,P|256:31|203:48,1,112.5
135,98,71739,6,0,P|45:111|92:14,1,225
183,141,72256,1,0,0:0:0:0:
140,177,72342,1,0,0:0:0:0:
86,191,72428,1,0,0:0:0:0:
32,178,72514,1,0,0:0:0:0:
0,143,72600,1,0,0:0:0:0:
147,82,72773,1,0,0:0:0:0:
200,242,72946,1,0,0:0:0:0:
172,307,73118,6,0,P|103:321|50:297,1,112.5
174,179,73463,2,0,P|243:165|296:189,1,112.5
109,242,73808,2,0,P|95:173|119:120,1,112.5
237,244,74153,2,0,P|251:313|227:366,1,112.5
177,195,74497,6,0,P|214:171|305:204,1,112.5
348,229,74842,1,0,0:0:0:0:
239,99,75015,1,0,0:0:0:0:
183,108,75101,1,0,0:0:0:0:
136,138,75187,1,0,0:0:0:0:
101,182,75273,1,0,0:0:0:0:
85,235,75359,1,0,0:0:0:0:
249,191,75532,1,0,0:0:0:0:
20,84,75704,1,0,0:0:0:0:
188,23,75877,5,0,0:0:0:0:
81,252,76049,1,0,0:0:0:0:
203,169,76221,1,0,0:0:0:0:
65,105,76393,1,0,0:0:0:0:
166,68,76566,1,0,0:0:0:0:
102,206,76738,1,0,0:0:0:0:
196,243,76911,2,0,P|251:242|298:202,1,101.250003862381
229,154,77256,6,0,P|325:137|362:173,1,112.5
460,251,77601,1,0,0:0:0:0:
304,314,77773,1,0,0:0:0:0:
249,305,77859,1,0,0:0:0:0:
207,269,77945,1,0,0:0:0:0:
191,215,78031,1,0,0:0:0:0:
207,162,78117,1,0,0:0:0:0:
358,238,78290,1,0,0:0:0:0:
110,293,78463,1,0,0:0:0:0:
279,103,78635,5,0,0:0:0:0:
255,355,78808,1,0,0:0:0:0:
126,136,78981,1,0,0:0:0:0:
358,238,79152,1,0,0:0:0:0:
110,293,79325,1,0,0:0:0:0:
186,51,79497,1,0,0:0:0:0:
358,238,79670,1,0,0:0:0:0:
110,293,79842,1,0,0:0:0:0:
358,238,80015,6,0,P|412:178|431:106,1,112.5
300,35,80359,1,0,0:0:0:0:
154,121,80532,1,0,0:0:0:0:
121,166,80618,1,0,0:0:0:0:
105,220,80704,1,0,0:0:0:0:
109,275,80790,1,0,0:0:0:0:
131,327,80876,1,0,0:0:0:0:
220,183,81049,1,0,0:0:0:0:
55,145,81221,1,0,0:0:0:0:
288,244,81394,5,0,0:0:0:0:
453,282,81566,2,0,P|401:372|358:397,2,112.5
288,244,82083,1,0,0:0:0:0:
123,206,82256,2,0,P|175:116|218:91,1,112.5
340,308,82601,1,0,0:0:0:0:
176,347,82773,5,0,0:0:0:0:
128,184,82946,2,0,P|189:105|236:83,1,112.5
288,244,83290,1,0,0:0:0:0:
259,292,83376,1,0,0:0:0:0:
217,329,83462,1,0,0:0:0:0:
165,350,83548,1,0,0:0:0:0:
109,353,83634,1,0,0:0:0:0:
364,353,83808,1,0,0:0:0:0:
136,243,83980,1,0,0:0:0:0:
376,141,84152,5,0,0:0:0:0:
148,31,84325,1,0,0:0:0:0:
364,31,84497,1,0,0:0:0:0:
136,141,84669,1,0,0:0:0:0:
376,243,84841,1,0,0:0:0:0:
148,353,85014,1,0,0:0:0:0:
364,353,85187,1,0,0:0:0:0:
256,166,85359,1,0,0:0:0:0:
256,335,85532,5,0,0:0:0:0:
256,250,85704,2,0,L|257:119,1,112.5
160,276,86049,1,0,0:0:0:0:
203,310,86135,1,0,0:0:0:0:
258,322,86221,1,0,0:0:0:0:
312,310,86307,1,0,0:0:0:0:
356,275,86393,1,0,0:0:0:0:
140,142,86566,1,0,0:0:0:0:
52,287,86739,1,0,0:0:0:0:
460,287,86911,5,0,0:0:0:0:
372,142,87083,2,0,P|299:104|231:112,2,112.5
140,242,87601,2,0,P|213:280|281:272,1,112.5
135,149,87946,2,0,P|49:206|51:274,1,168.75
128,241,88290,6,0,B|218:249|187:181|263:193,1,112.5
394,195,88635,1,0,0:0:0:0:
280,320,88808,2,0,P|220:346|202:341,1,56.25
343,216,88980,2,0,P|379:196|409:196,2,56.25
272,179,89325,1,0,0:0:0:0:
109,224,89497,1,0,0:0:0:0:
233,109,89670,5,0,0:0:0:0:
396,64,89842,1,0,0:0:0:0:
353,227,90014,1,0,0:0:0:0:
190,272,90186,1,0,0:0:0:0:
314,157,90359,1,0,0:0:0:0:
477,112,90531,1,0,0:0:0:0:
434,275,90704,1,0,0:0:0:0:
190,344,90877,1,0,0:0:0:0:
70,226,91050,6,0,P|72:136|100:79,1,112.5
230,183,91394,1,0,0:0:0:0:
380,250,91566,1,0,0:0:0:0:
394,195,91652,1,0,0:0:0:0:
388,140,91738,1,0,0:0:0:0:
365,89,91824,1,0,0:0:0:0:
326,49,91910,1,0,0:0:0:0:
175,253,92083,1,0,0:0:0:0:
324,173,92256,1,0,0:0:0:0:
95,104,92428,5,0,0:0:0:0:
244,24,92601,1,0,0:0:0:0:
75,24,92773,1,0,0:0:0:0:
237,72,92946,1,0,0:0:0:0:
27,186,93118,1,0,0:0:0:0:
189,234,93291,1,0,0:0:0:0:
75,24,93463,1,0,0:0:0:0:
313,30,93635,1,0,0:0:0:0:
69,262,93808,6,0,P|117:336|165:351,1,112.5
234,208,94152,1,0,0:0:0:0:
331,345,94325,1,0,0:0:0:0:
373,307,94411,1,0,0:0:0:0:
398,257,94497,1,0,0:0:0:0:
405,202,94583,1,0,0:0:0:0:
391,148,94669,1,0,0:0:0:0:
155,240,94842,1,0,0:0:0:0:
324,240,95015,1,0,0:0:0:0:
276,218,95187,5,0,0:0:0:0:
202,261,95359,1,0,0:0:0:0:
292,331,95532,1,0,0:0:0:0:
186,148,95704,1,0,0:0:0:0:
129,303,95877,1,0,0:0:0:0:
349,176,96049,1,0,0:0:0:0:
166,114,96221,1,0,0:0:0:0:
312,365,96394,1,0,0:0:0:0:
362,99,96566,6,0,P|302:115|274:155,2,90
227,249,97083,2,0,P|193:278|150:285,2,90
189,119,97601,1,0,0:0:0:0:
324,269,97773,1,0,0:0:0:0:
256,192,97946,12,0,99152,0:0:0:0:
55,94,99325,6,0,P|139:63|222:88,1,168.75
213,82,99670,6,0,P|225:167|250:236,1,112.5
254,244,99928,1,0,0:0:0:0:
276,296,100015,1,0,0:0:0:0:
346,142,100187,1,0,0:0:0:0:
92,142,100359,1,0,0:0:0:0:
298,292,100532,1,0,0:0:0:0:
219,50,100704,5,0,0:0:0:0:
141,293,100877,2,0,P|193:355|268:358,1,112.5
176,200,101221,1,0,0:0:0:0:
120,195,101307,1,0,0:0:0:0:
71,220,101393,1,0,0:0:0:0:
43,268,101479,1,0,0:0:0:0:
45,324,101565,1,0,0:0:0:0:
299,324,101739,1,0,0:0:0:0:
121,144,101911,1,0,0:0:0:0:
375,144,102083,6,0,P|439:191|474:260,1,112.5
287,217,102428,1,0,0:0:0:0:
207,67,102601,2,0,P|145:31|127:29,1,56.25
241,185,102773,2,0,P|303:221|321:223,2,56.25
81,129,103118,2,0,P|73:213|99:276,1,112.5
432,239,103463,6,0,P|441:183|431:129,1,112.5
208,368,103808,2,0,P|264:377|319:367,1,112.5
319,17,104152,2,0,P|235:9|172:35,1,112.5
156,264,104497,1,0,0:0:0:0:
397,184,104670,1,0,0:0:0:0:
115,74,104842,6,0,P|156:36|208:15,1,112.5
254,171,105187,1,0,0:0:0:0:
260,85,105359,2,0,P|232:89|207:101,1,56.25
323,219,105532,2,0,P|334:192|337:165,2,56.25
269,254,105877,2,0,P|214:245|176:206,1,112.5
340,249,106221,6,0,P|294:320|256:323,1,112.5
272,154,106566,1,0,0:0:0:0:
420,239,106739,1,0,0:0:0:0:
415,294,106825,1,0,0:0:0:0:
390,344,106911,1,0,0:0:0:0:
348,381,106997,1,0,0:0:0:0:
295,400,107083,1,0,0:0:0:0:
272,154,107256,1,0,0:0:0:0:
318,315,107428,1,0,0:0:0:0:
318,69,107601,5,0,0:0:0:0:
247,311,107773,1,0,0:0:0:0:
176,69,107946,1,0,0:0:0:0:
376,221,108118,2,0,L|441:266,1,56.25
253,234,108290,2,0,L|206:201,2,56.25
372,114,108635,2,0,L|483:197,1,112.5
140,270,108980,6,0,L|29:187,1,112.5
296,142,109325,1,0,0:0:0:0:
225,384,109497,2,0,L|164:341,1,56.25
189,267,109670,2,0,L|128:224,2,56.25
358,267,110015,2,0,L|449:331,1,112.5
181,126,110359,6,0,P|104:158|66:217,1,112.5
426,178,110704,2,0,P|384:141|331:126,1,112.5
181,230,111049,1,0,0:0:0:0:
330,333,111221,1,0,0:0:0:0:
181,334,111394,1,0,0:0:0:0:
330,230,111566,1,0,0:0:0:0:
181,126,111739,5,0,0:0:0:0:
32,230,111911,1,0,0:0:0:0:
107,282,112083,1,0,0:0:0:0:
256,178,112256,1,0,0:0:0:0:
107,178,112428,1,0,0:0:0:0:
255,282,112601,1,0,0:0:0:0:
403,178,112773,1,0,0:0:0:0:
255,74,112946,1,0,0:0:0:0:
255,282,113118,6,0,P|315:339|385:353,1,112.5
178,146,113463,2,0,P|99:169|52:223,1,112.5
334,147,113808,2,0,P|353:67|330:0,1,112.5
162,39,114152,2,0,P|159:95|177:147,1,112.5
334,236,114497,6,0,P|353:316|330:384,1,112.5
162,344,114841,2,0,P|159:288|177:236,1,112.5
396,106,115187,1,0,0:0:0:0:
151,172,115359,1,0,0:0:0:0:
370,42,115532,1,0,0:0:0:0:
243,260,115704,1,0,0:0:0:0:
25,133,115877,6,0,P|69:69|130:39,1,112.5
236,145,116221,1,0,0:0:0:0:
332,284,116394,1,0,0:0:0:0:
301,330,116480,1,0,0:0:0:0:
249,350,116566,1,0,0:0:0:0:
195,337,116652,1,0,0:0:0:0:
158,296,116738,1,0,0:0:0:0:
393,199,116911,1,0,0:0:0:0:
141,171,117083,1,0,0:0:0:0:
300,369,117256,5,0,0:0:0:0:
327,117,117428,1,0,0:0:0:0:
129,276,117601,1,0,0:0:0:0:
381,304,117773,1,0,0:0:0:0:
222,106,117946,1,0,0:0:0:0:
195,358,118118,1,0,0:0:0:0:
393,199,118291,1,0,0:0:0:0:
141,171,118463,1,0,0:0:0:0:
305,135,118635,6,0,P|280:199|305:259,1,112.5
448,177,118980,1,0,0:0:0:0:
315,71,119152,1,0,0:0:0:0:
289,120,119238,1,0,0:0:0:0:
279,175,119324,1,0,0:0:0:0:
286,231,119410,1,0,0:0:0:0:
310,282,119496,1,0,0:0:0:0:
408,52,119670,1,0,0:0:0:0:
173,147,119842,1,0,0:0:0:0:
263,31,120015,5,0,0:0:0:0:
463,187,120187,1,0,0:0:0:0:
228,282,120359,1,0,0:0:0:0:
408,52,120532,1,0,0:0:0:0:
373,303,120704,1,0,0:0:0:0:
263,31,120877,1,0,0:0:0:0:
173,147,121049,2,0,P|222:90|272:65,1,112.5
306,54,121308,1,0,0:0:0:0:
362,54,121394,6,0,B|363:110|363:110|302:163,1,112.5
149,329,121739,2,0,B|149:274|149:274|210:221,1,112.5
300,255,122083,2,0,B|338:299|338:299|393:298,1,112.5
211,128,122428,2,0,B|174:85|174:85|118:85,1,112.5
238,204,122773,5,0,0:0:0:0:
399,151,122946,1,0,0:0:0:0:
249,260,123118,1,0,0:0:0:0:
376,102,123290,1,0,0:0:0:0:
288,293,123463,1,0,0:0:0:0:
336,79,123635,1,0,0:0:0:0:
342,305,123808,1,0,0:0:0:0:
281,77,123980,1,0,0:0:0:0:
220,306,124152,5,0,0:0:0:0:
158,77,124325,1,0,0:0:0:0:
97,306,124497,1,0,0:0:0:0:
343,75,124670,1,0,0:0:0:0:
282,304,124842,1,0,0:0:0:0:
98,75,125015,1,0,0:0:0:0:
159,304,125187,1,0,0:0:0:0:
221,75,125359,1,0,0:0:0:0:
126,215,125532,6,0,P|71:268|69:328,1,112.5
170,168,125877,2,0,P|96:146|43:175,1,112.5
232,182,126221,2,0,P|213:107|162:76,2,112.5
128,315,126739,1,0,0:0:0:0:
295,339,126911,6,0,P|373:281|396:232,1,112.5
211,269,127256,2,0,P|155:227|146:156,1,112.5
369,188,127601,1,0,0:0:0:0:
347,239,127687,1,0,0:0:0:0:
301,268,127773,1,0,0:0:0:0:
168,52,127946,1,0,0:0:0:0:
336,52,128118,1,0,0:0:0:0:
116,211,128290,5,0,0:0:0:0:
387,211,128463,1,0,0:0:0:0:
251,309,128635,1,0,0:0:0:0:
251,55,128808,1,0,0:0:0:0:
251,223,128980,2,0,P|282:292|334:336,1,112.5
261,161,129325,2,0,P|230:92|178:48,1,112.5
225,187,129670,6,0,P|156:218|112:270,1,112.5
287,197,130015,2,0,P|356:166|400:114,1,112.5
130,140,130359,1,0,0:0:0:0:
381,243,130532,1,0,0:0:0:0:
68,268,130704,1,0,0:0:0:0:
444,115,130877,1,0,0:0:0:0:
208,57,131049,5,0,0:0:0:0:
304,326,131221,1,0,0:0:0:0:
385,53,131394,1,0,0:0:0:0:
159,227,131566,1,0,0:0:0:0:
186,275,131652,1,0,0:0:0:0:
230,310,131738,1,0,0:0:0:0:
284,326,131824,1,0,0:0:0:0:
339,320,131910,1,0,0:0:0:0:
224,93,132083,1,0,0:0:0:0:
113,320,132256,1,0,0:0:0:0:
257,234,132428,6,0,L|309:202,3,45
356,240,132773,2,0,L|408:208,3,45
352,162,133118,2,0,L|404:130,3,45
451,168,133463,2,0,L|503:136,3,45
447,90,133808,6,0,L|395:122,3,45
348,84,134153,2,0,L|296:116,3,45
352,162,134498,2,0,L|300:194,3,45
253,156,134843,2,0,L|201:188,3,45
187,213,135187,5,0,0:0:0:0:
194,256,135273,1,0,0:0:0:0:
232,278,135359,1,0,0:0:0:0:
276,278,135445,1,0,0:0:0:0:
316,256,135532,1,0,0:0:0:0:
341,220,135618,1,0,0:0:0:0:
344,175,135704,1,0,0:0:0:0:
333,132,135790,1,0,0:0:0:0:
308,95,135877,2,0,L|260:65,3,45
202,68,136221,6,0,L|141:84,1,45
133,142,136394,2,0,L|89:153,1,45
32,214,136566,6,0,L|38:270,3,45
103,245,136911,2,0,L|108:300,3,45
174,275,137256,2,0,L|179:330,3,45
245,305,137601,2,0,L|250:360,3,45
315,157,137946,6,0,L|320:212,1,45
214,286,138118,2,0,L|209:241,1,45
280,93,138290,2,0,L|285:148,1,45
179,222,138463,2,0,L|174:177,1,45
245,29,138635,2,0,L|250:84,1,45
144,158,138808,2,0,L|139:113,1,45
280,93,138980,2,0,L|285:148,1,45
179,222,139152,2,0,L|174:177,1,45
356,266,139325,6,0,L|311:270,1,45
156,118,139497,2,0,L|200:113,1,45
330,92,139670,2,0,L|334:136,1,45
182,292,139842,2,0,L|177:247,1,45
233,38,140015,2,0,L|276:73,1,45
278,345,140187,2,0,L|235:310,1,45
102,214,140359,2,0,L|137:171,1,45
409,169,140532,2,0,L|374:212,1,45
256,192,140704,12,0,143463,0:0:0:0:
