osu file format v14

[General]
AudioFilename: Rainbowdragoneyes - The Rift.mp3
AudioLeadIn: 0
PreviewTime: 32887
Countdown: 0
SampleSet: Normal
StackLeniency: 0.7
Mode: 1
LetterboxInBreaks: 0
WidescreenStoryboard: 0

[Editor]
DistanceSpacing: 1
BeatDivisor: 4
GridSize: 32
TimelineZoom: 2

[Metadata]
Title:The Rift
TitleUnicode:The Rift
Artist:Rainbowdragoneyes
ArtistUnicode:Rainbowdragoneyes
Creator:Mew104
Version:Oni
Source:
Tags:ak1o chiptune metal retro 8 bit gameboy the secret mirror
BeatmapID:1475222
BeatmapSetID:445365

[Difficulty]
HPDrainRate:5
CircleSize:2
OverallDifficulty:5.5
ApproachRate:5
SliderMultiplier:1.4
SliderTickRate:1

[Events]
//Background and Video events
0,0,"spoopybg.jpg",0,0
//Break Periods
//Storyboard Layer 0 (Background)
//Storyboard Layer 1 (Fail)
//Storyboard Layer 2 (Pass)
//Storyboard Layer 3 (Foreground)
//Storyboard Sound Samples

[TimingPoints]
11030,342.857142857143,4,1,0,80,1,0
21915,-100,4,1,0,60,0,0
32887,-100,4,1,0,70,0,0
45230,-100,4,1,0,80,0,0
56287,-100,4,1,0,80,0,1
67172,-100,4,1,0,60,0,1
67258,-100,4,1,0,60,0,0
72658,-100,4,1,0,70,0,0
77115,-100,4,1,0,75,0,0
77458,-100,4,1,0,80,0,0
77801,-100,4,1,0,85,0,0
78230,-100,4,1,0,90,0,1
89201,-100,4,1,0,80,0,0
100172,-100,4,1,0,80,0,1
111144,-100,4,1,0,80,0,0
122115,370.37037037037,4,1,0,80,1,0
128040,397.350993377483,4,1,0,80,1,0
130821,-101.522842639594,4,1,0,80,0,0
130920,-103.092783505155,4,1,0,80,0,0
131020,-103.626943005181,4,1,0,80,0,0
131218,422.535211267606,4,1,0,80,1,0
136288,352.941176470588,4,1,0,80,1,0

[HitObjects]
256,192,11029,5,4,0:0:0:0:
256,192,11201,1,8,0:0:0:0:
256,192,11544,1,8,0:0:0:0:
256,192,11629,1,8,0:0:0:0:
256,192,11715,1,8,0:0:0:0:
256,192,11887,1,0,0:0:0:0:
256,192,12058,1,8,0:0:0:0:
256,192,12144,1,8,0:0:0:0:
256,192,12229,1,0,0:0:0:0:
256,192,12315,1,0,0:0:0:0:
256,192,12401,1,8,0:0:0:0:
256,192,12744,1,0,0:0:0:0:
256,192,12915,1,0,0:0:0:0:
256,192,13087,1,8,0:0:0:0:
256,192,13172,1,8,0:0:0:0:
256,192,13258,1,0,0:0:0:0:
256,192,13429,1,0,0:0:0:0:
256,192,13601,1,8,0:0:0:0:
256,192,13687,1,8,0:0:0:0:
256,192,13772,1,8,0:0:0:0:
256,192,13944,1,0,0:0:0:0:
256,192,14115,1,0,0:0:0:0:
256,192,14458,1,8,0:0:0:0:
256,192,14629,1,0,0:0:0:0:
256,192,14715,1,0,0:0:0:0:
256,192,14801,1,8,0:0:0:0:
256,192,14972,1,0,0:0:0:0:
256,192,15144,1,8,0:0:0:0:
256,192,15258,1,8,0:0:0:0:
256,192,15372,1,8,0:0:0:0:
256,192,15487,1,8,0:0:0:0:
256,192,15715,1,8,0:0:0:0:
256,192,15829,1,8,0:0:0:0:
256,192,16172,1,12,0:0:0:0:
256,192,16515,1,4,0:0:0:0:
256,192,16687,1,8,0:0:0:0:
256,192,17030,1,8,0:0:0:0:
256,192,17115,1,8,0:0:0:0:
256,192,17201,1,0,0:0:0:0:
256,192,17372,1,0,0:0:0:0:
256,192,17544,1,8,0:0:0:0:
256,192,17630,1,0,0:0:0:0:
256,192,17715,1,8,0:0:0:0:
256,192,17801,1,8,0:0:0:0:
256,192,17887,1,0,0:0:0:0:
256,192,18230,1,8,0:0:0:0:
256,192,18401,1,0,0:0:0:0:
256,192,18572,1,0,0:0:0:0:
256,192,18658,1,8,0:0:0:0:
256,192,18744,1,0,0:0:0:0:
256,192,18915,1,8,0:0:0:0:
256,192,19087,1,0,0:0:0:0:
256,192,19172,1,0,0:0:0:0:
256,192,19258,1,8,0:0:0:0:
256,192,19430,1,0,0:0:0:0:
256,192,19601,1,0,0:0:0:0:
256,192,19944,1,8,0:0:0:0:
256,192,20115,1,0,0:0:0:0:
256,192,20201,1,0,0:0:0:0:
256,192,20287,1,0,0:0:0:0:
256,192,20458,1,0,0:0:0:0:
256,192,20630,1,8,0:0:0:0:
256,192,20744,1,8,0:0:0:0:
256,192,20858,1,8,0:0:0:0:
256,192,20972,1,8,0:0:0:0:
256,192,21201,1,0,0:0:0:0:
256,192,21315,1,8,0:0:0:0:
256,192,21658,1,8,0:0:0:0:
256,192,22001,1,4,0:0:0:0:
256,192,22344,1,8,0:0:0:0:
256,192,22515,1,0,0:0:0:0:
256,192,22601,1,0,0:0:0:0:
256,192,22687,1,8,0:0:0:0:
256,192,22772,1,8,0:0:0:0:
256,192,22858,1,0,0:0:0:0:
256,192,23030,1,8,0:0:0:0:
256,192,23372,1,0,0:0:0:0:
256,192,23544,1,8,0:0:0:0:
256,192,23715,1,8,0:0:0:0:
256,192,24058,1,0,0:0:0:0:
256,192,24144,1,8,0:0:0:0:
256,192,24230,1,0,0:0:0:0:
256,192,24401,1,8,0:0:0:0:
256,192,24572,1,0,0:0:0:0:
256,192,24744,1,8,0:0:0:0:
256,192,25001,1,0,0:0:0:0:
256,192,25087,1,8,0:0:0:0:
256,192,25258,1,0,0:0:0:0:
256,192,25430,1,8,0:0:0:0:
256,192,25687,1,8,0:0:0:0:
256,192,25772,1,0,0:0:0:0:
256,192,25944,1,8,0:0:0:0:
256,192,26115,1,0,0:0:0:0:
256,192,26372,1,0,0:0:0:0:
256,192,26458,1,8,0:0:0:0:
256,192,26630,1,0,0:0:0:0:
256,192,26801,1,0,0:0:0:0:
256,192,26887,1,8,0:0:0:0:
256,192,26972,1,0,0:0:0:0:
256,192,27144,1,8,0:0:0:0:
256,192,27487,1,0,0:0:0:0:
256,192,27572,1,8,0:0:0:0:
256,192,27830,1,8,0:0:0:0:
256,192,28001,1,0,0:0:0:0:
256,192,28172,1,8,0:0:0:0:
256,192,28258,1,8,0:0:0:0:
256,192,28344,1,8,0:0:0:0:
256,192,28430,1,8,0:0:0:0:
256,192,28515,1,0,0:0:0:0:
256,192,28858,1,0,0:0:0:0:
256,192,29030,1,8,0:0:0:0:
256,192,29201,1,8,0:0:0:0:
256,192,29544,1,0,0:0:0:0:
256,192,29630,1,8,0:0:0:0:
256,192,29715,1,0,0:0:0:0:
256,192,29887,1,8,0:0:0:0:
256,192,30058,1,0,0:0:0:0:
256,192,30230,1,8,0:0:0:0:
256,192,30401,1,0,0:0:0:0:
256,192,30487,1,0,0:0:0:0:
256,192,30572,1,0,0:0:0:0:
256,192,30744,1,0,0:0:0:0:
256,192,30915,1,8,0:0:0:0:
256,192,31001,1,8,0:0:0:0:
256,192,31087,1,0,0:0:0:0:
256,192,31258,1,8,0:0:0:0:
256,192,31430,1,8,0:0:0:0:
256,192,31601,1,0,0:0:0:0:
256,192,31858,1,0,0:0:0:0:
256,192,31944,1,0,0:0:0:0:
256,192,32115,1,0,0:0:0:0:
256,192,32287,1,8,0:0:0:0:
256,192,32458,1,8,0:0:0:0:
256,192,32544,1,8,0:0:0:0:
256,192,32630,1,0,0:0:0:0:
256,192,32715,1,0,0:0:0:0:
256,192,32801,1,0,0:0:0:0:
256,192,32972,1,12,0:0:0:0:
256,192,33315,1,8,0:0:0:0:
256,192,33487,1,0,0:0:0:0:
256,192,33572,1,0,0:0:0:0:
256,192,33658,1,8,0:0:0:0:
256,192,33744,1,8,0:0:0:0:
256,192,33830,1,0,0:0:0:0:
256,192,34001,1,8,0:0:0:0:
256,192,34344,1,0,0:0:0:0:
256,192,34515,1,8,0:0:0:0:
256,192,34687,1,8,0:0:0:0:
256,192,35030,1,0,0:0:0:0:
256,192,35115,1,8,0:0:0:0:
256,192,35201,1,0,0:0:0:0:
256,192,35287,1,0,0:0:0:0:
256,192,35372,1,8,0:0:0:0:
256,192,35544,1,0,0:0:0:0:
256,192,35715,1,8,0:0:0:0:
256,192,35887,1,0,0:0:0:0:
256,192,35972,1,0,0:0:0:0:
256,192,36058,1,0,0:0:0:0:
256,192,36230,1,0,0:0:0:0:
256,192,36401,1,8,0:0:0:0:
256,192,36487,1,8,0:0:0:0:
256,192,36572,1,0,0:0:0:0:
256,192,36744,1,8,0:0:0:0:
256,192,36915,1,8,0:0:0:0:
256,192,37087,1,0,0:0:0:0:
256,192,37430,1,0,0:0:0:0:
256,192,37772,1,8,0:0:0:0:
256,192,37858,1,8,0:0:0:0:
256,192,37944,1,8,0:0:0:0:
256,192,38030,1,8,0:0:0:0:
256,192,38115,1,0,0:0:0:0:
256,192,38287,1,0,0:0:0:0:
256,192,38458,1,12,0:0:0:0:
256,192,38801,1,8,0:0:0:0:
256,192,38972,1,0,0:0:0:0:
256,192,39144,1,8,0:0:0:0:
256,192,39230,1,8,0:0:0:0:
256,192,39401,1,0,0:0:0:0:
256,192,39487,1,8,0:0:0:0:
256,192,39658,1,8,0:0:0:0:
256,192,39830,1,0,0:0:0:0:
256,192,40172,1,8,0:0:0:0:
256,192,40344,1,8,0:0:0:0:
256,192,40515,1,8,0:0:0:0:
256,192,40601,1,8,0:0:0:0:
256,192,40772,1,0,0:0:0:0:
256,192,40858,1,8,0:0:0:0:
256,192,41030,1,8,0:0:0:0:
256,192,41201,1,0,0:0:0:0:
256,192,41544,1,8,0:0:0:0:
256,192,41715,1,0,0:0:0:0:
256,192,41887,1,0,0:0:0:0:
256,192,41972,1,8,0:0:0:0:
256,192,42058,1,0,0:0:0:0:
256,192,42230,1,8,0:0:0:0:
256,192,42401,1,8,0:0:0:0:
256,192,42572,1,0,0:0:0:0:
256,192,42830,1,0,0:0:0:0:
256,192,42915,1,0,0:0:0:0:
256,192,43087,1,0,0:0:0:0:
256,192,43430,1,0,0:0:0:0:
256,192,43601,1,0,0:0:0:0:
256,192,43687,1,0,0:0:0:0:
256,192,43772,1,0,0:0:0:0:
256,192,43944,1,8,0:0:0:0:
256,192,44115,1,8,0:0:0:0:
256,192,44287,1,8,0:0:0:0:
256,192,44458,1,8,0:0:0:0:
256,192,44630,1,4,0:0:0:0:
256,192,44801,1,4,0:0:0:0:
256,192,45315,1,4,0:0:0:0:
256,192,45658,1,8,0:0:0:0:
256,192,45830,1,0,0:0:0:0:
256,192,45915,1,0,0:0:0:0:
256,192,46001,1,8,0:0:0:0:
256,192,46344,1,8,0:0:0:0:
256,192,46515,1,8,0:0:0:0:
256,192,46687,1,0,0:0:0:0:
256,192,46858,1,8,0:0:0:0:
256,192,46944,1,8,0:0:0:0:
256,192,47030,1,0,0:0:0:0:
256,192,47201,1,0,0:0:0:0:
256,192,47372,1,8,0:0:0:0:
256,192,47544,1,0,0:0:0:0:
256,192,47630,1,0,0:0:0:0:
256,192,47715,1,8,0:0:0:0:
256,192,48058,1,0,0:0:0:0:
256,192,48401,1,8,0:0:0:0:
256,192,48487,1,0,0:0:0:0:
256,192,48572,1,8,0:0:0:0:
256,192,48744,1,0,0:0:0:0:
256,192,48915,1,8,0:0:0:0:
256,192,49087,1,8,0:0:0:0:
256,192,49172,1,8,0:0:0:0:
256,192,49258,1,8,0:0:0:0:
256,192,49430,1,0,0:0:0:0:
256,192,49772,1,8,0:0:0:0:
256,192,49944,1,8,0:0:0:0:
256,192,50115,1,0,0:0:0:0:
256,192,50458,1,8,0:0:0:0:
256,192,50801,1,4,0:0:0:0:
256,192,51144,1,8,0:0:0:0:
256,192,51315,1,0,0:0:0:0:
256,192,51401,1,0,0:0:0:0:
256,192,51487,1,8,0:0:0:0:
256,192,51830,1,8,0:0:0:0:
256,192,52001,1,0,0:0:0:0:
256,192,52172,1,8,0:0:0:0:
256,192,52258,1,8,0:0:0:0:
256,192,52344,1,0,0:0:0:0:
256,192,52430,1,0,0:0:0:0:
256,192,52515,1,8,0:0:0:0:
256,192,52687,1,8,0:0:0:0:
256,192,52858,1,0,0:0:0:0:
256,192,53030,1,8,0:0:0:0:
256,192,53115,1,8,0:0:0:0:
256,192,53201,1,8,0:0:0:0:
256,192,53544,1,0,0:0:0:0:
256,192,53887,1,8,0:0:0:0:
256,192,54058,1,0,0:0:0:0:
256,192,54144,1,0,0:0:0:0:
256,192,54230,1,8,0:0:0:0:
256,192,54401,1,0,0:0:0:0:
256,192,54572,1,8,0:0:0:0:
256,192,54744,1,8,0:0:0:0:
256,192,54915,1,0,0:0:0:0:
256,192,55172,1,0,0:0:0:0:
256,192,55258,1,0,0:0:0:0:
256,192,55430,1,0,0:0:0:0:
256,192,55601,1,8,0:0:0:0:
256,192,55772,1,0,0:0:0:0:
256,192,55944,1,8,0:0:0:0:
256,192,56030,1,8,0:0:0:0:
256,192,56115,1,8,0:0:0:0:
256,192,56287,1,4,0:0:0:0:
256,192,56458,1,8,0:0:0:0:
256,192,56801,1,8,0:0:0:0:
256,192,56887,1,8,0:0:0:0:
256,192,56972,1,8,0:0:0:0:
256,192,57144,1,0,0:0:0:0:
256,192,57315,1,8,0:0:0:0:
256,192,57401,1,8,0:0:0:0:
256,192,57487,1,0,0:0:0:0:
256,192,57572,1,8,0:0:0:0:
256,192,57658,1,0,0:0:0:0:
256,192,58001,1,8,0:0:0:0:
256,192,58172,1,0,0:0:0:0:
256,192,58258,1,0,0:0:0:0:
256,192,58344,1,8,0:0:0:0:
256,192,58515,1,0,0:0:0:0:
256,192,58601,1,0,0:0:0:0:
256,192,58687,1,8,0:0:0:0:
256,192,58772,1,0,0:0:0:0:
256,192,58858,1,8,0:0:0:0:
256,192,59030,1,8,0:0:0:0:
256,192,59201,1,0,0:0:0:0:
256,192,59372,1,0,0:0:0:0:
256,192,59715,1,8,0:0:0:0:
256,192,59887,1,0,0:0:0:0:
256,192,59972,1,0,0:0:0:0:
256,192,60058,1,8,0:0:0:0:
256,192,60230,1,0,0:0:0:0:
256,192,60401,1,8,0:0:0:0:
256,192,60515,1,8,0:0:0:0:
256,192,60630,1,8,0:0:0:0:
256,192,60744,1,8,0:0:0:0:
256,192,60972,1,0,0:0:0:0:
256,192,61087,1,8,0:0:0:0:
256,192,61430,1,8,0:0:0:0:
256,192,61772,1,4,0:0:0:0:
256,192,61944,1,8,0:0:0:0:
256,192,62287,1,8,0:0:0:0:
256,192,62372,1,8,0:0:0:0:
256,192,62458,1,0,0:0:0:0:
256,192,62630,1,0,0:0:0:0:
256,192,62801,1,8,0:0:0:0:
256,192,62887,1,8,0:0:0:0:
256,192,62972,1,0,0:0:0:0:
256,192,63058,1,0,0:0:0:0:
256,192,63144,1,8,0:0:0:0:
256,192,63487,1,0,0:0:0:0:
256,192,63658,1,8,0:0:0:0:
256,192,63744,1,0,0:0:0:0:
256,192,63830,1,8,0:0:0:0:
256,192,64001,1,0,0:0:0:0:
256,192,64087,1,0,0:0:0:0:
256,192,64172,1,8,0:0:0:0:
256,192,64258,1,8,0:0:0:0:
256,192,64344,1,8,0:0:0:0:
256,192,64515,1,8,0:0:0:0:
256,192,64687,1,0,0:0:0:0:
256,192,64858,1,0,0:0:0:0:
256,192,65201,1,8,0:0:0:0:
256,192,65372,1,0,0:0:0:0:
256,192,65458,1,0,0:0:0:0:
256,192,65544,1,8,0:0:0:0:
256,192,65715,1,0,0:0:0:0:
256,192,65887,1,8,0:0:0:0:
256,192,66001,1,8,0:0:0:0:
256,192,66115,1,0,0:0:0:0:
256,192,66230,1,8,0:0:0:0:
256,192,66458,1,0,0:0:0:0:
256,192,66572,1,8,0:0:0:0:
256,192,66915,1,8,0:0:0:0:
256,192,67258,1,0,0:0:0:0:
256,192,67601,1,8,0:0:0:0:
256,192,67944,1,0,0:0:0:0:
256,192,68030,1,8,0:0:0:0:
256,192,68115,1,8,0:0:0:0:
256,192,68287,1,8,0:0:0:0:
256,192,68630,1,0,0:0:0:0:
256,192,68801,1,0,0:0:0:0:
256,192,68972,1,8,0:0:0:0:
256,192,69315,1,0,0:0:0:0:
256,192,69401,1,8,0:0:0:0:
256,192,69487,1,0,0:0:0:0:
256,192,69572,1,0,0:0:0:0:
256,192,69658,1,8,0:0:0:0:
256,192,69830,1,0,0:0:0:0:
256,192,70001,1,8,0:0:0:0:
256,192,70258,1,0,0:0:0:0:
256,192,70344,1,8,0:0:0:0:
256,192,70515,1,0,0:0:0:0:
256,192,70687,1,8,0:0:0:0:
256,192,70944,1,8,0:0:0:0:
256,192,71030,1,0,0:0:0:0:
256,192,71201,1,8,0:0:0:0:
256,192,71372,1,0,0:0:0:0:
256,192,71630,1,0,0:0:0:0:
256,192,71715,1,8,0:0:0:0:
256,192,71887,1,0,0:0:0:0:
256,192,71972,1,0,0:0:0:0:
256,192,72058,1,8,0:0:0:0:
256,192,72230,1,8,0:0:0:0:
256,192,72315,1,8,0:0:0:0:
256,192,72401,1,0,0:0:0:0:
256,192,72572,1,8,0:0:0:0:
256,192,72744,1,4,0:0:0:0:
256,192,73087,1,8,0:0:0:0:
256,192,73258,1,0,0:0:0:0:
256,192,73344,1,0,0:0:0:0:
256,192,73430,1,8,0:0:0:0:
256,192,73515,1,8,0:0:0:0:
256,192,73601,1,0,0:0:0:0:
256,192,73772,1,8,0:0:0:0:
256,192,74115,1,0,0:0:0:0:
256,192,74287,1,8,0:0:0:0:
256,192,74458,1,8,0:0:0:0:
256,192,74801,1,0,0:0:0:0:
256,192,74887,1,8,0:0:0:0:
256,192,74972,1,0,0:0:0:0:
256,192,75144,1,8,0:0:0:0:
256,192,75315,1,0,0:0:0:0:
256,192,75487,1,8,0:0:0:0:
256,192,75572,1,8,0:0:0:0:
256,192,75658,1,0,0:0:0:0:
256,192,75830,1,8,0:0:0:0:
256,192,76001,1,8,0:0:0:0:
256,192,76172,1,0,0:0:0:0:
256,192,76258,1,8,0:0:0:0:
256,192,76344,1,0,0:0:0:0:
256,192,76515,1,8,0:0:0:0:
256,192,76687,1,8,0:0:0:0:
256,192,76858,2,0,L|704:192,1,420
256,192,78230,1,12,0:0:0:0:
256,192,78401,1,8,0:0:0:0:
256,192,78572,1,0,0:0:0:0:
256,192,78744,1,8,0:0:0:0:
256,192,78830,1,8,0:0:0:0:
256,192,78915,1,0,0:0:0:0:
256,192,79258,1,8,0:0:0:0:
256,192,79344,1,0,0:0:0:0:
256,192,79430,1,8,0:0:0:0:
256,192,79601,1,0,0:0:0:0:
256,192,79772,1,8,0:0:0:0:
256,192,79858,1,0,0:0:0:0:
256,192,79944,1,8,0:0:0:0:
256,192,80115,1,0,0:0:0:0:
256,192,80287,1,8,0:0:0:0:
256,192,80458,1,0,0:0:0:0:
256,192,80544,1,0,0:0:0:0:
256,192,80630,1,8,0:0:0:0:
256,192,80715,1,8,0:0:0:0:
256,192,80801,1,0,0:0:0:0:
256,192,80887,1,0,0:0:0:0:
256,192,80972,1,8,0:0:0:0:
256,192,81315,1,8,0:0:0:0:
256,192,81487,1,0,0:0:0:0:
256,192,81572,1,0,0:0:0:0:
256,192,81658,1,8,0:0:0:0:
256,192,81830,1,8,0:0:0:0:
256,192,82001,1,8,0:0:0:0:
256,192,82087,1,8,0:0:0:0:
256,192,82172,1,0,0:0:0:0:
256,192,82344,1,8,0:0:0:0:
256,192,82601,1,8,0:0:0:0:
256,192,82687,1,0,0:0:0:0:
256,192,82858,1,0,0:0:0:0:
256,192,83030,1,0,0:0:0:0:
256,192,83372,1,8,0:0:0:0:
256,192,83715,1,4,0:0:0:0:
256,192,84058,1,8,0:0:0:0:
256,192,84230,1,8,0:0:0:0:
256,192,84315,1,8,0:0:0:0:
256,192,84401,1,0,0:0:0:0:
256,192,84572,1,8,0:0:0:0:
256,192,84915,1,8,0:0:0:0:
256,192,85087,1,0,0:0:0:0:
256,192,85430,1,8,0:0:0:0:
256,192,85601,1,0,0:0:0:0:
256,192,85772,1,0,0:0:0:0:
256,192,85858,1,8,0:0:0:0:
256,192,85944,1,0,0:0:0:0:
256,192,86030,1,0,0:0:0:0:
256,192,86115,1,8,0:0:0:0:
256,192,86287,1,0,0:0:0:0:
256,192,86458,1,8,0:0:0:0:
256,192,86630,1,0,0:0:0:0:
256,192,86715,1,0,0:0:0:0:
256,192,86801,1,0,0:0:0:0:
256,192,86972,1,0,0:0:0:0:
256,192,87058,1,0,0:0:0:0:
256,192,87144,1,8,0:0:0:0:
256,192,87315,1,0,0:0:0:0:
256,192,87401,1,8,0:0:0:0:
256,192,87487,1,8,0:0:0:0:
256,192,87658,1,8,0:0:0:0:
256,192,87830,1,8,0:0:0:0:
256,192,88515,1,8,0:0:0:0:
256,192,88687,1,0,0:0:0:0:
256,192,88772,1,8,0:0:0:0:
256,192,88858,1,0,0:0:0:0:
256,192,89030,1,8,0:0:0:0:
256,192,89201,1,12,0:0:0:0:
256,192,89543,1,8,0:0:0:0:
256,192,89715,1,0,0:0:0:0:
256,192,89801,1,0,0:0:0:0:
256,192,89887,1,8,0:0:0:0:
256,192,90229,1,8,0:0:0:0:
256,192,90400,1,8,0:0:0:0:
256,192,90572,1,0,0:0:0:0:
256,192,90744,1,8,0:0:0:0:
256,192,90830,1,8,0:0:0:0:
256,192,90915,1,0,0:0:0:0:
256,192,91086,1,0,0:0:0:0:
256,192,91257,1,8,0:0:0:0:
256,192,91430,1,0,0:0:0:0:
256,192,91515,1,0,0:0:0:0:
256,192,91601,1,8,0:0:0:0:
256,192,91943,1,0,0:0:0:0:
256,192,92286,1,8,0:0:0:0:
256,192,92372,1,0,0:0:0:0:
256,192,92457,1,8,0:0:0:0:
256,192,92629,1,0,0:0:0:0:
256,192,92801,1,8,0:0:0:0:
256,192,92972,1,8,0:0:0:0:
256,192,93058,1,8,0:0:0:0:
256,192,93144,1,8,0:0:0:0:
256,192,93315,1,0,0:0:0:0:
256,192,93657,1,8,0:0:0:0:
256,192,93830,1,0,0:0:0:0:
256,192,94001,1,0,0:0:0:0:
256,192,94343,1,8,0:0:0:0:
256,192,94686,1,4,0:0:0:0:
256,192,95029,1,8,0:0:0:0:
256,192,95200,1,0,0:0:0:0:
256,192,95286,1,0,0:0:0:0:
256,192,95372,1,8,0:0:0:0:
256,192,95715,1,8,0:0:0:0:
256,192,95886,1,0,0:0:0:0:
256,192,96057,1,8,0:0:0:0:
256,192,96144,1,0,0:0:0:0:
256,192,96229,1,0,0:0:0:0:
256,192,96315,1,0,0:0:0:0:
256,192,96400,1,8,0:0:0:0:
256,192,96572,1,8,0:0:0:0:
256,192,96743,1,0,0:0:0:0:
256,192,96915,1,8,0:0:0:0:
256,192,97001,1,8,0:0:0:0:
256,192,97087,1,8,0:0:0:0:
256,192,97429,1,0,0:0:0:0:
256,192,97772,1,8,0:0:0:0:
256,192,97943,1,0,0:0:0:0:
256,192,98030,1,0,0:0:0:0:
256,192,98115,1,8,0:0:0:0:
256,192,98286,1,0,0:0:0:0:
256,192,98457,1,8,0:0:0:0:
256,192,98630,1,8,0:0:0:0:
256,192,98801,1,0,0:0:0:0:
256,192,99058,1,0,0:0:0:0:
256,192,99143,1,0,0:0:0:0:
256,192,99315,1,8,0:0:0:0:
256,192,99487,1,0,0:0:0:0:
256,192,99829,1,8,0:0:0:0:
256,192,99915,1,8,0:0:0:0:
256,192,100000,1,8,0:0:0:0:
256,192,100172,1,4,0:0:0:0:
256,192,100343,1,8,0:0:0:0:
256,192,100686,1,8,0:0:0:0:
256,192,100772,1,8,0:0:0:0:
256,192,100857,1,8,0:0:0:0:
256,192,101029,1,0,0:0:0:0:
256,192,101201,1,8,0:0:0:0:
256,192,101287,1,0,0:0:0:0:
256,192,101372,1,8,0:0:0:0:
256,192,101458,1,8,0:0:0:0:
256,192,101544,1,0,0:0:0:0:
256,192,101886,1,8,0:0:0:0:
256,192,102057,1,0,0:0:0:0:
256,192,102144,1,0,0:0:0:0:
256,192,102229,1,8,0:0:0:0:
256,192,102400,1,0,0:0:0:0:
256,192,102487,1,0,0:0:0:0:
256,192,102572,1,8,0:0:0:0:
256,192,102658,1,0,0:0:0:0:
256,192,102744,1,8,0:0:0:0:
256,192,102915,1,8,0:0:0:0:
256,192,103086,1,0,0:0:0:0:
256,192,103257,1,0,0:0:0:0:
256,192,103600,1,8,0:0:0:0:
256,192,103772,1,0,0:0:0:0:
256,192,103857,1,0,0:0:0:0:
256,192,103943,1,8,0:0:0:0:
256,192,104115,1,0,0:0:0:0:
256,192,104286,1,8,0:0:0:0:
256,192,104401,1,0,0:0:0:0:
256,192,104515,1,0,0:0:0:0:
256,192,104629,1,8,0:0:0:0:
256,192,104857,1,0,0:0:0:0:
256,192,104972,1,8,0:0:0:0:
256,192,105315,1,8,0:0:0:0:
256,192,105657,1,4,0:0:0:0:
256,192,105829,1,8,0:0:0:0:
256,192,106172,1,8,0:0:0:0:
256,192,106257,1,8,0:0:0:0:
256,192,106343,1,0,0:0:0:0:
256,192,106515,1,0,0:0:0:0:
256,192,106686,1,8,0:0:0:0:
256,192,106772,1,8,0:0:0:0:
256,192,106857,1,8,0:0:0:0:
256,192,106943,1,8,0:0:0:0:
256,192,107030,1,0,0:0:0:0:
256,192,107372,1,0,0:0:0:0:
256,192,107543,1,8,0:0:0:0:
256,192,107630,1,0,0:0:0:0:
256,192,107715,1,8,0:0:0:0:
256,192,107887,1,0,0:0:0:0:
256,192,107972,1,0,0:0:0:0:
256,192,108058,1,8,0:0:0:0:
256,192,108144,1,8,0:0:0:0:
256,192,108230,1,0,0:0:0:0:
256,192,108400,1,8,0:0:0:0:
256,192,108572,1,0,0:0:0:0:
256,192,108743,1,0,0:0:0:0:
256,192,109086,1,8,0:0:0:0:
256,192,109257,1,0,0:0:0:0:
256,192,109343,1,0,0:0:0:0:
256,192,109429,1,8,0:0:0:0:
256,192,109600,1,0,0:0:0:0:
256,192,109772,1,8,0:0:0:0:
256,192,109886,1,8,0:0:0:0:
256,192,110001,1,0,0:0:0:0:
256,192,110115,1,8,0:0:0:0:
256,192,110343,1,0,0:0:0:0:
256,192,110457,1,8,0:0:0:0:
256,192,110800,1,8,0:0:0:0:
256,192,111144,1,4,0:0:0:0:
256,192,111315,1,8,0:0:0:0:
256,192,111658,1,8,0:0:0:0:
256,192,111744,1,8,0:0:0:0:
256,192,111830,1,8,0:0:0:0:
256,192,112001,1,0,0:0:0:0:
256,192,112172,1,8,0:0:0:0:
256,192,112344,1,0,0:0:0:0:
256,192,112430,1,8,0:0:0:0:
256,192,112515,1,0,0:0:0:0:
256,192,112858,1,8,0:0:0:0:
256,192,113030,1,8,0:0:0:0:
256,192,113201,1,0,0:0:0:0:
256,192,113372,1,0,0:0:0:0:
256,192,113458,1,0,0:0:0:0:
256,192,113544,1,0,0:0:0:0:
256,192,113715,1,8,0:0:0:0:
256,192,113801,1,8,0:0:0:0:
256,192,113887,1,0,0:0:0:0:
256,192,114230,1,0,0:0:0:0:
256,192,114401,1,0,0:0:0:0:
256,192,114487,1,0,0:0:0:0:
256,192,114572,1,8,0:0:0:0:
256,192,114744,1,8,0:0:0:0:
256,192,114830,1,8,0:0:0:0:
256,192,114915,1,0,0:0:0:0:
256,192,115087,1,8,0:0:0:0:
256,192,115258,1,8,0:0:0:0:
256,192,115601,1,8,0:0:0:0:
256,192,115715,1,8,0:0:0:0:
256,192,115830,1,0,0:0:0:0:
256,192,115944,1,8,0:0:0:0:
256,192,116287,1,8,0:0:0:0:
256,192,116630,1,4,0:0:0:0:
256,192,116801,1,8,0:0:0:0:
256,192,117144,1,8,0:0:0:0:
256,192,117230,1,8,0:0:0:0:
256,192,117315,1,8,0:0:0:0:
256,192,117487,1,0,0:0:0:0:
256,192,117658,1,8,0:0:0:0:
256,192,117830,1,8,0:0:0:0:
256,192,117915,1,0,0:0:0:0:
256,192,118001,1,8,0:0:0:0:
256,192,118344,1,8,0:0:0:0:
256,192,118515,1,0,0:0:0:0:
256,192,118687,1,8,0:0:0:0:
256,192,118772,1,8,0:0:0:0:
256,192,118858,1,0,0:0:0:0:
256,192,119030,1,0,0:0:0:0:
256,192,119115,1,0,0:0:0:0:
256,192,119201,1,8,0:0:0:0:
256,192,119372,1,0,0:0:0:0:
256,192,119715,1,0,0:0:0:0:
256,192,119887,1,8,0:0:0:0:
256,192,119972,1,0,0:0:0:0:
256,192,120058,1,8,0:0:0:0:
256,192,120230,1,0,0:0:0:0:
256,192,120315,1,8,0:0:0:0:
256,192,120401,1,8,0:0:0:0:
256,192,120572,1,0,0:0:0:0:
256,192,120744,1,8,0:0:0:0:
256,192,121087,1,8,0:0:0:0:
256,192,121201,1,0,0:0:0:0:
256,192,121315,1,0,0:0:0:0:
256,192,121430,1,8,0:0:0:0:
256,192,121772,1,8,0:0:0:0:
256,192,122115,1,4,0:0:0:0:
256,192,122300,1,8,0:0:0:0:
256,192,122670,1,8,0:0:0:0:
256,192,122763,1,8,0:0:0:0:
256,192,122855,1,8,0:0:0:0:
256,192,123040,1,0,0:0:0:0:
256,192,123226,1,0,0:0:0:0:
256,192,123318,1,0,0:0:0:0:
256,192,123411,1,8,0:0:0:0:
256,192,123503,1,8,0:0:0:0:
256,192,123596,1,0,0:0:0:0:
256,192,123966,1,8,0:0:0:0:
256,192,124152,1,8,0:0:0:0:
256,192,124337,1,0,0:0:0:0:
256,192,124522,1,0,0:0:0:0:
256,192,124615,1,0,0:0:0:0:
256,192,124707,1,8,0:0:0:0:
256,192,124800,1,8,0:0:0:0:
256,192,124892,1,8,0:0:0:0:
256,192,124985,1,8,0:0:0:0:
256,192,125077,1,0,0:0:0:0:
256,192,125448,1,8,0:0:0:0:
256,192,125633,1,0,0:0:0:0:
256,192,125726,1,0,0:0:0:0:
256,192,125818,1,8,0:0:0:0:
256,192,126003,1,0,0:0:0:0:
256,192,126189,1,8,0:0:0:0:
256,192,126374,1,8,0:0:0:0:
256,192,126559,1,0,0:0:0:0:
256,192,126929,1,8,0:0:0:0:
256,192,127053,1,8,0:0:0:0:
256,192,127176,1,0,0:0:0:0:
256,192,127300,1,8,0:0:0:0:
256,192,127670,1,8,0:0:0:0:
256,192,128040,1,4,0:0:0:0:
256,192,128238,1,8,0:0:0:0:
256,192,128636,1,8,0:0:0:0:
256,192,128735,1,8,0:0:0:0:
256,192,128834,1,8,0:0:0:0:
256,192,129033,1,0,0:0:0:0:
256,192,129232,1,8,0:0:0:0:
256,192,129331,1,8,0:0:0:0:
256,192,129430,1,0,0:0:0:0:
256,192,129530,1,8,0:0:0:0:
256,192,129629,1,0,0:0:0:0:
256,192,130026,1,8,0:0:0:0:
256,192,130225,1,0,0:0:0:0:
256,192,130424,1,8,0:0:0:0:
256,192,130523,1,8,0:0:0:0:
256,192,130622,1,0,0:0:0:0:
256,192,130722,1,0,0:0:0:0:
256,192,130821,1,0,0:0:0:0:
256,192,130920,1,0,0:0:0:0:
256,192,131020,1,8,0:0:0:0:
256,192,131218,1,0,0:0:0:0:
256,192,131640,1,8,0:0:0:0:
256,192,131851,1,0,0:0:0:0:
256,192,131957,1,8,0:0:0:0:
256,192,132063,1,8,0:0:0:0:
256,192,132274,1,8,0:0:0:0:
256,192,132485,1,0,0:0:0:0:
256,192,132696,1,8,0:0:0:0:
256,192,132908,1,8,0:0:0:0:
256,192,133048,1,8,0:0:0:0:
256,192,133189,1,0,0:0:0:0:
256,192,133330,1,8,0:0:0:0:
256,192,133471,1,0,0:0:0:0:
256,192,133612,1,0,0:0:0:0:
256,192,133753,1,12,0:0:0:0:
