osu file format v14

[General]
AudioFilename: Rainbowdragoneyes - The Rift.mp3
AudioLeadIn: 0
PreviewTime: 32887
Countdown: 0
SampleSet: Normal
StackLeniency: 0.7
Mode: 1
LetterboxInBreaks: 0
WidescreenStoryboard: 0

[Editor]
DistanceSpacing: 1
BeatDivisor: 4
GridSize: 32
TimelineZoom: 1.6

[Metadata]
Title:The Rift
TitleUnicode:The Rift
Artist:Rainbowdragoneyes
ArtistUnicode:Rainbowdragoneyes
Creator:Mew104
Version:Muzukashii
Source:
Tags:ak1o chiptune metal retro 8 bit gameboy the secret mirror
BeatmapID:1447591
BeatmapSetID:445365

[Difficulty]
HPDrainRate:5
CircleSize:5
OverallDifficulty:5
ApproachRate:5
SliderMultiplier:1.4
SliderTickRate:1

[Events]
//Background and Video events
0,0,"spoopybg.jpg",0,0
//Break Periods
//Storyboard Layer 0 (Background)
//Storyboard Layer 1 (Fail)
//Storyboard Layer 2 (Pass)
//Storyboard Layer 3 (Foreground)
//Storyboard Sound Samples

[TimingPoints]
11030,342.857142857143,4,1,0,80,1,0
21915,-100,4,1,0,60,0,0
32887,-100,4,1,0,70,0,0
45230,-100,4,1,0,80,0,0
56287,-100,4,1,0,80,0,1
67172,-100,4,1,0,60,0,1
67258,-100,4,1,0,60,0,0
72658,-100,4,1,0,70,0,0
77115,-100,4,1,0,75,0,0
77458,-100,4,1,0,80,0,0
78230,-100,4,1,0,90,0,1
89201,-100,4,1,0,80,0,0
100172,-100,4,1,0,80,0,1
111144,-100,4,1,0,80,0,0
122115,370.37037037037,4,1,0,80,1,0
127670,-101.522842639594,4,1,0,80,0,0
127855,-103.092783505155,4,1,0,80,0,0
128040,397.350993377483,4,1,0,80,1,0
130821,-101.522842639594,4,1,0,80,0,0
131020,-103.092783505155,4,1,0,80,0,0
131218,422.535211267606,4,1,0,80,1,0
136288,352.941176470588,4,1,0,80,1,0

[HitObjects]
256,192,11029,5,4,0:0:0:0:
256,192,11201,1,8,0:0:0:0:
256,192,11544,1,8,0:0:0:0:
256,192,11715,1,8,0:0:0:0:
256,192,12058,1,8,0:0:0:0:
256,192,12229,1,8,0:0:0:0:
256,192,12401,1,0,0:0:0:0:
256,192,12572,1,8,0:0:0:0:
256,192,12744,1,0,0:0:0:0:
256,192,13087,1,8,0:0:0:0:
256,192,13429,1,0,0:0:0:0:
256,192,13601,1,8,0:0:0:0:
256,192,13687,1,8,0:0:0:0:
256,192,13772,1,8,0:0:0:0:
256,192,13944,1,0,0:0:0:0:
256,192,14115,1,0,0:0:0:0:
256,192,14458,1,8,0:0:0:0:
256,192,14801,1,0,0:0:0:0:
256,192,14972,1,8,0:0:0:0:
256,192,15144,1,8,0:0:0:0:
256,192,15487,1,8,0:0:0:0:
256,192,15601,1,8,0:0:0:0:
256,192,15715,1,8,0:0:0:0:
256,192,15829,1,8,0:0:0:0:
256,192,16515,1,4,0:0:0:0:
256,192,16687,1,8,0:0:0:0:
256,192,17030,1,8,0:0:0:0:
256,192,17201,1,8,0:0:0:0:
256,192,17544,1,8,0:0:0:0:
256,192,17715,1,0,0:0:0:0:
256,192,17887,1,8,0:0:0:0:
256,192,18058,1,8,0:0:0:0:
256,192,18230,1,0,0:0:0:0:
256,192,18572,1,8,0:0:0:0:
256,192,18915,1,0,0:0:0:0:
256,192,19087,1,8,0:0:0:0:
256,192,19172,1,8,0:0:0:0:
256,192,19258,1,8,0:0:0:0:
256,192,19430,1,0,0:0:0:0:
256,192,19601,1,8,0:0:0:0:
256,192,19944,1,8,0:0:0:0:
256,192,20287,1,0,0:0:0:0:
256,192,20458,1,0,0:0:0:0:
256,192,20630,1,8,0:0:0:0:
256,192,20972,1,0,0:0:0:0:
256,192,21087,1,0,0:0:0:0:
256,192,21201,1,0,0:0:0:0:
256,192,21315,1,0,0:0:0:0:
256,192,22001,1,4,0:0:0:0:
256,192,22344,1,8,0:0:0:0:
256,192,22515,1,8,0:0:0:0:
256,192,22687,1,0,0:0:0:0:
256,192,23030,1,8,0:0:0:0:
256,192,23372,1,0,0:0:0:0:
256,192,23715,1,8,0:0:0:0:
256,192,24058,1,0,0:0:0:0:
256,192,24144,1,0,0:0:0:0:
256,192,24230,1,0,0:0:0:0:
256,192,24401,1,8,0:0:0:0:
256,192,24744,1,0,0:0:0:0:
256,192,25001,1,8,0:0:0:0:
256,192,25087,1,8,0:0:0:0:
256,192,25258,1,8,0:0:0:0:
256,192,25430,1,0,0:0:0:0:
256,192,25687,1,8,0:0:0:0:
256,192,25772,1,8,0:0:0:0:
256,192,25944,1,0,0:0:0:0:
256,192,26115,1,0,0:0:0:0:
256,192,26458,1,0,0:0:0:0:
256,192,26801,1,8,0:0:0:0:
256,192,27487,1,0,0:0:0:0:
256,192,27830,1,8,0:0:0:0:
256,192,28001,1,8,0:0:0:0:
256,192,28172,1,0,0:0:0:0:
256,192,28515,1,8,0:0:0:0:
256,192,28858,1,0,0:0:0:0:
256,192,29030,1,8,0:0:0:0:
256,192,29201,1,8,0:0:0:0:
256,192,29544,1,8,0:0:0:0:
256,192,29887,1,0,0:0:0:0:
256,192,30230,1,8,0:0:0:0:
256,192,30401,1,0,0:0:0:0:
256,192,30487,1,0,0:0:0:0:
256,192,30572,1,0,0:0:0:0:
256,192,30744,1,0,0:0:0:0:
256,192,30915,1,8,0:0:0:0:
256,192,31258,1,8,0:0:0:0:
256,192,31430,1,8,0:0:0:0:
256,192,31601,1,0,0:0:0:0:
256,192,31944,1,0,0:0:0:0:
256,192,32287,1,8,0:0:0:0:
256,192,32972,1,4,0:0:0:0:
256,192,33315,1,8,0:0:0:0:
256,192,33658,1,8,0:0:0:0:
256,192,33830,1,0,0:0:0:0:
256,192,34001,1,8,0:0:0:0:
256,192,34344,1,0,0:0:0:0:
256,192,34515,1,8,0:0:0:0:
256,192,34687,1,0,0:0:0:0:
256,192,35030,1,8,0:0:0:0:
256,192,35372,1,0,0:0:0:0:
256,192,35715,1,8,0:0:0:0:
256,192,35887,1,8,0:0:0:0:
256,192,36058,1,0,0:0:0:0:
256,192,36230,1,0,0:0:0:0:
256,192,36401,1,8,0:0:0:0:
256,192,36572,1,0,0:0:0:0:
256,192,36744,1,8,0:0:0:0:
256,192,36915,1,8,0:0:0:0:
256,192,37087,1,0,0:0:0:0:
256,192,37430,1,0,0:0:0:0:
256,192,37772,1,8,0:0:0:0:
256,192,38458,1,4,0:0:0:0:
256,192,38801,1,8,0:0:0:0:
256,192,39144,1,8,0:0:0:0:
256,192,39230,1,8,0:0:0:0:
256,192,39487,1,8,0:0:0:0:
256,192,39658,1,8,0:0:0:0:
256,192,39830,1,0,0:0:0:0:
256,192,40172,1,8,0:0:0:0:
256,192,40344,1,8,0:0:0:0:
256,192,40515,1,8,0:0:0:0:
256,192,40601,1,8,0:0:0:0:
256,192,40858,1,8,0:0:0:0:
256,192,41030,1,8,0:0:0:0:
256,192,41201,1,0,0:0:0:0:
256,192,41544,1,8,0:0:0:0:
256,192,41715,1,0,0:0:0:0:
256,192,41887,1,8,0:0:0:0:
256,192,41972,1,8,0:0:0:0:
256,192,42230,1,0,0:0:0:0:
256,192,42401,1,8,0:0:0:0:
256,192,42572,1,0,0:0:0:0:
256,192,42915,1,8,0:0:0:0:
256,192,43087,1,8,0:0:0:0:
256,192,43430,1,8,0:0:0:0:
256,192,43601,1,8,0:0:0:0:
256,192,43772,1,8,0:0:0:0:
256,192,43944,1,0,0:0:0:0:
256,192,44115,1,0,0:0:0:0:
256,192,44287,1,0,0:0:0:0:
256,192,44372,1,0,0:0:0:0:
256,192,44458,1,0,0:0:0:0:
256,192,44630,1,4,0:0:0:0:
256,192,44801,1,4,0:0:0:0:
256,192,45315,1,4,0:0:0:0:
256,192,45658,1,8,0:0:0:0:
256,192,45830,1,0,0:0:0:0:
256,192,46001,1,8,0:0:0:0:
256,192,46344,1,8,0:0:0:0:
256,192,46687,1,8,0:0:0:0:
256,192,46858,1,8,0:0:0:0:
256,192,47030,1,0,0:0:0:0:
256,192,47372,1,8,0:0:0:0:
256,192,48058,1,0,0:0:0:0:
256,192,48401,1,0,0:0:0:0:
256,192,48572,1,8,0:0:0:0:
256,192,48744,1,0,0:0:0:0:
256,192,49087,1,8,0:0:0:0:
256,192,49430,1,0,0:0:0:0:
256,192,49601,1,0,0:0:0:0:
256,192,49772,1,8,0:0:0:0:
256,192,49944,1,8,0:0:0:0:
256,192,50115,1,0,0:0:0:0:
256,192,50458,1,8,0:0:0:0:
256,192,50801,1,4,0:0:0:0:
256,192,51144,1,8,0:0:0:0:
256,192,51315,1,8,0:0:0:0:
256,192,51401,1,8,0:0:0:0:
256,192,51487,1,8,0:0:0:0:
256,192,51830,1,0,0:0:0:0:
256,192,52172,1,8,0:0:0:0:
256,192,52344,1,8,0:0:0:0:
256,192,52515,1,0,0:0:0:0:
256,192,52687,1,0,0:0:0:0:
256,192,52858,1,8,0:0:0:0:
256,192,53544,1,0,0:0:0:0:
256,192,53887,1,8,0:0:0:0:
256,192,54058,1,0,0:0:0:0:
256,192,54230,1,8,0:0:0:0:
256,192,54572,1,8,0:0:0:0:
256,192,54744,1,0,0:0:0:0:
256,192,54830,1,0,0:0:0:0:
256,192,54915,1,0,0:0:0:0:
256,192,55087,1,8,0:0:0:0:
256,192,55258,1,0,0:0:0:0:
256,192,55601,1,8,0:0:0:0:
256,192,55944,1,8,0:0:0:0:
256,192,56287,1,4,0:0:0:0:
256,192,56458,1,8,0:0:0:0:
256,192,56801,1,8,0:0:0:0:
256,192,56887,1,8,0:0:0:0:
256,192,56972,1,8,0:0:0:0:
256,192,57144,1,0,0:0:0:0:
256,192,57315,1,8,0:0:0:0:
256,192,57487,1,8,0:0:0:0:
256,192,57658,1,0,0:0:0:0:
256,192,58001,1,8,0:0:0:0:
256,192,58344,1,8,0:0:0:0:
256,192,58515,1,0,0:0:0:0:
256,192,58601,1,0,0:0:0:0:
256,192,58687,1,0,0:0:0:0:
256,192,58858,1,8,0:0:0:0:
256,192,59030,1,8,0:0:0:0:
256,192,59201,1,0,0:0:0:0:
256,192,59372,1,0,0:0:0:0:
256,192,59715,1,8,0:0:0:0:
256,192,60058,1,8,0:0:0:0:
256,192,60144,1,8,0:0:0:0:
256,192,60230,1,8,0:0:0:0:
256,192,60401,1,0,0:0:0:0:
256,192,60744,1,8,0:0:0:0:
256,192,60859,1,8,0:0:0:0:
256,192,60973,1,8,0:0:0:0:
256,192,61087,1,8,0:0:0:0:
256,192,61772,1,4,0:0:0:0:
256,192,61944,1,8,0:0:0:0:
256,192,62287,1,8,0:0:0:0:
256,192,62372,1,8,0:0:0:0:
256,192,62458,1,8,0:0:0:0:
256,192,62630,1,0,0:0:0:0:
256,192,62801,1,0,0:0:0:0:
256,192,62972,1,8,0:0:0:0:
256,192,63144,1,8,0:0:0:0:
256,192,63487,1,0,0:0:0:0:
256,192,63830,1,8,0:0:0:0:
256,192,64001,1,0,0:0:0:0:
256,192,64172,1,8,0:0:0:0:
256,192,64258,1,8,0:0:0:0:
256,192,64344,1,8,0:0:0:0:
256,192,64515,1,8,0:0:0:0:
256,192,64687,1,0,0:0:0:0:
256,192,64858,1,0,0:0:0:0:
256,192,65201,1,8,0:0:0:0:
256,192,65544,1,0,0:0:0:0:
256,192,65630,1,0,0:0:0:0:
256,192,65715,1,0,0:0:0:0:
256,192,65887,1,8,0:0:0:0:
256,192,66230,1,0,0:0:0:0:
256,192,66344,1,0,0:0:0:0:
256,192,66458,1,0,0:0:0:0:
256,192,66572,1,0,0:0:0:0:
256,192,67258,1,0,0:0:0:0:
256,192,67601,1,8,0:0:0:0:
256,192,67772,1,8,0:0:0:0:
256,192,67944,1,0,0:0:0:0:
256,192,68287,1,8,0:0:0:0:
256,192,68630,1,0,0:0:0:0:
256,192,68972,1,8,0:0:0:0:
256,192,69315,1,0,0:0:0:0:
256,192,69487,1,0,0:0:0:0:
256,192,69658,1,8,0:0:0:0:
256,192,70001,1,0,0:0:0:0:
256,192,70258,1,8,0:0:0:0:
256,192,70344,1,8,0:0:0:0:
256,192,70515,1,0,0:0:0:0:
256,192,70687,1,8,0:0:0:0:
256,192,70944,1,8,0:0:0:0:
256,192,71029,1,8,0:0:0:0:
256,192,71201,1,8,0:0:0:0:
256,192,71372,1,0,0:0:0:0:
256,192,71887,1,0,0:0:0:0:
256,192,71972,1,0,0:0:0:0:
256,192,72058,1,0,0:0:0:0:
256,192,72230,1,8,0:0:0:0:
256,192,72401,1,0,0:0:0:0:
256,192,72572,1,8,0:0:0:0:
256,192,72744,1,4,0:0:0:0:
256,192,73087,1,8,0:0:0:0:
256,192,73430,1,0,0:0:0:0:
256,192,73601,1,0,0:0:0:0:
256,192,73772,1,8,0:0:0:0:
256,192,74115,1,8,0:0:0:0:
256,192,74287,1,0,0:0:0:0:
256,192,74458,1,8,0:0:0:0:
256,192,74630,1,8,0:0:0:0:
256,192,74801,1,0,0:0:0:0:
256,192,75144,1,8,0:0:0:0:
256,192,75487,1,0,0:0:0:0:
256,192,75658,1,8,0:0:0:0:
256,192,75830,1,8,0:0:0:0:
256,192,76001,1,0,0:0:0:0:
256,192,76172,1,8,0:0:0:0:
256,192,76515,1,8,0:0:0:0:
256,192,76858,2,0,L|544:192,1,280
256,192,78230,1,12,0:0:0:0:
256,192,78401,1,8,0:0:0:0:
256,192,78572,1,0,0:0:0:0:
256,192,78744,1,8,0:0:0:0:
256,192,78915,1,0,0:0:0:0:
256,192,79258,1,8,0:0:0:0:
256,192,79430,1,8,0:0:0:0:
256,192,79601,1,0,0:0:0:0:
256,192,79772,1,8,0:0:0:0:
256,192,79944,1,8,0:0:0:0:
256,192,80287,1,8,0:0:0:0:
256,192,80372,1,8,0:0:0:0:
256,192,80458,1,8,0:0:0:0:
256,192,80630,1,0,0:0:0:0:
256,192,80801,1,8,0:0:0:0:
256,192,80972,1,0,0:0:0:0:
256,192,81315,1,8,0:0:0:0:
256,192,81401,1,8,0:0:0:0:
256,192,81487,1,8,0:0:0:0:
256,192,81658,1,0,0:0:0:0:
256,192,81830,1,8,0:0:0:0:
256,192,82001,1,0,0:0:0:0:
256,192,82172,1,0,0:0:0:0:
256,192,82344,1,8,0:0:0:0:
256,192,82601,1,0,0:0:0:0:
256,192,82687,1,0,0:0:0:0:
256,192,82858,1,0,0:0:0:0:
256,192,83030,1,0,0:0:0:0:
256,192,83715,1,4,0:0:0:0:
256,192,84058,1,8,0:0:0:0:
256,192,84230,1,8,0:0:0:0:
256,192,84401,1,0,0:0:0:0:
256,192,84572,1,8,0:0:0:0:
256,192,84915,1,8,0:0:0:0:
256,192,85087,1,8,0:0:0:0:
256,192,85430,1,8,0:0:0:0:
256,192,85601,1,0,0:0:0:0:
256,192,85772,1,0,0:0:0:0:
256,192,85858,1,0,0:0:0:0:
256,192,85944,1,0,0:0:0:0:
256,192,86115,1,8,0:0:0:0:
256,192,86287,1,0,0:0:0:0:
256,192,86458,1,8,0:0:0:0:
256,192,86801,1,8,0:0:0:0:
256,192,86972,1,0,0:0:0:0:
256,192,87144,1,8,0:0:0:0:
256,192,87315,1,0,0:0:0:0:
256,192,87487,1,8,0:0:0:0:
256,192,87658,1,8,0:0:0:0:
256,192,87830,1,8,0:0:0:0:
256,192,88515,1,8,0:0:0:0:
256,192,88772,1,8,0:0:0:0:
256,192,89030,1,8,0:0:0:0:
256,192,89201,1,4,0:0:0:0:
256,192,89544,1,8,0:0:0:0:
256,192,89887,1,8,0:0:0:0:
256,192,90230,1,0,0:0:0:0:
256,192,90573,1,8,0:0:0:0:
256,192,90744,1,8,0:0:0:0:
256,192,90916,1,0,0:0:0:0:
256,192,91258,1,8,0:0:0:0:
256,192,91944,1,0,0:0:0:0:
256,192,92287,1,0,0:0:0:0:
256,192,92458,1,8,0:0:0:0:
256,192,92630,1,0,0:0:0:0:
256,192,92973,1,8,0:0:0:0:
256,192,93315,1,0,0:0:0:0:
256,192,93487,1,0,0:0:0:0:
256,192,93658,1,8,0:0:0:0:
256,192,93830,1,8,0:0:0:0:
256,192,94001,1,0,0:0:0:0:
256,192,94344,1,8,0:0:0:0:
256,192,94687,1,4,0:0:0:0:
256,192,95030,1,8,0:0:0:0:
256,192,95201,1,8,0:0:0:0:
256,192,95287,1,8,0:0:0:0:
256,192,95372,1,8,0:0:0:0:
256,192,95715,1,0,0:0:0:0:
256,192,96058,1,8,0:0:0:0:
256,192,96230,1,8,0:0:0:0:
256,192,96401,1,0,0:0:0:0:
256,192,96573,1,0,0:0:0:0:
256,192,96744,1,8,0:0:0:0:
256,192,97430,1,0,0:0:0:0:
256,192,97773,1,8,0:0:0:0:
256,192,97944,1,0,0:0:0:0:
256,192,98116,1,8,0:0:0:0:
256,192,98458,1,8,0:0:0:0:
256,192,98630,1,0,0:0:0:0:
256,192,98715,1,0,0:0:0:0:
256,192,98801,1,0,0:0:0:0:
256,192,99144,1,8,0:0:0:0:
256,192,99487,1,0,0:0:0:0:
256,192,100172,1,4,0:0:0:0:
256,192,100343,1,8,0:0:0:0:
256,192,100686,1,8,0:0:0:0:
256,192,100772,1,8,0:0:0:0:
256,192,100857,1,8,0:0:0:0:
256,192,101029,1,0,0:0:0:0:
256,192,101200,1,8,0:0:0:0:
256,192,101372,1,8,0:0:0:0:
256,192,101543,1,0,0:0:0:0:
256,192,101715,1,8,0:0:0:0:
256,192,101886,1,8,0:0:0:0:
256,192,102230,1,8,0:0:0:0:
256,192,102401,1,0,0:0:0:0:
256,192,102487,1,0,0:0:0:0:
256,192,102572,1,0,0:0:0:0:
256,192,102743,1,8,0:0:0:0:
256,192,102915,1,8,0:0:0:0:
256,192,103086,1,0,0:0:0:0:
256,192,103257,1,0,0:0:0:0:
256,192,103601,1,8,0:0:0:0:
256,192,103944,1,8,0:0:0:0:
256,192,104030,1,8,0:0:0:0:
256,192,104115,1,8,0:0:0:0:
256,192,104287,1,0,0:0:0:0:
256,192,104630,1,8,0:0:0:0:
256,192,104744,1,8,0:0:0:0:
256,192,104858,1,8,0:0:0:0:
256,192,104972,1,8,0:0:0:0:
256,192,105657,1,4,0:0:0:0:
256,192,105829,1,8,0:0:0:0:
256,192,106172,1,8,0:0:0:0:
256,192,106257,1,8,0:0:0:0:
256,192,106343,1,8,0:0:0:0:
256,192,106515,1,0,0:0:0:0:
256,192,106686,1,0,0:0:0:0:
256,192,106857,1,8,0:0:0:0:
256,192,107029,1,8,0:0:0:0:
256,192,107201,1,8,0:0:0:0:
256,192,107372,1,0,0:0:0:0:
256,192,107715,1,8,0:0:0:0:
256,192,107887,1,0,0:0:0:0:
256,192,108058,1,8,0:0:0:0:
256,192,108144,1,8,0:0:0:0:
256,192,108229,1,8,0:0:0:0:
256,192,108400,1,8,0:0:0:0:
256,192,108572,1,0,0:0:0:0:
256,192,108743,1,0,0:0:0:0:
256,192,109086,1,8,0:0:0:0:
256,192,109430,1,0,0:0:0:0:
256,192,109515,1,0,0:0:0:0:
256,192,109601,1,0,0:0:0:0:
256,192,109772,1,8,0:0:0:0:
256,192,110115,1,0,0:0:0:0:
256,192,110230,1,0,0:0:0:0:
256,192,110344,1,0,0:0:0:0:
256,192,110458,1,0,0:0:0:0:
256,192,110801,1,8,0:0:0:0:
256,192,111144,1,4,0:0:0:0:
256,192,111658,1,0,0:0:0:0:
256,192,111830,1,8,0:0:0:0:
256,192,112172,1,0,0:0:0:0:
256,192,112515,1,0,0:0:0:0:
256,192,112687,1,8,0:0:0:0:
256,192,112858,1,8,0:0:0:0:
256,192,113030,1,0,0:0:0:0:
256,192,113201,1,8,0:0:0:0:
256,192,113544,1,8,0:0:0:0:
256,192,113715,1,8,0:0:0:0:
256,192,113801,1,8,0:0:0:0:
256,192,113887,1,8,0:0:0:0:
256,192,114058,1,0,0:0:0:0:
256,192,114230,1,0,0:0:0:0:
256,192,114572,1,8,0:0:0:0:
256,192,114915,1,0,0:0:0:0:
256,192,115087,1,0,0:0:0:0:
256,192,115258,1,8,0:0:0:0:
256,192,115601,1,0,0:0:0:0:
256,192,115944,1,8,0:0:0:0:
256,192,116115,1,0,0:0:0:0:
256,192,116287,1,8,0:0:0:0:
256,192,116372,1,8,0:0:0:0:
256,192,116458,1,8,0:0:0:0:
256,192,116630,1,4,0:0:0:0:
256,192,117144,1,0,0:0:0:0:
256,192,117315,1,8,0:0:0:0:
256,192,117658,1,0,0:0:0:0:
256,192,118001,1,0,0:0:0:0:
256,192,118172,1,8,0:0:0:0:
256,192,118344,1,8,0:0:0:0:
256,192,118515,1,8,0:0:0:0:
256,192,118687,1,0,0:0:0:0:
256,192,119030,1,8,0:0:0:0:
256,192,119201,1,0,0:0:0:0:
256,192,119287,1,0,0:0:0:0:
256,192,119372,1,0,0:0:0:0:
256,192,119544,1,8,0:0:0:0:
256,192,119715,1,0,0:0:0:0:
256,192,120058,1,8,0:0:0:0:
256,192,120401,1,0,0:0:0:0:
256,192,120572,1,8,0:0:0:0:
256,192,120744,1,8,0:0:0:0:
256,192,120915,1,0,0:0:0:0:
256,192,121001,1,0,0:0:0:0:
256,192,121087,1,0,0:0:0:0:
256,192,121258,1,0,0:0:0:0:
256,192,121430,1,8,0:0:0:0:
256,192,121772,1,8,0:0:0:0:
256,192,122115,1,4,0:0:0:0:
256,192,122670,1,8,0:0:0:0:
256,192,122763,1,8,0:0:0:0:
256,192,122855,1,8,0:0:0:0:
256,192,123226,1,8,0:0:0:0:
256,192,123596,1,0,0:0:0:0:
256,192,123966,1,8,0:0:0:0:
256,192,124152,1,8,0:0:0:0:
256,192,124337,1,0,0:0:0:0:
256,192,124707,1,8,0:0:0:0:
256,192,124892,1,8,0:0:0:0:
256,192,124985,1,8,0:0:0:0:
256,192,125077,1,8,0:0:0:0:
256,192,125263,1,0,0:0:0:0:
256,192,125448,1,0,0:0:0:0:
256,192,125818,1,8,0:0:0:0:
256,192,126189,1,0,0:0:0:0:
256,192,126374,1,8,0:0:0:0:
256,192,126559,1,8,0:0:0:0:
256,192,126929,1,0,0:0:0:0:
256,192,127300,1,8,0:0:0:0:
256,192,127485,1,0,0:0:0:0:
256,192,127577,1,0,0:0:0:0:
256,192,127670,1,0,0:0:0:0:
256,192,127855,1,8,0:0:0:0:
256,192,128040,1,4,0:0:0:0:
256,192,128636,1,8,0:0:0:0:
256,192,128735,1,8,0:0:0:0:
256,192,128834,1,8,0:0:0:0:
256,192,129232,1,8,0:0:0:0:
256,192,129629,1,0,0:0:0:0:
256,192,130026,1,8,0:0:0:0:
256,192,130225,1,0,0:0:0:0:
256,192,130324,1,0,0:0:0:0:
256,192,130424,1,0,0:0:0:0:
256,192,130622,1,8,0:0:0:0:
256,192,130821,1,8,0:0:0:0:
256,192,131020,1,8,0:0:0:0:
256,192,131218,1,0,0:0:0:0:
256,192,131640,1,8,0:0:0:0:
256,192,131851,1,0,0:0:0:0:
256,192,132063,1,8,0:0:0:0:
256,192,132485,1,0,0:0:0:0:
256,192,132908,1,8,0:0:0:0:
256,192,133048,1,8,0:0:0:0:
256,192,133189,1,8,0:0:0:0:
256,192,133330,1,8,0:0:0:0:
256,192,133753,1,12,0:0:0:0:
