osu file format v14

[General]
AudioFilename: Rainbowdragoneyes - The Rift.mp3
AudioLeadIn: 0
PreviewTime: 32887
Countdown: 0
SampleSet: Normal
StackLeniency: 0.7
Mode: 1
LetterboxInBreaks: 0
WidescreenStoryboard: 0

[Editor]
DistanceSpacing: 0.8
BeatDivisor: 4
GridSize: 32
TimelineZoom: 0.9999998

[Metadata]
Title:The Rift
TitleUnicode:The Rift
Artist:Rainbowdragoneyes
ArtistUnicode:Rainbowdragoneyes
Creator:Mew104
Version:Kantan
Source:
Tags:ak1o chiptune metal retro 8 bit gameboy the secret mirror
BeatmapID:1447590
BeatmapSetID:445365

[Difficulty]
HPDrainRate:7
CircleSize:2
OverallDifficulty:3
ApproachRate:5
SliderMultiplier:1.4
SliderTickRate:1

[Events]
//Background and Video events
0,0,"spoopybg.jpg",0,0
//Break Periods
//Storyboard Layer 0 (Background)
//Storyboard Layer 1 (Fail)
//Storyboard Layer 2 (Pass)
//Storyboard Layer 3 (Foreground)
//Storyboard Sound Samples

[TimingPoints]
11030,342.857142857143,4,1,0,80,1,0
21830,-100,4,1,0,60,0,0
32801,-100,4,1,0,70,0,0
45144,-100,4,1,0,80,0,0
56287,-100,4,1,0,80,0,1
67087,-100,4,1,0,60,0,1
67258,-100,4,1,0,60,0,0
72572,-100,4,1,0,70,0,0
78230,-100,4,1,0,90,0,1
89201,-100,4,1,0,80,0,0
100172,-100,4,1,0,80,0,1
111144,-100,4,1,0,80,0,0
122115,370.37037037037,4,1,0,80,1,0
128040,397.350993377483,4,1,0,80,1,0
131218,422.535211267606,4,1,0,80,1,0
136288,352.941176470588,4,1,0,80,1,0

[HitObjects]
256,192,11029,5,4,0:0:0:0:
256,192,11715,1,8,0:0:0:0:
256,192,12401,1,0,0:0:0:0:
256,192,12744,1,0,0:0:0:0:
256,192,13087,1,8,0:0:0:0:
256,192,13772,1,0,0:0:0:0:
256,192,14458,1,8,0:0:0:0:
256,192,15144,1,8,0:0:0:0:
256,192,16515,1,4,0:0:0:0:
256,192,17201,1,8,0:0:0:0:
256,192,17887,1,0,0:0:0:0:
256,192,18230,1,8,0:0:0:0:
256,192,18572,1,8,0:0:0:0:
256,192,19258,1,0,0:0:0:0:
256,192,19944,1,8,0:0:0:0:
256,192,20630,1,0,0:0:0:0:
256,192,22001,1,4,0:0:0:0:
256,192,22687,1,8,0:0:0:0:
256,192,23030,1,8,0:0:0:0:
256,192,23372,1,0,0:0:0:0:
256,192,24401,1,8,0:0:0:0:
256,192,24744,1,0,0:0:0:0:
256,192,25430,1,8,0:0:0:0:
256,192,25772,1,0,0:0:0:0:
256,192,26115,1,0,0:0:0:0:
256,192,27487,1,0,0:0:0:0:
256,192,28172,1,8,0:0:0:0:
256,192,28515,1,0,0:0:0:0:
256,192,28858,1,8,0:0:0:0:
256,192,29887,1,8,0:0:0:0:
256,192,30230,1,8,0:0:0:0:
256,192,30915,1,8,0:0:0:0:
256,192,31258,1,0,0:0:0:0:
256,192,31601,1,0,0:0:0:0:
256,192,32972,1,4,0:0:0:0:
256,192,33658,1,8,0:0:0:0:
256,192,34001,1,8,0:0:0:0:
256,192,34344,1,8,0:0:0:0:
256,192,35372,1,8,0:0:0:0:
256,192,35715,1,0,0:0:0:0:
256,192,36401,1,8,0:0:0:0:
256,192,36744,1,8,0:0:0:0:
256,192,37087,1,0,0:0:0:0:
256,192,38458,1,4,0:0:0:0:
256,192,39144,1,8,0:0:0:0:
256,192,39487,1,0,0:0:0:0:
256,192,39830,1,8,0:0:0:0:
256,192,40515,1,8,0:0:0:0:
256,192,40858,1,8,0:0:0:0:
256,192,41201,1,0,0:0:0:0:
256,192,41887,1,8,0:0:0:0:
256,192,42572,12,0,43944,0:0:0:0:
256,192,45315,5,12,0:0:0:0:
256,192,46001,1,8,0:0:0:0:
256,192,46687,1,8,0:0:0:0:
256,192,47030,1,8,0:0:0:0:
256,192,47372,1,8,0:0:0:0:
256,192,48058,1,0,0:0:0:0:
256,192,48744,1,0,0:0:0:0:
256,192,49430,1,0,0:0:0:0:
256,192,50801,1,12,0:0:0:0:
256,192,51487,1,8,0:0:0:0:
256,192,52172,1,8,0:0:0:0:
256,192,52515,1,0,0:0:0:0:
256,192,52858,1,8,0:0:0:0:
256,192,53544,1,0,0:0:0:0:
256,192,54230,1,8,0:0:0:0:
256,192,54915,1,0,0:0:0:0:
256,192,56287,1,4,0:0:0:0:
256,192,57315,1,0,0:0:0:0:
256,192,57658,1,8,0:0:0:0:
256,192,58344,1,8,0:0:0:0:
256,192,58687,1,8,0:0:0:0:
256,192,59030,1,0,0:0:0:0:
256,192,59715,1,8,0:0:0:0:
256,192,60401,1,0,0:0:0:0:
256,192,60744,1,0,0:0:0:0:
256,192,61087,1,0,0:0:0:0:
256,192,61772,1,4,0:0:0:0:
256,192,62801,1,8,0:0:0:0:
256,192,63144,1,0,0:0:0:0:
256,192,63830,1,8,0:0:0:0:
256,192,64172,1,0,0:0:0:0:
256,192,64515,1,8,0:0:0:0:
256,192,65201,1,0,0:0:0:0:
256,192,65887,1,8,0:0:0:0:
256,192,66230,1,8,0:0:0:0:
256,192,66572,1,8,0:0:0:0:
256,192,67258,1,0,0:0:0:0:
256,192,67944,1,8,0:0:0:0:
256,192,68287,1,0,0:0:0:0:
256,192,68630,1,8,0:0:0:0:
256,192,69658,1,8,0:0:0:0:
256,192,70001,1,0,0:0:0:0:
256,192,70687,1,8,0:0:0:0:
256,192,71030,1,8,0:0:0:0:
256,192,71372,1,0,0:0:0:0:
256,192,72744,1,4,0:0:0:0:
256,192,73430,1,0,0:0:0:0:
256,192,73772,1,8,0:0:0:0:
256,192,74115,1,8,0:0:0:0:
256,192,74801,1,8,0:0:0:0:
256,192,75144,1,8,0:0:0:0:
256,192,75487,1,0,0:0:0:0:
256,192,76172,1,8,0:0:0:0:
256,192,76858,1,0,0:0:0:0:
256,192,78230,1,12,0:0:0:0:
256,192,78744,1,8,0:0:0:0:
256,192,79258,1,0,0:0:0:0:
256,192,79772,1,0,0:0:0:0:
256,192,80287,1,8,0:0:0:0:
256,192,80630,1,8,0:0:0:0:
256,192,80972,1,8,0:0:0:0:
256,192,81658,1,0,0:0:0:0:
256,192,82344,1,8,0:0:0:0:
256,192,83715,1,4,0:0:0:0:
256,192,84401,1,8,0:0:0:0:
256,192,85087,1,8,0:0:0:0:
256,192,85772,1,0,0:0:0:0:
256,192,86458,1,8,0:0:0:0:
256,192,87144,1,0,0:0:0:0:
256,192,87487,1,8,0:0:0:0:
256,192,87830,1,8,0:0:0:0:
256,192,89201,1,12,0:0:0:0:
256,192,89887,1,8,0:0:0:0:
256,192,90572,1,8,0:0:0:0:
256,192,90915,1,8,0:0:0:0:
256,192,91258,1,8,0:0:0:0:
256,192,91944,1,0,0:0:0:0:
256,192,92630,1,0,0:0:0:0:
256,192,93315,1,0,0:0:0:0:
256,192,94687,1,12,0:0:0:0:
256,192,95372,1,8,0:0:0:0:
256,192,96058,1,8,0:0:0:0:
256,192,96401,1,0,0:0:0:0:
256,192,96744,1,8,0:0:0:0:
256,192,97430,1,0,0:0:0:0:
256,192,98115,1,8,0:0:0:0:
256,192,98801,1,0,0:0:0:0:
256,192,100172,1,4,0:0:0:0:
256,192,101201,1,8,0:0:0:0:
256,192,101544,1,0,0:0:0:0:
256,192,102230,1,8,0:0:0:0:
256,192,102915,1,0,0:0:0:0:
256,192,103258,1,8,0:0:0:0:
256,192,103601,1,8,0:0:0:0:
256,192,103944,1,8,0:0:0:0:
256,192,104287,1,0,0:0:0:0:
256,192,104972,1,8,0:0:0:0:
256,192,105658,1,4,0:0:0:0:
256,192,106687,1,0,0:0:0:0:
256,192,107030,1,8,0:0:0:0:
256,192,107715,1,0,0:0:0:0:
256,192,108401,1,8,0:0:0:0:
256,192,108744,1,0,0:0:0:0:
256,192,109087,1,0,0:0:0:0:
256,192,109430,1,0,0:0:0:0:
256,192,109772,1,8,0:0:0:0:
256,192,110458,1,8,0:0:0:0:
256,192,111144,1,4,0:0:0:0:
256,192,111830,1,8,0:0:0:0:
256,192,112858,1,0,0:0:0:0:
256,192,113201,1,8,0:0:0:0:
256,192,113887,1,0,0:0:0:0:
256,192,114572,1,8,0:0:0:0:
256,192,115258,1,8,0:0:0:0:
256,192,116630,1,4,0:0:0:0:
256,192,117315,1,8,0:0:0:0:
256,192,118344,1,8,0:0:0:0:
256,192,118687,1,8,0:0:0:0:
256,192,119372,1,0,0:0:0:0:
256,192,120058,1,8,0:0:0:0:
256,192,120744,1,0,0:0:0:0:
256,192,121087,1,0,0:0:0:0:
256,192,121430,1,8,0:0:0:0:
256,192,122115,1,4,0:0:0:0:
256,192,122855,1,8,0:0:0:0:
256,192,123966,1,0,0:0:0:0:
256,192,124337,1,8,0:0:0:0:
256,192,125077,1,0,0:0:0:0:
256,192,125818,1,8,0:0:0:0:
256,192,126559,1,8,0:0:0:0:
256,192,126929,1,0,0:0:0:0:
256,192,127300,1,8,0:0:0:0:
256,192,128040,1,4,0:0:0:0:
256,192,128834,1,8,0:0:0:0:
256,192,130026,1,0,0:0:0:0:
256,192,130424,1,8,0:0:0:0:
256,192,131218,1,8,0:0:0:0:
256,192,132063,1,0,0:0:0:0:
256,192,132908,1,12,0:0:0:0:
256,192,133330,1,4,0:0:0:0:
256,192,133753,1,12,0:0:0:0:
