osu file format v14

[General]
AudioFilename: audio.mp3
AudioLeadIn: 0
PreviewTime: -1
Countdown: 0
SampleSet: Normal
StackLeniency: 0.7
Mode: 1
LetterboxInBreaks: 0
WidescreenStoryboard: 1

[Editor]
Bookmarks: 138980
DistanceSpacing: 0.6
BeatDivisor: 4
GridSize: 32
TimelineZoom: 5.399997

[Metadata]
Title:Starvved
TitleUnicode:Starvved
Artist:Rainbowdragoneyes
ArtistUnicode:Rainbowdragoneyes
Creator:LZD
Version:Special ++++++
Source:
Tags:
BeatmapID:2084376
BeatmapSetID:996483

[Difficulty]
HPDrainRate:2
CircleSize:5
OverallDifficulty:4
ApproachRate:5
SliderMultiplier:1.4
SliderTickRate:1

[Events]
//Background and Video events
0,0,"1366x768-sci-fi-space-69865.jpg",0,-80
//Break Periods
2,21417,25979
2,121292,131818
2,163777,168339
2,170485,203371
//Storyboard Layer 0 (Background)
//Storyboard Layer 1 (Fail)
//Storyboard Layer 2 (Pass)
//Storyboard Layer 3 (Foreground)
//Storyboard Sound Samples

[TimingPoints]
41,352.941176470588,4,1,0,100,1,0
41,-125,4,1,0,100,0,0
11335,-111.111111111111,4,1,0,100,0,0
19805,-105.263157894737,4,1,0,100,0,0
19982,-100,4,1,0,100,0,0
20158,-95.2380952380951,4,1,0,100,0,0
20335,-90.9090909090909,4,1,0,100,0,0
20511,-86.9565217391306,4,1,0,100,0,0
20688,-83.3333333333333,4,1,0,100,0,0
20864,-79.9999999999999,4,1,0,100,0,0
21040,-76.9230769230769,4,1,0,100,0,0
21217,372.670807453416,4,1,0,100,1,0
21217,-71.4285714285714,4,1,0,100,0,0
21403,-100,4,1,0,100,0,0
39105,-95.2380952380952,4,1,0,100,0,0
39850,-90.9090909090909,4,1,0,100,0,0
40595,-83.3333333333333,4,1,0,100,0,0
41341,-76.9230769230769,4,1,0,100,0,0
42086,-90.9090909090909,4,1,0,100,0,0
77862,-86.9565217391304,4,1,0,100,0,0
78421,-83.3333333333333,4,1,0,100,0,0
79353,-80,4,1,0,100,0,0
79912,-76.9230769230769,4,1,0,100,0,0
80844,-74.0740740740741,4,1,0,100,0,0
81403,-71.4285714285714,4,1,0,100,0,0
81589,-74.0740740740741,4,1,0,100,0,0
81776,-76.9230769230769,4,1,0,100,0,0
81962,-80,4,1,0,100,0,0
82148,-83.3333333333333,4,1,0,100,0,0
82335,-86.9565217391304,4,1,0,100,0,0
82521,-90.9090909090909,4,1,0,100,0,0
82707,-95.2380952380952,4,1,0,100,0,0
82894,-97.0873786407767,4,1,0,100,0,0
83080,-100,4,1,0,100,0,0
83453,-90.9090909090909,4,1,0,100,0,0
84012,-86.9565217391304,4,1,0,100,0,0
84384,-83.3333333333333,4,1,0,100,0,0
85316,-80,4,1,0,100,0,0
85875,-76.9230769230769,4,1,0,100,0,0
86807,-74.0740740740741,4,1,0,100,0,0
87366,-71.4285714285714,4,1,0,100,0,0
88297,-68.9655172413793,4,1,0,100,0,0
89415,-66.6666666666667,4,1,0,100,0,0
90161,-100,4,1,0,100,0,0
103204,-153.846153846153,4,1,0,100,0,0
103763,-117.647058823529,4,1,0,100,0,0
104508,-100,4,1,0,100,0,0
217987,-76.9230769230769,4,1,0,100,0,0

[HitObjects]
89,128,41,5,8,0:0:0:0:
89,128,217,1,8,0:0:0:0:
89,128,393,1,0,0:0:0:0:
89,128,570,1,0,0:0:0:0:
89,128,746,1,8,0:0:0:0:
166,160,1099,1,0,0:0:0:0:
84,188,1276,5,0,0:0:0:0:
84,188,1452,1,8,0:0:0:0:
84,188,1805,1,8,0:0:0:0:
84,188,2158,1,0,0:0:0:0:
84,188,2335,1,0,0:0:0:0:
84,188,2511,1,0,0:0:0:0:
103,150,2864,1,8,0:0:0:0:
84,188,3393,1,0,0:0:0:0:
84,188,3570,1,0,0:0:0:0:
84,188,3923,1,0,0:0:0:0:
84,188,4276,1,8,0:0:0:0:
84,188,4629,1,0,0:0:0:0:
84,188,4805,1,0,0:0:0:0:
84,188,4982,1,8,0:0:0:0:
229,103,5688,1,8,0:0:0:0:
192,124,5864,1,8,0:0:0:0:
156,145,6040,1,0,0:0:0:0:
156,145,6217,1,0,0:0:0:0:
156,145,6393,1,8,0:0:0:0:
156,145,6746,1,0,0:0:0:0:
156,145,6923,1,0,0:0:0:0:
156,145,7099,1,8,0:0:0:0:
156,145,7452,1,8,0:0:0:0:
156,145,7805,1,0,0:0:0:0:
156,145,7982,1,0,0:0:0:0:
156,145,8158,1,0,0:0:0:0:
156,145,8511,1,8,0:0:0:0:
156,145,8688,1,0,0:0:0:0:
156,145,8864,1,0,0:0:0:0:
156,145,9040,1,8,0:0:0:0:
156,145,9217,1,0,0:0:0:0:
156,145,9393,1,0,0:0:0:0:
156,145,9570,1,8,0:0:0:0:
156,145,9923,1,8,0:0:0:0:
156,145,10099,1,0,0:0:0:0:
156,145,10452,1,8,0:0:0:0:
156,145,10805,1,0,0:0:0:0:
156,145,10982,1,8,0:0:0:0:
89,128,11335,1,8,0:0:0:0:
89,128,11511,1,8,0:0:0:0:
89,128,11688,1,0,0:0:0:0:
89,128,11864,1,0,0:0:0:0:
89,128,12040,1,8,0:0:0:0:
166,160,12393,1,0,0:0:0:0:
84,188,12570,5,0,0:0:0:0:
84,188,12746,1,8,0:0:0:0:
84,188,13099,1,8,0:0:0:0:
84,188,13452,1,0,0:0:0:0:
84,188,13629,1,0,0:0:0:0:
84,188,13805,1,0,0:0:0:0:
103,150,14158,1,8,0:0:0:0:
84,188,14688,1,0,0:0:0:0:
84,188,14864,1,0,0:0:0:0:
84,188,15217,1,0,0:0:0:0:
84,188,15570,1,8,0:0:0:0:
84,188,15923,1,0,0:0:0:0:
84,188,16099,1,0,0:0:0:0:
84,188,16276,1,8,0:0:0:0:
84,188,16982,1,8,0:0:0:0:
84,188,17158,1,8,0:0:0:0:
87,146,17335,1,0,0:0:0:0:
87,146,17511,1,0,0:0:0:0:
229,103,17688,1,8,0:0:0:0:
146,120,18040,1,0,0:0:0:0:
104,125,18217,1,0,0:0:0:0:
62,127,18393,1,8,0:0:0:0:
156,145,18746,1,8,0:0:0:0:
156,145,19099,1,0,0:0:0:0:
156,145,19276,1,0,0:0:0:0:
156,145,19452,1,0,0:0:0:0:
156,145,19805,1,8,0:0:0:0:
156,145,19982,1,8,0:0:0:0:
156,145,20158,1,0,0:0:0:0:
156,145,20335,1,0,0:0:0:0:
156,145,20511,1,8,0:0:0:0:
156,145,20688,1,8,0:0:0:0:
156,145,20864,1,0,0:0:0:0:
116,159,21040,1,0,0:0:0:0:
156,145,21217,1,8,0:0:0:0:
89,128,27179,5,8,0:0:0:0:
166,160,27552,1,0,0:0:0:0:
84,188,27738,5,0,0:0:0:0:
84,188,27925,1,8,0:0:0:0:
84,188,28297,1,8,0:0:0:0:
55,157,28484,1,0,0:0:0:0:
84,188,28670,1,8,0:0:0:0:
98,148,28856,1,0,0:0:0:0:
98,148,28949,1,0,0:0:0:0:
98,148,29043,1,0,0:0:0:0:
93,62,29229,1,8,0:0:0:0:
103,150,29415,1,8,0:0:0:0:
45,88,29602,1,0,0:0:0:0:
45,88,29788,1,8,0:0:0:0:
45,88,29974,1,8,0:0:0:0:
45,88,30161,1,0,0:0:0:0:
45,88,30533,1,8,0:0:0:0:
45,88,30720,1,8,0:0:0:0:
45,88,30906,1,0,0:0:0:0:
45,88,31092,1,0,0:0:0:0:
45,88,31279,1,8,0:0:0:0:
45,88,31651,1,8,0:0:0:0:
86,92,31838,1,0,0:0:0:0:
127,95,32024,1,0,0:0:0:0:
106,127,32210,1,8,0:0:0:0:
126,115,32397,1,0,0:0:0:0:
103,150,32583,1,0,0:0:0:0:
145,55,32769,1,8,0:0:0:0:
126,115,32862,1,8,0:0:0:0:
134,95,32956,1,0,0:0:0:0:
145,55,33142,1,8,0:0:0:0:
89,128,33515,5,8,0:0:0:0:
96,160,33701,1,0,0:0:0:0:
166,160,33888,1,0,0:0:0:0:
84,188,34074,5,0,0:0:0:0:
84,188,34261,1,8,0:0:0:0:
84,188,34633,1,8,0:0:0:0:
55,157,34820,1,0,0:0:0:0:
84,188,35006,1,8,0:0:0:0:
98,148,35192,1,0,0:0:0:0:
98,148,35285,1,0,0:0:0:0:
98,148,35379,1,0,0:0:0:0:
93,62,35565,1,8,0:0:0:0:
103,150,35751,1,8,0:0:0:0:
45,88,35938,5,0,0:0:0:0:
45,88,36124,1,8,0:0:0:0:
45,88,36310,1,8,0:0:0:0:
45,88,36497,1,0,0:0:0:0:
58,127,36682,1,0,0:0:0:0:
71,167,36869,1,8,0:0:0:0:
27,143,37054,5,0,0:0:0:0:
27,143,37148,1,0,0:0:0:0:
27,143,37241,1,0,0:0:0:0:
69,140,37428,1,8,0:0:0:0:
110,137,37614,1,0,0:0:0:0:
110,137,37707,1,0,0:0:0:0:
130,136,37800,1,8,0:0:0:0:
144,102,37987,1,0,0:0:0:0:
130,136,38080,1,0,0:0:0:0:
110,137,38173,1,0,0:0:0:0:
110,137,38266,1,0,0:0:0:0:
110,137,38359,1,8,0:0:0:0:
206,274,39105,2,8,L|256:32,1,220.499993270874
206,274,39850,2,8,L|320:64,1,231.000007049561
206,274,40595,2,8,L|352:64,1,251.999992309571
206,274,41341,2,8,L|320:96,1,181.999991668702
282,118,42086,1,12,0:0:0:0:
121,165,42459,1,0,0:0:0:0:
121,165,42645,1,0,0:0:0:0:
121,165,42831,1,8,0:0:0:0:
121,165,43018,1,0,0:0:0:0:
121,165,43204,1,8,0:0:0:0:
121,165,43390,1,8,0:0:0:0:
121,165,43577,1,0,0:0:0:0:
121,165,43763,1,0,0:0:0:0:
121,165,43949,1,8,0:0:0:0:
121,165,44136,1,0,0:0:0:0:
121,165,44229,1,0,0:0:0:0:
121,165,44322,1,8,0:0:0:0:
123,123,44508,1,0,0:0:0:0:
124,101,44602,1,0,0:0:0:0:
125,80,44695,1,0,0:0:0:0:
135,61,44788,1,0,0:0:0:0:
135,61,44881,1,0,0:0:0:0:
165,6,45067,1,8,0:0:0:0:
143,87,45440,1,0,0:0:0:0:
132,127,45626,1,0,0:0:0:0:
123,168,45813,1,8,0:0:0:0:
113,208,45999,1,8,0:0:0:0:
103,248,46185,1,0,0:0:0:0:
103,248,46279,1,0,0:0:0:0:
103,248,46372,1,0,0:0:0:0:
85,330,46558,1,8,0:0:0:0:
88,288,46744,1,8,0:0:0:0:
92,246,46931,1,0,0:0:0:0:
96,204,47117,1,0,0:0:0:0:
141,172,47303,1,8,0:0:0:0:
127,211,47490,1,0,0:0:0:0:
120,230,47583,1,0,0:0:0:0:
107,269,47769,1,0,0:0:0:0:
107,269,47862,1,0,0:0:0:0:
107,269,48049,1,8,0:0:0:0:
121,165,48421,1,0,0:0:0:0:
121,165,48607,1,0,0:0:0:0:
121,165,48793,1,8,0:0:0:0:
121,165,48980,1,0,0:0:0:0:
121,165,49166,1,8,0:0:0:0:
121,165,49352,1,8,0:0:0:0:
121,165,49539,1,0,0:0:0:0:
121,165,49725,1,0,0:0:0:0:
121,165,49911,1,8,0:0:0:0:
121,165,50098,1,0,0:0:0:0:
121,165,50191,1,0,0:0:0:0:
121,165,50284,1,8,0:0:0:0:
123,123,50470,1,0,0:0:0:0:
124,101,50564,1,0,0:0:0:0:
125,80,50657,1,0,0:0:0:0:
135,61,50750,1,0,0:0:0:0:
135,61,50843,1,0,0:0:0:0:
165,6,51029,1,8,0:0:0:0:
128,128,51403,1,0,0:0:0:0:
128,128,51589,1,0,0:0:0:0:
96,160,51776,1,8,0:0:0:0:
128,128,52148,1,0,0:0:0:0:
115,164,52521,5,8,0:0:0:0:
115,164,52614,1,8,0:0:0:0:
115,164,52707,1,0,0:0:0:0:
115,164,52800,1,0,0:0:0:0:
115,164,52894,1,8,0:0:0:0:
115,164,53080,1,8,0:0:0:0:
115,164,53266,1,0,0:0:0:0:
115,164,53359,1,0,0:0:0:0:
115,164,53453,1,0,0:0:0:0:
115,164,53546,1,0,0:0:0:0:
115,164,53639,1,0,0:0:0:0:
115,164,53732,1,0,0:0:0:0:
115,164,53825,1,0,0:0:0:0:
115,164,53918,1,0,0:0:0:0:
115,164,54012,1,8,0:0:0:0:
192,128,54384,1,0,0:0:0:0:
160,160,54571,1,0,0:0:0:0:
128,160,54757,1,8,0:0:0:0:
128,160,54943,1,0,0:0:0:0:
128,160,55130,1,8,0:0:0:0:
128,160,55223,1,8,0:0:0:0:
128,160,55316,1,0,0:0:0:0:
128,160,55502,1,8,0:0:0:0:
128,160,55689,1,8,0:0:0:0:
128,160,55875,1,0,0:0:0:0:
128,160,56061,1,8,0:0:0:0:
128,160,56248,1,8,0:0:0:0:
160,224,56434,1,0,0:0:0:0:
160,224,56527,1,0,0:0:0:0:
160,224,56620,1,8,0:0:0:0:
160,224,56993,1,8,0:0:0:0:
160,224,57086,1,8,0:0:0:0:
160,224,57179,1,8,0:0:0:0:
160,224,57272,1,8,0:0:0:0:
160,224,57366,1,0,0:0:0:0:
160,192,57552,1,0,0:0:0:0:
160,160,57738,1,8,0:0:0:0:
160,128,58111,1,0,0:0:0:0:
160,128,58204,1,0,0:0:0:0:
160,128,58297,1,8,0:0:0:0:
160,128,58390,1,8,0:0:0:0:
160,128,58484,1,0,0:0:0:0:
160,128,58670,1,8,0:0:0:0:
160,128,58856,1,0,0:0:0:0:
160,128,59043,1,0,0:0:0:0:
160,160,59229,1,8,0:0:0:0:
224,128,59508,1,0,0:0:0:0:
224,128,59788,1,0,0:0:0:0:
192,96,59974,1,8,0:0:0:0:
192,128,60347,1,0,0:0:0:0:
160,160,60534,1,0,0:0:0:0:
128,160,60720,1,8,0:0:0:0:
128,160,60906,1,0,0:0:0:0:
128,160,61093,1,8,0:0:0:0:
128,160,61279,1,0,0:0:0:0:
128,160,61465,1,8,0:0:0:0:
128,128,61558,1,8,0:0:0:0:
128,160,61652,1,8,0:0:0:0:
128,160,61838,1,0,0:0:0:0:
128,160,62024,1,8,0:0:0:0:
128,160,62117,1,8,0:0:0:0:
128,160,62211,1,8,0:0:0:0:
160,224,62397,1,0,0:0:0:0:
160,224,62490,1,0,0:0:0:0:
160,224,62583,1,8,0:0:0:0:
160,224,62956,1,8,0:0:0:0:
160,224,63049,1,8,0:0:0:0:
160,224,63142,1,8,0:0:0:0:
160,224,63329,1,0,0:0:0:0:
160,192,63515,1,0,0:0:0:0:
160,160,63701,1,8,0:0:0:0:
128,128,63794,1,8,0:0:0:0:
128,128,63888,1,8,0:0:0:0:
160,128,64074,1,0,0:0:0:0:
160,128,64167,1,0,0:0:0:0:
160,128,64260,1,0,0:0:0:0:
160,128,64353,1,0,0:0:0:0:
160,128,64447,1,0,0:0:0:0:
160,128,64633,1,8,0:0:0:0:
160,128,64819,1,0,0:0:0:0:
160,128,65006,1,0,0:0:0:0:
160,160,65192,1,8,0:0:0:0:
192,128,65378,1,0,0:0:0:0:
224,128,65471,1,0,0:0:0:0:
224,128,65658,1,0,0:0:0:0:
224,128,65751,1,0,0:0:0:0:
192,96,65937,1,8,0:0:0:0:
192,128,66310,1,0,0:0:0:0:
160,160,66497,1,0,0:0:0:0:
128,160,66683,1,8,0:0:0:0:
128,160,66869,1,0,0:0:0:0:
128,160,67056,1,8,0:0:0:0:
128,160,67149,1,8,0:0:0:0:
128,160,67242,1,0,0:0:0:0:
128,160,67428,1,8,0:0:0:0:
128,160,67615,1,8,0:0:0:0:
128,160,67801,1,0,0:0:0:0:
128,160,67987,1,8,0:0:0:0:
128,160,68174,1,8,0:0:0:0:
160,224,68360,1,0,0:0:0:0:
160,224,68453,1,0,0:0:0:0:
160,224,68546,1,8,0:0:0:0:
160,224,68919,1,8,0:0:0:0:
160,224,69012,1,8,0:0:0:0:
160,224,69105,1,8,0:0:0:0:
160,224,69198,1,8,0:0:0:0:
160,224,69292,1,0,0:0:0:0:
160,192,69478,1,0,0:0:0:0:
160,160,69664,1,8,0:0:0:0:
160,128,70037,1,0,0:0:0:0:
160,128,70130,1,0,0:0:0:0:
160,128,70223,1,8,0:0:0:0:
160,128,70316,1,8,0:0:0:0:
160,128,70410,1,0,0:0:0:0:
160,128,70596,1,8,0:0:0:0:
160,128,70782,1,0,0:0:0:0:
160,128,70969,1,0,0:0:0:0:
160,160,71155,1,8,0:0:0:0:
224,128,71434,1,0,0:0:0:0:
224,128,71714,1,0,0:0:0:0:
192,96,71900,1,8,0:0:0:0:
192,128,72273,1,0,0:0:0:0:
160,160,72460,1,0,0:0:0:0:
128,160,72646,1,8,0:0:0:0:
128,160,72832,1,0,0:0:0:0:
128,160,73019,1,8,0:0:0:0:
128,160,73205,1,0,0:0:0:0:
128,160,73391,1,8,0:0:0:0:
96,160,73484,1,8,0:0:0:0:
128,160,73578,1,8,0:0:0:0:
128,160,73764,1,0,0:0:0:0:
128,160,73950,1,8,0:0:0:0:
96,160,74043,1,8,0:0:0:0:
128,160,74137,1,8,0:0:0:0:
160,224,74323,1,0,0:0:0:0:
160,224,74416,1,0,0:0:0:0:
160,224,74509,1,8,0:0:0:0:
160,224,74882,1,8,0:0:0:0:
160,224,74975,1,8,0:0:0:0:
160,224,75068,1,8,0:0:0:0:
160,224,75255,1,0,0:0:0:0:
160,192,75441,1,0,0:0:0:0:
160,160,75627,1,8,0:0:0:0:
128,160,75720,1,8,0:0:0:0:
128,128,75814,1,8,0:0:0:0:
160,128,76000,1,0,0:0:0:0:
160,128,76093,1,0,0:0:0:0:
160,128,76185,1,0,0:0:0:0:
128,128,76279,1,0,0:0:0:0:
160,128,76373,1,0,0:0:0:0:
160,128,76559,1,8,0:0:0:0:
160,128,76745,1,0,0:0:0:0:
160,128,76932,1,0,0:0:0:0:
160,160,77118,1,8,0:0:0:0:
192,128,77304,1,0,0:0:0:0:
224,128,77397,1,0,0:0:0:0:
224,128,77584,1,0,0:0:0:0:
224,128,77677,1,0,0:0:0:0:
192,96,77863,1,8,0:0:0:0:
224,64,78049,1,8,0:0:0:0:
224,96,78235,1,0,0:0:0:0:
224,64,78421,1,8,0:0:0:0:
224,64,78608,1,8,0:0:0:0:
224,96,78794,1,0,0:0:0:0:
160,96,78980,1,8,0:0:0:0:
192,128,79167,1,0,0:0:0:0:
96,160,79353,1,8,0:0:0:0:
96,160,79539,1,8,0:0:0:0:
128,160,79726,1,0,0:0:0:0:
96,160,79912,1,8,0:0:0:0:
96,160,80098,1,8,0:0:0:0:
128,160,80285,1,0,0:0:0:0:
96,160,80471,1,8,0:0:0:0:
160,160,80657,1,0,0:0:0:0:
96,160,80844,1,8,0:0:0:0:
96,160,81030,1,8,0:0:0:0:
128,128,81216,1,0,0:0:0:0:
96,160,81403,1,8,0:0:0:0:
96,160,81589,1,8,0:0:0:0:
96,160,81776,1,0,0:0:0:0:
96,160,81962,1,8,0:0:0:0:
96,160,82148,1,0,0:0:0:0:
96,160,82335,1,8,0:0:0:0:
96,160,82521,1,8,0:0:0:0:
96,128,82707,1,0,0:0:0:0:
96,128,82894,1,0,0:0:0:0:
64,32,83080,1,8,0:0:0:0:
128,96,83453,1,0,0:0:0:0:
160,96,83546,1,0,0:0:0:0:
160,96,83639,1,0,0:0:0:0:
160,96,83732,1,0,0:0:0:0:
96,192,83825,1,8,0:0:0:0:
128,160,84012,1,8,0:0:0:0:
96,128,84198,1,0,0:0:0:0:
160,64,84384,1,8,0:0:0:0:
160,96,84571,1,8,0:0:0:0:
96,128,84757,1,0,0:0:0:0:
128,160,84943,1,8,0:0:0:0:
96,128,85130,1,0,0:0:0:0:
160,64,85316,1,8,0:0:0:0:
160,96,85502,1,8,0:0:0:0:
128,128,85689,1,0,0:0:0:0:
128,160,85875,1,8,0:0:0:0:
128,128,86061,1,8,0:0:0:0:
128,128,86248,1,0,0:0:0:0:
128,128,86434,1,8,0:0:0:0:
128,128,86620,1,0,0:0:0:0:
128,128,86807,1,8,0:0:0:0:
128,128,86993,1,8,0:0:0:0:
128,128,87179,1,0,0:0:0:0:
128,128,87366,1,8,0:0:0:0:
128,128,87552,1,8,0:0:0:0:
128,128,87738,1,0,0:0:0:0:
128,128,87925,1,8,0:0:0:0:
128,128,88111,1,0,0:0:0:0:
128,128,88297,1,8,0:0:0:0:
128,128,88484,1,8,0:0:0:0:
96,128,88670,1,0,0:0:0:0:
128,128,88856,1,0,0:0:0:0:
128,128,89043,1,8,0:0:0:0:
64,160,89415,1,0,0:0:0:0:
96,160,89508,1,0,0:0:0:0:
96,160,89602,1,0,0:0:0:0:
96,160,89695,1,0,0:0:0:0:
96,160,89788,1,8,0:0:0:0:
256,192,90161,12,0,90906,0:0:0:0:
89,128,91279,5,8,0:0:0:0:
166,160,91652,1,0,0:0:0:0:
84,188,91838,5,0,0:0:0:0:
84,188,92025,1,8,0:0:0:0:
84,188,92397,1,8,0:0:0:0:
55,157,92584,1,0,0:0:0:0:
84,188,92770,1,8,0:0:0:0:
98,148,92956,1,0,0:0:0:0:
98,148,93049,1,0,0:0:0:0:
98,148,93143,1,0,0:0:0:0:
93,62,93329,1,8,0:0:0:0:
103,150,93515,1,8,0:0:0:0:
45,88,93702,1,0,0:0:0:0:
45,88,93888,1,8,0:0:0:0:
45,88,94074,1,8,0:0:0:0:
45,88,94261,1,0,0:0:0:0:
45,88,94633,1,8,0:0:0:0:
45,88,94820,1,8,0:0:0:0:
45,88,95006,1,0,0:0:0:0:
45,88,95192,1,0,0:0:0:0:
45,88,95379,1,8,0:0:0:0:
45,88,95751,1,8,0:0:0:0:
86,92,95938,1,0,0:0:0:0:
127,95,96124,1,0,0:0:0:0:
106,127,96310,1,8,0:0:0:0:
126,115,96497,1,0,0:0:0:0:
106,127,96682,1,0,0:0:0:0:
145,55,96869,1,8,0:0:0:0:
126,115,96962,1,8,0:0:0:0:
134,95,97056,1,0,0:0:0:0:
145,55,97242,1,8,0:0:0:0:
89,128,97615,5,8,0:0:0:0:
128,128,97800,1,0,0:0:0:0:
166,160,97988,1,0,0:0:0:0:
84,188,98174,5,0,0:0:0:0:
84,188,98361,1,8,0:0:0:0:
84,188,98733,1,8,0:0:0:0:
55,157,98920,1,0,0:0:0:0:
84,188,99106,1,8,0:0:0:0:
98,148,99292,1,0,0:0:0:0:
98,148,99385,1,0,0:0:0:0:
98,148,99479,1,0,0:0:0:0:
93,62,99665,1,8,0:0:0:0:
103,150,99851,1,8,0:0:0:0:
45,88,100038,5,0,0:0:0:0:
45,88,100224,1,8,0:0:0:0:
45,88,100410,1,8,0:0:0:0:
45,88,100597,1,0,0:0:0:0:
58,127,100782,1,0,0:0:0:0:
71,167,100969,1,8,0:0:0:0:
27,143,101154,5,0,0:0:0:0:
27,143,101248,1,0,0:0:0:0:
27,143,101341,1,0,0:0:0:0:
69,140,101528,1,8,0:0:0:0:
110,137,101714,1,0,0:0:0:0:
110,137,101807,1,0,0:0:0:0:
130,136,101900,1,8,0:0:0:0:
144,102,102087,1,0,0:0:0:0:
130,136,102180,1,0,0:0:0:0:
110,137,102273,1,0,0:0:0:0:
110,137,102366,1,0,0:0:0:0:
110,137,102459,1,8,0:0:0:0:
288,96,103204,1,12,0:0:0:0:
160,128,103763,1,0,0:0:0:0:
128,160,103949,1,8,0:0:0:0:
256,96,104508,1,0,0:0:0:0:
288,96,104695,1,8,0:0:0:0:
224,128,105067,2,0,L|256:64,4,70
128,160,106185,1,12,0:0:0:0:
92,138,106372,1,0,0:0:0:0:
96,96,106558,1,0,0:0:0:0:
96,96,106744,1,0,0:0:0:0:
224,192,106931,1,8,0:0:0:0:
192,160,107117,1,8,0:0:0:0:
160,128,107303,1,0,0:0:0:0:
96,128,107490,1,8,0:0:0:0:
128,96,107676,1,0,0:0:0:0:
128,96,107862,1,0,0:0:0:0:
192,32,108049,1,8,0:0:0:0:
160,64,108235,1,0,0:0:0:0:
256,256,108421,1,8,0:0:0:0:
224,224,108608,1,0,0:0:0:0:
207,216,108701,1,0,0:0:0:0:
192,192,108794,1,8,0:0:0:0:
156,169,108980,1,0,0:0:0:0:
128,160,109167,1,8,0:0:0:0:
208,184,109539,1,8,0:0:0:0:
167,172,109726,1,8,0:0:0:0:
167,172,109912,1,8,0:0:0:0:
207,181,110098,1,8,0:0:0:0:
248,190,110285,1,0,0:0:0:0:
227,185,110378,1,0,0:0:0:0:
206,180,110471,1,0,0:0:0:0:
206,180,110657,1,8,0:0:0:0:
207,181,110844,1,0,0:0:0:0:
206,180,111030,1,0,0:0:0:0:
206,180,111216,1,8,0:0:0:0:
206,180,111403,1,8,0:0:0:0:
206,180,111589,1,0,0:0:0:0:
206,180,111682,1,0,0:0:0:0:
206,180,111776,1,8,0:0:0:0:
216,263,112148,1,8,0:0:0:0:
211,221,112335,1,8,0:0:0:0:
211,221,112521,1,8,0:0:0:0:
211,221,112707,1,8,0:0:0:0:
211,221,112894,1,0,0:0:0:0:
211,221,112987,1,0,0:0:0:0:
193,209,113080,1,0,0:0:0:0:
160,182,113266,1,8,0:0:0:0:
127,155,113453,1,8,0:0:0:0:
94,128,113639,1,0,0:0:0:0:
72,117,113825,1,0,0:0:0:0:
18,90,114012,1,8,0:0:0:0:
36,99,114105,1,8,0:0:0:0:
54,108,114198,1,0,0:0:0:0:
72,117,114291,1,0,0:0:0:0:
92,127,114384,1,8,0:0:0:0:
253,80,115130,1,8,0:0:0:0:
232,85,115223,1,8,0:0:0:0:
212,91,115316,1,8,0:0:0:0:
191,97,115409,1,8,0:0:0:0:
170,103,115502,1,8,0:0:0:0:
129,113,115689,1,0,0:0:0:0:
129,113,115875,1,0,0:0:0:0:
129,113,116061,1,0,0:0:0:0:
129,113,116248,1,8,0:0:0:0:
129,113,116434,1,0,0:0:0:0:
129,113,116527,1,0,0:0:0:0:
129,113,116620,1,8,0:0:0:0:
129,113,116807,1,8,0:0:0:0:
129,113,116993,1,0,0:0:0:0:
129,113,117179,1,0,0:0:0:0:
129,113,117366,1,8,0:0:0:0:
129,113,117552,1,0,0:0:0:0:
129,113,117645,1,0,0:0:0:0:
129,113,117738,1,8,0:0:0:0:
139,193,119602,5,8,0:0:0:0:
139,193,119695,1,8,0:0:0:0:
139,193,119788,1,8,0:0:0:0:
139,193,119881,1,8,0:0:0:0:
139,193,119974,1,8,0:0:0:0:
139,193,120067,1,8,0:0:0:0:
139,193,120161,1,8,0:0:0:0:
139,193,120347,1,0,0:0:0:0:
139,193,120440,1,0,0:0:0:0:
139,193,120533,1,0,0:0:0:0:
139,193,120626,1,0,0:0:0:0:
139,193,120720,1,0,0:0:0:0:
139,193,120813,1,0,0:0:0:0:
139,193,120906,1,0,0:0:0:0:
139,193,121092,1,8,0:0:0:0:
192,96,133018,5,8,0:0:0:0:
192,128,133391,1,0,0:0:0:0:
160,160,133578,1,0,0:0:0:0:
128,160,133764,1,8,0:0:0:0:
128,160,133950,1,0,0:0:0:0:
128,160,134137,1,8,0:0:0:0:
128,160,134323,1,0,0:0:0:0:
128,160,134509,1,8,0:0:0:0:
96,160,134602,1,8,0:0:0:0:
128,160,134696,1,8,0:0:0:0:
128,160,134882,1,0,0:0:0:0:
128,160,135068,1,8,0:0:0:0:
96,160,135161,1,8,0:0:0:0:
128,160,135255,1,8,0:0:0:0:
160,224,135441,1,0,0:0:0:0:
160,224,135534,1,0,0:0:0:0:
160,224,135627,1,8,0:0:0:0:
160,224,136000,1,8,0:0:0:0:
160,224,136093,1,8,0:0:0:0:
160,224,136186,1,8,0:0:0:0:
160,224,136373,1,0,0:0:0:0:
160,192,136559,1,0,0:0:0:0:
160,160,136745,1,8,0:0:0:0:
128,160,136838,1,8,0:0:0:0:
128,128,136932,1,8,0:0:0:0:
160,128,137118,1,0,0:0:0:0:
160,128,137211,1,0,0:0:0:0:
160,128,137303,1,0,0:0:0:0:
128,128,137397,1,0,0:0:0:0:
160,128,137491,1,0,0:0:0:0:
160,128,137677,1,8,0:0:0:0:
160,128,137863,1,0,0:0:0:0:
160,128,138050,1,0,0:0:0:0:
160,160,138236,1,8,0:0:0:0:
192,128,138422,1,0,0:0:0:0:
224,128,138515,1,0,0:0:0:0:
224,128,138702,1,0,0:0:0:0:
224,128,138795,1,0,0:0:0:0:
192,96,138981,1,8,0:0:0:0:
224,64,139167,1,8,0:0:0:0:
224,96,139353,1,0,0:0:0:0:
224,64,139539,1,8,0:0:0:0:
224,64,139726,1,8,0:0:0:0:
224,96,139912,1,0,0:0:0:0:
160,96,140098,1,8,0:0:0:0:
192,128,140285,1,0,0:0:0:0:
96,160,140471,1,8,0:0:0:0:
96,160,140657,1,8,0:0:0:0:
128,160,140844,1,0,0:0:0:0:
96,160,141030,1,8,0:0:0:0:
96,160,141216,1,8,0:0:0:0:
128,160,141403,1,0,0:0:0:0:
96,160,141589,1,8,0:0:0:0:
160,160,141775,1,0,0:0:0:0:
96,160,141962,1,8,0:0:0:0:
96,160,142148,1,8,0:0:0:0:
128,128,142334,1,0,0:0:0:0:
96,160,142521,1,8,0:0:0:0:
96,160,142707,1,8,0:0:0:0:
96,160,142894,1,0,0:0:0:0:
96,160,143080,1,8,0:0:0:0:
96,160,143266,1,0,0:0:0:0:
96,160,143453,1,8,0:0:0:0:
96,160,143639,1,8,0:0:0:0:
96,128,143825,1,0,0:0:0:0:
96,128,144012,1,0,0:0:0:0:
64,32,144198,1,8,0:0:0:0:
128,96,144571,1,0,0:0:0:0:
160,96,144664,1,0,0:0:0:0:
160,96,144757,1,0,0:0:0:0:
160,96,144850,1,0,0:0:0:0:
96,192,144943,1,8,0:0:0:0:
128,160,145130,1,8,0:0:0:0:
96,128,145316,1,0,0:0:0:0:
160,64,145502,1,8,0:0:0:0:
160,96,145689,1,8,0:0:0:0:
96,128,145875,1,0,0:0:0:0:
128,160,146061,1,8,0:0:0:0:
96,128,146248,1,0,0:0:0:0:
160,64,146434,1,8,0:0:0:0:
160,96,146620,1,8,0:0:0:0:
128,128,146807,1,0,0:0:0:0:
128,160,146993,1,8,0:0:0:0:
128,128,147179,1,8,0:0:0:0:
128,128,147366,1,0,0:0:0:0:
128,128,147552,1,8,0:0:0:0:
128,128,147738,1,0,0:0:0:0:
128,128,147925,1,8,0:0:0:0:
128,128,148111,1,8,0:0:0:0:
128,128,148297,1,0,0:0:0:0:
128,128,148484,1,8,0:0:0:0:
128,128,148670,1,8,0:0:0:0:
128,128,148856,1,0,0:0:0:0:
128,128,149043,1,8,0:0:0:0:
128,128,149229,1,0,0:0:0:0:
128,128,149415,1,8,0:0:0:0:
128,128,149602,1,8,0:0:0:0:
96,128,149788,1,0,0:0:0:0:
128,128,149974,1,0,0:0:0:0:
128,128,150161,1,8,0:0:0:0:
64,160,150533,1,0,0:0:0:0:
96,160,150626,1,0,0:0:0:0:
96,160,150720,1,0,0:0:0:0:
96,160,150813,1,0,0:0:0:0:
96,160,150906,1,8,0:0:0:0:
256,192,151279,12,0,152024,0:0:0:0:
89,128,152397,5,8,0:0:0:0:
166,160,152770,1,0,0:0:0:0:
84,188,152956,5,0,0:0:0:0:
84,188,153143,1,8,0:0:0:0:
84,188,153515,1,8,0:0:0:0:
55,157,153702,1,0,0:0:0:0:
84,188,153888,1,8,0:0:0:0:
98,148,154074,1,0,0:0:0:0:
98,148,154167,1,0,0:0:0:0:
98,148,154261,1,0,0:0:0:0:
93,62,154447,1,8,0:0:0:0:
103,150,154633,1,8,0:0:0:0:
45,88,154820,1,0,0:0:0:0:
45,88,155006,1,8,0:0:0:0:
45,88,155192,1,8,0:0:0:0:
45,88,155379,1,0,0:0:0:0:
45,88,155751,1,8,0:0:0:0:
45,88,155938,1,8,0:0:0:0:
45,88,156124,1,0,0:0:0:0:
45,88,156310,1,0,0:0:0:0:
45,88,156497,1,8,0:0:0:0:
45,88,156869,1,8,0:0:0:0:
86,92,157056,1,0,0:0:0:0:
127,95,157242,1,0,0:0:0:0:
106,127,157428,1,8,0:0:0:0:
126,115,157615,1,0,0:0:0:0:
106,127,157800,1,0,0:0:0:0:
145,55,157987,1,8,0:0:0:0:
126,115,158080,1,8,0:0:0:0:
134,95,158174,1,0,0:0:0:0:
145,55,158360,1,8,0:0:0:0:
89,128,158733,5,8,0:0:0:0:
128,128,158918,1,0,0:0:0:0:
166,160,159106,1,0,0:0:0:0:
84,188,159292,5,0,0:0:0:0:
84,188,159479,1,8,0:0:0:0:
84,188,159851,1,8,0:0:0:0:
55,157,160038,1,0,0:0:0:0:
84,188,160224,1,8,0:0:0:0:
98,148,160410,1,0,0:0:0:0:
98,148,160503,1,0,0:0:0:0:
98,148,160597,1,0,0:0:0:0:
93,62,160783,1,8,0:0:0:0:
103,150,160969,1,8,0:0:0:0:
45,88,161156,5,0,0:0:0:0:
45,88,161342,1,8,0:0:0:0:
45,88,161528,1,8,0:0:0:0:
45,88,161715,1,0,0:0:0:0:
58,127,161900,1,0,0:0:0:0:
71,167,162087,1,8,0:0:0:0:
27,143,162272,5,0,0:0:0:0:
27,143,162366,1,0,0:0:0:0:
27,143,162459,1,0,0:0:0:0:
69,140,162646,1,8,0:0:0:0:
110,137,162832,1,0,0:0:0:0:
110,137,162925,1,0,0:0:0:0:
130,136,163018,1,8,0:0:0:0:
144,102,163205,1,0,0:0:0:0:
130,136,163298,1,0,0:0:0:0:
110,137,163391,1,0,0:0:0:0:
110,137,163484,1,0,0:0:0:0:
110,137,163577,1,8,0:0:0:0:
222,149,169539,5,8,0:0:0:0:
222,149,169633,1,8,0:0:0:0:
222,149,169726,1,8,0:0:0:0:
222,149,169819,1,8,0:0:0:0:
222,149,169912,1,0,0:0:0:0:
222,149,170005,1,0,0:0:0:0:
222,149,170098,1,0,0:0:0:0:
222,149,170192,1,0,0:0:0:0:
222,149,170285,5,8,0:0:0:0:
128,256,204571,5,8,0:0:0:0:
128,256,204664,1,8,0:0:0:0:
128,256,204757,1,0,0:0:0:0:
128,256,204850,1,0,0:0:0:0:
128,256,204943,1,8,0:0:0:0:
141,215,205130,1,0,0:0:0:0:
154,175,205316,1,8,0:0:0:0:
154,175,205502,1,8,0:0:0:0:
154,175,205689,1,0,0:0:0:0:
154,175,205875,1,0,0:0:0:0:
160,0,206061,1,8,0:0:0:0:
160,32,206154,1,0,0:0:0:0:
159,53,206248,1,8,0:0:0:0:
160,96,206341,1,0,0:0:0:0:
160,128,206434,1,8,0:0:0:0:
83,162,206620,1,0,0:0:0:0:
83,162,206807,1,8,0:0:0:0:
83,162,207179,1,0,0:0:0:0:
190,378,207552,1,8,0:0:0:0:
187,357,207645,1,8,0:0:0:0:
184,336,207738,1,0,0:0:0:0:
181,315,207831,1,0,0:0:0:0:
178,293,207925,1,8,0:0:0:0:
179,257,208111,1,0,0:0:0:0:
180,215,208297,1,8,0:0:0:0:
181,172,208484,1,8,0:0:0:0:
181,130,208670,1,0,0:0:0:0:
140,140,208856,1,0,0:0:0:0:
181,130,209043,1,8,0:0:0:0:
181,130,209136,1,8,0:0:0:0:
181,130,209229,1,8,0:0:0:0:
181,130,209415,1,0,0:0:0:0:
181,130,209602,1,8,0:0:0:0:
181,130,209695,1,8,0:0:0:0:
181,130,209788,1,8,0:0:0:0:
170,89,209974,1,0,0:0:0:0:
181,130,210161,1,8,0:0:0:0:
181,130,210254,1,8,0:0:0:0:
181,130,210347,1,0,0:0:0:0:
181,130,210440,1,0,0:0:0:0:
140,195,210533,1,8,0:0:0:0:
140,195,210720,1,8,0:0:0:0:
140,195,210906,1,0,0:0:0:0:
140,195,210999,1,0,0:0:0:0:
140,195,211092,1,0,0:0:0:0:
140,195,211279,1,8,0:0:0:0:
140,195,211465,1,0,0:0:0:0:
140,195,211651,1,8,0:0:0:0:
140,195,211744,1,8,0:0:0:0:
140,195,211838,1,8,0:0:0:0:
140,195,212024,1,0,0:0:0:0:
101,177,212210,1,0,0:0:0:0:
62,159,212397,1,8,0:0:0:0:
62,159,212583,1,0,0:0:0:0:
62,159,212676,1,0,0:0:0:0:
62,159,212769,1,8,0:0:0:0:
75,151,213142,1,0,0:0:0:0:
75,151,213515,1,8,0:0:0:0:
75,151,213608,1,0,0:0:0:0:
75,151,213701,1,8,0:0:0:0:
75,151,213887,1,0,0:0:0:0:
116,154,214074,1,0,0:0:0:0:
158,158,214260,1,8,0:0:0:0:
116,154,214446,1,8,0:0:0:0:
116,154,214633,1,0,0:0:0:0:
116,154,214819,1,8,0:0:0:0:
116,154,215005,1,0,0:0:0:0:
116,154,215098,1,0,0:0:0:0:
116,154,215192,1,0,0:0:0:0:
116,154,215378,1,8,0:0:0:0:
116,154,215564,1,0,0:0:0:0:
116,154,215657,1,0,0:0:0:0:
116,154,215751,1,8,0:0:0:0:
116,154,215937,1,0,0:0:0:0:
116,154,216030,1,0,0:0:0:0:
116,154,216123,1,8,0:0:0:0:
116,154,216216,1,0,0:0:0:0:
116,154,216310,1,0,0:0:0:0:
116,154,216403,1,0,0:0:0:0:
116,154,216496,1,8,0:0:0:0:
41,108,217987,1,12,0:0:0:0:
41,108,218359,1,4,0:0:0:0:
41,108,218546,1,4,0:0:0:0:
41,108,218732,1,12,0:0:0:0:
41,108,219105,1,4,0:0:0:0:
41,108,219291,1,12,0:0:0:0:
41,108,219477,1,4,0:0:0:0:
41,108,219850,1,4,0:0:0:0:
41,108,220036,1,12,0:0:0:0:
41,108,220223,1,4,0:0:0:0:
75,131,220409,1,4,0:0:0:0:
110,155,220595,1,12,0:0:0:0:
75,131,220782,1,4,0:0:0:0:
75,131,220968,1,12,0:0:0:0:
75,131,221341,1,4,0:0:0:0:
75,131,221527,1,4,0:0:0:0:
75,131,221713,1,12,0:0:0:0:
75,131,222086,1,4,0:0:0:0:
75,131,222272,1,12,0:0:0:0:
75,131,222459,1,4,0:0:0:0:
129,134,222645,1,4,0:0:0:0:
83,104,222831,1,4,0:0:0:0:
37,74,223018,1,12,0:0:0:0:
80,106,223204,1,12,0:0:0:0:
125,136,223390,1,4,0:0:0:0:
170,167,223577,1,12,0:0:0:0:
124,136,223763,1,4,0:0:0:0:
41,108,223949,1,12,0:0:0:0:
41,108,224321,1,4,0:0:0:0:
41,108,224508,1,4,0:0:0:0:
41,108,224694,1,12,0:0:0:0:
41,108,225067,1,4,0:0:0:0:
41,108,225253,1,12,0:0:0:0:
41,108,225439,1,4,0:0:0:0:
41,108,225812,1,4,0:0:0:0:
41,108,225998,1,12,0:0:0:0:
41,108,226185,1,4,0:0:0:0:
75,131,226371,1,4,0:0:0:0:
110,155,226557,1,12,0:0:0:0:
75,131,226744,1,4,0:0:0:0:
75,131,226930,1,12,0:0:0:0:
75,131,227303,1,4,0:0:0:0:
75,131,227489,1,4,0:0:0:0:
75,131,227675,1,12,0:0:0:0:
128,140,227862,1,12,0:0:0:0:
75,131,228048,1,4,0:0:0:0:
75,131,228234,1,12,0:0:0:0:
75,131,228421,1,4,0:0:0:0:
129,125,228608,1,4,0:0:0:0:
183,120,228794,1,12,0:0:0:0:
129,125,229167,1,12,0:0:0:0:
