osu file format v14

[General]
AudioFilename: audio.mp3
AudioLeadIn: 0
PreviewTime: -1
Countdown: 0
SampleSet: Soft
StackLeniency: 0
Mode: 0
LetterboxInBreaks: 0
WidescreenStoryboard: 0

[Editor]
Bookmarks: 57063
DistanceSpacing: 0.7
BeatDivisor: 4
GridSize: 16
TimelineZoom: 1.4

[Metadata]
Title:Vida Inteira (TV Size)
TitleUnicode:Vida Inteira (TV Size)
Artist:Raimundos
ArtistUnicode:Raimundos
Creator:reicavera
Version:timing+hitsounds
Source:Malhacao: Seu Lugar No Mundo
Tags:rede globo abertura português portuguese brazilian opening malhação telenovela trynna k4l1
BeatmapID:2417659
BeatmapSetID:1158504

[Difficulty]
HPDrainRate:7
CircleSize:2
OverallDifficulty:9
ApproachRate:10
SliderMultiplier:2.2
SliderTickRate:1

[Events]
//Background and Video events
0,0,"BG.jpg",0,0
//Break Periods
//Storyboard Layer 0 (Background)
//Storyboard Layer 1 (Fail)
//Storyboard Layer 2 (Pass)
//Storyboard Layer 3 (Foreground)
//Storyboard Layer 4 (Overlay)
//Storyboard Sound Samples

[TimingPoints]
129,307.692307692308,4,2,1,100,1,0
7821,307.692307692308,4,2,1,100,1,0
11513,301.129234629862,4,2,1,100,1,0
11958,315.789473684211,4,2,2,100,1,0
12135,315.789473684211,4,2,1,100,1,0
12298,289.156626506024,4,2,2,100,1,0
12756,307.692307692308,4,2,1,100,1,0
47909,-100,4,2,2,100,0,0
48140,-100,4,2,1,100,0,0
48217,-100,4,2,2,100,0,0
48448,-100,4,2,1,100,0,0
58986,-100,4,2,2,100,0,0
59217,-100,4,2,1,100,0,0
59294,-100,4,2,2,100,0,0
59525,-100,4,2,1,100,0,0
64140,-100,4,2,2,100,0,0
64294,-100,4,2,1,100,0,0

[HitObjects]
256,192,129,5,0,1:2:0:0:
256,192,744,1,0,1:2:0:0:
256,192,1359,1,0,1:2:0:0:
256,192,1975,1,0,1:2:0:0:
256,192,2590,1,2,1:2:0:0:
256,192,2898,1,2,1:2:0:0:
256,192,3205,1,2,1:2:0:0:
256,192,3513,1,2,1:2:0:0:
256,192,3821,1,2,1:2:0:0:
256,192,4129,1,2,1:2:0:0:
256,192,4436,1,2,1:2:0:0:
256,192,4744,1,2,1:2:0:0:
256,192,5052,1,14,0:2:0:0:
256,192,5205,1,2,0:0:0:0:
256,192,5359,1,0,1:2:0:0:
256,192,5513,1,0,1:2:0:0:
256,192,5667,1,0,1:2:0:0:
256,192,5821,1,0,1:2:0:0:
256,192,5975,1,0,1:2:0:0:
256,192,6129,1,0,1:2:0:0:
256,192,6282,1,0,1:2:0:0:
256,192,6436,1,0,1:2:0:0:
256,192,6590,1,8,0:2:0:0:
256,192,6744,1,2,0:0:0:0:
256,192,7052,1,2,0:0:0:0:
256,192,7205,1,6,0:1:0:0:
256,192,7821,1,2,1:2:0:0:
256,192,7974,1,8,0:2:0:0:
256,192,8128,1,0,1:2:0:0:
256,192,8205,1,0,1:2:0:0:
256,192,8281,1,8,0:2:0:0:
256,192,8436,1,0,1:2:0:0:
256,192,8589,1,8,0:2:0:0:
256,192,8744,1,0,1:2:0:0:
256,192,8821,1,0,1:2:0:0:
256,192,8897,1,8,0:2:0:0:
256,192,9051,1,2,1:2:0:0:
256,192,9204,1,8,0:2:0:0:
256,192,9358,1,0,1:2:0:0:
256,192,9436,1,0,1:2:0:0:
256,192,9511,1,8,0:2:0:0:
256,192,9666,1,0,1:2:0:0:
256,192,9819,1,8,0:2:0:0:
256,192,9974,1,2,1:2:0:0:
256,192,10051,1,0,1:2:0:0:
256,192,10127,1,8,0:2:0:0:
256,192,10282,1,2,1:2:0:0:
256,192,10435,1,8,0:2:0:0:
256,192,10589,1,0,1:2:0:0:
256,192,10667,1,0,1:2:0:0:
256,192,10742,1,8,0:2:0:0:
256,192,10897,1,0,1:2:0:0:
256,192,11050,1,8,0:2:0:0:
256,192,11205,1,0,1:2:0:0:
256,192,11282,1,0,1:2:0:0:
256,192,11358,1,8,0:2:0:0:
256,192,11513,1,0,1:2:0:0:
256,192,11588,1,0,3:0:0:0:
256,192,11663,1,0,3:0:0:0:
256,192,11738,1,0,3:0:0:0:
256,192,11814,1,0,1:2:0:0:
256,192,11889,1,0,3:0:0:0:
256,192,11958,1,0,3:0:0:0:
256,192,12036,1,0,3:0:0:0:
256,192,12135,1,10,0:0:0:0:
256,192,12174,1,8,0:0:0:0:
256,192,12213,1,8,0:0:0:0:
256,192,12298,1,0,3:0:0:0:
256,192,12370,1,0,3:0:0:0:
256,192,12442,1,0,3:0:0:0:
256,192,12514,1,0,3:0:0:0:
256,192,12587,1,0,3:0:0:0:
256,192,12659,1,0,3:0:0:0:
256,192,12756,1,6,1:2:0:0:
256,192,12909,1,10,0:2:0:0:
256,192,13063,1,0,1:2:0:0:
256,192,13216,1,10,0:2:0:0:
256,192,13371,1,2,1:2:0:0:
256,192,13524,1,8,0:2:0:0:
256,192,13679,1,0,1:2:0:0:
256,192,13832,1,8,0:2:0:0:
256,192,13986,1,0,1:2:0:0:
256,192,14139,1,10,0:2:0:0:
256,192,14293,1,0,1:2:0:0:
256,192,14371,1,2,0:0:0:0:
256,192,14446,1,8,0:2:0:0:
256,192,14601,1,2,1:2:0:0:
256,192,14756,1,10,0:2:0:0:
256,192,14911,1,2,1:2:0:0:
256,192,15062,1,8,0:2:0:0:
256,192,15217,1,2,1:2:0:0:
256,192,15370,1,10,0:2:0:0:
256,192,15524,1,0,1:2:0:0:
256,192,15679,1,10,0:2:0:0:
256,192,15832,1,2,1:2:0:0:
256,192,15986,1,8,0:2:0:0:
256,192,16140,1,0,1:2:0:0:
256,192,16293,1,8,0:2:0:0:
256,192,16448,1,0,1:2:0:0:
256,192,16602,1,10,0:2:0:0:
256,192,16755,1,0,1:2:0:0:
256,192,16832,1,2,0:0:0:0:
256,192,16908,1,8,0:2:0:0:
256,192,17063,1,2,1:2:0:0:
256,192,17216,1,10,0:2:0:0:
256,192,17371,1,0,1:2:0:0:
256,192,17448,1,2,0:0:0:0:
256,192,17525,1,8,0:2:0:0:
256,192,17679,1,2,1:2:0:0:
256,192,17831,1,10,0:2:0:0:
256,192,17985,1,0,1:2:0:0:
256,192,18063,1,2,0:0:0:0:
256,192,18140,1,8,0:2:0:0:
256,192,18293,1,2,1:2:0:0:
256,192,18446,1,8,0:2:0:0:
256,192,18601,1,0,1:2:0:0:
256,192,18754,1,8,0:2:0:0:
256,192,18909,1,0,1:2:0:0:
256,192,19062,1,10,0:2:0:0:
256,192,19216,1,0,1:2:0:0:
256,192,19294,1,2,0:0:0:0:
256,192,19369,1,8,0:2:0:0:
256,192,19524,1,2,1:2:0:0:
256,192,19677,1,10,0:2:0:0:
256,192,19832,1,0,1:2:0:0:
256,192,19909,1,2,0:0:0:0:
256,192,19985,1,8,0:2:0:0:
256,192,20140,1,2,1:2:0:0:
256,192,20293,1,10,0:2:0:0:
256,192,20447,1,2,1:2:0:0:
256,192,20600,1,8,0:2:0:0:
256,192,20756,1,2,1:2:0:0:
256,192,20908,1,8,0:2:0:0:
256,192,21063,1,0,1:2:0:0:
256,192,21216,1,8,0:2:0:0:
256,192,21371,1,2,1:2:0:0:
256,192,21448,1,0,3:0:0:0:
256,192,21525,1,8,0:2:0:0:
256,192,21602,1,8,0:2:0:0:
256,192,21679,1,8,1:2:0:0:
256,192,21756,1,8,0:2:0:0:
256,192,21832,1,8,0:2:0:0:
256,192,21909,1,8,0:2:0:0:
256,192,21986,1,2,0:0:0:0:
256,192,22063,1,0,3:0:0:0:
256,192,22140,1,8,0:2:0:0:
256,192,22217,1,8,0:2:0:0:
256,192,22294,1,8,1:2:0:0:
256,192,22371,1,8,0:2:0:0:
256,192,22448,1,8,0:2:0:0:
256,192,22525,1,8,0:2:0:0:
256,192,22602,1,6,1:2:0:0:
256,192,22755,1,10,0:2:0:0:
256,192,22909,1,0,1:2:0:0:
256,192,23062,1,8,0:2:0:0:
256,192,23217,1,2,1:2:0:0:
256,192,23370,1,8,0:2:0:0:
256,192,23525,1,0,1:2:0:0:
256,192,23679,1,8,0:2:0:0:
256,192,23832,1,0,1:2:0:0:
256,192,23985,1,10,0:2:0:0:
256,192,24139,1,0,1:2:0:0:
256,192,24217,1,2,0:0:0:0:
256,192,24292,1,8,0:2:0:0:
256,192,24447,1,2,1:2:0:0:
256,192,24600,1,10,0:2:0:0:
256,192,24755,1,0,1:2:0:0:
256,192,24832,1,2,0:0:0:0:
256,192,24908,1,8,0:2:0:0:
256,192,25063,1,0,1:2:0:0:
256,192,25140,1,2,0:0:0:0:
256,192,25216,1,8,0:2:0:0:
256,192,25371,1,0,1:2:0:0:
256,192,25448,1,2,0:0:0:0:
256,192,25523,1,8,0:2:0:0:
256,192,25679,1,2,1:2:0:0:
256,192,25831,1,8,0:2:0:0:
256,192,25986,1,0,1:2:0:0:
256,192,26139,1,8,0:2:0:0:
256,192,26294,1,0,1:2:0:0:
256,192,26447,1,10,0:2:0:0:
256,192,26601,1,0,1:2:0:0:
256,192,26679,1,2,0:0:0:0:
256,192,26754,1,8,0:2:0:0:
256,192,26909,1,2,1:2:0:0:
256,192,27062,1,10,0:2:0:0:
256,192,27217,1,0,1:2:0:0:
256,192,27294,1,2,0:0:0:0:
256,192,27370,1,8,0:2:0:0:
256,192,27448,1,2,0:0:0:0:
256,192,27524,1,4,1:2:0:0:
256,192,27677,1,10,0:2:0:0:
256,192,27831,1,0,1:2:0:0:
256,192,27909,1,2,0:0:0:0:
256,192,27984,1,8,0:2:0:0:
256,192,28140,1,2,1:2:0:0:
256,192,28292,1,8,0:2:0:0:
256,192,28447,1,0,1:2:0:0:
256,192,28600,1,8,0:2:0:0:
256,192,28755,1,0,1:2:0:0:
256,192,28908,1,10,0:2:0:0:
256,192,29062,1,0,1:2:0:0:
256,192,29140,1,2,0:0:0:0:
256,192,29215,1,8,0:2:0:0:
256,192,29370,1,2,1:2:0:0:
256,192,29523,1,10,0:2:0:0:
256,192,29678,1,0,1:2:0:0:
256,192,29756,1,2,0:0:0:0:
256,192,29831,1,8,0:2:0:0:
256,192,29986,1,6,1:2:0:0:
256,192,30139,1,10,0:2:0:0:
256,192,30293,1,0,1:2:0:0:
256,192,30371,1,2,0:0:0:0:
256,192,30446,1,8,0:2:0:0:
256,192,30602,1,6,1:2:0:0:
256,192,30754,1,10,0:2:0:0:
256,192,30909,1,2,1:2:0:0:
256,192,31062,1,10,0:2:0:0:
256,192,31217,1,6,1:2:0:0:
256,192,31370,1,10,0:2:0:0:
256,192,31524,1,2,1:2:0:0:
256,192,31677,1,10,0:2:0:0:
256,192,31832,1,4,1:2:0:0:
256,192,31986,1,10,0:2:0:0:
256,192,32140,1,2,1:2:0:0:
256,192,32293,1,10,0:2:0:0:
256,192,32447,1,6,1:2:0:0:
256,192,32600,1,10,0:2:0:0:
256,192,32754,1,0,1:2:0:0:
256,192,32907,1,10,0:2:0:0:
256,192,33062,1,6,1:3:0:0:
256,192,33215,1,8,0:2:0:0:
256,192,33370,1,0,1:2:0:0:
256,192,33523,1,8,0:2:0:0:
256,192,33678,1,4,1:3:0:0:
256,192,33831,1,10,0:2:0:0:
256,192,33985,1,0,1:2:0:0:
256,192,34063,1,2,0:0:0:0:
256,192,34138,1,8,0:2:0:0:
256,192,34294,1,6,1:3:0:0:
256,192,34448,1,10,0:2:0:0:
256,192,34601,1,0,1:2:0:0:
256,192,34679,1,2,0:0:0:0:
256,192,34754,1,8,0:2:0:0:
256,192,34909,1,6,1:3:0:0:
256,192,35062,1,10,0:2:0:0:
256,192,35216,1,0,1:2:0:0:
256,192,35294,1,2,0:0:0:0:
256,192,35369,1,8,0:2:0:0:
256,192,35524,1,6,1:3:0:0:
256,192,35677,1,8,0:2:0:0:
256,192,35832,1,0,1:2:0:0:
256,192,35985,1,8,0:2:0:0:
256,192,36139,1,4,1:3:0:0:
256,192,36292,1,10,0:2:0:0:
256,192,36446,1,2,1:2:0:0:
256,192,36599,1,10,0:2:0:0:
256,192,36754,1,6,1:3:0:0:
256,192,36907,1,10,0:2:0:0:
256,192,37062,1,0,1:2:0:0:
256,192,37140,1,2,0:0:0:0:
256,192,37215,1,8,0:2:0:0:
256,192,37370,1,6,1:3:0:0:
256,192,37523,1,10,0:2:0:0:
256,192,37677,1,0,1:2:0:0:
256,192,37756,1,2,0:0:0:0:
256,192,37830,1,8,0:2:0:0:
256,192,37986,1,6,1:3:0:0:
256,192,38138,1,8,0:2:0:0:
256,192,38293,1,0,1:2:0:0:
256,192,38446,1,8,0:2:0:0:
256,192,38601,1,4,1:3:0:0:
256,192,38754,1,10,0:2:0:0:
256,192,38908,1,2,1:2:0:0:
256,192,39061,1,10,0:2:0:0:
256,192,39216,1,6,1:3:0:0:
256,192,39371,1,10,0:2:0:0:
256,192,39524,1,0,1:2:0:0:
256,192,39602,1,2,0:0:0:0:
256,192,39677,1,8,0:2:0:0:
256,192,39832,1,6,1:3:0:0:
256,192,39985,1,10,0:2:0:0:
256,192,40139,1,0,1:2:0:0:
256,192,40217,1,2,0:0:0:0:
256,192,40292,1,8,0:2:0:0:
256,192,40448,1,6,1:3:0:0:
256,192,40600,1,8,0:2:0:0:
256,192,40756,1,0,1:2:0:0:
256,192,40908,1,8,0:2:0:0:
256,192,41063,1,0,1:2:0:0:
256,192,41140,1,0,3:0:0:0:
256,192,41217,1,0,3:0:0:0:
256,192,41294,1,0,3:0:0:0:
256,192,41371,1,0,1:2:0:0:
256,192,41448,1,0,3:0:0:0:
256,192,41525,1,0,3:0:0:0:
256,192,41602,1,0,3:0:0:0:
256,192,41679,1,8,1:2:0:0:
256,192,41756,1,8,0:0:0:0:
256,192,41832,1,8,0:0:0:0:
256,192,41909,1,8,0:0:0:0:
256,192,41986,1,8,1:2:0:0:
256,192,42063,1,8,0:0:0:0:
256,192,42140,1,8,0:0:0:0:
256,192,42217,1,8,0:0:0:0:
256,192,42294,1,6,1:2:0:0:
256,192,42447,1,10,0:2:0:0:
256,192,42601,1,0,1:2:0:0:
256,192,42754,1,10,0:2:0:0:
256,192,42909,1,2,1:2:0:0:
256,192,43062,1,8,0:2:0:0:
256,192,43217,1,0,1:2:0:0:
256,192,43370,1,8,0:2:0:0:
256,192,43525,1,0,1:2:0:0:
256,192,43678,1,10,0:2:0:0:
256,192,43832,1,0,1:2:0:0:
256,192,43909,1,2,0:0:0:0:
256,192,43985,1,8,0:2:0:0:
256,192,44140,1,2,1:2:0:0:
256,192,44293,1,10,0:2:0:0:
256,192,44448,1,0,1:2:0:0:
256,192,44525,1,2,0:0:0:0:
256,192,44601,1,8,0:2:0:0:
256,192,44756,1,2,1:2:0:0:
256,192,44909,1,10,0:2:0:0:
256,192,45063,1,0,1:2:0:0:
256,192,45216,1,10,0:2:0:0:
256,192,45371,1,2,1:2:0:0:
256,192,45524,1,8,0:2:0:0:
256,192,45679,1,0,1:2:0:0:
256,192,45832,1,8,0:2:0:0:
256,192,45986,1,0,1:2:0:0:
256,192,46139,1,10,0:2:0:0:
256,192,46293,1,0,1:2:0:0:
256,192,46371,1,2,0:0:0:0:
256,192,46446,1,8,0:2:0:0:
256,192,46601,1,2,1:2:0:0:
256,192,46754,1,10,0:2:0:0:
256,192,46909,1,0,1:2:0:0:
256,192,46986,1,2,0:0:0:0:
256,192,47062,1,8,0:2:0:0:
256,192,47217,1,2,1:2:0:0:
256,192,47371,1,2,3:2:0:0:
256,192,47448,1,0,3:0:0:0:
256,192,47525,1,0,1:2:0:0:
256,192,47602,1,2,3:2:0:0:
256,192,47679,1,0,3:0:0:0:
256,192,47756,1,0,3:0:0:0:
256,192,47832,1,2,1:2:0:0:
256,192,47909,1,0,3:0:0:0:
256,192,47986,1,0,3:0:0:0:
256,192,48063,1,0,3:0:0:0:
256,192,48140,1,0,1:2:0:0:
256,192,48217,1,0,3:0:0:0:
256,192,48294,1,0,3:0:0:0:
256,192,48371,1,0,3:0:0:0:
256,192,48448,1,8,0:2:0:0:
256,192,48602,1,2,0:0:0:0:
256,192,48909,1,2,0:0:0:0:
256,192,49063,1,2,0:0:0:0:
256,192,49217,1,0,1:2:0:0:
256,192,49371,1,8,0:2:0:0:
256,192,49409,1,8,0:2:0:0:
256,192,49679,1,2,1:2:0:0:
256,192,49832,1,8,0:2:0:0:
256,192,49986,1,0,1:2:0:0:
256,192,50063,1,0,1:2:0:0:
256,192,50139,1,8,0:2:0:0:
256,192,50294,1,0,1:2:0:0:
256,192,50447,1,8,0:2:0:0:
256,192,50602,1,0,1:2:0:0:
256,192,50679,1,0,1:2:0:0:
256,192,50755,1,8,0:2:0:0:
256,192,50909,1,2,1:2:0:0:
256,192,51062,1,8,0:2:0:0:
256,192,51216,1,0,1:2:0:0:
256,192,51294,1,0,1:2:0:0:
256,192,51369,1,8,0:2:0:0:
256,192,51524,1,0,1:2:0:0:
256,192,51677,1,8,0:2:0:0:
256,192,51832,1,2,1:2:0:0:
256,192,51909,1,0,1:2:0:0:
256,192,51985,1,8,0:2:0:0:
256,192,52140,1,2,1:2:0:0:
256,192,52293,1,8,0:2:0:0:
256,192,52447,1,0,1:2:0:0:
256,192,52525,1,0,1:2:0:0:
256,192,52600,1,8,0:2:0:0:
256,192,52755,1,0,1:2:0:0:
256,192,52908,1,8,0:2:0:0:
256,192,53063,1,0,1:2:0:0:
256,192,53140,1,0,1:2:0:0:
256,192,53216,1,8,0:2:0:0:
256,192,53371,1,0,1:2:0:0:
256,192,53524,1,10,0:2:0:0:
256,192,53678,1,0,1:2:0:0:
256,192,53756,1,0,1:2:0:0:
256,192,53831,1,10,0:2:0:0:
256,192,53986,1,2,1:2:0:0:
256,192,54139,1,8,0:2:0:0:
256,192,54294,1,0,1:2:0:0:
256,192,54371,1,0,1:2:0:0:
256,192,54447,1,8,0:2:0:0:
256,192,54602,1,2,1:2:0:0:
256,192,54755,1,8,0:2:0:0:
256,192,54909,1,0,1:2:0:0:
256,192,54986,1,0,1:2:0:0:
256,192,55062,1,8,0:2:0:0:
256,192,55217,1,0,1:2:0:0:
256,192,55370,1,8,0:2:0:0:
256,192,55525,1,0,1:2:0:0:
256,192,55602,1,0,1:2:0:0:
256,192,55678,1,8,0:2:0:0:
256,192,55832,1,2,1:2:0:0:
256,192,55985,1,8,0:2:0:0:
256,192,56139,1,0,1:2:0:0:
256,192,56217,1,0,1:2:0:0:
256,192,56292,1,8,0:2:0:0:
256,192,56447,1,0,1:2:0:0:
256,192,56600,1,8,0:2:0:0:
256,192,56755,1,2,1:2:0:0:
256,192,56832,1,0,1:2:0:0:
256,192,56908,1,8,0:2:0:0:
256,192,57063,1,2,1:2:0:0:
256,192,57140,1,0,3:0:0:0:
256,192,57217,1,0,3:0:0:0:
256,192,57294,1,0,3:0:0:0:
256,192,57371,1,0,3:0:0:0:
256,192,57448,1,0,1:2:0:0:
256,192,57525,1,0,3:0:0:0:
256,192,57602,1,8,0:2:0:0:
256,192,57679,1,8,0:2:0:0:
256,192,57756,1,8,0:2:0:0:
256,192,57832,1,8,0:2:0:0:
256,192,57909,1,0,3:0:0:0:
256,192,57986,1,0,1:2:0:0:
256,192,58063,1,8,0:2:0:0:
256,192,58140,1,8,0:2:0:0:
256,192,58217,1,0,3:0:0:0:
256,192,58294,1,2,1:2:0:0:
256,192,58371,1,8,0:2:0:0:
256,192,58448,1,8,0:2:0:0:
256,192,58525,1,8,0:2:0:0:
256,192,58602,1,10,1:2:0:0:
256,192,58679,1,8,2:0:0:0:
256,192,58756,1,8,2:0:0:0:
256,192,58832,1,0,3:0:0:0:
256,192,58909,1,2,1:2:0:0:
256,192,58986,1,0,3:0:0:0:
256,192,59063,1,0,3:0:0:0:
256,192,59140,1,0,3:0:0:0:
256,192,59217,1,2,1:2:0:0:
256,192,59294,1,0,3:0:0:0:
256,192,59371,1,0,3:0:0:0:
256,192,59448,1,0,3:0:0:0:
256,192,59525,1,6,1:2:0:0:
256,192,59678,1,10,0:2:0:0:
256,192,59832,1,0,1:2:0:0:
256,192,59909,1,0,1:2:0:0:
256,192,59985,1,10,0:2:0:0:
256,192,60140,1,2,1:2:0:0:
256,192,60293,1,8,0:2:0:0:
256,192,60448,1,2,1:2:0:0:
256,192,60525,1,0,1:2:0:0:
256,192,60601,1,8,0:2:0:0:
256,192,60756,1,2,1:2:0:0:
256,192,60909,1,10,0:2:0:0:
256,192,61063,1,0,1:2:0:0:
256,192,61140,1,0,1:2:0:0:
256,192,61216,1,10,0:2:0:0:
256,192,61371,1,2,1:2:0:0:
256,192,61524,1,8,0:2:0:0:
256,192,61679,1,2,1:2:0:0:
256,192,61756,1,0,1:2:0:0:
256,192,61832,1,8,0:2:0:0:
256,192,61986,1,2,1:2:0:0:
256,192,62139,1,10,0:2:0:0:
256,192,62293,1,0,1:2:0:0:
256,192,62371,1,0,1:2:0:0:
256,192,62446,1,10,0:2:0:0:
256,192,62601,1,2,1:2:0:0:
256,192,62754,1,8,0:2:0:0:
256,192,62909,1,2,1:2:0:0:
256,192,63062,1,8,0:2:0:0:
256,192,63217,1,6,1:2:0:0:
256,192,63371,1,10,0:2:0:0:
256,192,63448,1,10,0:2:0:0:
256,192,63525,1,10,0:2:0:0:
256,192,63679,1,10,0:2:0:0:
256,192,63832,1,2,3:0:0:0:
256,192,63986,1,2,3:0:0:0:
256,192,64140,1,0,3:2:0:0:
256,192,64294,1,2,1:2:0:0:
256,192,64448,1,8,0:2:0:0:
