osu file format v14

[General]
AudioFilename: audio.mp3
AudioLeadIn: 0
PreviewTime: 69772
Countdown: 0
SampleSet: Soft
StackLeniency: 0.3
Mode: 0
LetterboxInBreaks: 0
WidescreenStoryboard: 1

[Editor]
Bookmarks: 1200,5772,14915,17200,26343,35486,44629,51486,60629,69772,78915,88058,92629,101772,110915,120058,128058,133772
DistanceSpacing: 1
BeatDivisor: 4
GridSize: 16
TimelineZoom: 2.5

[Metadata]
Title:Myths Orbis
TitleUnicode:Myths Orbis
Artist:Raimukun
ArtistUnicode:Raimukun
Creator:knowledgeking
Version:nik's Insane
Source:osu! World Cup 2022
Tags:-_AzRael_- AzRael Imokora RiverKnowFarm nik nikolomara Musty Mustaash Chemo Serenhaide Sh4rq_ Sh3rg_ kiwies morphne ItsWinter SILENCE PLAYER owc grand finals owc2022GFNM2 nomod fa featured artist electronic instrumental piano Cinematic Speedcore Hardcore hard renaissance stream
BeatmapID:4392407
BeatmapSetID:1889095

[Difficulty]
HPDrainRate:5
CircleSize:3.8
OverallDifficulty:8
ApproachRate:9
SliderMultiplier:1.6
SliderTickRate:1

[Events]
//Background and Video events
0,0,"bg.jpg",0,0
//Break Periods
2,51915,60029
2,88258,90886
//Storyboard Layer 0 (Background)
//Storyboard Layer 1 (Fail)
//Storyboard Layer 2 (Pass)
//Storyboard Layer 3 (Foreground)
//Storyboard Layer 4 (Overlay)
//Storyboard Sound Samples

[TimingPoints]
58,285.714285714286,4,2,1,70,1,0
1200,-83.3333333333333,4,2,1,70,0,0
5772,-100,4,2,1,70,0,0
14915,-133.333333333333,4,2,1,70,0,0
17200,-100,4,2,1,70,0,0
24058,-83.3333333333333,4,2,1,70,0,0
26343,-111.111111111111,4,2,1,70,0,0
26629,-100,4,2,1,70,0,0
30915,-83.3333333333333,4,2,1,70,0,0
34343,-100,4,2,1,70,0,0
37772,-83.3333333333333,4,2,1,70,0,0
38915,-71.4285714285714,4,2,1,70,0,0
39486,-83.3333333333333,4,2,1,70,0,0
40058,-100,4,2,1,70,0,0
42343,-83.3333333333333,4,2,1,70,0,0
44629,-100,4,2,1,70,0,0
60629,-71.4285714285714,4,2,1,70,0,1
65200,-83.3333333333333,4,2,1,70,0,1
68629,-133.333333333333,4,2,1,70,0,0
69772,-83.3333333333333,4,2,1,70,0,0
78915,-83.3333333333333,4,1,1,50,0,0
84058,-83.3333333333333,4,1,1,55,0,0
84629,-83.3333333333333,4,1,1,60,0,0
85200,-83.3333333333333,4,1,1,65,0,0
85772,-83.3333333333333,4,1,1,70,0,0
88058,-83.3333333333333,4,2,1,70,0,0
92629,-100,4,2,1,70,0,0
94915,-83.3333333333333,4,2,1,70,0,0
96058,-71.4285714285714,4,2,1,70,0,0
96629,-83.3333333333333,4,2,1,70,0,0
97200,-100,4,2,1,70,0,0
99486,-83.3333333333333,4,2,1,70,0,0
101772,-100,4,2,1,70,0,0
110915,-83.3333333333333,4,2,1,70,0,0
120058,-71.4285714285714,4,1,1,70,0,1
128058,-83.3333333333333,4,2,1,70,0,0
131486,-66.6666666666667,4,2,1,70,0,0

[Colours]
Combo1 : 0,142,0
Combo2 : 130,255,255
Combo3 : 0,67,149
Combo4 : 184,184,184

[HitObjects]
17,224,915,5,2,0:0:0:0:
12,233,986,1,2,0:0:0:0:
8,245,1058,1,2,0:0:0:0:
4,255,1129,1,2,0:0:0:0:
0,266,1200,2,0,P|12:308|45:355,1,95.9999970703126,6|2,3:2|3:2,0:0:0:0:
117,328,1486,2,0,P|155:349|212:359,1,95.9999970703126,6|2,3:2|3:2,0:0:0:0:
241,291,1772,2,0,P|283:278|330:245,1,95.9999970703126,6|2,3:2|3:2,0:0:0:0:
299,177,2058,2,0,P|320:138|330:81,1,95.9999970703126,6|2,3:2|3:2,0:0:0:0:
153,0,2343,6,0,P|132:38|122:95,1,95.9999970703126,6|2,3:2|3:2,0:0:0:0:
191,126,2629,2,0,P|203:168|236:215,1,95.9999970703126,6|2,3:2|3:2,0:0:0:0:
305,188,2915,2,0,P|343:209|400:219,1,95.9999970703126,6|2,3:2|3:2,0:0:0:0:
427,148,3200,2,0,P|469:135|516:102,1,95.9999970703126,6|2,3:2|3:2,0:0:0:0:
157,203,3486,5,6,3:2:0:0:
157,203,3629,1,2,3:2:0:0:
93,249,3772,2,0,P|51:238|-19:233,1,95.9999970703126,6|2,3:2|3:2,0:0:0:0:
149,119,4058,2,0,P|191:130|261:135,1,95.9999970703126,6|2,3:2|3:2,0:0:0:0:
361,277,4343,5,6,3:2:0:0:
361,277,4486,1,2,3:2:0:0:
412,353,4629,2,0,P|441:311|481:278,1,95.9999970703126,6|2,3:2|3:2,0:0:0:0:
323,383,4915,2,0,P|286:351|260:311,1,95.9999970703126,6|2,3:2|3:2,0:0:0:0:
251,123,5200,5,14,3:2:0:0:
273,112,5272,1,2,1:2:0:0:
295,110,5343,1,10,3:2:0:0:
319,117,5415,1,2,1:2:0:0:
339,131,5486,1,14,3:2:0:0:
356,149,5558,1,10,1:2:0:0:
377,160,5629,1,10,3:2:0:0:
400,164,5700,1,10,1:2:0:0:
422,160,5772,5,4,3:2:0:0:
280,217,6058,1,0,1:0:0:0:
280,217,6129,1,0,1:0:0:0:
280,217,6200,1,4,3:2:0:0:
484,47,6486,5,2,0:0:0:0:
484,47,6558,1,2,0:0:0:0:
484,47,6629,2,0,L|486:-13,3,40,2|2|0|0,0:0|0:0|1:0|1:0,0:0:0:0:
512,119,6915,2,0,B|458:138|458:138|391:70|257:89,1,240,4|0,3:2|1:0,0:0:0:0:
236,184,7486,2,0,L|157:198,1,80,4|0,3:2|1:0,0:0:0:0:
0,100,7772,2,0,L|95:117,1,80,4|0,3:2|1:0,0:0:0:0:
70,201,8058,5,4,3:2:0:0:
236,18,8343,1,0,1:0:0:0:
236,18,8415,1,0,1:0:0:0:
236,18,8486,1,4,3:2:0:0:
350,146,8772,5,2,0:0:0:0:
350,146,8843,1,2,0:0:0:0:
350,146,8915,2,0,L|352:206,3,40,2|2|0|0,0:0|0:0|1:0|1:0,0:0:0:0:
280,108,9200,2,0,P|217:117|222:286,1,240,4|0,3:2|1:0,0:0:0:0:
282,362,9772,2,0,L|361:376,1,80,4|0,3:2|1:0,0:0:0:0:
512,247,10058,2,0,L|417:264,1,80,4|0,3:2|1:0,0:0:0:0:
458,384,10343,6,0,P|431:337|418:210,1,160,4|0,3:2|3:0,0:0:0:0:
437,57,10772,1,0,1:0:0:0:
512,81,10915,2,0,B|419:117|474:140|369:167,1,160,4|0,3:2|3:0,0:0:0:0:
217,104,11343,1,0,1:0:0:0:
146,72,11486,6,0,P|94:109|53:110,1,80,4|0,3:2|1:0,0:0:0:0:
55,103,11700,1,0,1:0:0:0:
55,103,11772,1,0,3:0:0:0:
0,183,11915,1,0,1:0:0:0:
0,183,11986,1,0,1:0:0:0:
0,183,12058,2,0,L|16:273,1,80,4|0,3:2|1:0,0:0:0:0:
130,379,12343,2,0,L|137:340,3,40,0|0|0|0,3:0|0:0|3:0|0:0,0:0:0:0:
105,265,12629,6,0,P|145:242|191:246,1,80,4|0,3:2|1:0,0:0:0:0:
301,317,12915,1,4,3:2:0:0:
301,317,12986,1,0,0:0:0:0:
301,317,13058,2,0,P|314:293|319:261,1,40,0|0,1:0|0:0,0:0:0:0:
217,316,13200,2,0,L|221:355,3,40,4|0|0|0,3:2|0:0|1:0|0:0,0:0:0:0:
258,235,13486,1,4,3:2:0:0:
258,235,13558,1,0,0:0:0:0:
258,235,13629,2,0,L|262:195,1,40,0|0,1:0|0:0,0:0:0:0:
180,139,13772,5,4,3:2:0:0:
180,139,13843,1,0,1:0:0:0:
180,139,13915,1,0,1:0:0:0:
180,139,13986,1,0,1:0:0:0:
180,139,14058,2,0,L|176:99,3,40,4|0|0|0,3:2|1:0|1:0|1:0,0:0:0:0:
115,48,14343,2,0,P|68:73|35:76,1,80,4|0,3:2|1:0,0:0:0:0:
14,67,14558,2,0,P|-2:102|13:137,1,80,4|0,3:2|1:0,0:0:0:0:
116,254,14772,5,4,3:2:0:0:
116,254,14843,1,0,1:0:0:0:
116,254,14915,2,0,B|22:261|-5:171|-5:171|165:110|238:258|238:258|147:290|152:383,1,600.000022888184,4|2,3:2|0:0,0:0:0:0:
242,384,16629,5,8,3:2:0:0:
250,383,16700,1,8,0:0:0:0:
259,382,16772,1,8,3:2:0:0:
267,381,16843,1,8,0:0:0:0:
276,380,16915,1,8,3:2:0:0:
284,379,16986,1,8,3:2:0:0:
293,379,17058,1,8,3:2:0:0:
301,378,17129,1,8,3:2:0:0:
310,377,17200,2,0,B|364:363|364:363|398:330|398:330|473:314,1,160,4|2,3:2|3:2,0:0:0:0:
512,226,17629,5,10,0:0:0:0:
512,226,17700,1,2,0:0:0:0:
512,226,17772,2,0,L|410:245,1,80,2|10,3:2|0:0,0:0:0:0:
296,283,18058,2,0,L|398:302,1,80,2|10,3:2|0:0,0:0:0:0:
468,133,18343,5,0,3:0:0:0:
463,121,18415,1,0,0:0:0:0:
461,109,18486,1,10,0:0:0:0:
459,96,18558,1,0,0:0:0:0:
461,84,18629,2,0,P|473:52|464:27,3,40,0|0|10|0,3:0|0:0|0:0|0:0,0:0:0:0:
396,35,18915,2,0,P|381:3|357:-7,3,40,2|2|10|2,3:0|0:0|0:0|0:0,0:0:0:0:
374,109,19200,5,2,3:2:0:0:
355,114,19272,1,2,0:0:0:0:
335,110,19343,2,0,P|316:97|276:98,1,40,10|2,3:2|0:0,0:0:0:0:
197,122,19486,2,0,P|270:54|241:-1,1,160,2|0,3:2|3:0,0:0:0:0:
100,78,19915,5,8,0:0:0:0:
100,78,19986,1,0,0:0:0:0:
100,78,20058,2,0,L|122:170,1,80,2|10,3:2|0:0,0:0:0:0:
10,281,20343,2,0,L|28:203,1,80,2|10,3:2|0:0,0:0:0:0:
76,363,20629,6,0,B|150:342|97:323|185:301,1,120,2|2,3:2|0:0,0:0:0:0:
201,315,20915,2,0,P|249:281|249:241,1,80,2|10,3:2|0:0,0:0:0:0:
199,181,21200,2,0,L|204:132,2,40,6|2|10,3:2|0:0|3:2,0:0:0:0:
118,240,21486,1,2,3:2:0:0:
118,240,21558,1,0,0:0:0:0:
118,240,21629,1,8,3:2:0:0:
154,382,21772,6,0,B|216:373|216:373|243:338|243:338|298:331,1,160,6|2,3:2|3:2,0:0:0:0:
476,272,22200,1,10,0:0:0:0:
476,272,22272,1,2,0:0:0:0:
476,272,22343,2,0,L|372:256,1,80,2|10,3:2|0:0,0:0:0:0:
279,355,22629,2,0,L|383:339,1,80,2|10,3:2|0:0,0:0:0:0:
478,384,22915,5,0,3:0:0:0:
489,381,22986,1,0,0:0:0:0:
498,375,23058,1,8,0:0:0:0:
506,367,23129,1,0,0:0:0:0:
512,357,23200,2,0,P|508:332|513:305,3,40,2|0|8|0,3:2|0:0|0:0|0:0,0:0:0:0:
470,254,23486,2,0,P|484:233|507:217,3,40,2|0|8|0,3:2|0:0|0:0|0:0,0:0:0:0:
392,270,23772,5,2,3:2:0:0:
373,266,23843,1,0,0:0:0:0:
354,262,23915,1,8,3:2:0:0:
335,259,23986,1,0,0:0:0:0:
316,255,24058,2,0,P|272:208|342:115,1,191.999994140625,6|0,3:2|3:0,0:0:0:0:
500,231,24486,5,10,0:0:0:0:
508,253,24558,1,0,0:0:0:0:
502,275,24629,2,0,B|468:300|464:355|464:355|406:337|348:372,1,191.999994140625,4|2,3:2|3:2,0:0:0:0:
167,265,25058,5,8,0:0:0:0:
167,265,25129,1,2,0:0:0:0:
167,265,25200,2,0,L|288:256,1,95.9999970703126,6|8,3:2|0:0,0:0:0:0:
452,373,25486,2,0,L|331:364,1,95.9999970703126,6|8,3:2|0:0,0:0:0:0:
283,160,25772,2,0,B|291:187|335:197|335:197|365:217|362:266,1,143.999995605469,6|4,3:2|0:0,0:0:0:0:
385,283,26058,2,0,P|448:264|462:234,1,95.9999970703126,0|6,3:0|3:2,0:0:0:0:
492,94,26343,6,0,P|439:130|386:129,1,107.999996704102,2|0,3:2|0:0,0:0:0:0:
329,80,26629,5,4,3:2:0:0:
317,71,26700,1,0,0:0:0:0:
302,67,26772,1,0,0:0:0:0:
287,65,26843,1,0,0:0:0:0:
272,67,26915,2,0,P|234:80|203:124,1,80,0|8,3:0|0:0,0:0:0:0:
89,73,27200,2,0,P|85:53|78:34,3,40,0|0|8|0,3:0|0:0|0:0|0:0,0:0:0:0:
70,149,27486,5,2,3:2:0:0:
57,147,27558,1,2,0:0:0:0:
45,150,27629,1,10,0:0:0:0:
34,156,27700,1,2,0:0:0:0:
25,164,27772,2,0,P|10:186|-12:198,3,40,2|2|10|2,3:2|0:0|0:0|0:0,0:0:0:0:
47,265,28058,2,0,P|27:269|7:267,3,40,2|0|10|0,3:2|0:0|0:0|0:0,0:0:0:0:
112,305,28343,2,0,P|101:322|86:334,3,40,2|0|10|0,3:2|0:0|3:2|0:0,0:0:0:0:
0,376,28629,6,0,P|63:336|164:312,1,160,2|2,3:2|3:2,0:0:0:0:
275,371,29058,1,10,0:0:0:0:
275,371,29129,1,2,0:0:0:0:
275,371,29200,2,0,L|283:326,3,40,2|0|8|0,3:2|0:0|0:0|0:0,0:0:0:0:
357,301,29486,2,0,L|349:256,3,40,0|0|8|0,3:0|0:0|0:0|0:0,0:0:0:0:
286,204,29772,5,0,3:0:0:0:
274,201,29843,1,0,0:0:0:0:
262,198,29915,1,8,0:0:0:0:
250,196,29986,1,0,0:0:0:0:
238,193,30058,2,0,P|199:168|233:95,1,120,2|0,3:2|0:0,0:0:0:0:
231,75,30343,2,0,B|344:72|280:38|388:32,1,160,6|2,3:2|3:2,0:0:0:0:
512,147,30772,5,10,3:2:0:0:
512,147,30843,1,2,0:0:0:0:
512,147,30915,2,0,B|472:125|436:136|436:136|417:119|417:119|369:136|316:87,1,191.999994140625,6|0,3:2|3:0,0:0:0:0:
242,0,31343,1,8,3:2:0:0:
242,0,31415,1,0,0:0:0:0:
242,0,31486,2,0,P|313:12|319:148,1,191.999994140625,4|0,3:2|3:0,0:0:0:0:
217,201,31915,5,8,3:2:0:0:
217,201,31986,1,0,0:0:0:0:
217,201,32058,2,0,L|114:183,1,95.9999970703126,6|8,3:2|3:2,0:0:0:0:
19,290,32343,2,0,L|35:384,1,95.9999970703126,2|8,3:2|3:2,0:0:0:0:
211,318,32629,2,0,L|227:223,1,95.9999970703126,6|8,3:2|3:2,0:0:0:0:
113,157,32915,2,0,L|18:173,1,95.9999970703126,2|8,3:2|3:2,0:0:0:0:
82,32,33200,5,6,3:2:0:0:
105,28,33272,1,0,1:0:0:0:
124,42,33343,1,10,1:2:0:0:
145,53,33415,1,0,1:0:0:0:
168,49,33486,2,0,P|197:73|226:74,3,47.9999985351563,6|0|10|0,3:2|1:0|1:2|1:0,0:0:0:0:
266,15,33772,5,6,3:2:0:0:
278,7,33843,1,0,1:0:0:0:
291,11,33915,1,10,1:2:0:0:
305,10,33986,1,0,1:0:0:0:
318,14,34058,1,6,3:2:0:0:
332,13,34129,1,0,1:0:0:0:
346,13,34200,1,10,1:2:0:0:
358,19,34272,1,0,1:0:0:0:
368,13,34343,6,0,B|408:56|408:56|382:162,1,160,6|0,3:2|0:0,0:0:0:0:
245,325,34915,2,0,B|220:226|220:226|260:183,1,160,4|10,3:2|0:0,0:0:0:0:
357,266,35343,5,10,0:0:0:0:
357,266,35415,1,10,0:0:0:0:
357,266,35486,2,0,B|396:274|396:274|420:306|470:305,1,120,6|2,3:2|0:0,0:0:0:0:
492,293,35772,2,0,P|517:264|511:222,1,80,0|10,3:0|0:0,0:0:0:0:
511,118,36058,2,0,B|467:88|419:97|419:97|387:137,1,120,2|2,3:2|0:0,0:0:0:0:
385,135,36343,2,0,P|344:118|327:73,1,80,0|10,3:0|0:0,0:0:0:0:
219,16,36629,6,0,B|173:16|173:16|142:46|161:112,1,120,2|2,3:2|0:0,0:0:0:0:
142,109,36915,2,0,P|177:136|226:129,1,80,0|10,3:0|0:0,0:0:0:0:
319,202,37200,2,0,L|304:298,1,80,2|10,3:2|0:0,0:0:0:0:
181,305,37486,1,2,3:2:0:0:
143,214,37629,1,10,3:2:0:0:
141,85,37772,6,0,P|73:91|53:135,1,95.9999970703126,6|8,3:2|0:0,0:0:0:0:
18,130,37986,2,0,P|43:183|51:282,1,143.999995605469,2|10,3:2|3:2,0:0:0:0:
113,369,38343,2,0,B|171:356|137:341|202:325,1,95.9999970703126,6|8,3:2|0:0,0:0:0:0:
233,347,38558,2,0,P|288:317|278:209,1,143.999995605469,2|10,3:2|3:2,0:0:0:0:
215,66,38915,2,0,B|174:100|181:159|181:159|158:183|158:183|161:222,2,167.999994873047,6|6|6,3:2|3:2|3:2,0:0:0:0:
320,9,39486,5,0,3:0:0:0:
335,24,39558,1,2,3:2:0:0:
356,31,39629,1,2,3:2:0:0:
378,32,39700,1,2,3:2:0:0:
399,26,39772,2,0,P|427:22|462:39,1,47.9999985351563,2|2,3:2|3:2,0:0:0:0:
497,105,39915,5,2,3:2:0:0:
497,105,39986,1,2,3:2:0:0:
497,105,40058,2,0,P|502:166|456:245,1,120,2|2,3:2|0:0,0:0:0:0:
457,235,40343,2,0,P|414:217|356:214,1,80,4|0,3:2|0:0,0:0:0:0:
250,274,40629,2,0,B|211:305|221:357|221:357|254:369,1,120,2|2,3:2|0:0,0:0:0:0:
271,379,40915,2,0,P|311:364|349:361,1,80,0|10,3:0|0:0,0:0:0:0:
480,378,41200,6,0,P|498:308|476:240,1,120,0|2,3:0|0:0,0:0:0:0:
502,238,41486,2,0,P|484:202|443:177,1,80,0|10,3:0|0:0,0:0:0:0:
325,267,41772,6,0,L|406:247,1,80,2|10,3:2|0:0,0:0:0:0:
511,117,42058,1,2,3:2:0:0:
419,90,42200,1,10,3:2:0:0:
277,10,42343,6,0,P|313:68|293:197,1,191.999994140625,6|2,3:2|3:2,0:0:0:0:
181,290,42772,1,8,0:0:0:0:
181,290,42843,1,0,0:0:0:0:
181,290,42915,2,0,B|127:245|51:255|51:255|11:216,1,191.999994140625,6|2,3:2|3:2,0:0:0:0:
124,43,43343,5,8,0:0:0:0:
124,43,43415,1,0,0:0:0:0:
124,43,43486,2,0,P|85:78|75:145,1,95.9999970703126,6|0,3:2|0:0,0:0:0:0:
84,149,43700,2,0,P|138:158|175:190,1,95.9999970703126,0|0,3:0|0:0,0:0:0:0:
187,200,43915,2,0,B|228:192|228:192|267:169|267:169|323:161,2,143.999995605469,0|0|6,3:0|3:0|3:2,0:0:0:0:
75,141,44486,1,0,3:0:0:0:
0,252,44629,6,0,P|21:291|36:357,1,80,6|8,3:2|0:0,0:0:0:0:
112,384,44915,1,0,1:0:0:0:
112,384,44986,1,0,1:0:0:0:
112,384,45058,2,0,P|131:349|143:311,1,80,14|2,3:2|0:0,0:0:0:0:
222,269,45343,1,8,1:2:0:0:
222,269,45415,1,2,1:2:0:0:
222,269,45486,2,0,P|241:303|253:341,1,80,4|10,3:2|0:0,0:0:0:0:
99,229,45915,5,12,3:2:0:0:
99,229,46058,1,4,3:2:0:0:
0,0,46343,6,0,P|14:58|19:117,1,120,6|4,3:2|3:2,0:0:0:0:
109,223,46772,1,14,3:2:0:0:
177,172,46915,2,0,P|236:186|295:191,2,120,6|2|14,3:2|3:2|3:2,0:0:0:0:
67,61,47486,2,0,P|122:55|175:41,1,80,2|8,0:0|0:0,0:0:0:0:
301,118,47772,1,4,3:2:0:0:
387,0,47915,2,0,P|381:54|367:107,1,80,10|2,3:2|1:2,0:0:0:0:
263,28,48200,5,14,3:2:0:0:
263,28,48343,1,6,3:2:0:0:
464,156,48629,2,0,P|412:175|386:202,1,80,6|10,3:2|0:0,0:0:0:0:
357,216,48843,2,0,P|314:183|314:120,1,120,4|14,3:2|3:2,0:0:0:0:
501,56,49200,6,0,P|503:123|491:191,1,120,6|2,3:2|0:0,0:0:0:0:
474,194,49486,1,4,3:2:0:0:
391,140,49629,1,8,1:2:0:0:
254,218,49772,6,0,P|227:158|210:93,1,120,6|2,3:2|0:0,0:0:0:0:
235,72,50058,1,4,3:2:0:0:
344,37,50200,1,10,1:2:0:0:
405,155,50343,6,0,P|386:218|384:276,1,120,6|2,3:2|1:2,0:0:0:0:
362,290,50629,1,4,3:2:0:0:
262,245,50772,1,10,1:2:0:0:
170,184,50915,1,6,3:2:0:0:
70,229,51058,1,10,3:2:0:0:
0,145,51200,6,0,L|39:153,1,40,6|0,3:2|0:0,0:0:0:0:
111,234,51343,2,0,L|72:243,1,40,10|0,3:2|0:0,0:0:0:0:
114,122,51486,1,4,3:2:0:0:
138,291,60629,6,0,B|94:321|94:321|63:268|63:268|-19:232,1,167.999994873047,4|0,3:2|0:0,0:0:0:0:
2,217,60915,2,0,B|-9:179|-9:179|49:237,1,111.999996582031,4|10,3:2|0:0,0:0:0:0:
121,207,61129,1,2,0:0:0:0:
121,207,61200,2,0,B|141:166|141:166|97:20,1,167.999994873047,6|0,3:2|0:0,0:0:0:0:
65,24,61486,2,0,B|19:22|19:22|72:62,1,111.999996582031,4|10,3:2|0:0,0:0:0:0:
154,108,61700,1,2,0:0:0:0:
154,108,61772,2,0,B|202:99|202:99|254:112|254:112|345:87,1,167.999994873047,6|0,3:2|0:0,0:0:0:0:
341,58,62058,2,0,B|377:30|377:30|353:95,1,111.999996582031,4|8,3:2|0:0,0:0:0:0:
293,189,62272,1,0,0:0:0:0:
293,189,62343,2,0,B|248:169|248:169|218:39,2,167.999994873047,6|2|10,3:2|0:0|3:2,0:0:0:0:
421,219,62915,6,0,B|456:251|456:251|529:254|529:254|501:320,1,167.999994873047,4|0,3:2|0:0,0:0:0:0:
496,338,63200,2,0,B|469:367|469:367|457:294,1,111.999996582031,4|10,3:2|0:0,0:0:0:0:
510,216,63415,1,2,0:0:0:0:
510,216,63486,2,0,B|533:185|533:185|510:100|510:100|441:82,1,167.999994873047,6|0,3:2|0:0,0:0:0:0:
448,54,63772,2,0,B|400:43|400:43|445:125,1,111.999996582031,4|10,3:2|0:0,0:0:0:0:
365,158,63986,1,2,0:0:0:0:
365,158,64058,2,0,B|275:137|275:137|250:145|250:145|190:132,1,167.999994873047,6|0,3:2|0:0,0:0:0:0:
176,117,64343,2,0,B|158:72|158:72|241:104,1,111.999996582031,4|10,3:2|0:0,0:0:0:0:
147,209,64558,1,2,0:0:0:0:
147,209,64629,2,0,B|178:281|178:281|235:311|235:311|250:360,2,167.999994873047,6|6|14,3:2|3:2|3:2,0:0:0:0:
44,63,65200,6,0,P|110:65|184:13,1,143.999995605469,4|0,3:2|0:0,0:0:0:0:
215,4,65486,1,4,3:2:0:0:
296,55,65629,1,10,1:2:0:0:
458,17,65772,6,0,P|442:57|422:178,1,143.999995605469,6|0,3:2|0:0,0:0:0:0:
451,182,66058,1,4,3:2:0:0:
395,294,66200,1,10,1:2:0:0:
241,384,66343,6,0,P|213:301|222:220,1,143.999995605469,6|0,3:2|0:0,0:0:0:0:
234,221,66629,1,4,3:2:0:0:
326,187,66772,1,8,1:2:0:0:
434,230,66915,6,0,B|359:258|411:292|288:318,2,143.999995605469,6|2|10,3:2|0:0|1:2,0:0:0:0:
500,108,67486,5,6,3:2:0:0:
489,75,67558,1,0,1:0:0:0:
466,50,67629,1,8,1:2:0:0:
433,41,67700,1,2,1:2:0:0:
399,47,67772,2,0,B|342:59|377:78|294:100,1,95.9999970703126,4|10,3:2|1:2,0:0:0:0:
292,88,67986,1,0,1:0:0:0:
292,88,68058,2,0,P|265:45|212:35,1,95.9999970703126,6|8,3:2|1:2,0:0:0:0:
102,30,68343,5,4,3:2:0:0:
84,59,68415,1,0,1:0:0:0:
74,91,68486,1,10,1:2:0:0:
78,124,68558,1,0,1:0:0:0:
94,152,68629,6,0,B|132:118|188:125|188:125|201:139|201:139|237:140|257:178,1,180.000006866455,6|0,3:2|3:0,0:0:0:0:
209,288,69200,5,10,3:2:0:0:
193,288,69272,1,8,0:0:0:0:
178,290,69343,1,10,3:2:0:0:
163,292,69415,1,8,0:0:0:0:
148,293,69486,1,10,3:2:0:0:
132,296,69558,1,10,0:0:0:0:
117,299,69629,1,10,3:2:0:0:
102,300,69700,1,10,3:2:0:0:
87,303,69772,2,0,P|46:286|37:237,1,95.9999970703126,6|8,3:2|3:2,0:0:0:0:
30,118,70058,6,0,L|-1:78,3,47.9999985351563,0|0|8|0,3:0|0:0|3:2|0:0,0:0:0:0:
89,164,70343,2,0,P|125:147|160:79,1,95.9999970703126,2|10,3:2|3:2,0:0:0:0:
139,26,70558,1,0,0:0:0:0:
139,26,70629,2,0,P|179:81|241:70,1,95.9999970703126,2|10,3:2|3:2,0:0:0:0:
254,32,70843,1,2,0:0:0:0:
254,32,70915,2,0,B|209:90|225:139|225:139|211:165|211:165|230:209,1,191.999994140625,2|0,3:2|3:0,0:0:0:0:
330,272,71343,1,10,3:2:0:0:
358,277,71415,1,2,0:0:0:0:
382,262,71486,2,0,P|395:225|374:157,1,95.9999970703126,2|8,3:2|3:2,0:0:0:0:
320,51,71772,5,2,3:2:0:0:
291,46,71843,1,2,0:0:0:0:
262,51,71915,1,10,3:2:0:0:
239,68,71986,1,0,0:0:0:0:
224,93,72058,2,0,B|214:141|247:165|247:165|242:194|242:194|265:221|261:276,1,191.999994140625,2|0,3:2|3:0,0:0:0:0:
97,374,72486,1,10,3:2:0:0:
5,320,72629,2,0,P|18:274|47:236,1,95.9999970703126,0|8,3:0|3:2,0:0:0:0:
137,136,72915,5,2,3:2:0:0:
163,147,72986,1,0,0:0:0:0:
180,170,73058,1,8,3:2:0:0:
185,198,73129,1,0,0:0:0:0:
176,224,73200,2,0,P|94:235|37:70,1,287.999991210938,2|8,3:2|3:2,0:0:0:0:
225,41,73772,1,2,3:2:0:0:
301,7,73915,1,8,3:2:0:0:
301,7,73986,1,0,0:0:0:0:
301,7,74058,2,0,P|345:44|345:99,1,95.9999970703126,0|8,3:0|3:2,0:0:0:0:
259,188,74343,5,2,3:2:0:0:
322,263,74486,2,0,L|327:311,3,47.9999985351563,8|0|0|0,3:2|0:0|3:0|0:0,0:0:0:0:
347,232,74772,2,0,B|468:201|395:172|527:132,1,191.999994140625,10|8,3:2|3:2,0:0:0:0:
412,158,75200,2,0,P|373:68|377:57,1,95.9999970703126,2|10,3:2|3:2,0:0:0:0:
512,0,75486,6,0,B|508:50|462:69|462:69|422:117|418:197,1,191.999994140625,2|0,3:2|3:0,0:0:0:0:
512,306,75915,1,10,3:2:0:0:
512,306,75986,1,0,0:0:0:0:
512,306,76058,2,0,P|440:251|307:229,1,191.999994140625,0|2,3:0|3:2,0:0:0:0:
233,109,76486,5,10,3:2:0:0:
157,154,76629,2,0,P|211:249|225:346,1,191.999994140625,2|0,3:2|3:0,0:0:0:0:
85,380,77058,1,10,3:2:0:0:
0,365,77200,2,0,P|78:345|125:292,1,143.999995605469,0|0,3:0|0:0,0:0:0:0:
155,234,77486,5,2,3:2:0:0:
145,206,77558,1,2,0:0:0:0:
121,190,77629,1,10,3:2:0:0:
92,188,77700,1,2,0:0:0:0:
64,197,77772,2,0,P|27:175|26:81,1,143.999995605469,2|2,3:2|1:2,0:0:0:0:
48,65,78058,2,0,P|92:61|147:28,1,95.9999970703126,2|8,3:2|3:2,0:0:0:0:
234,0,78343,2,0,P|298:10|321:97,1,143.999995605469,0|0,3:0|0:0,0:0:0:0:
305,97,78629,2,0,P|313:161|375:171,1,95.9999970703126,2|8,3:2|3:2,0:0:0:0:
479,172,78915,6,0,P|496:231|500:272,1,95.9999970703126,6|12,3:2|3:2,0:0:0:0:
390,365,79200,1,4,3:2:0:0:
390,365,79343,1,12,3:2:0:0:
385,271,79486,2,0,P|391:319|409:364,1,95.9999970703126,4|12,3:2|3:2,0:0:0:0:
293,245,79772,1,6,3:2:0:0:
293,245,79915,1,14,3:2:0:0:
247,336,80058,2,0,P|252:288|270:243,1,95.9999970703126,6|12,3:2|3:2,0:0:0:0:
315,106,80343,1,4,3:2:0:0:
315,106,80486,1,14,3:2:0:0:
357,187,80629,2,0,P|336:126|334:88,1,95.9999970703126,4|12,3:2|3:2,0:0:0:0:
485,42,80915,2,0,P|478:89|464:135,1,95.9999970703126,6|12,3:2|3:2,0:0:0:0:
328,305,81200,6,0,B|274:289|274:289|247:299|247:299|183:280,1,143.999995605469,6|0,3:2|0:0,0:0:0:0:
162,273,81486,1,6,3:2:0:0:
20,227,81629,2,0,P|22:275|6:319,1,95.9999970703126,14|4,3:2|3:2,0:0:0:0:
76,374,81915,1,12,3:2:0:0:
81,135,82058,5,6,3:2:0:0:
108,142,82129,1,2,0:2:0:0:
130,159,82200,1,14,3:2:0:0:
146,183,82272,1,2,0:2:0:0:
142,211,82343,2,0,L|129:259,3,47.9999985351563,6|0|14|0,3:2|0:0|3:2|0:0,0:0:0:0:
217,263,82629,2,0,L|230:311,3,47.9999985351563,6|0|14|0,3:2|0:0|3:2|0:0,0:0:0:0:
284,216,82915,2,0,L|296:169,3,47.9999985351563,6|0|12|0,3:2|0:0|3:2|0:0,0:0:0:0:
348,271,83200,2,0,L|360:317,3,47.9999985351563,6|0|12|0,3:2|0:0|3:2|0:0,0:0:0:0:
432,168,83486,5,6,3:2:0:0:
441,164,83558,1,0,0:0:0:0:
449,160,83629,1,12,3:2:0:0:
457,156,83700,1,2,0:2:0:0:
466,153,83772,2,0,L|523:165,3,47.9999985351563,4|0|14|0,3:2|0:0|3:2|0:0,0:0:0:0:
400,86,84058,2,0,L|457:74,3,47.9999985351563,6|0|12|2,3:2|0:0|3:2|0:2,0:0:0:0:
341,148,84343,5,4,3:2:0:0:
333,154,84415,1,0,0:0:0:0:
325,159,84486,1,12,3:2:0:0:
317,164,84558,1,0,0:0:0:0:
308,168,84629,2,0,P|227:106|266:18,1,191.999994140625,6|4,3:2|3:2,0:0:0:0:
401,4,85058,1,14,3:2:0:0:
447,78,85200,2,0,P|421:140|405:230,2,143.999995605469,6|2|14,3:2|0:2|3:2,0:0:0:0:
319,9,85772,5,6,3:2:0:0:
242,34,85915,1,14,3:2:0:0:
336,20,86058,2,0,L|309:127,1,95.9999970703126,6|14,3:2|3:2,0:0:0:0:
240,216,86343,2,0,L|216:122,1,95.9999970703126,6|14,3:2|3:2,0:0:0:0:
332,6,86629,2,0,L|305:113,1,95.9999970703126,6|14,3:2|3:2,0:0:0:0:
334,227,86915,5,6,3:2:0:0:
417,194,87058,1,14,3:2:0:0:
320,215,87200,2,0,L|347:322,1,95.9999970703126,6|14,3:2|3:2,0:0:0:0:
437,380,87486,2,0,L|460:286,1,95.9999970703126,6|14,3:2|3:2,0:0:0:0:
324,201,87772,2,0,L|351:308,1,95.9999970703126,6|14,3:2|3:2,0:0:0:0:
496,151,88058,5,6,3:2:0:0:
496,151,91486,6,0,L|448:144,15,47.9999985351563,2|2|2|2|2|2|2|2|2|2|2|2|2|2|2|2,1:2|1:2|1:2|1:2|1:2|1:2|1:2|1:2|1:2|1:2|1:2|1:2|1:2|1:2|1:2|1:2,0:0:0:0:
511,136,92629,6,0,P|440:160|334:208,1,160,6|0,3:2|0:0,0:0:0:0:
294,253,93058,2,0,P|217:218|137:190,1,160,6|0,3:2|3:0,0:0:0:0:
58,217,93486,2,0,P|33:146|-14:40,1,160,4|2,3:2|3:2,0:0:0:0:
78,39,93915,2,0,P|79:19|84:0,2,40,4|2|4,3:2|3:2|3:2,0:0:0:0:
141,107,94200,1,2,3:2:0:0:
141,107,94272,1,0,3:0:0:0:
141,107,94343,2,0,P|197:115|223:207,1,160,6|2,3:2|0:0,0:0:0:0:
224,204,94915,6,0,P|271:152|280:57,1,143.999995605469,6|2,3:2|0:0,0:0:0:0:
275,45,95200,2,0,P|316:18|363:28,1,95.9999970703126,0|10,3:0|0:0,0:0:0:0:
501,54,95486,2,0,P|530:114|492:208,1,143.999995605469,2|2,3:2|0:0,0:0:0:0:
494,223,95772,2,0,P|441:208|392:208,1,95.9999970703126,0|10,3:0|0:0,0:0:0:0:
245,294,96058,2,0,B|228:252|171:218|171:218|130:229|82:211,2,167.999994873047,6|2|10,3:2|0:0|0:0,0:0:0:0:
342,376,96629,5,6,3:2:0:0:
357,361,96700,1,2,3:2:0:0:
378,354,96772,1,10,3:2:0:0:
400,353,96843,1,2,3:2:0:0:
421,359,96915,2,0,P|449:363|484:346,1,47.9999985351563,2|2,3:2|3:2,0:0:0:0:
512,296,97058,5,10,3:2:0:0:
512,296,97129,1,0,3:2:0:0:
512,296,97200,2,0,P|517:235|471:156,1,120,6|2,3:2|0:0,0:0:0:0:
465,158,97486,2,0,P|422:176|364:179,1,80,0|10,3:0|0:0,0:0:0:0:
253,243,97772,2,0,B|203:237|163:259|163:259|117:241,1,120,2|2,3:2|0:0,0:0:0:0:
100,243,98058,2,0,P|75:197|86:157,1,80,0|10,3:0|0:0,0:0:0:0:
151,77,98343,6,0,P|209:86|266:68,1,120,2|2,3:2|0:0,0:0:0:0:
303,81,98629,2,0,P|339:63|364:22,1,80,0|10,3:0|0:0,0:0:0:0:
512,11,98915,6,0,L|497:92,1,80,6|10,3:2|0:0,0:0:0:0:
512,263,99200,1,2,3:2:0:0:
428,304,99343,1,10,3:2:0:0:
291,274,99486,6,0,P|327:216|307:87,1,191.999994140625,6|0,3:2|3:0,0:0:0:0:
200,0,99915,1,8,0:0:0:0:
200,0,99986,1,0,0:0:0:0:
200,0,100058,2,0,B|151:-7|151:-7|73:22|65:110,1,191.999994140625,4|2,3:2|3:2,0:0:0:0:
94,313,100486,5,10,0:0:0:0:
94,313,100558,1,0,0:0:0:0:
94,313,100629,2,0,P|79:232|103:190,1,95.9999970703126,6|10,3:2|0:0,0:0:0:0:
98,195,100843,2,0,P|154:178|196:151,1,95.9999970703126,2|0,3:2|0:0,0:0:0:0:
212,178,101058,2,0,B|268:186|268:186|307:209|307:209|364:220,2,143.999995605469,10|0|2,3:2|3:0|3:2,0:0:0:0:
106,184,101629,1,14,3:2:0:0:
22,124,101772,6,0,P|39:83|48:16,1,80,6|8,3:2|0:0,0:0:0:0:
119,0,102058,1,0,1:0:0:0:
119,0,102129,1,0,1:0:0:0:
119,0,102200,2,0,P|134:36|143:75,1,80,14|2,3:2|0:0,0:0:0:0:
229,111,102486,1,8,1:2:0:0:
229,111,102558,1,2,1:2:0:0:
229,111,102629,2,0,P|244:75|253:36,1,80,4|10,3:2|0:0,0:0:0:0:
99,155,103058,5,12,3:2:0:0:
99,155,103200,1,4,3:2:0:0:
0,372,103486,6,0,P|14:314|19:255,1,120,6|4,3:2|3:2,0:0:0:0:
117,160,103915,1,14,3:2:0:0:
178,207,104058,2,0,P|237:193|296:188,2,120,6|2|14,3:2|0:0|3:2,0:0:0:0:
124,55,104629,2,0,P|162:64|202:68,1,80,2|8,0:0|1:2,0:0:0:0:
344,17,104915,1,4,3:2:0:0:
337,108,105058,2,0,P|346:69|350:29,1,80,10|2,0:0|1:2,0:0:0:0:
258,0,105343,5,14,3:2:0:0:
258,0,105486,1,6,3:2:0:0:
415,263,105772,2,0,P|372:239|293:218,2,120,6|4|14,3:2|3:2|3:2,0:0:0:0:
512,193,106343,6,0,P|471:225|444:304,1,120,6|2,3:2|0:0,0:0:0:0:
463,317,106629,2,0,P|428:363|380:359,1,80,4|8,3:2|3:2,0:0:0:0:
299,326,106915,2,0,B|219:344|281:356|166:378,1,120,6|2,3:2|0:0,0:0:0:0:
158,369,107200,2,0,P|134:314|155:290,1,80,4|10,3:2|3:2,0:0:0:0:
224,232,107486,6,0,L|210:285,3,40,4|0|8|0,3:2|0:0|1:2|1:0,0:0:0:0:
139,189,107772,2,0,L|149:227,3,40,6|0|10|0,3:2|0:0|1:2|1:0,0:0:0:0:
70,237,108058,2,0,L|56:290,3,40,6|0|10|0,3:2|0:0|1:2|1:0,0:0:0:0:
10,173,108343,2,0,L|-4:226,3,40,6|2|10|2,3:2|0:0|1:2|1:2,0:0:0:0:
37,96,108629,6,0,P|49:53|127:35,1,120,6|2,3:2|1:2,0:0:0:0:
132,57,108915,2,0,P|190:59|213:74,1,80,4|8,3:2|1:2,0:0:0:0:
280,149,109200,2,0,P|354:130|365:92,1,120,6|2,3:2|1:2,0:0:0:0:
397,90,109486,2,0,P|413:52|393:15,1,80,4|8,3:2|1:2,0:0:0:0:
304,0,109772,1,6,3:2:0:0:
164,147,110343,5,10,3:2:0:0:
167,158,110415,1,8,0:0:0:0:
170,169,110486,1,10,3:2:0:0:
173,180,110558,1,8,0:0:0:0:
177,190,110629,1,10,3:2:0:0:
180,201,110700,1,8,0:0:0:0:
183,212,110772,1,10,3:2:0:0:
186,223,110843,1,8,0:0:0:0:
189,236,110915,6,0,B|235:270|235:270|278:253|278:253|332:274,1,143.999995605469,4|0,3:2|0:0,0:0:0:0:
354,289,111200,2,0,B|378:280|378:280|365:184,1,95.9999970703126,0|10,3:0|0:0,0:0:0:0:
402,117,111415,1,2,0:0:0:0:
402,117,111486,2,0,B|355:103|355:103|333:59|333:59|267:73,1,143.999995605469,2|0,3:2|0:0,0:0:0:0:
257,46,111772,2,0,B|208:53|208:53|168:17,1,95.9999970703126,0|10,3:0|0:0,0:0:0:0:
87,0,111986,1,2,0:0:0:0:
87,0,112058,2,0,B|51:42|51:42|78:89|78:89|84:157,1,143.999995605469,2|0,3:2|0:0,0:0:0:0:
44,160,112343,2,0,B|35:208|35:208|102:177,1,95.9999970703126,0|8,3:0|0:0,0:0:0:0:
163,141,112558,1,0,0:0:0:0:
163,141,112629,2,0,B|214:123|214:123|235:96|235:96|307:70,2,143.999995605469,2|2|10,3:2|0:0|0:0,0:0:0:0:
124,246,113200,6,0,B|112:283|112:283|168:328|168:328|188:374,1,143.999995605469,0|0,3:0|0:0,0:0:0:0:
214,375,113486,2,0,B|251:381|251:381|289:333,1,95.9999970703126,0|10,3:0|0:0,0:0:0:0:
374,323,113700,1,2,0:0:0:0:
374,323,113772,2,0,B|420:314|420:314|470:337|470:337|515:292,1,143.999995605469,2|0,3:2|0:0,0:0:0:0:
512,280,114058,2,0,B|511:234|511:234|443:203,1,95.9999970703126,0|10,3:0|0:0,0:0:0:0:
402,159,114272,1,2,0:0:0:0:
402,159,114343,2,0,B|334:175|334:175|317:199|317:199|259:220,1,143.999995605469,2|0,3:2|0:0,0:0:0:0:
241,205,114629,2,0,B|206:181|206:181|223:124,1,95.9999970703126,0|10,3:0|0:0,0:0:0:0:
297,58,114843,1,2,0:0:0:0:
297,58,114915,2,0,L|453:86,2,143.999995605469,6|2|10,3:2|0:0|3:2,0:0:0:0:
200,7,115486,6,0,B|136:28|136:28|132:54|132:54|76:85,1,143.999995605469,4|0,3:2|0:0,0:0:0:0:
50,74,115772,2,0,B|23:99|23:99|28:173,1,95.9999970703126,0|10,3:0|0:0,0:0:0:0:
64,239,115986,1,2,0:0:0:0:
64,239,116058,2,0,B|115:224|115:224|146:242|146:242|203:207,1,143.999995605469,2|0,3:2|0:0,0:0:0:0:
201,179,116343,2,0,B|249:178|249:178|282:231,1,95.9999970703126,0|10,3:0|0:0,0:0:0:0:
269,312,116558,1,2,0:0:0:0:
269,312,116629,2,0,B|210:323|210:323|187:348|187:348|129:361,1,143.999995605469,2|0,3:2|0:0,0:0:0:0:
117,379,116915,2,0,B|67:373|67:373|38:321,1,95.9999970703126,0|8,3:0|0:0,0:0:0:0:
119,184,117200,2,0,B|102:125|102:125|116:96|116:96|98:32,2,143.999995605469,2|2|10,3:2|0:0|0:0,0:0:0:0:
187,281,117772,6,0,P|301:303|379:349,1,191.999994140625,4|0,3:2|3:0,0:0:0:0:
450,237,118200,1,10,0:0:0:0:
450,237,118272,1,2,0:0:0:0:
450,237,118343,2,0,P|340:223|296:301,1,191.999994140625,6|0,3:2|3:0,0:0:0:0:
181,165,118772,5,10,0:0:0:0:
181,165,118843,1,2,0:0:0:0:
181,165,118915,2,0,L|397:192,2,191.999994140625,6|4|14,3:2|3:2|3:2,0:0:0:0:
77,229,119629,1,8,3:2:0:0:
62,227,119700,1,14,0:0:0:0:
48,221,119772,1,8,3:2:0:0:
36,212,119843,1,8,0:0:0:0:
26,200,119915,1,14,3:2:0:0:
21,186,119986,1,8,0:0:0:0:
18,169,120058,6,0,P|26:120|20:52,1,111.999996582031,6|8,3:2|0:2,0:0:0:0:
110,0,120343,2,0,P|118:49|112:117,1,111.999996582031,4|10,3:2|0:2,0:0:0:0:
138,136,120558,1,2,0:2:0:0:
138,136,120629,2,0,P|181:123|249:115,1,111.999996582031,6|8,3:2|0:2,0:0:0:0:
377,214,120915,2,0,P|426:168|417:116,1,111.999996582031,4|10,3:2|0:2,0:0:0:0:
449,109,121129,1,2,0:2:0:0:
449,109,121200,2,0,P|436:51|442:-3,1,111.999996582031,6|8,3:2|0:2,0:0:0:0:
339,25,121486,2,0,P|326:83|332:137,1,111.999996582031,4|8,3:2|0:2,0:0:0:0:
512,324,121772,6,0,P|504:269|469:226,1,111.999996582031,6|8,3:2|0:2,0:0:0:0:
456,199,121986,2,0,P|401:206|358:241,1,111.999996582031,2|0,0:2|0:0,0:0:0:0:
322,249,122200,1,10,0:2:0:0:
247,359,122343,6,0,P|202:348|137:347,1,111.999996582031,4|8,3:2|0:2,0:0:0:0:
50,249,122629,2,0,P|104:261|160:260,1,111.999996582031,4|10,3:2|0:2,0:0:0:0:
194,242,122843,1,2,0:2:0:0:
194,242,122915,2,0,P|205:182|192:127,1,111.999996582031,6|8,3:2|0:2,0:0:0:0:
77,18,123200,2,0,P|15:40|12:101,1,111.999996582031,4|10,3:2|0:2,0:0:0:0:
18,124,123415,1,2,0:2:0:0:
18,124,123486,2,0,P|55:109|133:93,1,111.999996582031,6|8,3:2|0:2,0:0:0:0:
233,14,123772,2,0,P|287:24|340:44,1,111.999996582031,4|10,3:2|0:2,0:0:0:0:
370,37,123986,5,2,0:2:0:0:
370,37,124058,2,0,P|416:73|414:139,1,111.999996582031,6|8,3:2|0:2,0:0:0:0:
443,158,124272,2,0,P|407:203|341:202,1,111.999996582031,2|0,0:2|3:0,0:0:0:0:
329,186,124486,1,10,3:2:0:0:
201,106,124629,6,0,P|169:109|141:121,4,55.9999982910157,4|0|8|0|4,3:2|3:0|0:2|3:0|3:2,0:0:0:0:
129,204,125058,1,10,0:2:0:0:
129,204,125129,1,2,3:2:0:0:
129,204,125200,2,0,P|102:194|74:192,4,55.9999982910157,6|0|8|0|4,3:2|3:0|0:2|3:0|3:2,0:0:0:0:
194,277,125629,1,10,0:2:0:0:
194,277,125700,1,2,3:2:0:0:
194,277,125772,2,0,P|162:280|134:292,4,55.9999982910157,6|0|8|0|4,3:2|3:0|0:2|3:0|3:2,0:0:0:0:
96,375,126200,5,8,0:2:0:0:
96,375,126272,1,0,3:0:0:0:
96,375,126343,2,0,P|56:364|35:297,1,111.999996582031,6|8,3:2|0:2,0:0:0:0:
4,280,126558,2,0,P|15:240|82:219,1,111.999996582031,2|0,3:2|3:0,0:0:0:0:
115,202,126772,1,10,0:2:0:0:
200,294,126915,5,6,3:2:0:0:
230,307,126986,1,0,3:0:0:0:
263,303,127058,1,8,3:2:0:0:
287,280,127129,1,2,3:2:0:0:
294,247,127200,2,0,P|287:192|253:142,1,111.999996582031,4|10,3:2|3:2,0:0:0:0:
214,142,127415,1,0,3:0:0:0:
214,142,127486,2,0,P|188:82|245:29,1,111.999996582031,4|8,3:2|3:2,0:0:0:0:
294,9,127772,1,4,3:2:0:0:
326,15,127843,1,0,3:0:0:0:
350,38,127915,1,10,3:2:0:0:
381,27,127986,1,0,3:0:0:0:
409,29,128058,6,0,B|480:39|514:120|514:120|477:136|473:188|473:188|433:196|416:247,1,287.999991210938,6|0,3:2|3:2,0:0:0:0:
379,341,128629,5,10,3:2:0:0:
358,343,128700,1,8,0:0:0:0:
338,340,128772,1,10,3:2:0:0:
319,332,128843,1,8,0:0:0:0:
303,319,128915,1,10,3:2:0:0:
290,303,128986,1,10,3:2:0:0:
282,284,129058,1,10,3:2:0:0:
280,263,129129,1,10,3:2:0:0:
281,240,129200,2,0,P|272:198|233:149,1,95.9999970703126,6|10,3:2|1:2,0:0:0:0:
301,100,129486,5,6,3:2:0:0:
301,100,129629,1,10,1:2:0:0:
377,150,129772,5,6,3:2:0:0:
377,150,129915,1,10,1:2:0:0:
454,110,130058,5,6,3:2:0:0:
454,110,130200,1,10,1:2:0:0:
446,23,130343,5,6,3:2:0:0:
446,23,130486,1,10,1:2:0:0:
362,6,130629,5,6,3:2:0:0:
362,6,130772,1,10,1:2:0:0:
308,79,130915,5,6,3:2:0:0:
308,79,131058,1,10,1:2:0:0:
222,60,131200,5,6,3:2:0:0:
222,60,131343,1,10,1:2:0:0:
161,151,131486,5,6,3:2:0:0:
161,151,131629,1,10,1:2:0:0:
45,149,131772,5,6,3:2:0:0:
45,149,131915,1,10,1:2:0:0:
0,255,132058,5,6,3:2:0:0:
0,255,132200,1,10,1:2:0:0:
69,331,132343,5,6,3:2:0:0:
69,331,132486,1,10,1:2:0:0:
173,291,132629,5,6,3:2:0:0:
173,291,132772,1,10,1:2:0:0:
249,366,132915,5,6,3:2:0:0:
249,366,133058,1,10,1:2:0:0:
331,315,133200,6,0,B|361:318|361:318|341:285,7,60.0000022888184,6|2|10|2|6|2|10|2,3:2|3:2|3:2|3:2|3:2|3:2|3:2|3:2,0:0:0:0:
426,363,133772,1,4,3:2:0:0:
