osu file format v14

[General]
AudioFilename: audio.mp3
AudioLeadIn: 0
PreviewTime:69772
Countdown: 0
SampleSet: Soft
StackLeniency: 0.3
Mode: 0
LetterboxInBreaks: 0
WidescreenStoryboard: 1

[Editor]
Bookmarks:14915,26343,35486,44629,51486,69772,78915,92629,101772,110915,120058
DistanceSpacing: 0.7
BeatDivisor: 4
GridSize: 16
TimelineZoom: 2.699999

[Metadata]
Title:Myths Orbis
TitleUnicode:Myths Orbis
Artist:Raimukun
ArtistUnicode:Raimukun
Creator:knowledgeking
Version:morphne & Winter's Extra
Source:osu! World Cup 2022
Tags:-_AzRael_- AzRael Imokora RiverKnowFarm nik nikolomara Musty Mustaash Chemo Serenhaide Sh4rq_ Sh3rg_ kiwies morphne ItsWinter SILENCE PLAYER owc grand finals owc2022GFNM2 nomod fa featured artist electronic instrumental piano Cinematic Speedcore Hardcore hard renaissance stream
BeatmapID:4212326
BeatmapSetID:1889095

[Difficulty]
HPDrainRate:5
CircleSize:3.6
OverallDifficulty:9
ApproachRate:9.5
SliderMultiplier:2
SliderTickRate:1

[Events]
//Background and Video events
0,0,"bg.jpg",0,0
//Break Periods
//Storyboard Layer 0 (Background)
//Storyboard Layer 1 (Fail)
//Storyboard Layer 2 (Pass)
//Storyboard Layer 3 (Foreground)
//Storyboard Layer 4 (Overlay)
//Storyboard Sound Samples

[TimingPoints]
58,285.714285714286,4,2,1,70,1,0
17200,-66.6666666666667,4,2,1,70,0,0
17772,-83.3333333333333,4,2,1,70,0,0
25343,-66.6666666666667,4,2,1,70,0,0
26629,-83.3333333333333,4,2,1,70,0,0
30343,-66.6666666666667,4,2,1,70,0,0
30629,-83.3333333333333,4,2,1,70,0,0
30915,-66.6666666666667,4,2,1,70,0,0
33772,-80,4,2,1,70,0,0
34058,-83.3333333333333,4,2,1,70,0,0
34915,-66.6666666666667,4,2,1,70,0,0
35200,-83.3333333333333,4,2,1,70,0,0
53772,-133.333333333333,4,2,1,70,0,0
54343,-100,4,2,1,70,0,0
56058,-133.333333333333,4,2,1,70,0,0
60629,-66.6666666666667,4,2,1,70,0,0
62343,-80,4,2,1,70,0,0
62915,-66.6666666666667,4,2,1,70,0,0
65772,-80,4,2,1,70,0,0
66343,-66.6666666666667,4,2,1,70,0,0
68629,-200,4,2,1,70,0,0
69772,-80,4,2,1,70,0,1
69843,-80,4,2,1,70,0,0
78343,-100,4,2,1,70,0,0
78915,-100,4,1,1,50,0,0
84058,-100,4,1,1,55,0,0
84629,-100,4,1,1,60,0,0
85200,-100,4,1,1,65,0,0
85772,-100,4,1,1,70,0,0
88058,-100,4,2,1,70,0,0
92629,-66.6666666666667,4,2,1,70,0,0
93915,-80,4,2,1,70,0,0
120058,-66.6666666666667,4,1,1,70,0,1
121772,-80,4,1,1,70,0,1
122343,-66.6666666666667,4,1,1,70,0,1
128058,-66.6666666666667,4,2,1,70,0,0

[Colours]
Combo1 : 0,142,0
Combo2 : 130,255,255
Combo3 : 0,67,149
Combo4 : 184,184,184

[HitObjects]
110,47,915,5,2,0:0:0:0:
81,66,986,1,2,0:0:0:0:
78,103,1058,1,2,0:0:0:0:
105,127,1129,1,2,0:0:0:0:
142,115,1200,6,0,L|101:69,3,50,6|0|2|0,3:2|1:0|3:2|1:0,0:0:0:0:
88,168,1486,2,0,L|42:209,3,50,6|0|2|0,3:2|1:0|3:2|1:0,0:0:0:0:
142,222,1772,2,0,L|183:268,3,50,6|0|2|0,3:2|1:0|3:2|1:0,0:0:0:0:
195,168,2058,2,0,L|241:127,3,50,6|0|2|0,3:2|1:0|3:2|1:0,0:0:0:0:
428,114,2343,6,0,L|462:164,3,50,6|0|2|0,3:2|1:0|3:2|1:0,0:0:0:0:
363,153,2629,2,0,L|312:187,3,50,6|0|2|0,3:2|1:0|3:2|1:0,0:0:0:0:
324,88,2915,2,0,L|289:37,3,50,6|0|2|0,3:2|1:0|3:2|1:0,0:0:0:0:
389,49,3200,2,0,L|439:14,3,50,6|0|2|0,3:2|1:0|3:2|1:0,0:0:0:0:
475,245,3486,5,6,3:2:0:0:
477,254,3558,1,0,1:0:0:0:
479,263,3629,1,2,3:2:0:0:
481,272,3700,1,0,1:0:0:0:
484,281,3772,2,0,L|475:352,3,50,6|0|2|0,3:2|1:0|3:2|1:0,0:0:0:0:
283,218,4058,6,0,P|262:234|258:267,1,50,6|0,3:2|1:0,0:0:0:0:
222,327,4200,2,0,P|238:347|271:350,1,50,2|0,3:2|1:0,0:0:0:0:
362,340,4343,6,0,P|340:302|298:301,3,50,6|0|2|0,3:2|1:0|3:2|1:0,0:0:0:0:
170,164,4629,6,0,P|147:192|153:222,1,50,6|0,3:2|1:0,0:0:0:0:
151,218,4772,2,0,P|174:190|168:160,1,50,2|0,3:2|1:0,0:0:0:0:
70,288,4915,6,0,P|81:322|110:333,1,50,6|0,3:2|1:0,0:0:0:0:
105,332,5058,2,0,P|93:297|64:286,1,50,2|0,3:2|1:0,0:0:0:0:
109,82,5200,5,14,3:2:0:0:
123,55,5272,1,2,1:2:0:0:
149,40,5343,1,10,3:2:0:0:
179,40,5415,1,2,1:2:0:0:
202,58,5486,5,14,3:2:0:0:
169,43,5558,1,10,1:2:0:0:
134,36,5629,1,10,3:2:0:0:
99,36,5700,1,10,1:2:0:0:
65,47,5772,6,0,P|105:158|107:168,1,100,4|0,3:2|0:0,0:0:0:0:
53,220,6058,1,0,1:0:0:0:
53,220,6129,1,0,1:0:0:0:
53,220,6200,2,0,P|13:331|11:341,1,100,4|0,3:2|0:0,0:0:0:0:
285,323,6486,5,2,0:0:0:0:
291,316,6558,1,2,0:0:0:0:
291,303,6629,1,2,0:0:0:0:
273,277,6700,1,2,0:0:0:0:
237,278,6772,1,0,1:0:0:0:
216,303,6843,1,0,1:0:0:0:
223,336,6915,5,4,3:2:0:0:
187,309,6986,1,0,0:0:0:0:
185,263,7058,1,0,0:0:0:0:
220,236,7129,1,0,0:0:0:0:
264,236,7200,1,0,0:0:0:0:
303,225,7272,1,0,0:0:0:0:
324,197,7343,1,0,1:0:0:0:
320,166,7415,1,0,1:0:0:0:
289,150,7486,6,0,P|310:189|329:223,3,50,4|0|0|0,3:2|0:0|1:0|1:0,0:0:0:0:
405,213,7772,2,0,P|392:255|381:292,3,50,4|0|0|0,3:2|0:0|1:0|1:0,0:0:0:0:
506,324,8058,6,0,P|423:353|381:370,1,100,4|0,3:2|0:0,0:0:0:0:
312,337,8343,1,0,1:0:0:0:
312,337,8415,1,0,1:0:0:0:
312,337,8486,2,0,P|229:308|187:291,1,100,4|0,3:2|0:0,0:0:0:0:
103,146,8772,5,2,0:0:0:0:
101,136,8843,1,2,0:0:0:0:
91,128,8915,1,2,0:0:0:0:
60,125,8986,1,2,0:0:0:0:
37,153,9058,1,0,1:0:0:0:
43,186,9129,1,0,1:0:0:0:
73,201,9200,5,4,3:2:0:0:
101,166,9272,1,0,0:0:0:0:
145,164,9343,1,0,0:0:0:0:
187,181,9415,1,0,0:0:0:0:
202,223,9486,1,0,0:0:0:0:
191,261,9558,1,0,0:0:0:0:
159,275,9629,1,0,1:0:0:0:
132,260,9700,1,0,1:0:0:0:
128,245,9772,2,0,P|145:214|177:170,3,50,4|0|0|0,3:2|0:0|1:0|1:0,0:0:0:0:
117,350,10058,5,4,3:2:0:0:
108,311,10129,1,0,0:0:0:0:
96,272,10200,1,0,1:0:0:0:
82,233,10272,1,0,1:0:0:0:
67,196,10343,6,0,P|43:137|20:83,1,100,4|0,3:2|1:0,0:0:0:0:
39,76,10558,1,0,1:0:0:0:
39,76,10629,1,0,3:0:0:0:
157,112,10772,1,0,1:0:0:0:
0,276,10915,6,0,P|65:231|118:206,1,100,4|0,3:2|1:0,0:0:0:0:
184,240,11200,1,0,3:0:0:0:
192,242,11272,1,0,0:0:0:0:
201,247,11343,1,0,1:0:0:0:
208,253,11415,1,0,1:0:0:0:
239,271,11486,6,0,P|303:259|342:251,1,100,4|0,3:2|1:0,0:0:0:0:
369,335,11700,1,0,1:0:0:0:
369,335,11772,2,0,P|389:348|408:365,1,50,0|0,3:0|0:0,0:0:0:0:
429,272,11915,2,0,P|451:260|475:251,1,50,0|0,1:0|1:0,0:0:0:0:
451,155,12058,5,4,3:2:0:0:
443,110,12129,1,0,0:0:0:0:
408,81,12200,1,0,1:0:0:0:
362,83,12272,1,0,1:0:0:0:
334,119,12343,1,0,3:0:0:0:
288,125,12415,1,0,0:0:0:0:
257,92,12486,1,0,3:0:0:0:
250,46,12558,1,0,0:0:0:0:
286,27,12629,6,0,P|298:70|304:95,3,50,4|0|0|0,3:2|0:0|1:0|0:0,0:0:0:0:
198,176,12915,1,4,3:2:0:0:
187,167,12986,1,0,0:0:0:0:
186,154,13058,2,0,P|198:120|208:90,5,50,0|0|4|0|0|0,1:0|0:0|3:2|0:0|1:0|0:0,0:0:0:0:
121,55,13486,5,4,3:2:0:0:
108,46,13558,1,0,0:0:0:0:
95,38,13629,1,0,1:0:0:0:
81,32,13700,1,0,0:0:0:0:
66,27,13772,5,4,3:2:0:0:
108,1,13843,1,0,1:0:0:0:
152,25,13915,1,0,1:0:0:0:
162,73,13986,1,0,1:0:0:0:
128,110,14058,1,4,3:2:0:0:
84,119,14129,1,0,1:0:0:0:
54,145,14200,1,0,1:0:0:0:
46,179,14272,1,0,1:0:0:0:
61,204,14343,6,0,P|12:220|-17:232,2,50,4|0|0,3:2|1:0|1:0,0:0:0:0:
55,287,14558,2,0,P|31:294|7:302,2,50,4|0|0,3:2|1:0|1:0,0:0:0:0:
55,369,14772,2,0,P|6:385|-23:397,1,50,4|0,3:2|1:0,0:0:0:0:
157,328,14915,6,0,L|329:362,1,150,4|0,3:2|0:0,0:0:0:0:
394,339,15200,5,2,0:0:0:0:
423,306,15272,1,2,0:0:0:0:
418,265,15343,1,2,0:0:0:0:
394,242,15415,1,2,0:0:0:0:
370,244,15486,2,0,P|343:268|315:275,3,50,2|2|2|2,0:0|0:0|0:0|0:0,0:0:0:0:
436,160,15772,5,2,0:0:0:0:
453,119,15843,1,2,0:0:0:0:
476,92,15915,1,2,0:0:0:0:
496,78,15986,1,2,0:0:0:0:
512,73,16058,6,0,P|466:72|428:55,3,50,2|2|2|2,0:0|0:0|0:0|0:0,0:0:0:0:
398,133,16343,2,0,P|359:107|336:73,3,50,2|2|2|2,0:0|0:0|0:0|0:0,0:0:0:0:
309,4,16629,6,0,P|295:29|280:71,1,50,8|8,3:2|0:0,0:0:0:0:
193,84,16772,2,0,P|206:109|221:151,1,50,8|8,3:2|0:0,0:0:0:0:
279,203,16915,5,8,3:2:0:0:
271,242,16986,1,8,3:2:0:0:
264,281,17058,1,8,3:2:0:0:
257,320,17129,1,8,3:2:0:0:
251,360,17200,6,0,L|224:200,1,150.000005722046,4|10,3:2|0:0,0:0:0:0:
111,127,17486,5,2,3:2:0:0:
54,138,17558,1,2,0:0:0:0:
25,186,17629,1,10,0:0:0:0:
29,239,17700,1,2,0:0:0:0:
66,275,17772,6,0,P|95:254|145:242,3,59.9999981689454,2|0|10|0,3:2|0:0|0:0|0:0,0:0:0:0:
156,328,18058,2,0,P|191:333|235:360,3,59.9999981689454,2|0|10|0,3:2|0:0|0:0|0:0,0:0:0:0:
296,377,18343,5,0,3:0:0:0:
303,370,18415,1,0,0:0:0:0:
310,364,18486,2,0,P|342:372|381:374,1,59.9999981689454,10|0,0:0|0:0,0:0:0:0:
409,303,18629,1,0,3:0:0:0:
409,293,18700,1,0,0:0:0:0:
409,283,18772,2,0,P|437:266|466:239,1,59.9999981689454,10|0,0:0|0:0,0:0:0:0:
436,170,18915,1,2,3:0:0:0:
429,163,18986,1,2,0:0:0:0:
422,156,19058,2,0,P|430:124|432:85,1,59.9999981689454,10|2,0:0|0:0,0:0:0:0:
363,9,19200,5,2,3:2:0:0:
343,46,19272,1,2,0:0:0:0:
306,78,19343,1,10,3:2:0:0:
254,88,19415,1,2,0:0:0:0:
202,67,19486,6,0,P|150:31|61:18,1,119.999996337891,2|8,3:2|0:0,0:0:0:0:
47,134,19772,5,0,3:0:0:0:
58,139,19843,1,0,0:0:0:0:
69,143,19915,1,8,0:0:0:0:
79,147,19986,1,0,0:0:0:0:
86,156,20058,5,2,3:2:0:0:
97,155,20129,1,0,0:0:0:0:
108,154,20200,1,10,0:0:0:0:
120,153,20272,1,0,0:0:0:0:
129,145,20343,5,2,3:2:0:0:
152,151,20415,1,0,0:0:0:0:
174,157,20486,1,10,0:0:0:0:
197,163,20558,1,0,0:0:0:0:
211,178,20629,6,0,L|56:213,1,119.999996337891,2|8,3:2|0:0,0:0:0:0:
26,286,20843,1,2,0:0:0:0:
16,278,20915,2,0,P|0:241|-21:210,1,59.9999981689454,2|2,3:2|0:0,0:0:0:0:
118,301,21058,2,0,P|102:326|91:354,1,59.9999981689454,10|2,0:0|0:0,0:0:0:0:
256,384,21200,5,6,3:2:0:0:
289,375,21272,1,2,0:0:0:0:
322,366,21343,1,10,3:2:0:0:
355,358,21415,1,2,0:0:0:0:
388,349,21486,1,2,3:2:0:0:
253,264,21629,1,8,3:2:0:0:
464,218,21772,5,6,3:2:0:0:
425,207,21843,1,0,0:0:0:0:
386,197,21915,1,8,0:0:0:0:
348,187,21986,1,0,0:0:0:0:
309,177,22058,2,0,L|377:159,3,59.9999981689454,2|2|10|2,3:2|0:0|0:0|0:0,0:0:0:0:
427,64,22343,5,2,3:2:0:0:
471,87,22415,1,0,0:0:0:0:
493,124,22486,1,10,0:0:0:0:
493,164,22558,1,0,0:0:0:0:
484,192,22629,1,2,3:2:0:0:
466,209,22700,1,0,0:0:0:0:
449,214,22772,1,10,0:0:0:0:
433,209,22843,1,0,0:0:0:0:
425,199,22915,6,0,P|400:154|373:138,3,59.9999981689454,0|0|8|0,3:0|0:0|0:0|0:0,0:0:0:0:
318,190,23200,2,0,P|268:175|238:183,3,59.9999981689454,2|0|8|0,3:2|0:0|0:0|0:0,0:0:0:0:
192,236,23486,5,2,3:2:0:0:
186,246,23558,1,0,0:0:0:0:
177,255,23629,2,0,P|131:256|96:230,1,59.9999981689454,8|0,0:0|0:0,0:0:0:0:
84,167,23772,5,2,3:2:0:0:
78,156,23843,1,0,0:0:0:0:
64,152,23915,2,0,P|18:159|-10:191,1,59.9999981689454,8|0,3:2|0:0,0:0:0:0:
124,376,24058,5,6,3:2:0:0:
152,354,24129,1,0,0:0:0:0:
167,316,24200,1,8,0:0:0:0:
166,278,24272,1,2,0:0:0:0:
149,240,24343,1,0,3:0:0:0:
58,280,24486,1,10,0:0:0:0:
355,251,24629,5,4,3:2:0:0:
342,223,24700,1,2,0:0:0:0:
316,200,24772,1,8,0:0:0:0:
287,189,24843,1,0,0:0:0:0:
252,193,24915,1,2,3:2:0:0:
267,317,25058,1,8,0:0:0:0:
458,367,25200,5,6,3:2:0:0:
458,367,25272,1,0,0:0:0:0:
458,367,25343,2,0,L|479:270,1,75.0000028610231,8|0,0:0|0:0,0:0:0:0:
375,199,25486,5,6,3:2:0:0:
375,199,25558,1,0,0:0:0:0:
375,199,25629,2,0,L|354:102,1,75.0000028610231,8|0,0:0|0:0,0:0:0:0:
512,35,25772,5,6,3:2:0:0:
500,70,25843,1,0,0:0:0:0:
472,95,25915,1,0,3:0:0:0:
435,104,25986,1,4,0:0:0:0:
399,90,26058,1,0,3:0:0:0:
378,59,26129,1,0,0:0:0:0:
378,21,26200,5,6,3:2:0:0:
417,28,26272,1,2,0:0:0:0:
452,61,26343,6,0,P|430:159|409:262,1,150.000005722046,2|0,3:2|0:0,0:0:0:0:
321,264,26629,5,4,3:2:0:0:
416,370,26772,1,0,0:0:0:0:
407,373,26843,1,0,0:0:0:0:
402,384,26915,2,0,P|354:368|333:367,3,59.9999981689454,0|0|8|0,3:0|0:0|0:0|0:0,0:0:0:0:
257,344,27200,2,0,P|209:360|188:361,3,59.9999981689454,0|0|8|0,3:0|0:0|0:0|0:0,0:0:0:0:
27,362,27486,5,2,3:2:0:0:
35,332,27558,1,2,0:0:0:0:
62,318,27629,2,0,P|92:313|124:341,1,59.9999981689454,10|2,0:0|0:0,0:0:0:0:
234,232,27772,6,0,P|205:273|171:281,3,59.9999981689454,2|2|10|2,3:2|0:0|0:0|0:0,0:0:0:0:
132,219,28058,2,0,P|81:218|55:195,3,59.9999981689454,2|0|10|0,3:2|0:0|0:0|0:0,0:0:0:0:
76,132,28343,2,0,P|47:90|51:56,3,59.9999981689454,2|0|10|0,3:2|0:0|3:2|0:0,0:0:0:0:
217,3,28629,6,0,P|195:87|179:149,1,119.999996337891,2|8,3:2|0:0,0:0:0:0:
225,195,28843,1,2,0:0:0:0:
235,203,28915,2,0,P|245:245|253:276,1,59.9999981689454,2|2,3:2|0:0,0:0:0:0:
302,138,29058,2,0,P|312:96|320:65,1,59.9999981689454,10|2,0:0|0:0,0:0:0:0:
372,216,29200,6,0,P|389:223|434:260,3,59.9999981689454,2|0|8|0,3:2|0:0|0:0|0:0,0:0:0:0:
456,166,29486,2,0,P|472:157|529:148,3,59.9999981689454,0|0|8|0,3:0|0:0|0:0|0:0,0:0:0:0:
464,14,29772,5,0,3:0:0:0:
454,6,29843,1,0,0:0:0:0:
442,4,29915,1,8,0:0:0:0:
431,8,29986,1,0,0:0:0:0:
421,15,30058,2,0,P|407:51|402:95,3,59.9999981689454,2|0|8|0,3:2|0:0|0:0|0:0,0:0:0:0:
315,119,30343,6,0,P|341:203|368:316,1,150.000005722046,6|8,3:2|3:2,0:0:0:0:
337,384,30558,1,2,0:0:0:0:
349,369,30629,2,0,P|391:347|429:335,1,59.9999981689454,2|2,3:2|0:0,0:0:0:0:
456,273,30772,2,0,P|482:287|510:298,1,59.9999981689454,10|2,3:2|0:0,0:0:0:0:
264,302,30915,6,0,P|173:289|93:279,1,150.000005722046,6|8,3:2|3:2,0:0:0:0:
39,335,31200,1,0,3:0:0:0:
156,171,31343,1,8,3:2:0:0:
18,32,31486,2,0,P|43:133|59:211,1,150.000005722046,4|8,3:2|3:2,0:0:0:0:
148,266,31772,5,0,3:0:0:0:
185,271,31843,1,0,0:0:0:0:
222,276,31915,1,8,3:2:0:0:
259,281,31986,1,0,0:0:0:0:
296,286,32058,6,0,P|392:272|481:262,1,150.000005722046,6|8,3:2|3:2,0:0:0:0:
481,187,32272,1,0,0:0:0:0:
481,187,32343,2,0,P|494:141|504:108,1,75.0000028610231,2|0,3:2|0:0,0:0:0:0:
385,190,32486,2,0,P|393:153|403:117,1,75.0000028610231,8|0,3:2|1:0,0:0:0:0:
314,45,32629,5,6,3:2:0:0:
306,33,32700,1,0,0:0:0:0:
293,30,32772,2,0,P|254:31|223:60,1,75.0000028610231,8|0,3:2|0:0,0:0:0:0:
134,116,32915,5,2,3:2:0:0:
112,132,32986,1,0,1:0:0:0:
89,129,33058,2,0,P|54:111|38:72,1,75.0000028610231,8|0,3:2|1:0,0:0:0:0:
192,214,33200,5,6,3:2:0:0:
214,208,33272,1,0,1:0:0:0:
228,225,33343,1,10,1:2:0:0:
250,220,33415,1,0,1:0:0:0:
261,236,33486,1,6,3:2:0:0:
285,236,33558,1,0,1:0:0:0:
299,252,33629,1,10,1:2:0:0:
321,249,33700,1,0,1:0:0:0:
340,260,33772,6,0,P|387:246|418:236,3,62.5,6|0|10|0,3:2|1:0|1:2|1:0,0:0:0:0:
415,320,34058,2,0,P|462:306|485:298,3,59.9999981689454,6|0|10|0,3:2|1:0|1:2|1:0,0:0:0:0:
512,377,34343,5,6,3:2:0:0:
417,11,34915,6,0,B|444:-7|489:6|517:47|506:132|415:151,1,225.000008583069,4|0,3:2|0:0,0:0:0:0:
406,131,35200,2,0,P|376:111|330:99,3,59.9999981689454,10|10|10|10,0:0|0:0|0:0|0:0,0:0:0:0:
293,18,35486,6,0,P|244:48|180:58,1,119.999996337891,6|8,3:2|0:0,0:0:0:0:
66,13,35700,1,2,0:0:0:0:
61,22,35772,2,0,P|95:93|110:167,1,119.999996337891,0|10,3:0|0:0,0:0:0:0:
6,284,36058,6,0,P|35:252|121:220,1,119.999996337891,2|8,3:2|0:0,0:0:0:0:
183,266,36272,1,2,0:0:0:0:
178,277,36343,2,0,P|222:316|290:325,1,119.999996337891,0|10,3:0|0:0,0:0:0:0:
425,165,36629,6,0,P|372:154|343:204,1,119.999996337891,2|8,3:2|0:0,0:0:0:0:
418,255,36843,1,2,0:0:0:0:
427,260,36915,2,0,P|448:315|465:379,1,119.999996337891,0|10,3:0|0:0,0:0:0:0:
309,384,37200,5,2,3:2:0:0:
301,372,37272,1,0,0:0:0:0:
299,361,37343,2,0,P|308:323|311:300,1,59.9999981689454,10|0,0:0|0:0,0:0:0:0:
205,293,37486,5,2,3:2:0:0:
213,281,37558,1,0,0:0:0:0:
215,270,37629,2,0,P|206:232|203:209,1,59.9999981689454,10|0,3:2|0:0,0:0:0:0:
287,125,37772,5,6,3:2:0:0:
432,36,37915,1,8,0:0:0:0:
425,71,37986,1,2,3:2:0:0:
393,88,38058,1,0,0:0:0:0:
349,19,38200,1,10,3:2:0:0:
159,86,38343,5,6,3:2:0:0:
185,0,38486,1,8,0:0:0:0:
226,6,38558,1,2,3:2:0:0:
243,44,38629,1,0,0:0:0:0:
98,15,38772,1,10,3:2:0:0:
49,212,38915,6,0,L|29:289,1,59.9999981689454,6|0,3:2|0:0,0:0:0:0:
55,124,39058,5,0,0:0:0:0:
52,120,39129,2,0,L|-5:64,1,59.9999981689454,6|0,3:2|0:0,0:0:0:0:
128,171,39272,5,0,0:0:0:0:
134,173,39343,2,0,L|210:151,1,59.9999981689454,6|0,3:2|0:0,0:0:0:0:
144,265,39486,5,0,3:0:0:0:
149,275,39558,1,2,3:2:0:0:
154,285,39629,1,2,3:2:0:0:
159,295,39700,1,2,3:2:0:0:
164,305,39772,5,2,3:2:0:0:
197,317,39843,1,2,3:2:0:0:
231,329,39915,1,2,3:2:0:0:
264,341,39986,1,2,3:2:0:0:
298,353,40058,6,0,P|227:373|161:389,1,119.999996337891,2|8,3:2|0:0,0:0:0:0:
260,255,40272,1,2,0:0:0:0:
260,255,40343,2,0,L|399:290,1,119.999996337891,4|0,3:2|0:0,0:0:0:0:
504,380,40629,5,2,3:2:0:0:
484,363,40700,1,0,0:0:0:0:
472,333,40772,1,8,0:0:0:0:
472,302,40843,1,2,0:0:0:0:
472,302,40915,2,0,P|502:242|514:162,1,119.999996337891,0|10,3:0|0:0,0:0:0:0:
430,79,41200,6,0,P|408:96|376:132,2,59.9999981689454,0|0|8,3:0|0:0|0:0,0:0:0:0:
510,76,41415,2,0,L|366:50,1,119.999996337891,2|0,0:0|0:0,0:0:0:0:
380,42,41629,1,10,0:0:0:0:
306,124,41772,5,2,3:2:0:0:
306,124,41843,1,0,0:0:0:0:
306,124,41915,2,0,L|317:194,1,59.9999981689454,10|0,0:0|0:0,0:0:0:0:
236,59,42058,5,2,3:2:0:0:
236,59,42129,1,0,0:0:0:0:
236,59,42200,2,0,L|247:-11,1,59.9999981689454,10|0,3:2|0:0,0:0:0:0:
212,152,42343,6,0,P|156:126|92:106,1,119.999996337891,6|8,3:2|0:0,0:0:0:0:
7,340,42629,1,2,3:2:0:0:
57,338,42700,1,0,0:0:0:0:
102,304,42772,1,8,0:0:0:0:
118,259,42843,1,0,0:0:0:0:
111,209,42915,1,6,3:2:0:0:
174,361,43058,5,8,0:0:0:0:
190,349,43129,1,0,0:0:0:0:
226,342,43200,1,2,3:2:0:0:
266,363,43272,1,0,0:0:0:0:
311,381,43343,1,8,0:0:0:0:
359,374,43415,1,0,0:0:0:0:
404,337,43486,6,0,P|373:262|362:192,1,119.999996337891,6|0,3:2|0:0,0:0:0:0:
415,122,43700,1,0,3:0:0:0:
436,138,43772,1,6,0:0:0:0:
433,180,43843,1,0,0:0:0:0:
393,204,43915,1,0,3:0:0:0:
341,187,43986,1,0,0:0:0:0:
317,128,44058,1,6,0:0:0:0:
275,85,44129,1,0,3:0:0:0:
218,77,44200,1,0,0:0:0:0:
176,92,44272,1,0,0:0:0:0:
161,128,44343,1,6,3:2:0:0:
166,159,44415,1,0,0:0:0:0:
178,174,44486,1,0,3:0:0:0:
196,180,44558,1,0,0:0:0:0:
213,176,44629,6,0,P|290:108|396:130,1,179.999994506836,6|2,3:2|0:0,0:0:0:0:
437,188,44915,5,0,1:0:0:0:
437,188,44986,1,0,1:0:0:0:
437,188,45058,2,0,P|412:254|376:358,1,179.999994506836,14|0,3:2|0:0,0:0:0:0:
328,201,45343,5,8,1:2:0:0:
328,201,45415,1,2,1:2:0:0:
328,201,45486,2,0,P|303:267|267:371,1,179.999994506836,4|0,3:2|0:0,0:0:0:0:
188,296,45772,5,2,1:2:0:0:
188,296,45843,1,0,1:0:0:0:
188,296,45915,2,0,P|165:272|131:259,1,59.9999981689454,12|2,3:2|0:0,0:0:0:0:
118,345,46058,2,0,P|60:362|4:384,1,119.999996337891,4|10,3:2|0:0,0:0:0:0:
17,127,46343,6,0,P|42:81|125:101,1,119.999996337891,6|10,3:2|0:0,0:0:0:0:
148,6,46558,2,0,P|192:34|166:115,1,119.999996337891,4|0,3:2|0:0,0:0:0:0:
121,163,46772,1,14,3:2:0:0:
355,91,46915,5,6,3:2:0:0:
341,6,47058,1,8,0:0:0:0:
305,4,47129,1,2,3:2:0:0:
285,34,47200,1,0,0:0:0:0:
241,236,47343,5,14,3:2:0:0:
317,194,47486,1,2,0:0:0:0:
297,156,47558,1,0,3:0:0:0:
255,151,47629,1,8,0:0:0:0:
473,203,47772,5,4,3:2:0:0:
483,250,47843,1,0,0:0:0:0:
489,286,47915,5,10,3:2:0:0:
487,291,47986,1,0,0:0:0:0:
485,296,48058,1,2,1:2:0:0:
483,301,48129,1,2,1:2:0:0:
481,306,48200,2,0,P|425:279|392:270,1,59.9999981689454,14|2,3:2|0:0,0:0:0:0:
381,352,48343,2,0,P|353:363|327:378,3,59.9999981689454,6|2|10|2,3:2|0:0|1:2|1:2,0:0:0:0:
200,257,48629,6,0,P|188:222|157:166,2,59.9999981689454,6|0|10,3:2|0:0|0:0,0:0:0:0:
285,240,48843,6,0,P|320:246|384:247,2,59.9999981689454,4|2|0,3:2|0:0|0:0,0:0:0:0:
251,321,49058,6,0,P|224:351|193:402,1,59.9999981689454,14|0,3:2|0:0,0:0:0:0:
73,345,49200,6,0,P|52:256|31:179,1,119.999996337891,6|8,3:2|1:2,0:0:0:0:
55,200,49415,1,2,0:0:0:0:
55,200,49486,1,4,3:2:0:0:
200,257,49629,1,8,1:2:0:0:
284,62,49772,6,0,P|192:107|138:139,1,119.999996337891,6|8,3:2|1:2,0:0:0:0:
162,150,49986,1,2,0:0:0:0:
162,150,50058,1,4,3:2:0:0:
66,27,50200,1,10,1:2:0:0:
407,31,50343,5,6,3:2:0:0:
413,33,50415,1,0,0:0:0:0:
419,37,50486,2,0,P|433:78|427:103,1,59.9999981689454,8|2,1:2|1:2,0:0:0:0:
369,167,50629,5,4,3:2:0:0:
369,176,50700,1,0,1:0:0:0:
368,186,50772,2,0,P|352:226|331:241,1,59.9999981689454,10|0,1:2|1:0,0:0:0:0:
245,250,50915,5,6,3:2:0:0:
237,260,50986,1,0,0:0:0:0:
227,269,51058,2,0,P|185:281|160:275,1,59.9999981689454,10|0,3:2|0:0,0:0:0:0:
99,221,51200,5,6,3:2:0:0:
83,224,51272,1,0,0:0:0:0:
65,226,51343,2,0,P|25:207|10:185,1,59.9999981689454,10|0,3:2|0:0,0:0:0:0:
3,64,51486,6,0,P|240:126|355:161,1,359.999989013672,4|2,3:2|0:0,0:0:0:0:
359,154,51986,1,2,0:0:0:0:
372,145,52058,1,2,0:0:0:0:
282,350,52343,1,0,0:0:0:0:
277,341,52415,1,0,0:0:0:0:
266,329,52486,1,2,0:0:0:0:
255,321,52558,1,2,0:0:0:0:
240,315,52629,1,0,0:0:0:0:
405,247,52915,5,0,0:0:0:0:
410,238,52986,1,0,0:0:0:0:
421,226,53058,1,0,0:0:0:0:
432,218,53129,1,0,0:0:0:0:
447,212,53200,6,0,P|461:270|500:396,2,179.999994506836,2|2|2,0:0|0:0|0:0,0:0:0:0:
506,44,53772,6,0,P|435:107|410:106,1,112.500004291535,0|0,3:0|0:0,0:0:0:0:
355,69,54058,1,0,0:0:0:0:
347,57,54129,1,0,0:0:0:0:
339,47,54200,1,2,0:0:0:0:
328,36,54272,1,2,0:0:0:0:
315,29,54343,2,0,P|329:111|341:197,1,150,2|0,0:0|0:0,0:0:0:0:
322,266,54629,5,0,0:0:0:0:
304,244,54700,1,0,0:0:0:0:
270,225,54772,1,2,0:0:0:0:
230,218,54843,1,2,0:0:0:0:
189,228,54915,1,2,0:0:0:0:
35,375,55200,5,0,0:0:0:0:
56,364,55272,1,0,0:0:0:0:
82,336,55343,1,2,0:0:0:0:
87,281,55415,1,2,0:0:0:0:
56,235,55486,6,0,P|27:268|43:372,2,150,2|2|2,0:0|0:0|0:0,0:0:0:0:
374,380,56058,6,0,P|288:356|232:347,1,112.500004291535,0|0,3:0|0:0,0:0:0:0:
178,353,56343,2,0,P|199:322|205:305,3,37.5000014305115,0|0|2|2,0:0|0:0|0:0|0:0,0:0:0:0:
165,249,56629,1,2,0:0:0:0:
384,241,56915,5,0,0:0:0:0:
375,225,56986,1,0,0:0:0:0:
367,208,57058,1,2,0:0:0:0:
363,192,57129,1,2,0:0:0:0:
361,178,57200,1,2,0:0:0:0:
495,56,57486,5,0,0:0:0:0:
488,62,57558,1,0,0:0:0:0:
477,61,57629,1,0,0:0:0:0:
467,56,57700,1,0,0:0:0:0:
456,52,57772,6,0,L|327:73,2,112.500004291535,2|2|2,0:0|0:0|0:0,0:0:0:0:
246,170,58343,6,0,P|231:108|215:53,1,112.500004291535,0|0,3:0|0:0,0:0:0:0:
163,3,58629,1,0,0:0:0:0:
155,15,58700,1,0,0:0:0:0:
146,24,58772,1,2,0:0:0:0:
136,32,58843,1,2,0:0:0:0:
125,39,58915,1,2,0:0:0:0:
1,182,59200,5,0,0:0:0:0:
25,155,59272,1,0,0:0:0:0:
55,138,59343,1,2,0:0:0:0:
94,128,59415,1,2,0:0:0:0:
134,129,59486,1,2,0:0:0:0:
222,366,59915,6,0,L|206:303,1,37.5000014305115,2|2,0:0|0:0,0:0:0:0:
289,279,60058,1,10,3:2:0:0:
296,249,60129,1,0,0:0:0:0:
307,220,60200,1,8,3:2:0:0:
323,193,60272,1,10,0:0:0:0:
305,156,60343,5,8,3:2:0:0:
301,120,60415,1,8,0:0:0:0:
288,83,60486,1,10,3:2:0:0:
265,54,60558,1,8,0:0:0:0:
286,6,60629,6,0,L|264:171,1,150.000005722046,4|8,3:2|0:0,0:0:0:0:
184,280,60915,5,4,3:2:0:0:
174,232,60986,1,0,0:0:0:0:
152,197,61058,1,10,0:0:0:0:
111,170,61129,1,2,0:0:0:0:
65,160,61200,1,6,3:2:0:0:
57,338,61343,5,8,0:0:0:0:
66,331,61415,1,0,0:0:0:0:
82,316,61486,1,4,3:2:0:0:
95,288,61558,1,0,0:0:0:0:
97,243,61629,1,10,0:0:0:0:
76,199,61700,1,2,0:0:0:0:
38,169,61772,6,0,P|18:134|25:19,1,150.000005722046,6|8,3:2|0:0,0:0:0:0:
194,6,62058,5,4,3:2:0:0:
211,35,62129,1,0,0:0:0:0:
236,55,62200,1,8,0:0:0:0:
268,66,62272,1,0,0:0:0:0:
303,60,62343,6,0,P|335:23|372:8,2,62.5,6|0|8,3:2|0:0|0:0,0:0:0:0:
395,91,62558,2,0,P|443:87|484:106,2,62.5,2|4|0,0:0|3:2|0:0,0:0:0:0:
444,178,62772,2,0,P|481:210|493:249,1,62.5,10|0,3:2|0:0,0:0:0:0:
409,268,62915,5,4,3:2:0:0:
409,268,62986,1,0,0:0:0:0:
409,268,63058,2,0,P|412:316|392:361,1,75.0000028610231,8|0,0:0|0:0,0:0:0:0:
353,195,63200,5,4,3:2:0:0:
353,195,63272,1,0,0:0:0:0:
353,195,63343,2,0,P|321:157|275:140,1,75.0000028610231,10|2,0:0|0:0,0:0:0:0:
200,215,63486,5,6,3:2:0:0:
184,260,63558,1,0,0:0:0:0:
201,303,63629,1,8,0:0:0:0:
240,325,63700,1,0,0:0:0:0:
282,321,63772,6,0,P|242:358|223:388,1,75.0000028610231,4|0,3:2|0:0,0:0:0:0:
280,239,63915,2,0,P|301:188|306:153,1,75.0000028610231,10|2,0:0|0:0,0:0:0:0:
395,368,64058,5,6,3:2:0:0:
444,352,64129,1,0,0:0:0:0:
468,305,64200,1,8,0:0:0:0:
458,252,64272,1,0,0:0:0:0:
417,219,64343,2,0,L|440:308,1,75.0000028610231,4|0,3:2|0:0,0:0:0:0:
479,143,64486,2,0,L|497:70,1,75.0000028610231,10|2,0:0|0:0,0:0:0:0:
386,10,64629,5,6,3:2:0:0:
386,10,64700,2,0,P|351:62|314:81,1,75.0000028610231,0|8,0:0|0:0,0:0:0:0:
329,145,64843,5,6,3:2:0:0:
329,145,64915,2,0,P|267:157|227:144,1,75.0000028610231
188,184,65058,6,0,P|136:149|117:111,1,75.0000028610231,14|0,3:2|0:0,0:0:0:0:
161,3,65200,5,4,3:2:0:0:
190,16,65272,1,0,0:0:0:0:
206,45,65343,1,8,1:2:0:0:
202,80,65415,1,0,0:0:0:0:
178,106,65486,1,4,3:2:0:0:
143,124,65558,1,0,0:0:0:0:
127,160,65629,1,10,1:2:0:0:
132,198,65700,1,2,0:0:0:0:
160,222,65772,6,0,P|185:208|248:200,3,62.5,6|0|8|0,3:2|0:0|1:2|0:0,0:0:0:0:
245,285,66058,2,0,P|273:286|334:316,3,62.5,4|0|10|2,3:2|0:0|1:2|0:0,0:0:0:0:
391,378,66343,5,6,3:2:0:0:
357,347,66415,1,0,0:0:0:0:
315,338,66486,1,8,1:2:0:0:
267,349,66558,1,0,0:0:0:0:
234,377,66629,1,4,3:2:0:0:
193,380,66700,1,0,0:0:0:0:
155,361,66772,1,8,1:2:0:0:
135,329,66843,1,0,0:0:0:0:
136,287,66915,6,0,P|154:262|176:198,1,75.0000028610231,6|0,3:2|0:0,0:0:0:0:
73,212,67058,1,8,1:2:0:0:
73,212,67129,1,2,0:0:0:0:
73,212,67200,2,0,P|51:173|35:132,1,75.0000028610231,4|0,3:2|1:0,0:0:0:0:
145,125,67343,2,0,P|163:92|178:58,1,75.0000028610231,10|0,1:2|1:0,0:0:0:0:
293,6,67486,5,6,3:2:0:0:
288,42,67558,1,0,1:0:0:0:
301,73,67629,1,8,1:2:0:0:
327,96,67700,1,2,1:2:0:0:
359,108,67772,1,4,3:2:0:0:
396,103,67843,1,0,1:0:0:0:
425,81,67915,1,10,1:2:0:0:
440,47,67986,1,0,1:0:0:0:
436,6,68058,5,6,3:2:0:0:
401,25,68129,1,0,1:0:0:0:
375,58,68200,1,8,1:2:0:0:
359,108,68272,1,2,1:2:0:0:
341,160,68343,1,4,3:2:0:0:
305,205,68415,1,0,1:0:0:0:
255,242,68486,1,10,1:2:0:0:
190,261,68558,1,0,1:0:0:0:
117,252,68629,6,0,P|96:231|45:211,1,75,6|0,3:2|0:0,0:0:0:0:
28,312,68915,2,0,P|51:295|61:288,3,25,2|0|0|0,3:0|3:0|3:0|3:0,0:0:0:0:
122,362,69200,5,10,3:2:0:0:
142,351,69272,1,8,0:0:0:0:
176,343,69343,1,10,3:2:0:0:
224,350,69415,1,8,0:0:0:0:
278,374,69486,1,10,3:2:0:0:
341,380,69558,1,10,0:0:0:0:
407,372,69629,1,10,3:2:0:0:
473,345,69700,1,10,3:2:0:0:
491,271,69772,6,0,P|468:186|449:123,1,125,6|8,3:2|3:2,0:0:0:0:
500,62,70058,1,0,3:0:0:0:
321,169,70200,5,8,3:2:0:0:
303,167,70272,1,0,0:0:0:0:
286,152,70343,1,2,3:2:0:0:
280,121,70415,1,0,0:0:0:0:
299,88,70486,1,10,3:2:0:0:
342,79,70558,1,0,0:0:0:0:
385,104,70629,2,0,P|374:130|361:167,3,62.5,2|2|10|2,3:2|0:0|3:2|0:0,0:0:0:0:
259,278,70915,6,0,P|199:221|123:236,1,125,2|8,3:2|3:2,0:0:0:0:
62,283,71200,1,0,3:0:0:0:
54,293,71272,1,0,0:0:0:0:
49,304,71343,1,10,3:2:0:0:
47,316,71415,1,2,0:0:0:0:
46,328,71486,2,0,L|186:309,1,125,2|8,3:2|3:2,0:0:0:0:
251,364,71700,1,0,0:0:0:0:
251,364,71772,2,0,L|374:380,1,125,2|10,3:2|3:2,0:0:0:0:
501,224,72058,6,0,P|418:223|400:277,1,125,2|8,3:2|3:2,0:0:0:0:
446,328,72343,1,0,3:0:0:0:
302,194,72486,1,10,3:2:0:0:
511,15,72629,2,0,P|478:78|458:133,1,125,0|8,3:0|3:2,0:0:0:0:
369,129,72915,2,0,P|387:69|412:12,1,125,2|8,3:2|3:2,0:0:0:0:
276,18,73200,5,2,3:2:0:0:
236,0,73272,1,0,0:0:0:0:
188,4,73343,1,8,3:2:0:0:
156,29,73415,1,0,0:0:0:0:
125,62,73486,1,0,3:0:0:0:
84,68,73558,1,0,0:0:0:0:
55,59,73629,1,8,3:2:0:0:
38,43,73700,1,0,0:0:0:0:
48,18,73772,6,0,P|111:62|97:122,1,125,2|8,3:2|3:2,0:0:0:0:
25,164,73986,1,0,0:0:0:0:
25,164,74058,2,0,P|11:239|63:272,1,125,0|8,3:0|3:2,0:0:0:0:
271,206,74343,6,0,P|179:190|106:180,1,125,2|8,3:2|3:2,0:0:0:0:
120,203,74558,1,0,0:0:0:0:
120,203,74629,1,0,3:0:0:0:
224,96,74772,2,0,P|359:116|493:140,1,250,10|8,3:2|3:2,0:0:0:0:
498,214,75200,1,2,3:2:0:0:
366,32,75343,1,10,3:2:0:0:
330,327,75486,6,0,P|379:322|394:248,1,125,2|8,3:2|3:2,0:0:0:0:
282,184,75772,1,0,3:0:0:0:
291,191,75843,1,0,0:0:0:0:
299,199,75915,1,10,3:2:0:0:
303,208,75986,1,0,0:0:0:0:
306,220,76058,2,0,L|281:358,1,125,0|8,3:0|3:2,0:0:0:0:
206,384,76343,1,2,3:2:0:0:
398,256,76486,1,10,3:2:0:0:
95,159,76629,6,0,B|68:210|88:298|172:320|221:279|220:228|177:205,1,250,2|0,3:2|3:0,0:0:0:0:
192,130,77058,1,10,3:2:0:0:
11,341,77200,2,0,P|10:281|68:260,1,125,0|8,3:0|3:2,0:0:0:0:
121,331,77486,1,2,3:2:0:0:
33,80,77629,5,10,3:2:0:0:
38,68,77700,1,2,0:0:0:0:
47,59,77772,1,2,3:2:0:0:
92,38,77843,1,2,1:2:0:0:
142,43,77915,1,10,3:2:0:0:
176,79,77986,1,2,1:2:0:0:
206,119,78058,1,2,3:2:0:0:
248,127,78129,1,0,0:0:0:0:
282,115,78200,1,8,3:2:0:0:
300,91,78272,1,0,0:0:0:0:
301,72,78343,6,0,P|268:38|251:18,3,50,0|0|8|0,3:0|0:0|3:2|0:0,0:0:0:0:
479,32,78629,2,0,P|417:45|388:68,1,100,2|8,3:2|3:2,0:0:0:0:
389,263,78915,5,6,3:2:0:0:
399,273,78986,1,0,0:0:0:0:
412,280,79058,1,12,3:2:0:0:
426,284,79129,1,0,0:0:0:0:
440,285,79200,1,4,3:2:0:0:
454,283,79272,1,0,0:0:0:0:
467,277,79343,1,12,3:2:0:0:
478,267,79415,1,0,0:0:0:0:
484,253,79486,6,0,P|497:290|514:315,3,50,4|0|12|0,3:2|0:0|3:2|0:0,0:0:0:0:
438,176,79772,2,0,P|402:159|372:153,3,50,6|0|14|0,3:2|0:0|3:2|0:0,0:0:0:0:
300,232,80058,5,6,3:2:0:0:
269,216,80129,1,0,0:0:0:0:
234,211,80200,1,12,3:2:0:0:
200,220,80272,1,0,0:0:0:0:
173,240,80343,1,4,3:2:0:0:
158,271,80415,1,0,0:0:0:0:
134,296,80486,5,14,3:2:0:0:
121,287,80558,1,0,0:0:0:0:
108,279,80629,1,4,3:2:0:0:
94,272,80700,1,0,0:0:0:0:
80,265,80772,1,12,3:2:0:0:
66,259,80843,1,0,0:0:0:0:
50,254,80915,6,0,P|59:285|71:328,3,50,6|0|12|0,3:2|0:0|3:2|0:0,0:0:0:0:
139,381,81200,6,0,P|180:355|249:318,1,100,6|12,3:2|3:2,0:0:0:0:
361,370,81486,1,6,3:2:0:0:
361,370,81558,1,2,0:2:0:0:
361,370,81629,2,0,P|398:339|427:325,1,50,14|0,3:2|0:0,0:0:0:0:
501,362,81772,2,0,P|478:328|458:265,1,100,4|12,3:2|3:2,0:0:0:0:
443,158,82058,5,6,3:2:0:0:
476,117,82129,1,2,0:2:0:0:
478,67,82200,1,14,3:2:0:0:
443,29,82272,1,2,0:2:0:0:
390,16,82343,5,6,3:2:0:0:
368,43,82415,1,0,0:0:0:0:
346,57,82486,1,14,3:2:0:0:
329,61,82558,1,0,0:0:0:0:
313,60,82629,1,6,3:2:0:0:
301,54,82700,1,0,0:0:0:0:
290,45,82772,1,14,3:2:0:0:
282,34,82843,1,0,0:0:0:0:
277,21,82915,6,0,P|291:50|297:94,3,50,6|0|12|0,3:2|0:0|3:2|0:0,0:0:0:0:
220,106,83200,2,0,P|210:136|184:173,3,50,6|0|12|0,3:2|0:0|3:2|0:0,0:0:0:0:
103,223,83486,6,0,P|69:201|41:191,2,50,6|0|12,3:2|0:0|3:2,0:0:0:0:
196,252,83700,6,0,P|232:233|254:214,2,50,2|4|0,0:2|3:2|0:0,0:0:0:0:
131,310,83915,6,0,P|128:350|134:379,1,50,14|0,3:2|0:0,0:0:0:0:
299,332,84058,6,0,P|302:372|298:401,2,50,6|0|12,3:2|0:0|3:2,0:0:0:0:
317,236,84272,6,0,P|350:212|377:201,2,50,2|4|0,0:2|3:2|0:0,0:0:0:0:
235,266,84486,6,0,P|198:248|175:230,1,50,12|0,3:2|0:0,0:0:0:0:
157,151,84629,5,6,3:2:0:0:
166,116,84700,1,0,0:0:0:0:
165,91,84772,1,12,3:2:0:0:
159,67,84843,1,0,0:0:0:0:
151,50,84915,1,4,3:2:0:0:
140,37,84986,1,0,0:0:0:0:
132,32,85058,2,0,P|101:58|82:62,1,50,14|0,3:2|0:0,0:0:0:0:
236,168,85200,6,0,P|267:197|294:214,2,50,6|0|12,3:2|0:0|3:2,0:0:0:0:
329,138,85415,6,0,P|372:137|402:129,2,50,2|4|0,0:2|3:2|0:0,0:0:0:0:
373,55,85629,6,0,P|402:23|419:-3,1,50,14|0,3:2|0:0,0:0:0:0:
276,12,85772,5,6,3:2:0:0:
250,4,85843,1,0,0:0:0:0:
276,20,85915,1,14,3:2:0:0:
244,11,85986,1,0,0:0:0:0:
274,28,86058,1,6,3:2:0:0:
243,19,86129,1,0,0:0:0:0:
271,36,86200,1,14,3:2:0:0:
242,26,86272,1,0,0:0:0:0:
268,44,86343,1,6,3:2:0:0:
242,33,86415,1,0,0:0:0:0:
264,51,86486,1,14,3:2:0:0:
239,41,86558,1,0,0:0:0:0:
260,57,86629,1,6,3:2:0:0:
237,53,86700,1,0,0:0:0:0:
255,68,86772,1,14,3:2:0:0:
232,59,86843,1,0,0:0:0:0:
248,73,86915,1,6,3:2:0:0:
228,65,86986,1,0,0:0:0:0:
241,78,87058,1,14,3:2:0:0:
224,71,87129,1,0,0:0:0:0:
236,83,87200,1,6,3:2:0:0:
232,90,87272,1,0,0:0:0:0:
214,77,87343,1,14,3:2:0:0:
228,100,87415,1,0,0:0:0:0:
204,83,87486,1,6,3:2:0:0:
223,108,87558,1,0,0:0:0:0:
200,92,87629,1,14,3:2:0:0:
211,116,87700,1,0,0:0:0:0:
193,99,87772,1,6,3:2:0:0:
201,124,87843,1,0,0:0:0:0:
186,104,87915,1,14,3:2:0:0:
187,132,87986,1,0,0:0:0:0:
164,100,88058,6,0,P|175:122|182:157,14,50,6|0|2|0|2|0|2|0|2|0|2|0|2|0|2,3:2|0:0|0:0|0:0|0:0|0:0|0:0|0:0|0:0|0:0|0:0|0:0|0:0|0:0|0:0,0:0:0:0:
27,273,89343,5,2,0:0:0:0:
16,265,89415,1,2,0:0:0:0:
5,258,89486,1,2,0:0:0:0:
26,258,89558,1,2,0:0:0:0:
42,266,89629,1,2,0:0:0:0:
52,282,89700,1,2,0:0:0:0:
64,289,89772,1,2,0:0:0:0:
83,287,89843,1,2,0:0:0:0:
92,298,89915,1,2,0:0:0:0:
106,310,89986,1,2,0:0:0:0:
122,312,90058,1,2,0:0:0:0:
128,318,90129,1,2,0:0:0:0:
137,333,90200,1,2,0:0:0:0:
148,328,90272,1,2,0:0:0:0:
158,339,90343,1,2,0:0:0:0:
178,350,90415,1,2,0:0:0:0:
196,356,90486,1,2,0:0:0:0:
213,368,90558,1,2,0:0:0:0:
226,371,90629,1,2,0:0:0:0:
243,367,90700,1,2,0:0:0:0:
251,377,90772,1,2,0:0:0:0:
258,374,90843,1,2,0:0:0:0:
267,377,90915,1,2,0:0:0:0:
273,366,90986,1,2,0:0:0:0:
285,373,91058,1,2,0:0:0:0:
297,375,91129,1,2,0:0:0:0:
302,368,91200,1,2,0:0:0:0:
314,375,91272,1,2,0:0:0:0:
324,372,91343,1,2,0:0:0:0:
336,376,91415,1,2,0:0:0:0:
341,369,91486,5,2,1:2:0:0:
348,359,91558,1,2,1:2:0:0:
371,348,91629,1,2,1:2:0:0:
366,326,91700,1,2,1:2:0:0:
392,309,91772,1,2,1:2:0:0:
381,287,91843,1,2,1:2:0:0:
401,257,91915,1,2,1:2:0:0:
387,223,91986,1,2,1:2:0:0:
399,190,92058,1,2,1:2:0:0:
371,158,92129,1,2,1:2:0:0:
365,118,92200,1,2,1:2:0:0:
320,104,92272,1,2,1:2:0:0:
290,64,92343,1,2,1:2:0:0:
246,82,92415,1,2,1:2:0:0:
198,56,92486,1,2,1:2:0:0:
149,82,92558,1,2,1:2:0:0:
85,58,92629,6,0,P|116:154|140:314,1,225.000008583069,6|2,3:2|0:0,0:0:0:0:
65,382,92915,5,0,0:0:0:0:
65,382,92986,1,0,0:0:0:0:
65,382,93058,2,0,P|142:307|266:294,1,225.000008583069,6|0,3:2|0:0,0:0:0:0:
332,359,93343,5,0,3:0:0:0:
332,359,93415,1,2,0:0:0:0:
332,359,93486,2,0,P|439:350|500:248,1,225.000008583069,4|0,3:2|0:0,0:0:0:0:
442,184,93772,5,2,3:2:0:0:
442,184,93843,1,0,0:0:0:0:
442,184,93915,2,0,P|405:160|390:126,3,62.5,4|2|4|0,3:2|3:2|3:2|0:0,0:0:0:0:
475,89,94200,5,2,3:2:0:0:
475,89,94272,1,0,3:0:0:0:
475,89,94343,2,0,P|487:48|515:23,3,62.5,6|0|2|0,3:2|0:0|3:2|0:0,0:0:0:0:
95,111,94772,5,0,0:0:0:0:
77,116,94843,1,0,0:0:0:0:
65,133,94915,2,0,P|32:201|2:297,1,125,6|8,3:2|0:0,0:0:0:0:
51,344,95200,1,0,3:0:0:0:
69,324,95272,1,0,0:0:0:0:
96,311,95343,1,10,0:0:0:0:
125,310,95415,1,0,0:0:0:0:
156,318,95486,6,0,P|224:326|308:348,1,125,2|8,3:2|0:0,0:0:0:0:
290,245,95700,2,0,P|222:237|138:215,1,125,2|0,0:0|0:0,0:0:0:0:
246,149,95915,1,10,0:0:0:0:
395,364,96058,5,6,3:2:0:0:
405,328,96129,1,0,0:0:0:0:
419,293,96200,1,8,0:0:0:0:
442,263,96272,1,2,0:0:0:0:
470,238,96343,1,0,3:0:0:0:
512,341,96486,1,10,0:0:0:0:
246,149,96629,5,6,3:2:0:0:
258,196,96700,1,2,3:2:0:0:
296,228,96772,1,10,3:2:0:0:
345,232,96843,1,2,3:2:0:0:
384,200,96915,5,2,3:2:0:0:
388,190,96986,1,2,3:2:0:0:
391,182,97058,1,10,3:2:0:0:
394,174,97129,1,0,3:2:0:0:
400,151,97200,6,0,L|336:117,1,62.5,6|0,3:2|0:0,0:0:0:0:
439,71,97343,5,8,0:0:0:0:
442,65,97415,2,0,L|500:16,1,62.5,2|0,0:0|3:0,0:0:0:0:
500,140,97558,5,0,0:0:0:0:
501,146,97629,2,0,L|476:290,1,125,10|2,0:0|3:2,0:0:0:0:
344,367,97915,5,8,0:0:0:0:
342,362,97986,2,0,L|243:325,1,62.5,2|0,0:0|3:0,0:0:0:0:
196,362,98129,5,0,0:0:0:0:
189,363,98200,2,0,L|90:400,1,62.5,10|0,0:0|0:0,0:0:0:0:
48,279,98343,6,0,P|26:315|10:356,1,62.5,2|0,3:2|0:0,0:0:0:0:
107,216,98486,5,8,0:0:0:0:
112,215,98558,2,0,P|147:223|191:221,1,62.5,2|0,0:0|3:0,0:0:0:0:
26,192,98700,5,0,0:0:0:0:
26,192,98772,2,0,P|15:152|-7:120,1,62.5,10|0,0:0|0:0,0:0:0:0:
233,142,98915,5,6,3:2:0:0:
272,160,98986,1,0,0:0:0:0:
308,184,99058,1,10,0:0:0:0:
338,215,99129,1,0,0:0:0:0:
360,257,99200,5,2,3:2:0:0:
351,269,99272,1,0,0:0:0:0:
345,285,99343,1,10,3:2:0:0:
343,302,99415,1,0,0:0:0:0:
363,320,99486,6,0,P|335:222|315:162,1,125,6|8,3:2|0:0,0:0:0:0:
292,66,99772,1,0,3:0:0:0:
278,67,99843,1,0,0:0:0:0:
268,74,99915,1,8,0:0:0:0:
263,90,99986,1,0,0:0:0:0:
261,119,100058,6,0,P|319:77|399:59,1,125,4|8,3:2|0:0,0:0:0:0:
505,0,100343,1,2,3:2:0:0:
481,31,100415,1,0,0:0:0:0:
464,73,100486,1,10,0:0:0:0:
457,120,100558,1,0,0:0:0:0:
468,171,100629,6,0,P|489:205|496:234,1,62.5,6|2,3:2|0:0,0:0:0:0:
406,239,100772,1,10,0:0:0:0:
401,247,100843,2,0,P|361:248|332:239,1,62.5,2|6,3:2|0:0,0:0:0:0:
379,158,100986,1,0,0:0:0:0:
374,152,101058,2,0,P|392:116|414:96,1,62.5,10|0,3:2|0:0,0:0:0:0:
444,335,101200,5,6,0:0:0:0:
436,342,101272,1,0,3:0:0:0:
427,351,101343,1,8,0:0:0:0:
419,362,101415,1,4,0:0:0:0:
411,376,101486,5,2,3:2:0:0:
362,361,101558,1,0,0:0:0:0:
314,347,101629,1,14,3:2:0:0:
265,338,101700,1,2,0:0:0:0:
214,338,101772,6,0,P|124:285|29:281,1,187.5,6|2,3:2|0:0,0:0:0:0:
15,362,102058,5,0,1:0:0:0:
15,362,102129,1,0,1:0:0:0:
15,362,102200,2,0,P|51:220|79:133,1,187.5,14|0,3:2|0:0,0:0:0:0:
165,187,102486,5,8,1:2:0:0:
165,187,102558,1,2,1:2:0:0:
165,187,102629,2,0,P|129:45|101:-42,1,187.5,4|0,3:2|0:0,0:0:0:0:
38,12,102915,1,2,1:2:0:0:
38,12,102986,1,0,1:0:0:0:
38,12,103058,2,0,P|54:57|59:80,1,62.5,12|2,3:2|0:0,0:0:0:0:
235,96,103200,2,0,P|243:65|254:36,3,62.5,4|0|10|0,3:2|0:0|1:2|1:0,0:0:0:0:
291,157,103486,5,6,3:2:0:0:
289,163,103558,2,0,L|306:226,1,62.5,0|10,0:0|0:0,0:0:0:0:
383,189,103700,5,4,3:2:0:0:
381,195,103772,2,0,L|398:258,1,62.5,2|0,0:0|0:0,0:0:0:0:
472,226,103915,6,0,L|489:289,1,62.5,14|0,3:2|0:0,0:0:0:0:
502,77,104058,5,6,3:2:0:0:
483,104,104129,1,0,0:0:0:0:
456,121,104200,1,8,0:0:0:0:
432,126,104272,1,2,0:0:0:0:
411,123,104343,2,0,P|423:92|424:48,1,62.5,0|0,1:0|1:0,0:0:0:0:
272,4,104486,5,14,3:2:0:0:
301,31,104558,1,0,0:0:0:0:
314,70,104629,1,2,0:0:0:0:
315,110,104700,1,0,0:0:0:0:
302,146,104772,2,0,P|269:120|230:105,1,62.5,8|2,1:2|1:2,0:0:0:0:
107,230,104915,5,4,3:2:0:0:
136,198,104986,1,0,0:0:0:0:
146,161,105058,1,10,0:0:0:0:
140,129,105129,1,0,0:0:0:0:
122,103,105200,2,0,P|98:98|51:113,1,62.5,2|2,1:2|1:2,0:0:0:0:
18,304,105343,6,0,P|52:265|100:240,1,62.5,14|2,3:2|0:0,0:0:0:0:
115,338,105486,2,0,P|166:334|218:350,3,62.5,6|2|10|2,3:2|0:0|1:2|1:2,0:0:0:0:
273,382,105772,5,6,3:2:0:0:
271,376,105843,2,0,L|288:313,1,62.5,0|10,0:0|0:0,0:0:0:0:
365,350,105986,5,4,3:2:0:0:
363,344,106058,2,0,L|380:281,1,62.5,2|0,0:0|0:0,0:0:0:0:
455,312,106200,6,0,L|472:249,1,62.5,14|0,3:2|0:0,0:0:0:0:
505,152,106343,5,6,3:2:0:0:
505,152,106415,1,0,0:0:0:0:
505,152,106486,2,0,L|422:178,1,62.5,8|2,3:2|0:0,0:0:0:0:
440,85,106629,5,4,3:2:0:0:
440,85,106700,1,0,0:0:0:0:
440,85,106772,2,0,L|357:59,1,62.5,8|0,3:2|0:0,0:0:0:0:
341,153,106915,5,6,3:2:0:0:
341,153,106986,1,0,0:0:0:0:
341,153,107058,2,0,L|258:179,1,62.5,8|2,3:2|0:0,0:0:0:0:
290,62,107200,5,4,3:2:0:0:
290,62,107272,1,0,0:0:0:0:
290,62,107343,2,0,L|207:36,1,62.5,10|0,3:2|0:0,0:0:0:0:
114,26,107486,5,4,3:2:0:0:
105,30,107558,1,0,0:0:0:0:
97,37,107629,1,8,1:2:0:0:
91,47,107700,1,0,1:0:0:0:
84,60,107772,1,6,3:2:0:0:
83,78,107843,1,0,0:0:0:0:
87,100,107915,1,10,1:2:0:0:
101,123,107986,1,0,1:0:0:0:
131,145,108058,1,6,3:2:0:0:
151,174,108129,1,0,0:0:0:0:
158,206,108200,1,10,1:2:0:0:
154,245,108272,1,0,1:0:0:0:
136,276,108343,1,6,3:2:0:0:
108,300,108415,1,2,0:0:0:0:
65,314,108486,1,10,1:2:0:0:
21,303,108558,1,2,1:2:0:0:
1,264,108629,6,0,L|80:244,3,62.5,6|0|8|2,3:2|0:0|1:2|1:2,0:0:0:0:
118,343,108915,2,0,L|197:363,3,62.5,4|0|8|0,3:2|0:0|1:2|0:0,0:0:0:0:
182,241,109200,2,0,L|261:221,3,62.5,6|0|8|2,3:2|0:0|1:2|1:2,0:0:0:0:
285,351,109486,2,0,L|364:371,3,62.5,4|0|8|0,3:2|0:0|1:2|0:0,0:0:0:0:
505,366,109772,5,6,3:2:0:0:
512,337,110343,5,10,3:2:0:0:
500,326,110415,1,8,0:0:0:0:
482,300,110486,1,10,3:2:0:0:
469,259,110558,1,8,0:0:0:0:
469,214,110629,1,10,3:2:0:0:
483,154,110700,1,8,0:0:0:0:
492,93,110772,1,10,3:2:0:0:
469,28,110843,1,8,0:0:0:0:
398,9,110915,6,0,P|448:116|507:268,1,250,4|0,3:2|0:0,0:0:0:0:
483,348,111343,1,10,0:0:0:0:
468,334,111415,1,2,0:0:0:0:
447,330,111486,6,0,P|413:350|385:374,1,62.5,2|0,3:2|0:0,0:0:0:0:
296,365,111629,1,8,0:0:0:0:
296,365,111700,2,0,P|262:345|245:311,1,62.5,0|0,0:0|3:0,0:0:0:0:
330,288,111843,1,0,0:0:0:0:
330,288,111915,2,0,P|334:248|358:219,1,62.5,10|2,0:0|0:0,0:0:0:0:
443,149,112058,6,0,P|355:85|320:91,1,125,2|8,3:2|0:0,0:0:0:0:
282,25,112272,1,0,0:0:0:0:
282,25,112343,2,0,P|243:39|194:41,3,62.5,0|0|8|0,3:0|0:0|0:0|0:0,0:0:0:0:
33,84,112629,6,0,L|11:10,2,62.5,2|0|8,3:2|0:0|0:0,0:0:0:0:
127,65,112843,2,0,L|220:91,2,62.5,2|0|0,0:0|3:0|0:0,0:0:0:0:
100,147,113058,2,0,L|72:225,1,62.5,10|0,0:0|0:0,0:0:0:0:
4,355,113200,6,0,P|80:312|163:285,1,125,0|8,3:0|0:0,0:0:0:0:
177,359,113415,1,0,0:0:0:0:
177,359,113486,2,0,P|228:364|271:378,1,62.5,0|0,3:0|0:0,0:0:0:0:
265,177,113629,5,10,0:0:0:0:
249,166,113700,1,2,0:0:0:0:
229,169,113772,2,0,P|187:193|184:245,1,62.5,2|0,3:2|0:0,0:0:0:0:
252,271,113915,1,8,0:0:0:0:
252,271,113986,2,0,L|271:349,1,62.5,0|0,0:0|3:0,0:0:0:0:
345,287,114129,1,0,0:0:0:0:
345,287,114200,2,0,L|364:365,1,62.5,10|2,0:0|0:0,0:0:0:0:
435,247,114343,6,0,L|395:79,1,125,2|8,3:2|0:0,0:0:0:0:
350,69,114558,1,0,0:0:0:0:
350,69,114629,2,0,P|359:34|366:5,3,62.5,0|0|10|2,3:0|0:0|0:0|0:0,0:0:0:0:
292,168,114915,5,6,3:2:0:0:
248,144,114986,1,0,0:0:0:0:
199,129,115058,1,8,0:0:0:0:
150,119,115129,1,2,0:0:0:0:
100,126,115200,2,0,P|56:151|29:153,3,62.5,0|0|10|0,3:0|0:0|3:2|0:0,0:0:0:0:
211,0,115486,6,0,P|233:83|279:256,1,250,4|0,3:2|3:0,0:0:0:0:
7,321,115915,5,10,0:0:0:0:
11,303,115986,1,2,0:0:0:0:
25,291,116058,2,0,P|65:301|86:352,1,62.5,2|0,3:2|0:0,0:0:0:0:
194,384,116200,1,8,0:0:0:0:
194,384,116272,2,0,P|176:329|173:299,1,62.5,0|0,0:0|3:0,0:0:0:0:
131,252,116415,1,0,0:0:0:0:
131,252,116486,2,0,P|149:197|152:167,1,62.5,10|2,0:0|0:0,0:0:0:0:
26,11,116629,6,0,P|47:77|107:88,1,125,2|8,3:2|0:0,0:0:0:0:
163,38,116843,1,0,0:0:0:0:
163,38,116915,2,0,P|198:17|238:18,3,62.5,0|0|8|0,3:0|0:0|0:0|0:0,0:0:0:0:
293,89,117200,6,0,L|274:161,2,62.5,2|0|8,3:2|0:0|0:0,0:0:0:0:
384,50,117415,2,0,L|365:122,2,62.5,2|0|0,0:0|3:0|0:0,0:0:0:0:
474,17,117629,2,0,L|455:89,1,62.5,10|0,0:0|0:0,0:0:0:0:
421,208,117772,5,4,3:2:0:0:
373,223,117843,1,0,0:0:0:0:
325,239,117915,1,8,0:0:0:0:
277,254,117986,1,0,0:0:0:0:
229,271,118058,1,0,3:0:0:0:
345,348,118200,1,10,0:0:0:0:
173,150,118343,5,6,3:2:0:0:
153,196,118415,1,0,0:0:0:0:
135,243,118486,1,8,0:0:0:0:
115,289,118558,1,0,0:0:0:0:
99,336,118629,2,0,P|64:351|30:373,3,62.5,0|0|10|2,3:0|0:0|0:0|0:0,0:0:0:0:
213,273,118915,6,0,P|235:297|238:357,3,62.5,6|0|8|0,3:2|0:0|0:0|0:0,0:0:0:0:
334,309,119200,2,0,P|341:339|334:369,3,62.5,4|0|8|0,3:2|0:0|0:0|0:0,0:0:0:0:
38,256,119486,5,14,3:2:0:0:
18,215,119558,1,8,0:0:0:0:
30,174,119629,1,8,3:2:0:0:
74,147,119700,5,14,0:0:0:0:
110,107,119772,1,8,3:2:0:0:
166,107,119843,1,8,0:0:0:0:
206,140,119915,6,0,P|230:175|240:214,1,62.5,14|8,3:2|0:0,0:0:0:0:
179,383,120058,5,6,3:2:0:0:
136,350,120129,1,0,0:0:0:0:
125,293,120200,1,8,0:2:0:0:
150,243,120272,1,0,0:0:0:0:
188,227,120343,1,4,3:2:0:0:
229,228,120415,1,0,0:0:0:0:
257,249,120486,1,10,0:2:0:0:
264,274,120558,1,2,0:2:0:0:
258,295,120629,5,6,3:2:0:0:
222,258,120700,1,0,0:0:0:0:
227,200,120772,1,8,0:2:0:0:
263,162,120843,1,0,0:0:0:0:
310,156,120915,6,0,P|349:183|395:201,1,75.0000028610231,4|0,3:2|0:0,0:0:0:0:
236,55,121058,2,0,P|205:77|172:93,1,75.0000028610231,10|2,0:2|0:2,0:0:0:0:
333,6,121200,5,6,3:2:0:0:
353,46,121272,1,0,0:0:0:0:
378,71,121343,1,8,0:2:0:0:
404,85,121415,1,0,0:0:0:0:
428,93,121486,1,4,3:2:0:0:
450,93,121558,1,0,0:0:0:0:
467,88,121629,1,8,0:2:0:0:
483,78,121700,1,0,0:0:0:0:
493,64,121772,6,0,P|438:61|412:75,2,62.5,6|0|8,3:2|0:0|0:2,0:0:0:0:
443,149,121986,2,0,P|401:185|394:212,2,62.5,2|4|0,0:2|3:2|0:0,0:0:0:0:
468,245,122200,2,0,P|465:300|479:323,1,62.5,10|0,0:2|0:0,0:0:0:0:
406,380,122343,5,4,3:2:0:0:
397,366,122415,1,0,0:0:0:0:
385,363,122486,1,8,0:2:0:0:
376,353,122558,1,0,0:0:0:0:
363,357,122629,1,4,3:2:0:0:
348,338,122700,1,0,0:0:0:0:
317,330,122772,1,10,0:2:0:0:
283,329,122843,1,2,0:2:0:0:
244,349,122915,1,6,3:2:0:0:
207,378,122986,1,0,0:0:0:0:
164,378,123058,1,8,0:2:0:0:
119,365,123129,1,0,0:0:0:0:
92,332,123200,6,0,P|80:303|52:249,1,75.0000028610231,4|0,3:2|0:0,0:0:0:0:
161,254,123343,2,0,P|173:225|201:171,1,75.0000028610231,10|2,0:2|0:2,0:0:0:0:
60,159,123486,5,6,3:2:0:0:
54,151,123558,1,0,0:0:0:0:
46,142,123629,2,0,P|25:107|-10:61,1,75.0000028610231,8|0,0:2|0:0,0:0:0:0:
216,88,123772,5,4,3:2:0:0:
222,80,123843,1,0,0:0:0:0:
230,71,123915,2,0,P|251:36|286:-10,1,75.0000028610231,10|2,0:2|0:2,0:0:0:0:
121,3,124058,5,6,3:2:0:0:
126,60,124129,1,0,0:0:0:0:
149,112,124200,1,8,0:2:0:0:
153,169,124272,5,2,0:2:0:0:
176,218,124343,1,4,3:2:0:0:
186,277,124415,1,0,3:0:0:0:
211,315,124486,6,0,P|202:281|199:232,1,75.0000028610231,10|0,3:2|3:0,0:0:0:0:
330,88,124629,5,4,3:2:0:0:
360,113,124700,1,0,3:0:0:0:
396,123,124772,1,8,0:2:0:0:
427,118,124843,1,0,3:0:0:0:
455,104,124915,1,4,3:2:0:0:
472,88,124986,1,0,3:0:0:0:
479,70,125058,1,10,0:2:0:0:
481,51,125129,1,2,3:2:0:0:
476,34,125200,5,6,3:2:0:0:
456,54,125272,1,0,3:0:0:0:
442,87,125343,1,8,0:2:0:0:
445,127,125415,1,0,3:0:0:0:
467,171,125486,6,0,P|486:131|510:93,1,75.0000028610231,4|0,3:2|3:0,0:0:0:0:
335,11,125629,2,0,P|354:51|378:89,1,75.0000028610231,10|2,0:2|3:2,0:0:0:0:
280,160,125772,5,6,3:2:0:0:
268,175,125843,1,0,3:0:0:0:
260,190,125915,1,8,0:2:0:0:
266,209,125986,1,0,3:0:0:0:
280,234,126058,1,4,3:2:0:0:
291,260,126129,1,0,3:0:0:0:
290,289,126200,1,8,0:2:0:0:
277,311,126272,1,0,3:0:0:0:
261,331,126343,6,0,P|242:288|224:235,1,75.0000028610231,6|0,3:2|3:0,0:0:0:0:
332,241,126486,1,8,0:2:0:0:
341,232,126558,2,0,P|361:190|382:145,1,75.0000028610231,2|4,3:2|3:2,0:0:0:0:
221,154,126700,1,0,3:0:0:0:
212,145,126772,2,0,P|192:103|171:58,1,75.0000028610231,10|0,0:2|3:0,0:0:0:0:
344,7,126915,5,6,3:2:0:0:
351,12,126986,1,0,3:0:0:0:
346,23,127058,1,8,3:2:0:0:
355,33,127129,1,2,3:2:0:0:
348,55,127200,1,4,3:2:0:0:
359,66,127272,1,0,3:0:0:0:
366,88,127343,1,10,3:2:0:0:
361,107,127415,1,0,3:0:0:0:
374,121,127486,5,4,3:2:0:0:
374,150,127558,1,0,3:0:0:0:
361,167,127629,1,8,3:2:0:0:
371,199,127700,1,2,3:2:0:0:
358,229,127772,1,4,3:2:0:0:
373,259,127843,1,0,3:0:0:0:
367,289,127915,1,10,3:2:0:0:
374,330,127986,1,0,3:0:0:0:
364,369,128058,5,6,3:2:0:0:
498,194,128343,1,2,3:2:0:0:
498,194,128415,1,0,3:2:0:0:
498,194,128486,1,0,3:2:0:0:
498,194,128558,1,0,3:2:0:0:
498,194,128629,6,0,L|374:173,1,75.0000028610231,10|8,3:2|0:0,0:0:0:0:
324,201,128772,2,0,L|200:222,1,75.0000028610231,10|8,3:2|0:0,0:0:0:0:
154,202,128915,1,10,3:2:0:0:
110,219,128986,1,10,3:2:0:0:
70,231,129058,1,10,3:2:0:0:
27,201,129129,1,10,3:2:0:0:
0,245,129200,5,6,3:2:0:0:
0,245,129272,1,0,1:0:0:0:
0,245,129343,2,0,L|111:211,1,75.0000028610231,10|0,1:2|1:0,0:0:0:0:
12,90,129486,5,6,3:2:0:0:
12,90,129558,1,0,1:0:0:0:
12,90,129629,2,0,L|123:124,1,75.0000028610231,10|0,1:2|1:0,0:0:0:0:
73,310,129772,5,6,3:2:0:0:
73,310,129843,1,0,1:0:0:0:
73,310,129915,2,0,L|184:276,1,75.0000028610231,10|0,1:2|1:0,0:0:0:0:
163,99,130058,5,6,3:2:0:0:
163,99,130129,1,0,1:0:0:0:
163,99,130200,2,0,L|274:133,1,75.0000028610231,10|0,1:2|1:0,0:0:0:0:
227,317,130343,5,6,3:2:0:0:
227,317,130415,1,0,1:0:0:0:
227,317,130486,2,0,L|338:283,1,75.0000028610231,10|0,1:2|1:0,0:0:0:0:
311,91,130629,5,6,3:2:0:0:
311,91,130700,1,0,1:0:0:0:
311,91,130772,2,0,L|422:125,1,75.0000028610231,10|0,1:2|1:0,0:0:0:0:
382,316,130915,5,6,3:2:0:0:
382,316,130986,1,0,1:0:0:0:
382,316,131058,2,0,L|493:282,1,75.0000028610231,10|0,1:2|1:0,0:0:0:0:
440,92,131200,5,6,3:2:0:0:
440,92,131272,1,0,1:0:0:0:
440,92,131343,2,0,L|551:126,1,75.0000028610231,10|0,1:2|1:0,0:0:0:0:
261,367,131486,5,6,3:2:0:0:
227,359,131558,1,0,1:0:0:0:
265,350,131629,1,10,1:2:0:0:
230,337,131700,1,0,1:0:0:0:
269,331,131772,1,6,3:2:0:0:
232,322,131843,1,0,1:0:0:0:
270,317,131915,1,10,1:2:0:0:
233,304,131986,1,0,1:0:0:0:
273,300,132058,1,6,3:2:0:0:
232,291,132129,1,0,1:0:0:0:
273,289,132200,1,10,1:2:0:0:
231,276,132272,1,0,1:0:0:0:
272,274,132343,1,6,3:2:0:0:
230,261,132415,1,0,1:0:0:0:
273,258,132486,1,10,1:2:0:0:
226,246,132558,1,0,1:0:0:0:
272,240,132629,1,6,3:2:0:0:
225,230,132700,1,0,1:0:0:0:
268,220,132772,1,10,1:2:0:0:
225,211,132843,1,0,1:0:0:0:
268,201,132915,1,6,3:2:0:0:
222,191,132986,1,0,1:0:0:0:
266,184,133058,1,10,1:2:0:0:
219,174,133129,1,0,1:0:0:0:
265,167,133200,6,0,L|226:160,1,37.5000014305115,6|2,3:2|0:0,0:0:0:0:
221,155,133272,6,0,L|259:148,1,37.5000014305115,2|2,3:2|0:0,0:0:0:0:
256,143,133343,6,0,L|217:136,1,37.5000014305115,10|2,3:2|0:0,0:0:0:0:
229,129,133415,6,0,L|267:122,1,37.5000014305115,2|2,3:2|0:0,0:0:0:0:
249,117,133486,6,0,L|210:110,1,37.5000014305115,6|2,3:2|0:0,0:0:0:0:
234,104,133558,6,0,L|272:97,1,37.5000014305115,2|2,3:2|0:0,0:0:0:0:
245,92,133629,6,0,L|206:85,1,37.5000014305115,10|2,3:2|0:0,0:0:0:0:
238,80,133700,6,0,L|276:73,1,37.5000014305115,2|2,3:2|0:0,0:0:0:0:
240,69,133772,5,4,3:2:0:0:
