osu file format v14

[General]
AudioFilename: audio.mp3
AudioLeadIn: 0
PreviewTime: 69772
Countdown: 0
SampleSet: Soft
StackLeniency: 0.2
Mode: 0
LetterboxInBreaks: 0
WidescreenStoryboard: 1

[Editor]
Bookmarks: 1200,5772,14915,17200,26343,35486,44629,51486,60629,69772,78915,88058,92629,101772,110915,120058,129200,133772
DistanceSpacing: 3.2
BeatDivisor: 4
GridSize: 4
TimelineZoom: 2.5

[Metadata]
Title:Myths Orbis
TitleUnicode:Myths Orbis
Artist:Raimukun
ArtistUnicode:Raimukun
Creator:knowledgeking
Version:Serenhaide's Extreme
Source:osu! World Cup 2022
Tags:-_AzRael_- AzRael Imokora RiverKnowFarm nik nikolomara Musty Mustaash Chemo Serenhaide Sh4rq_ Sh3rg_ kiwies morphne ItsWinter SILENCE PLAYER owc grand finals owc2022GFNM2 nomod fa featured artist electronic instrumental piano Cinematic Speedcore Hardcore hard renaissance stream
BeatmapID:3925597
BeatmapSetID:1889095

[Difficulty]
HPDrainRate:5
CircleSize:4
OverallDifficulty:9.3
ApproachRate:9.7
SliderMultiplier:2.2
SliderTickRate:1

[Events]
//Background and Video events
0,0,"bg.jpg",0,0
//Break Periods
//Storyboard Layer 0 (Background)
//Storyboard Layer 1 (Fail)
//Storyboard Layer 2 (Pass)
//Storyboard Layer 3 (Foreground)
//Storyboard Layer 4 (Overlay)
//Storyboard Sound Samples

[TimingPoints]
58,285.714285714286,4,2,1,70,1,0
1058,-133.333333333333,4,2,1,70,0,0
1343,-100,4,2,1,70,0,0
6772,-133.333333333333,4,2,1,70,0,0
9772,-100,4,2,1,70,0,0
10343,-83.3333333333333,4,2,1,70,0,0
15486,-100,4,2,1,70,0,0
17200,-76.9230769230769,4,2,1,70,0,0
18343,-100,4,2,1,70,0,0
19486,-76.9230769230769,4,2,1,70,0,0
22915,-111.111111111111,4,2,1,70,0,0
23486,-100,4,2,1,70,0,0
25343,-76.9230769230769,4,2,1,70,0,0
28486,-133.333333333333,4,2,1,70,0,0
28629,-100,4,2,1,70,0,0
30772,-83.3333333333333,4,2,1,70,0,0
37486,-71.4285714285714,4,2,1,70,0,0
37772,-66.6666666666667,4,2,1,70,0,0
40058,-100,4,2,1,70,0,0
40629,-83.3333333333333,4,2,1,70,0,0
41415,-100,4,2,1,70,0,0
43629,-76.9230769230769,4,2,1,70,0,0
44058,-100,4,2,1,70,0,0
44629,-83.3333333333333,4,2,1,70,0,0
46629,-71.4285714285714,4,2,1,70,0,0
46915,-66.6666666666667,4,2,1,70,0,0
69772,-66.6666666666667,4,2,1,70,0,1
69915,-66.6666666666667,4,2,1,70,0,1
73058,-133.333333333333,4,2,1,70,0,1
73629,-83.3333333333333,4,2,1,70,0,1
78915,-83.3333333333333,4,1,1,50,0,1
81200,-66.6666666666667,4,1,1,50,0,1
82915,-83.3333333333333,4,1,1,50,0,1
84058,-83.3333333333333,4,1,1,55,0,1
84629,-83.3333333333333,4,1,1,60,0,1
85200,-83.3333333333333,4,1,1,65,0,1
85772,-83.3333333333333,4,1,1,70,0,1
88058,-133.333333333333,4,2,1,70,0,0
92629,-125,4,2,1,70,0,0
93700,-125,4,2,1,5,0,0
93772,-125,4,2,1,70,0,0
94915,-71.4285714285714,4,2,1,70,0,0
97200,-83.3333333333333,4,2,1,70,0,0
104058,-71.4285714285714,4,2,1,70,0,0
108629,-66.6666666666667,4,2,1,70,0,0
110772,-83.3333333333333,4,2,1,70,0,0
111486,-100,4,2,1,70,0,0
114986,-83.3333333333333,4,2,1,70,0,0
116058,-100,4,2,1,70,0,0
119058,-83.3333333333333,4,2,1,70,0,0
120058,-71.4285714285714,4,1,1,70,0,0
128058,-71.4285714285714,4,2,1,70,0,0
129200,-66.6666666666667,4,2,1,70,0,1
133772,-66.6666666666667,4,2,1,70,0,0

[Colours]
Combo1 : 0,142,0
Combo2 : 130,255,255
Combo3 : 0,67,149
Combo4 : 184,184,184

[HitObjects]
255,58,915,5,2,0:0:0:0:
255,47,986,1,2,0:0:0:0:
257,37,1058,2,0,P|271:4|302:-25,1,41.2500015735627,2|2,0:0|0:0,0:0:0:0:
212,204,1200,5,6,3:2:0:0:
196,165,1272,1,0,1:0:0:0:
176,129,1343,2,0,P|144:90|124:76,1,55,2|0,3:2|1:0,0:0:0:0:
329,130,1486,5,6,3:2:0:0:
344,91,1558,1,0,1:0:0:0:
364,55,1629,2,0,P|395:16|415:2,1,55,2|0,3:2|1:0,0:0:0:0:
175,340,1772,5,6,3:2:0:0:
162,299,1843,1,0,1:0:0:0:
145,262,1915,2,0,P|117:220|98:204,1,55,2|0,3:2|1:0,0:0:0:0:
394,235,2058,5,6,3:2:0:0:
405,194,2129,1,0,1:0:0:0:
422,157,2200,2,0,P|449:115|468:99,1,55,2|0,3:2|1:0,0:0:0:0:
341,332,2343,5,6,3:2:0:0:
382,335,2415,1,0,1:0:0:0:
421,346,2486,2,0,P|466:366|485:382,1,55,2|0,3:2|1:0,0:0:0:0:
187,190,2629,5,6,3:2:0:0:
228,187,2700,1,0,1:0:0:0:
267,176,2772,2,0,P|312:155|331:139,1,55,2|0,3:2|1:0,0:0:0:0:
68,337,2915,5,6,3:2:0:0:
108,343,2986,1,0,1:0:0:0:
146,357,3058,2,0,P|189:381|206:398,1,55,2|0,3:2|1:0,0:0:0:0:
0,96,3200,5,6,3:2:0:0:
40,89,3272,1,0,1:0:0:0:
78,75,3343,2,0,P|121:50|138:33,1,55,2|0,3:2|1:0,0:0:0:0:
273,273,3486,6,0,P|253:325|249:353,1,55,6|0,3:2|1:0,0:0:0:0:
109,181,3629,2,0,P|129:233|133:261,1,55,2|0,3:2|1:0,0:0:0:0:
245,60,3772,1,6,3:2:0:0:
245,60,3843,1,0,1:0:0:0:
245,60,3915,2,0,P|246:146|250:163,1,55,2|0,3:2|1:0,0:0:0:0:
467,186,4058,6,0,P|456:161|440:139,1,55,6|0,3:2|1:0,0:0:0:0:
254,334,4200,2,0,P|293:275|316:259,1,55,2|0,3:2|1:0,0:0:0:0:
369,173,4343,6,0,P|385:195|397:221,1,55,6|0,3:2|1:0,0:0:0:0:
324,369,4486,2,0,P|335:344|352:322,1,55,2|0,3:2|1:0,0:0:0:0:
285,199,4629,6,0,P|241:194|203:190,1,55,6|0,3:2|1:0,0:0:0:0:
167,143,4772,2,0,P|123:138|85:134,1,55,2|0,3:2|1:0,0:0:0:0:
347,97,4915,6,0,P|303:92|265:88,1,55,6|0,3:2|1:0,0:0:0:0:
276,68,5058,2,0,P|232:63|194:59,1,55,2|0,3:2|1:0,0:0:0:0:
360,17,5200,5,14,3:2:0:0:
384,16,5272,1,2,1:2:0:0:
411,28,5343,1,10,3:2:0:0:
437,61,5415,1,2,1:2:0:0:
440,106,5486,1,14,3:2:0:0:
408,148,5558,1,10,1:2:0:0:
403,204,5629,1,10,3:2:0:0:
439,257,5700,1,10,1:2:0:0:
510,268,5772,1,4,3:2:0:0:
31,380,6058,5,0,1:0:0:0:
62,367,6129,1,0,1:0:0:0:
94,367,6200,1,4,3:2:0:0:
152,61,6486,5,2,0:0:0:0:
152,61,6558,1,2,0:0:0:0:
152,61,6629,1,2,0:0:0:0:
152,61,6700,1,2,0:0:0:0:
152,61,6772,2,0,L|161:124,1,41.2500015735627,0|0,1:0|1:0,0:0:0:0:
99,277,6915,5,4,3:2:0:0:
90,245,6986,1,0,0:0:0:0:
96,213,7058,1,0,0:0:0:0:
117,188,7129,1,0,0:0:0:0:
147,175,7200,1,0,0:0:0:0:
180,178,7272,1,0,0:0:0:0:
208,195,7343,2,0,P|224:223|213:268,1,41.2500015735627,0|0,1:0|1:0,0:0:0:0:
297,352,7486,5,4,3:2:0:0:
288,311,7558,1,0,0:0:0:0:
293,271,7629,2,0,P|317:223|330:210,1,41.2500015735627,0|0,1:0|1:0,0:0:0:0:
337,31,7772,5,4,3:2:0:0:
364,71,7843,1,0,0:0:0:0:
359,119,7915,1,0,1:0:0:0:
325,153,7986,1,0,1:0:0:0:
277,158,8058,1,4,3:2:0:0:
483,321,8343,5,0,1:0:0:0:
470,352,8415,1,0,1:0:0:0:
470,384,8486,1,4,3:2:0:0:
500,85,8772,5,2,0:0:0:0:
500,85,8843,1,2,0:0:0:0:
500,85,8915,1,2,0:0:0:0:
500,85,8986,1,2,0:0:0:0:
500,85,9058,2,0,L|488:148,1,41.2500015735627,0|0,1:0|1:0,0:0:0:0:
412,280,9200,5,4,3:2:0:0:
432,244,9272,1,0,0:0:0:0:
431,203,9343,1,0,0:0:0:0:
410,169,9415,1,0,0:0:0:0:
374,150,9486,1,0,0:0:0:0:
333,153,9558,1,0,0:0:0:0:
299,175,9629,2,0,P|283:209|288:242,1,41.2500015735627,0|0,1:0|1:0,0:0:0:0:
311,384,9772,5,4,3:2:0:0:
328,355,9843,1,0,0:0:0:0:
337,324,9915,2,0,P|334:281|311:246,1,55,0|0,1:0|1:0,0:0:0:0:
234,98,10058,5,4,3:2:0:0:
210,152,10129,1,0,0:0:0:0:
157,180,10200,1,0,1:0:0:0:
98,170,10272,1,0,1:0:0:0:
58,127,10343,2,0,B|59:61|59:61,1,65.9999979858399,4|0,3:2|0:0,0:0:0:0:
319,13,10486,5,0,1:0:0:0:
312,51,10558,1,0,1:0:0:0:
322,89,10629,1,0,3:0:0:0:
345,121,10700,1,0,0:0:0:0:
379,140,10772,1,0,1:0:0:0:
418,145,10843,1,0,1:0:0:0:
456,133,10915,2,0,P|466:86|389:72,1,131.99999597168,4|0,3:2|1:0,0:0:0:0:
426,366,11200,5,0,3:0:0:0:
422,346,11272,1,0,0:0:0:0:
419,326,11343,2,0,L|402:209,1,65.9999979858399,0|0,1:0|1:0,0:0:0:0:
254,143,11486,5,4,3:2:0:0:
229,164,11558,1,0,0:0:0:0:
226,196,11629,1,0,1:0:0:0:
246,221,11700,1,0,1:0:0:0:
278,226,11772,2,0,P|314:266|296:317,1,65.9999979858399,0|0,3:0|0:0,0:0:0:0:
152,161,11915,2,0,P|142:129|148:97,1,65.9999979858399,0|0,1:0|1:0,0:0:0:0:
21,384,12058,5,4,3:2:0:0:
0,326,12129,1,0,0:0:0:0:
19,271,12200,1,0,1:0:0:0:
69,240,12272,1,0,1:0:0:0:
128,248,12343,5,0,3:0:0:0:
156,215,12415,1,0,0:0:0:0:
150,171,12486,2,0,P|129:142|66:142,1,65.9999979858399,0|0,3:0|0:0,0:0:0:0:
241,369,12629,6,0,L|239:304,1,65.9999979858399,4|0,3:2|0:0,0:0:0:0:
234,85,12772,2,0,L|236:150,1,65.9999979858399,0|0,1:0|0:0,0:0:0:0:
385,221,12915,1,4,3:2:0:0:
385,221,12986,1,0,0:0:0:0:
385,221,13058,2,0,L|320:223,1,65.9999979858399,0|0,1:0|0:0,0:0:0:0:
213,9,13200,6,0,L|220:73,1,65.9999979858399,4|0,3:2|0:0,0:0:0:0:
249,297,13343,2,0,L|241:232,1,65.9999979858399,0|0,1:0|0:0,0:0:0:0:
343,55,13486,5,4,3:2:0:0:
331,65,13558,1,0,0:0:0:0:
329,81,13629,2,0,P|348:128|411:132,1,65.9999979858399,0|0,1:0|0:0,0:0:0:0:
477,247,13772,5,4,3:2:0:0:
488,301,13843,1,0,1:0:0:0:
468,352,13915,1,0,1:0:0:0:
418,373,13986,1,0,1:0:0:0:
364,365,14058,1,4,3:2:0:0:
333,320,14129,1,0,1:0:0:0:
300,293,14200,1,0,1:0:0:0:
256,294,14272,1,0,1:0:0:0:
227,326,14343,5,4,3:2:0:0:
233,334,14415,2,0,P|271:323|296:287,1,65.9999979858399,0|0,1:0|1:0,0:0:0:0:
399,239,14558,5,4,3:2:0:0:
393,247,14629,2,0,P|355:236|330:200,1,65.9999979858399,0|0,1:0|1:0,0:0:0:0:
263,78,14772,5,4,3:2:0:0:
267,129,14843,1,0,1:0:0:0:
272,182,14915,1,4,3:2:0:0:
66,4,15200,5,2,0:0:0:0:
79,22,15272,1,2,0:0:0:0:
88,43,15343,1,2,0:0:0:0:
91,66,15415,1,2,0:0:0:0:
88,89,15486,2,0,P|60:123|15:112,3,55,2|2|2|2,0:0|0:0|0:0|0:0,0:0:0:0:
160,1,15772,2,0,P|188:35|233:24,3,55,2|2|2|2,0:0|0:0|0:0|0:0,0:0:0:0:
180,206,16058,6,0,L|170:115,1,55,2|2,0:0|0:0,0:0:0:0:
78,232,16200,1,2,0:0:0:0:
90,236,16272,1,2,0:0:0:0:
99,245,16343,2,0,L|92:299,3,55,2|2|2|2,0:0|0:0|0:0|0:0,0:0:0:0:
0,197,16629,5,8,3:2:0:0:
14,198,16700,1,8,0:0:0:0:
36,204,16772,1,8,3:2:0:0:
60,221,16843,1,8,0:0:0:0:
75,252,16915,1,8,3:2:0:0:
79,304,16986,1,8,3:2:0:0:
119,351,17058,1,8,3:2:0:0:
187,364,17129,1,8,3:2:0:0:
251,324,17200,2,0,P|277:279|275:233,1,71.4999967269899,4|0,3:2|0:0,0:0:0:0:
148,5,17343,5,10,0:0:0:0:
149,78,17415,1,2,0:0:0:0:
179,127,17486,1,2,3:2:0:0:
219,158,17558,1,2,0:0:0:0:
265,169,17629,1,10,0:0:0:0:
302,157,17700,1,2,0:0:0:0:
329,139,17772,5,2,3:2:0:0:
317,106,17843,1,0,0:0:0:0:
333,75,17915,1,10,0:0:0:0:
367,66,17986,1,0,0:0:0:0:
396,85,18058,5,2,3:2:0:0:
386,110,18129,1,0,0:0:0:0:
399,135,18200,1,10,0:0:0:0:
426,142,18272,1,0,0:0:0:0:
450,127,18343,6,0,P|457:103|511:76,3,55,0|0|10|0,3:0|0:0|0:0|0:0,0:0:0:0:
318,0,18629,2,0,P|325:24|379:51,3,55,0|0|10|0,3:0|0:0|0:0|0:0,0:0:0:0:
269,180,18915,6,0,B|266:186|290:163|300:137,1,55,2|2,3:0|0:0,0:0:0:0:
193,180,19058,2,0,B|186:180|218:190|245:186,1,55,10|2,0:0|0:0,0:0:0:0:
474,204,19200,5,2,3:2:0:0:
426,204,19272,1,2,0:0:0:0:
397,239,19343,1,10,3:2:0:0:
402,283,19415,1,2,0:0:0:0:
436,311,19486,2,0,P|439:369|358:360,1,142.99999345398,2|8,3:2|0:0,0:0:0:0:
267,329,19700,1,0,0:0:0:0:
283,352,19772,5,0,3:0:0:0:
247,355,19843,1,0,0:0:0:0:
211,358,19915,1,8,0:0:0:0:
176,361,19986,1,0,0:0:0:0:
140,364,20058,1,2,3:2:0:0:
155,331,20129,1,0,0:0:0:0:
170,299,20200,1,10,0:0:0:0:
185,266,20272,1,0,0:0:0:0:
200,234,20343,2,0,P|207:184|172:139,1,71.4999967269899,2|0,3:2|0:0,0:0:0:0:
56,82,20486,5,10,0:0:0:0:
36,119,20558,1,0,0:0:0:0:
44,160,20629,1,2,3:2:0:0:
76,188,20700,1,0,0:0:0:0:
118,190,20772,2,0,L|218:158,1,71.4999967269899,8|2,0:0|0:0,0:0:0:0:
353,125,20915,5,2,3:2:0:0:
408,127,20986,1,2,0:0:0:0:
438,172,21058,2,0,P|423:225|356:226,1,71.4999967269899,10|2,0:0|0:0,0:0:0:0:
281,346,21200,5,6,3:2:0:0:
318,314,21272,1,2,0:0:0:0:
334,267,21343,1,10,3:2:0:0:
323,219,21415,1,2,0:0:0:0:
289,184,21486,1,2,3:2:0:0:
261,152,21558,1,0,0:0:0:0:
257,113,21629,2,0,P|260:88|330:38,1,71.4999967269899,8|0,3:2|0:0,0:0:0:0:
512,40,21772,6,0,L|354:26,1,142.99999345398,6|8,3:2|0:0,0:0:0:0:
82,0,22058,5,2,3:2:0:0:
131,2,22129,1,2,0:0:0:0:
164,38,22200,1,10,0:0:0:0:
163,86,22272,1,2,0:0:0:0:
127,120,22343,5,2,3:2:0:0:
93,115,22415,1,0,0:0:0:0:
69,140,22486,1,10,0:0:0:0:
74,174,22558,1,0,0:0:0:0:
103,191,22629,5,2,3:2:0:0:
123,183,22700,1,0,0:0:0:0:
143,189,22772,1,10,0:0:0:0:
157,205,22843,1,0,0:0:0:0:
158,226,22915,6,0,P|132:246|119:269,3,49.4999984893799,0|0|8|0,3:0|0:0|0:0|0:0,0:0:0:0:
100,357,23200,2,0,P|85:337|65:324,3,49.4999984893799,2|0|8|0,3:2|0:0|0:0|0:0,0:0:0:0:
215,317,23486,6,0,L|295:309,3,55,2|0|8|0,3:2|0:0|0:0|0:0,0:0:0:0:
362,187,23772,2,0,L|282:179,3,55,2|0|8|0,3:2|0:0|3:2|0:0,0:0:0:0:
447,285,24058,5,6,3:2:0:0:
479,288,24129,1,0,0:0:0:0:
512,291,24200,1,8,0:0:0:0:
494,319,24272,1,2,0:0:0:0:
475,346,24343,1,0,3:0:0:0:
460,317,24415,1,0,0:0:0:0:
447,285,24486,2,0,L|423:221,1,55,10|0,0:0|0:0,0:0:0:0:
215,201,24629,5,4,3:2:0:0:
164,205,24700,1,2,0:0:0:0:
112,210,24772,1,8,0:0:0:0:
140,254,24843,1,0,0:0:0:0:
170,297,24915,1,2,3:2:0:0:
194,251,24986,1,0,0:0:0:0:
215,201,25058,2,0,L|252:99,1,55,8|2,0:0|0:0,0:0:0:0:
462,42,25200,5,6,3:2:0:0:
488,88,25272,1,0,0:0:0:0:
474,136,25343,2,0,P|433:160|390:149,1,71.4999967269899,8|0,0:0|0:0,0:0:0:0:
259,75,25486,5,6,3:2:0:0:
244,24,25558,1,0,0:0:0:0:
201,0,25629,2,0,P|155:12|132:50,1,71.4999967269899,8|0,0:0|0:0,0:0:0:0:
328,131,25772,5,6,3:2:0:0:
330,120,25843,2,0,P|358:95|403:83,1,71.4999967269899,0|0,0:0|3:0,0:0:0:0:
149,160,25986,5,4,0:0:0:0:
151,171,26058,2,0,P|179:196|224:208,1,71.4999967269899,0|0,3:0|0:0,0:0:0:0:
337,338,26200,6,0,L|328:264,1,71.4999967269899,6|2,3:2|0:0,0:0:0:0:
331,252,26343,1,2,3:2:0:0:
0,384,26629,5,4,3:2:0:0:
20,381,26700,1,0,0:0:0:0:
41,371,26772,1,0,0:0:0:0:
59,354,26843,1,0,0:0:0:0:
69,334,26915,1,0,3:0:0:0:
72,307,26986,1,0,0:0:0:0:
64,278,27058,1,8,0:0:0:0:
41,255,27129,1,0,0:0:0:0:
32,218,27200,1,0,3:0:0:0:
43,180,27272,1,0,0:0:0:0:
83,162,27343,1,8,0:0:0:0:
128,175,27415,1,0,0:0:0:0:
150,225,27486,5,2,3:2:0:0:
215,243,27558,1,2,0:0:0:0:
266,220,27629,1,10,0:0:0:0:
284,176,27700,1,2,0:0:0:0:
277,129,27772,1,2,3:2:0:0:
249,98,27843,1,2,0:0:0:0:
246,60,27915,1,10,0:0:0:0:
272,33,27986,1,2,0:0:0:0:
298,31,28058,1,2,3:2:0:0:
315,43,28129,1,0,0:0:0:0:
323,61,28200,1,10,0:0:0:0:
336,70,28272,1,0,0:0:0:0:
349,75,28343,1,2,3:2:0:0:
364,74,28415,1,0,0:0:0:0:
376,69,28486,2,0,P|394:45|397:21,1,41.2500015735627,10|0,3:2|0:0,0:0:0:0:
153,0,28629,6,0,P|161:80|178:136,1,110,2|8,3:2|0:0,0:0:0:0:
230,154,28843,1,2,0:0:0:0:
274,119,28915,5,2,3:2:0:0:
327,111,28986,1,2,0:0:0:0:
374,137,29058,1,10,0:0:0:0:
396,186,29129,1,2,0:0:0:0:
384,239,29200,5,2,3:2:0:0:
346,242,29272,1,0,0:0:0:0:
315,265,29343,1,8,0:0:0:0:
307,297,29415,1,0,0:0:0:0:
315,327,29486,5,0,3:0:0:0:
336,338,29558,1,0,0:0:0:0:
362,331,29629,1,8,0:0:0:0:
379,309,29700,1,0,0:0:0:0:
384,276,29772,1,0,3:0:0:0:
369,244,29843,1,0,0:0:0:0:
337,225,29915,1,8,0:0:0:0:
301,230,29986,1,0,0:0:0:0:
271,259,30058,1,2,3:2:0:0:
233,267,30129,1,0,0:0:0:0:
193,251,30200,2,0,P|165:227|160:184,1,55,8|0,0:0|0:0,0:0:0:0:
321,15,30343,5,6,3:2:0:0:
333,48,30415,1,0,0:0:0:0:
332,85,30486,1,8,3:2:0:0:
316,121,30558,1,2,0:0:0:0:
279,151,30629,1,2,3:2:0:0:
230,154,30700,1,2,0:0:0:0:
180,129,30772,2,0,P|144:99|84:104,1,65.9999979858399,10|2,3:2|0:0,0:0:0:0:
63,319,30915,5,6,3:2:0:0:
83,294,30986,1,0,0:0:0:0:
92,261,31058,1,8,3:2:0:0:
87,223,31129,1,0,0:0:0:0:
60,188,31200,1,0,3:0:0:0:
21,166,31272,1,0,0:0:0:0:
7,123,31343,2,0,P|0:95|39:38,1,65.9999979858399,8|0,3:2|0:0,0:0:0:0:
196,11,31486,5,4,3:2:0:0:
227,33,31558,1,0,0:0:0:0:
249,76,31629,1,8,3:2:0:0:
242,127,31700,1,0,0:0:0:0:
208,170,31772,1,0,3:0:0:0:
192,227,31843,1,0,0:0:0:0:
221,289,31915,2,0,P|257:331|323:317,1,65.9999979858399,8|0,3:2|0:0,0:0:0:0:
433,280,32058,5,6,3:2:0:0:
394,259,32129,1,0,0:0:0:0:
351,266,32200,2,0,P|318:284|300:316,1,65.9999979858399,8|0,3:2|0:0,0:0:0:0:
79,280,32343,5,2,3:2:0:0:
118,259,32415,1,0,0:0:0:0:
161,266,32486,2,0,P|194:284|212:316,1,65.9999979858399,8|0,3:2|1:0,0:0:0:0:
415,74,32629,5,6,3:2:0:0:
360,84,32700,1,0,0:0:0:0:
325,125,32772,2,0,P|308:168|317:213,1,65.9999979858399,8|0,3:2|0:0,0:0:0:0:
97,74,32915,5,2,3:2:0:0:
152,84,32986,1,0,1:0:0:0:
187,125,33058,2,0,P|204:168|195:213,1,65.9999979858399,8|0,3:2|1:0,0:0:0:0:
308,380,33200,5,6,3:2:0:0:
260,376,33272,1,0,1:0:0:0:
231,341,33343,1,10,1:2:0:0:
232,295,33415,1,0,1:0:0:0:
268,269,33486,1,6,3:2:0:0:
292,230,33558,1,0,1:0:0:0:
280,185,33629,1,10,1:2:0:0:
243,160,33700,1,0,1:0:0:0:
200,173,33772,5,6,3:2:0:0:
216,234,33843,1,0,1:0:0:0:
277,261,33915,1,10,1:2:0:0:
335,242,33986,1,0,1:0:0:0:
358,185,34058,1,6,3:2:0:0:
402,139,34129,1,0,1:0:0:0:
465,138,34200,1,10,1:2:0:0:
512,181,34272,1,0,1:0:0:0:
507,242,34343,1,6,3:2:0:0:
13,133,34915,5,4,3:2:0:0:
28,138,34986,1,0,0:0:0:0:
52,139,35058,1,0,0:0:0:0:
74,133,35129,1,0,0:0:0:0:
95,115,35200,1,10,0:0:0:0:
129,96,35272,1,10,0:0:0:0:
184,99,35343,1,10,0:0:0:0:
231,143,35415,1,10,0:0:0:0:
223,211,35486,6,0,P|170:214|103:173,1,131.99999597168,6|8,3:2|0:0,0:0:0:0:
101,168,35700,2,0,P|130:212|114:258,1,65.9999979858399,2|0,0:0|3:0,0:0:0:0:
203,361,35843,1,0,0:0:0:0:
192,353,35915,2,0,P|215:305|263:295,1,65.9999979858399,10|0,0:0|0:0,0:0:0:0:
366,166,36058,6,0,P|394:224|375:285,1,131.99999597168,2|8,3:2|0:0,0:0:0:0:
362,287,36272,2,0,P|328:253|324:215,1,65.9999979858399,2|0,0:0|3:0,0:0:0:0:
512,125,36415,1,0,0:0:0:0:
505,120,36486,2,0,P|479:140|466:170,1,65.9999979858399,10|0,0:0|0:0,0:0:0:0:
472,384,36629,6,0,P|471:319|496:253,1,131.99999597168,2|8,3:2|0:0,0:0:0:0:
380,148,36843,2,0,P|393:188|392:212,1,65.9999979858399,2|0,0:0|3:0,0:0:0:0:
258,384,36986,1,0,0:0:0:0:
270,377,37058,2,0,P|282:338|282:312,1,65.9999979858399,10|0,0:0|0:0,0:0:0:0:
158,241,37200,6,0,P|185:303|182:305,1,65.9999979858399,2|0,3:2|0:0,0:0:0:0:
325,213,37343,2,0,P|257:205|257:201,1,65.9999979858399,10|0,0:0|0:0,0:0:0:0:
184,94,37486,6,0,P|203:190|194:210,1,76.9999976501466,2|0,3:2|0:0,0:0:0:0:
107,384,37629,2,0,P|111:346|130:312,1,76.9999976501466,10|0,3:2|0:0,0:0:0:0:
1,101,37772,5,6,3:2:0:0:
1,141,37843,1,0,0:0:0:0:
26,172,37915,1,8,0:0:0:0:
66,181,37986,1,2,3:2:0:0:
102,163,38058,1,0,0:0:0:0:
135,141,38129,1,0,0:0:0:0:
171,157,38200,2,0,L|202:239,1,82.5000031471254,10|0,3:2|0:0,0:0:0:0:
511,187,38343,5,6,3:2:0:0:
510,227,38415,1,0,0:0:0:0:
485,258,38486,1,8,0:0:0:0:
445,267,38558,1,2,3:2:0:0:
409,249,38629,1,0,0:0:0:0:
376,227,38700,1,0,0:0:0:0:
340,243,38772,2,0,L|309:324,1,82.5000031471254,10|0,3:2|0:0,0:0:0:0:
390,96,38915,5,6,3:2:0:0:
378,97,38986,2,0,P|344:130|341:170,1,82.5000031471254
124,13,39129,5,6,3:2:0:0:
136,14,39200,2,0,P|170:47|173:87,1,82.5000031471254
231,305,39343,6,0,L|231:161,1,82.5000031471254,6|0,3:2|0:0,0:0:0:0:
2,173,39486,5,0,3:0:0:0:
5,230,39558,1,2,3:2:0:0:
54,262,39629,1,2,3:2:0:0:
110,250,39700,1,2,3:2:0:0:
135,199,39772,1,2,3:2:0:0:
194,194,39843,1,2,3:2:0:0:
238,236,39915,1,2,3:2:0:0:
234,293,39986,1,2,3:2:0:0:
285,323,40058,6,0,P|342:348|394:310,1,110,2|8,3:2|0:0,0:0:0:0:
381,321,40272,1,2,0:0:0:0:
381,314,40343,1,4,3:2:0:0:
177,384,40486,1,0,0:0:0:0:
210,176,40629,6,0,P|257:134|315:157,1,131.99999597168,2|8,3:2|0:0,0:0:0:0:
354,226,40843,1,2,0:0:0:0:
340,226,40915,2,0,P|315:204|304:173,1,65.9999979858399,0|0,3:0|0:0,0:0:0:0:
383,57,41058,2,0,P|352:96|253:53,1,131.99999597168,10|0,0:0|3:0,0:0:0:0:
512,131,41343,5,8,0:0:0:0:
501,134,41415,2,0,P|486:170|509:201,1,55,2|0,0:0|3:0,0:0:0:0:
432,239,41558,5,0,0:0:0:0:
443,242,41629,2,0,P|457:278|434:309,1,55,10|0,0:0|0:0,0:0:0:0:
315,157,41772,6,0,L|413:174,1,55,2|0,3:2|0:0,0:0:0:0:
301,302,41915,2,0,L|203:319,1,55,10|0,0:0|0:0,0:0:0:0:
175,185,42058,6,0,L|273:202,1,55,2|0,3:2|0:0,0:0:0:0:
117,259,42200,2,0,L|19:276,1,55,10|0,3:2|0:0,0:0:0:0:
0,126,42343,5,6,3:2:0:0:
5,114,42415,1,0,0:0:0:0:
16,99,42486,1,8,0:0:0:0:
32,82,42558,1,0,0:0:0:0:
53,71,42629,1,2,3:2:0:0:
84,62,42700,1,0,0:0:0:0:
114,65,42772,2,0,P|136:79|154:134,1,55,8|0,0:0|0:0,0:0:0:0:
215,363,42915,5,6,3:2:0:0:
244,371,42986,1,0,0:0:0:0:
278,360,43058,1,8,0:0:0:0:
301,330,43129,1,0,0:0:0:0:
302,291,43200,1,2,3:2:0:0:
275,256,43272,1,0,0:0:0:0:
270,209,43343,2,0,P|271:195|329:168,1,55,8|0,0:0|0:0,0:0:0:0:
495,221,43486,5,6,3:2:0:0:
456,253,43558,1,0,0:0:0:0:
408,249,43629,2,0,P|365:236|366:164,1,71.4999967269899,0|0,0:0|3:0,0:0:0:0:
188,6,43772,5,6,0:0:0:0:
167,51,43843,1,0,0:0:0:0:
183,97,43915,2,0,P|206:135|275:115,1,71.4999967269899,0|0,3:0|0:0,0:0:0:0:
446,86,44058,5,6,0:0:0:0:
435,122,44129,1,0,3:0:0:0:
403,141,44200,2,0,P|370:151|339:106,1,55
324,0,44343,5,6,3:2:0:0:
291,17,44415,1,0,0:0:0:0:
281,53,44486,2,0,P|279:87|330:105,1,55,0|0,3:0|0:0,0:0:0:0:
209,311,44629,6,0,P|265:262|218:202,1,131.99999597168,6|8,3:2|0:0,0:0:0:0:
136,172,44843,1,2,0:0:0:0:
133,210,44915,1,0,1:0:0:0:
103,234,44986,1,0,1:0:0:0:
65,229,45058,2,0,P|37:205|76:152,1,65.9999979858399,14|0,3:2|0:0,0:0:0:0:
88,24,45200,5,2,0:0:0:0:
100,37,45272,2,0,P|102:83|69:122,1,65.9999979858399,0|8,0:0|1:2,0:0:0:0:
239,122,45415,5,2,1:2:0:0:
227,135,45486,2,0,P|225:181|258:220,1,65.9999979858399,4|0,3:2|0:0,0:0:0:0:
192,366,45629,6,0,L|198:300,1,65.9999979858399,10|0,0:0|0:0,0:0:0:0:
329,210,45772,2,0,L|335:275,1,65.9999979858399,2|0,1:2|1:0,0:0:0:0:
448,370,45915,1,12,3:2:0:0:
461,377,45986,1,2,0:0:0:0:
494,357,46058,1,4,3:2:0:0:
509,321,46129,1,0,0:0:0:0:
499,284,46200,2,0,P|490:270|416:274,1,65.9999979858399,10|0,0:0|0:0,0:0:0:0:
329,74,46343,6,0,P|388:152|400:150,1,65.9999979858399,6|0,3:2|0:0,0:0:0:0:
511,127,46486,2,0,P|452:205|440:203,1,65.9999979858399,10|4,0:0|3:2,0:0:0:0:
176,18,46629,6,0,P|258:71|268:65,1,76.9999976501466,2|0,0:0|0:0,0:0:0:0:
428,15,46772,2,0,P|399:108|387:110,1,76.9999976501466,14|0,3:2|0:0,0:0:0:0:
302,284,46915,6,0,P|298:195|223:163,1,165.000006294251,6|8,3:2|0:0,0:0:0:0:
106,256,47129,1,2,3:2:0:0:
113,261,47200,2,0,P|165:269|200:228,1,82.5000031471254
172,53,47343,2,0,L|166:172,1,82.5000031471254,14|0,3:2|0:0,0:0:0:0:
107,343,47486,5,2,0:0:0:0:
62,361,47558,1,0,3:0:0:0:
17,342,47629,1,8,0:0:0:0:
0,298,47700,1,2,0:0:0:0:
18,257,47772,2,0,P|68:241|105:312,1,82.5000031471254,4|0,3:2|0:0,0:0:0:0:
263,347,47915,5,10,3:2:0:0:
333,337,47986,1,0,0:0:0:0:
375,280,48058,1,2,1:2:0:0:
370,210,48129,1,2,1:2:0:0:
315,165,48200,1,14,3:2:0:0:
257,157,48272,1,2,0:0:0:0:
216,123,48343,1,6,3:2:0:0:
213,69,48415,1,2,0:0:0:0:
234,26,48486,1,10,1:2:0:0:
273,9,48558,1,2,1:2:0:0:
310,18,48629,5,6,3:2:0:0:
319,58,48700,1,0,0:0:0:0:
305,96,48772,1,10,0:0:0:0:
270,117,48843,1,4,3:2:0:0:
227,116,48915,1,2,0:0:0:0:
192,132,48986,1,0,0:0:0:0:
167,165,49058,1,14,3:2:0:0:
159,207,49129,1,0,0:0:0:0:
173,247,49200,6,0,P|225:284|318:219,1,165.000006294251,6|8,3:2|1:2,0:0:0:0:
394,109,49415,1,2,0:0:0:0:
389,124,49486,2,0,P|385:228|403:276,1,82.5000031471254,4|0,3:2|0:0,0:0:0:0:
505,341,49629,2,0,P|506:300|498:260,1,82.5000031471254,8|0,1:2|0:0,0:0:0:0:
313,384,49772,5,6,3:2:0:0:
321,368,49843,2,0,L|420:339,1,82.5000031471254,0|8,0:0|1:2,0:0:0:0:
173,131,49986,5,2,0:0:0:0:
181,147,50058,2,0,L|280:176,1,82.5000031471254,4|0,3:2|0:0,0:0:0:0:
166,361,50200,2,0,L|86:384,1,82.5000031471254,10|0,1:2|0:0,0:0:0:0:
4,242,50343,5,6,3:2:0:0:
40,193,50415,1,0,0:0:0:0:
97,184,50486,1,8,1:2:0:0:
146,215,50558,1,2,1:2:0:0:
165,273,50629,1,4,3:2:0:0:
216,305,50700,1,0,1:0:0:0:
275,292,50772,2,0,P|296:272|313:194,1,82.5000031471254,10|0,1:2|1:0,0:0:0:0:
209,39,50915,5,6,3:2:0:0:
157,40,50986,1,0,0:0:0:0:
139,88,51058,2,0,P|166:135|222:118,1,82.5000031471254,10|0,3:2|0:0,0:0:0:0:
376,126,51200,5,6,3:2:0:0:
428,127,51272,1,0,0:0:0:0:
446,175,51343,2,0,P|419:222|363:205,1,82.5000031471254,10|0,3:2|0:0,0:0:0:0:
314,18,51486,5,4,3:2:0:0:
419,378,51915,5,2,0:0:0:0:
419,378,51986,1,2,0:0:0:0:
419,378,52058,1,2,0:0:0:0:
510,383,52486,1,2,0:0:0:0:
510,383,52558,1,2,0:0:0:0:
510,383,52629,1,0,0:0:0:0:
11,336,53200,5,2,0:0:0:0:
87,322,53415,1,2,0:0:0:0:
163,307,53629,1,2,0:0:0:0:
11,336,53772,1,0,3:0:0:0:
415,135,54200,5,2,0:0:0:0:
415,135,54272,1,2,0:0:0:0:
415,135,54343,1,2,0:0:0:0:
412,225,54772,1,2,0:0:0:0:
412,225,54843,1,2,0:0:0:0:
412,225,54915,1,2,0:0:0:0:
493,183,55343,5,2,0:0:0:0:
493,183,55415,1,2,0:0:0:0:
493,183,55486,1,2,0:0:0:0:
496,92,55700,1,2,0:0:0:0:
500,1,55915,1,2,0:0:0:0:
493,183,56058,1,0,3:0:0:0:
25,78,56486,5,2,0:0:0:0:
25,78,56558,1,2,0:0:0:0:
25,78,56629,1,2,0:0:0:0:
122,87,57058,1,2,0:0:0:0:
122,87,57129,1,2,0:0:0:0:
122,87,57200,1,2,0:0:0:0:
332,177,57772,5,2,0:0:0:0:
256,191,57986,1,2,0:0:0:0:
180,206,58200,1,2,0:0:0:0:
332,177,58343,1,0,3:0:0:0:
314,381,58772,5,2,0:0:0:0:
314,381,58843,1,2,0:0:0:0:
314,381,58915,1,2,0:0:0:0:
198,321,59343,1,2,0:0:0:0:
198,321,59415,1,2,0:0:0:0:
198,321,59486,1,2,0:0:0:0:
254,9,60058,5,10,3:2:0:0:
269,24,60129,1,0,0:0:0:0:
284,50,60200,1,8,3:2:0:0:
289,85,60272,1,10,0:0:0:0:
274,128,60343,1,8,3:2:0:0:
227,150,60415,1,8,0:0:0:0:
186,202,60486,2,0,P|182:246|246:306,1,82.5000031471254,10|8,3:2|0:0,0:0:0:0:
297,384,60629,5,4,3:2:0:0:
353,369,60700,1,0,0:0:0:0:
389,326,60772,1,8,0:0:0:0:
393,269,60843,1,0,0:0:0:0:
363,221,60915,2,0,P|319:197|256:235,1,82.5000031471254,4|0,3:2|0:0,0:0:0:0:
89,226,61058,5,10,0:0:0:0:
38,219,61129,1,2,0:0:0:0:
23,173,61200,5,6,3:2:0:0:
39,135,61272,1,0,0:0:0:0:
73,113,61343,1,8,0:0:0:0:
114,113,61415,1,0,0:0:0:0:
147,136,61486,2,0,P|206:167|261:141,1,82.5000031471254,4|0,3:2|0:0,0:0:0:0:
424,37,61629,5,10,0:0:0:0:
372,12,61700,1,2,0:0:0:0:
322,41,61772,5,6,3:2:0:0:
310,79,61843,1,0,0:0:0:0:
322,118,61915,1,8,0:0:0:0:
354,143,61986,1,0,0:0:0:0:
394,146,62058,1,4,3:2:0:0:
433,159,62129,1,0,0:0:0:0:
454,193,62200,2,0,P|440:257|381:269,1,82.5000031471254,8|0,0:0|0:0,0:0:0:0:
187,177,62343,5,6,3:2:0:0:
199,187,62415,2,0,P|223:246|207:305,1,82.5000031471254,0|8,0:0|0:0,0:0:0:0:
348,298,62558,5,2,0:0:0:0:
336,308,62629,2,0,P|312:367|328:426,1,82.5000031471254,4|0,3:2|0:0,0:0:0:0:
247,111,62772,2,0,P|276:140|290:179,1,82.5000031471254,10|0,3:2|0:0,0:0:0:0:
100,371,62915,5,4,3:2:0:0:
132,324,62986,1,0,0:0:0:0:
129,267,63058,1,8,0:0:0:0:
92,224,63129,1,0,0:0:0:0:
37,213,63200,2,0,P|0:173|21:109,1,82.5000031471254,4|0,3:2|0:0,0:0:0:0:
213,97,63343,5,10,0:0:0:0:
169,136,63415,1,2,0:0:0:0:
110,117,63486,5,6,3:2:0:0:
89,82,63558,1,0,0:0:0:0:
93,41,63629,1,8,0:0:0:0:
120,11,63700,1,0,0:0:0:0:
160,3,63772,2,0,P|224:13|252:41,1,82.5000031471254,4|0,3:2|0:0,0:0:0:0:
389,173,63915,5,10,0:0:0:0:
433,212,63986,1,2,0:0:0:0:
492,193,64058,5,6,3:2:0:0:
512,158,64129,1,0,0:0:0:0:
508,117,64200,1,8,0:0:0:0:
481,87,64272,1,0,0:0:0:0:
441,79,64343,2,0,P|377:88|349:116,1,82.5000031471254,4|0,3:2|0:0,0:0:0:0:
354,376,64486,5,10,0:0:0:0:
299,338,64558,1,2,0:0:0:0:
303,278,64629,1,6,3:2:0:0:
355,241,64700,2,0,P|406:258|425:323,1,82.5000031471254,0|8,0:0|0:0,0:0:0:0:
178,161,64843,1,6,3:2:0:0:
167,154,64915,2,0,P|116:170|97:235,1,82.5000031471254
280,42,65058,2,0,P|330:58|349:123,1,82.5000031471254,14|0,3:2|0:0,0:0:0:0:
196,342,65200,5,4,3:2:0:0:
201,284,65272,1,0,0:0:0:0:
222,230,65343,1,8,1:2:0:0:
256,184,65415,1,0,0:0:0:0:
300,148,65486,2,0,P|345:127|399:119,1,82.5000031471254,4|0,3:2|0:0,0:0:0:0:
134,27,65629,5,10,1:2:0:0:
84,0,65700,1,2,0:0:0:0:
31,22,65772,5,6,3:2:0:0:
11,66,65843,1,0,0:0:0:0:
22,114,65915,1,8,1:2:0:0:
59,145,65986,1,0,0:0:0:0:
108,148,66058,2,0,P|181:139|212:164,1,82.5000031471254,4|0,3:2|0:0,0:0:0:0:
243,337,66200,5,10,1:2:0:0:
193,364,66272,1,2,0:0:0:0:
140,342,66343,5,6,3:2:0:0:
120,298,66415,1,0,0:0:0:0:
131,250,66486,1,8,1:2:0:0:
168,219,66558,1,0,0:0:0:0:
217,216,66629,1,4,3:2:0:0:
255,230,66700,1,0,0:0:0:0:
294,222,66772,2,0,P|325:195|317:119,1,82.5000031471254,8|0,1:2|0:0,0:0:0:0:
296,0,66915,5,6,3:2:0:0:
279,4,66986,2,0,P|238:63|251:118,1,82.5000031471254,0|8,0:0|1:2,0:0:0:0:
59,125,67129,1,2,0:0:0:0:
76,129,67200,2,0,P|116:188|103:243,1,82.5000031471254,4|0,3:2|1:0,0:0:0:0:
209,335,67343,2,0,L|206:215,1,82.5000031471254,10|0,1:2|1:0,0:0:0:0:
312,114,67486,5,6,3:2:0:0:
364,112,67558,1,0,1:0:0:0:
410,139,67629,1,8,1:2:0:0:
422,190,67700,1,2,1:2:0:0:
405,238,67772,1,4,3:2:0:0:
357,262,67843,1,0,1:0:0:0:
347,313,67915,1,10,1:2:0:0:
368,362,67986,1,0,1:0:0:0:
414,375,68058,5,6,3:2:0:0:
431,315,68129,1,0,1:0:0:0:
406,259,68200,1,8,1:2:0:0:
347,242,68272,1,2,1:2:0:0:
288,264,68343,1,4,3:2:0:0:
258,320,68415,1,0,1:0:0:0:
195,331,68486,1,10,1:2:0:0:
146,290,68558,1,0,1:0:0:0:
141,229,68629,1,6,3:2:0:0:
502,13,69200,5,10,3:2:0:0:
478,12,69272,1,8,0:0:0:0:
450,27,69343,1,10,3:2:0:0:
437,66,69415,1,8,0:0:0:0:
454,114,69486,1,10,3:2:0:0:
500,147,69558,1,10,0:0:0:0:
512,201,69629,1,10,3:2:0:0:
473,255,69700,1,10,3:2:0:0:
400,256,69772,2,0,P|374:232|385:153,1,82.5000031471254,6|0,3:2|0:0,0:0:0:0:
274,11,69915,5,8,3:2:0:0:
264,8,69986,1,0,0:0:0:0:
249,10,70058,1,0,3:0:0:0:
233,22,70129,1,0,0:0:0:0:
220,45,70200,1,8,3:2:0:0:
221,77,70272,1,0,0:0:0:0:
245,113,70343,1,2,3:2:0:0:
288,130,70415,1,0,0:0:0:0:
309,176,70486,1,10,3:2:0:0:
292,226,70558,1,0,0:0:0:0:
246,248,70629,1,2,3:2:0:0:
192,234,70700,1,2,0:0:0:0:
133,263,70772,2,0,P|116:318|169:375,1,82.5000031471254,10|2,3:2|0:0,0:0:0:0:
414,321,70915,5,2,3:2:0:0:
398,269,70986,1,0,0:0:0:0:
358,237,71058,1,8,3:2:0:0:
307,232,71129,1,0,0:0:0:0:
262,253,71200,1,0,3:0:0:0:
210,248,71272,1,0,0:0:0:0:
175,210,71343,2,0,P|167:172|256:112,1,82.5000031471254,10|2,3:2|0:0,0:0:0:0:
440,25,71486,5,2,3:2:0:0:
460,69,71558,1,0,0:0:0:0:
450,116,71629,1,8,3:2:0:0:
413,149,71700,1,0,0:0:0:0:
365,153,71772,1,2,3:2:0:0:
323,128,71843,1,2,0:0:0:0:
305,83,71915,2,0,P|290:45|214:34,1,82.5000031471254,10|0,3:2|0:0,0:0:0:0:
14,147,72058,5,2,3:2:0:0:
55,120,72129,1,0,0:0:0:0:
105,114,72200,1,8,3:2:0:0:
154,132,72272,1,0,0:0:0:0:
188,168,72343,2,0,P|212:247|204:266,1,82.5000031471254,0|0,3:0|0:0,0:0:0:0:
43,372,72486,2,0,P|38:316|68:229,1,82.5000031471254,10|0,3:2|0:0,0:0:0:0:
299,267,72629,5,0,3:0:0:0:
273,299,72700,1,0,0:0:0:0:
242,325,72772,2,0,P|184:361|159:370,1,82.5000031471254,8|0,3:2|0:0,0:0:0:0:
78,198,72915,5,2,3:2:0:0:
90,214,72986,1,0,0:0:0:0:
106,227,73058,2,0,P|135:249|166:269,1,41.2500015735627,8|0,3:2|0:0,0:0:0:0:
242,84,73200,5,2,3:2:0:0:
300,47,73272,1,0,0:0:0:0:
361,55,73343,1,8,3:2:0:0:
397,95,73415,1,0,0:0:0:0:
410,139,73486,1,0,3:0:0:0:
396,179,73558,1,0,0:0:0:0:
362,203,73629,2,0,P|342:234|352:298,1,65.9999979858399,8|0,3:2|0:0,0:0:0:0:
506,382,73772,5,2,3:2:0:0:
490,331,73843,1,0,0:0:0:0:
455,293,73915,1,8,3:2:0:0:
410,275,73986,1,0,0:0:0:0:
370,277,74058,1,0,3:0:0:0:
343,292,74129,1,0,0:0:0:0:
330,311,74200,2,0,P|296:345|248:341,1,65.9999979858399,8|0,3:2|0:0,0:0:0:0:
63,251,74343,5,2,3:2:0:0:
91,223,74415,1,0,0:0:0:0:
128,210,74486,1,8,3:2:0:0:
167,215,74558,1,0,0:0:0:0:
201,235,74629,2,0,P|247:267|277:261,1,65.9999979858399,0|0,3:0|0:0,0:0:0:0:
294,84,74772,2,0,P|277:140|222:162,1,65.9999979858399,10|0,3:2|0:0,0:0:0:0:
79,139,74915,5,0,3:0:0:0:
51,95,74986,1,0,0:0:0:0:
60,44,75058,1,8,3:2:0:0:
101,12,75129,1,0,0:0:0:0:
152,15,75200,2,0,P|200:85|192:126,1,65.9999979858399,2|0,3:2|0:0,0:0:0:0:
384,150,75343,2,0,P|432:80|424:39,1,65.9999979858399,10|0,3:2|0:0,0:0:0:0:
298,0,75486,5,2,3:2:0:0:
296,45,75558,1,0,0:0:0:0:
289,89,75629,1,8,3:2:0:0:
276,132,75700,1,0,0:0:0:0:
257,173,75772,1,0,3:0:0:0:
235,211,75843,1,0,0:0:0:0:
206,247,75915,2,0,P|158:286|105:300,1,65.9999979858399,10|0,3:2|0:0,0:0:0:0:
0,135,76058,2,0,P|29:149|52:172,1,65.9999979858399,0|0,3:0|0:0,0:0:0:0:
45,384,76200,5,8,3:2:0:0:
58,333,76272,1,0,0:0:0:0:
97,300,76343,1,2,3:2:0:0:
149,295,76415,1,0,0:0:0:0:
195,320,76486,2,0,P|230:350|267:354,1,65.9999979858399,10|0,3:2|0:0,0:0:0:0:
467,183,76629,2,0,P|431:213|394:217,1,65.9999979858399,2|0,3:2|0:0,0:0:0:0:
366,384,76772,5,8,3:2:0:0:
385,342,76843,1,0,0:0:0:0:
379,297,76915,1,0,3:0:0:0:
352,261,76986,1,0,0:0:0:0:
309,244,77058,2,0,P|273:221|246:174,1,65.9999979858399,10|0,3:2|0:0,0:0:0:0:
428,18,77200,5,0,3:0:0:0:
431,44,77272,1,0,0:0:0:0:
428,71,77343,2,0,P|403:114|348:131,1,65.9999979858399,8|0,3:2|0:0,0:0:0:0:
206,63,77486,5,2,3:2:0:0:
173,20,77558,1,2,0:0:0:0:
119,26,77629,2,0,P|107:64|156:104,1,65.9999979858399,10|2,3:2|0:0,0:0:0:0:
258,308,77772,5,2,3:2:0:0:
296,245,77843,1,2,1:2:0:0:
310,183,77915,1,10,3:2:0:0:
301,126,77986,1,2,1:2:0:0:
280,86,78058,1,2,3:2:0:0:
234,63,78129,1,0,0:0:0:0:
185,65,78200,1,8,3:2:0:0:
145,97,78272,1,0,0:0:0:0:
144,140,78343,5,0,3:0:0:0:
185,161,78415,1,0,0:0:0:0:
224,148,78486,1,8,3:2:0:0:
239,112,78558,1,0,0:0:0:0:
230,73,78629,1,2,3:2:0:0:
240,42,78700,1,0,0:0:0:0:
269,31,78772,1,8,3:2:0:0:
288,34,78843,1,0,0:0:0:0:
298,44,78915,6,0,P|325:94|341:107,1,65.9999979858399,6|0,3:2|0:0,0:0:0:0:
479,230,79058,2,0,P|506:180|522:167,1,65.9999979858399,12|0,3:2|0:0,0:0:0:0:
448,9,79200,5,4,3:2:0:0:
438,16,79272,1,0,0:0:0:0:
427,31,79343,1,12,3:2:0:0:
416,54,79415,1,0,0:0:0:0:
409,79,79486,1,4,3:2:0:0:
409,112,79558,1,0,0:0:0:0:
417,151,79629,1,12,3:2:0:0:
411,195,79700,1,0,0:0:0:0:
376,230,79772,1,6,3:2:0:0:
324,234,79843,1,0,0:0:0:0:
276,200,79915,2,0,P|259:191|191:197,1,65.9999979858399,14|0,3:2|0:0,0:0:0:0:
3,275,80058,5,6,3:2:0:0:
25,326,80129,1,0,0:0:0:0:
78,351,80200,1,12,3:2:0:0:
133,337,80272,1,0,0:0:0:0:
167,292,80343,1,4,3:2:0:0:
218,275,80415,1,0,0:0:0:0:
267,289,80486,2,0,P|309:309|330:362,1,65.9999979858399,14|0,3:2|0:0,0:0:0:0:
91,236,80629,5,4,3:2:0:0:
68,203,80700,1,0,0:0:0:0:
62,165,80772,2,0,P|75:125|105:98,1,65.9999979858399,12|0,3:2|0:0,0:0:0:0:
324,69,80915,6,0,P|295:62|208:67,1,65.9999979858399,6|0,3:2|0:0,0:0:0:0:
0,14,81058,2,0,P|27:9|129:11,1,65.9999979858399,12|0,3:2|0:0,0:0:0:0:
134,324,81200,6,0,P|133:282|135:241,1,82.5000031471254,6|0,3:2|0:0,0:0:0:0:
254,145,81343,2,0,P|257:198|251:270,1,82.5000031471254,12|0,3:2|0:0,0:0:0:0:
437,372,81486,1,6,3:2:0:0:
435,341,81558,1,2,0:2:0:0:
406,319,81629,2,0,P|368:305|327:303,1,82.5000031471254,14|0,3:2|0:0,0:0:0:0:
464,132,81772,2,0,P|426:146|385:148,1,82.5000031471254,4|0,3:2|0:0,0:0:0:0:
254,137,81915,5,12,3:2:0:0:
300,185,81986,1,2,0:2:0:0:
346,216,82058,1,6,3:2:0:0:
394,230,82129,1,2,0:2:0:0:
439,229,82200,2,0,P|478:221|517:186,1,82.5000031471254,14|2,3:2|0:2,0:0:0:0:
424,11,82343,5,6,3:2:0:0:
372,0,82415,1,0,0:0:0:0:
321,13,82486,1,14,3:2:0:0:
286,55,82558,1,0,0:0:0:0:
282,104,82629,1,6,3:2:0:0:
248,133,82700,1,0,0:0:0:0:
208,139,82772,1,14,3:2:0:0:
174,116,82843,1,0,0:0:0:0:
166,76,82915,6,0,P|173:44|228:12,1,65.9999979858399,6|0,3:2|0:0,0:0:0:0:
328,227,83058,2,0,P|346:199|330:137,1,65.9999979858399,12|0,3:2|0:0,0:0:0:0:
162,299,83200,6,0,P|144:271|160:209,1,65.9999979858399,6|0,3:2|0:0,0:0:0:0:
230,206,83343,2,0,P|223:174|168:142,1,65.9999979858399,12|0,3:2|0:0,0:0:0:0:
49,137,83486,5,6,3:2:0:0:
45,146,83558,2,0,L|44:231,1,65.9999979858399,0|12,0:0|3:2,0:0:0:0:
134,372,83700,1,2,0:2:0:0:
130,363,83772,2,0,L|129:278,1,65.9999979858399,4|0,3:2|0:0,0:0:0:0:
248,218,83915,2,0,L|247:303,1,65.9999979858399,14|0,3:2|0:0,0:0:0:0:
396,384,84058,5,6,3:2:0:0:
392,375,84129,2,0,L|391:290,1,65.9999979858399,0|12,0:0|3:2,0:0:0:0:
268,117,84272,1,2,0:2:0:0:
264,126,84343,2,0,L|263:211,1,65.9999979858399,4|0,3:2|0:0,0:0:0:0:
410,297,84486,2,0,L|409:212,1,65.9999979858399,12|0,3:2|0:0,0:0:0:0:
479,44,84629,5,6,3:2:0:0:
475,53,84700,2,0,L|474:138,1,65.9999979858399,0|12,0:0|3:2,0:0:0:0:
279,270,84843,1,0,0:0:0:0:
275,261,84915,2,0,L|274:176,1,65.9999979858399,4|0,3:2|0:0,0:0:0:0:
80,45,85058,2,0,L|79:130,1,65.9999979858399,14|0,3:2|0:0,0:0:0:0:
337,75,85200,5,6,3:2:0:0:
333,66,85272,2,0,L|332:-19,1,65.9999979858399,0|12,0:0|3:2,0:0:0:0:
169,247,85415,1,2,0:2:0:0:
173,238,85486,2,0,L|174:153,1,65.9999979858399,4|0,3:2|0:0,0:0:0:0:
388,384,85629,2,0,L|387:299,1,65.9999979858399,14|0,3:2|0:0,0:0:0:0:
72,324,85772,5,6,3:2:0:0:
112,302,85843,1,0,0:0:0:0:
157,303,85915,2,0,P|191:316|201:353,1,65.9999979858399,14|0,3:2|0:0,0:0:0:0:
434,285,86058,5,6,3:2:0:0:
390,270,86129,1,0,0:0:0:0:
346,279,86200,2,0,P|314:297|311:335,1,65.9999979858399,14|0,3:2|0:0,0:0:0:0:
58,225,86343,5,6,3:2:0:0:
103,217,86415,1,0,0:0:0:0:
145,234,86486,2,0,P|172:257|169:296,1,65.9999979858399,14|0,3:2|0:0,0:0:0:0:
459,174,86629,5,6,3:2:0:0:
413,173,86700,1,0,0:0:0:0:
374,197,86772,2,0,P|351:225|360:262,1,65.9999979858399,14|0,3:2|0:0,0:0:0:0:
72,116,86915,5,6,3:2:0:0:
118,123,86986,1,0,0:0:0:0:
152,153,87058,2,0,P|169:184|153:219,1,65.9999979858399,14|0,3:2|0:0,0:0:0:0:
432,70,87200,5,6,3:2:0:0:
387,84,87272,1,0,0:0:0:0:
359,120,87343,2,0,P|347:154|369:185,1,65.9999979858399,14|0,3:2|0:0,0:0:0:0:
129,31,87486,5,6,3:2:0:0:
170,52,87558,1,0,0:0:0:0:
192,92,87629,2,0,P|197:127|170:155,1,65.9999979858399,14|0,3:2|0:0,0:0:0:0:
366,0,87772,5,6,3:2:0:0:
329,27,87843,1,0,0:0:0:0:
314,71,87915,2,0,P|314:107|345:129,1,65.9999979858399,14|0,3:2|0:0,0:0:0:0:
256,320,88058,6,0,L|252:267,1,41.2500015735627,6|0,3:2|0:0,0:0:0:0:
256,324,88200,2,0,L|252:271,1,41.2500015735627,2|0,0:0|0:0,0:0:0:0:
256,328,88343,2,0,L|252:275,1,41.2500015735627,2|0,0:0|0:0,0:0:0:0:
256,332,88486,2,0,L|252:279,1,41.2500015735627,2|0,0:0|0:0,0:0:0:0:
256,336,88629,2,0,L|252:283,1,41.2500015735627,2|0,0:0|0:0,0:0:0:0:
256,340,88772,2,0,L|252:287,1,41.2500015735627,2|0,0:0|0:0,0:0:0:0:
256,344,88915,2,0,L|252:291,1,41.2500015735627,2|0,0:0|0:0,0:0:0:0:
256,348,89058,1,2,0:0:0:0:
497,168,89343,5,2,0:0:0:0:
481,148,89415,1,2,0:0:0:0:
459,138,89486,1,2,0:0:0:0:
434,139,89558,1,2,0:0:0:0:
413,151,89629,1,2,0:0:0:0:
399,172,89700,1,2,0:0:0:0:
396,196,89772,2,0,P|447:199|462:184,3,41.2500015735627,2|2|2|2,0:0|0:0|0:0|0:0,0:0:0:0:
357,95,90058,2,0,P|396:61|396:40,3,41.2500015735627,2|2|2|2,0:0|0:0|0:0|0:0,0:0:0:0:
283,59,90343,2,0,P|286:8|271:-7,3,41.2500015735627,2|2|2|2,0:0|0:0|0:0|0:0,0:0:0:0:
208,74,90629,2,0,P|174:35|152:35,3,41.2500015735627,2|2|2|2,0:0|0:0|0:0|0:0,0:0:0:0:
180,138,90915,2,0,P|129:135|114:150,3,41.2500015735627,2|2|2|2,0:0|0:0|0:0|0:0,0:0:0:0:
190,173,91200,2,0,P|151:206|151:228,3,41.2500015735627,2|2|2|2,0:0|0:0|0:0|0:0,0:0:0:0:
205,186,91486,5,2,1:2:0:0:
199,182,91558,1,2,1:2:0:0:
193,174,91629,1,2,1:2:0:0:
186,161,91700,1,2,1:2:0:0:
182,142,91772,1,2,1:2:0:0:
182,117,91843,1,2,1:2:0:0:
194,91,91915,1,2,1:2:0:0:
215,67,91986,1,2,1:2:0:0:
255,54,92058,1,2,1:2:0:0:
301,65,92129,1,2,1:2:0:0:
336,102,92200,1,2,1:2:0:0:
345,159,92272,1,2,1:2:0:0:
331,213,92343,1,2,1:2:0:0:
281,254,92415,1,2,1:2:0:0:
218,258,92486,1,2,1:2:0:0:
157,228,92558,1,2,1:2:0:0:
90,240,92629,6,0,P|50:274|95:360,1,132,6|2,3:2|0:0,0:0:0:0:
64,345,92915,1,0,0:0:0:0:
363,279,93058,2,0,P|403:313|358:399,1,132,6|0,3:2|0:0,0:0:0:0:
389,384,93343,1,0,3:0:0:0:
175,110,93486,2,0,P|145:153|210:224,1,132,4|0,3:2|0:0,0:0:0:0:
177,218,93772,1,2,3:2:0:0:
468,160,93915,5,4,3:2:0:0:
489,160,93986,1,2,3:2:0:0:
511,164,94058,1,4,3:2:0:0:
336,206,94200,5,2,3:2:0:0:
314,206,94272,1,0,3:0:0:0:
291,210,94343,1,6,3:2:0:0:
307,132,94486,1,10,3:2:0:0:
477,282,94629,6,0,L|484:227,1,44,2|0,0:0|0:0,0:0:0:0:
481,288,94772,2,0,L|484:227,1,44
461,0,94915,6,0,P|446:80|373:101,1,153.999995300293,6|8,3:2|0:0,0:0:0:0:
209,8,95129,1,2,0:0:0:0:
230,7,95200,2,0,P|270:9|342:28,1,76.9999976501466,0|0,3:0|0:0,0:0:0:0:
293,225,95343,2,0,P|325:134|327:111,1,76.9999976501466,10|0,0:0|0:0,0:0:0:0:
31,101,95486,6,0,P|37:162|158:148,1,153.999995300293,2|8,3:2|0:0,0:0:0:0:
254,82,95700,1,2,0:0:0:0:
237,88,95772,2,0,P|186:132|181:173,1,76.9999976501466,0|0,3:0|0:0,0:0:0:0:
199,304,95915,2,0,P|182:203|170:181,1,76.9999976501466,10|0,0:0|0:0,0:0:0:0:
105,15,96058,5,6,3:2:0:0:
99,23,96129,2,0,L|113:114,1,76.9999976501466,0|8,0:0|0:0,0:0:0:0:
308,153,96272,1,2,0:0:0:0:
314,161,96343,2,0,L|300:252,1,76.9999976501466,0|0,3:0|0:0,0:0:0:0:
193,384,96486,2,0,L|181:307,1,76.9999976501466,10|0,0:0|0:0,0:0:0:0:
413,354,96629,5,6,3:2:0:0:
472,344,96700,1,2,3:2:0:0:
509,293,96772,1,10,3:2:0:0:
495,232,96843,1,2,3:2:0:0:
439,200,96915,1,2,3:2:0:0:
377,190,96986,1,2,3:2:0:0:
342,139,97058,1,10,3:2:0:0:
356,78,97129,1,2,3:2:0:0:
413,52,97200,6,0,P|384:-10|319:22,1,131.99999597168,6|8,3:2|0:0,0:0:0:0:
331,0,97415,1,2,0:0:0:0:
331,0,97486,1,0,3:0:0:0:
495,13,97629,1,10,0:0:0:0:
187,107,97772,6,0,P|190:185|279:230,1,131.99999597168,2|8,3:2|0:0,0:0:0:0:
323,157,97986,1,2,0:0:0:0:
317,150,98058,2,0,P|271:140|242:150,1,65.9999979858399,0|0,3:0|0:0,0:0:0:0:
182,308,98200,2,0,P|189:217|126:176,1,131.99999597168,10|2,0:0|3:2,0:0:0:0:
17,73,98486,5,8,0:0:0:0:
19,83,98558,2,0,P|4:138|-9:149,1,65.9999979858399,2|0,0:0|3:0,0:0:0:0:
82,182,98700,5,0,0:0:0:0:
80,192,98772,2,0,P|94:247|108:258,1,65.9999979858399,10|0,0:0|0:0,0:0:0:0:
224,57,98915,6,0,L|113:77,1,65.9999979858399,6|0,3:2|0:0,0:0:0:0:
255,246,99058,2,0,L|366:266,1,65.9999979858399,10|0,0:0|0:0,0:0:0:0:
392,89,99200,6,0,L|281:109,1,65.9999979858399,2|0,3:2|0:0,0:0:0:0:
433,184,99343,2,0,L|544:204,1,65.9999979858399,10|0,3:2|0:0,0:0:0:0:
316,384,99486,5,6,3:2:0:0:
323,376,99558,1,0,0:0:0:0:
334,362,99629,1,8,0:0:0:0:
342,343,99700,1,0,0:0:0:0:
348,322,99772,1,0,3:0:0:0:
349,293,99843,1,0,0:0:0:0:
342,258,99915,2,0,P|316:225|278:215,1,65.9999979858399,8|0,0:0|0:0,0:0:0:0:
19,83,100058,5,4,3:2:0:0:
36,99,100129,1,0,0:0:0:0:
71,109,100200,1,8,0:0:0:0:
107,100,100272,1,0,0:0:0:0:
142,71,100343,1,2,3:2:0:0:
188,62,100415,1,0,0:0:0:0:
227,91,100486,2,0,P|242:133|210:203,1,65.9999979858399,10|0,0:0|0:0,0:0:0:0:
175,374,100629,5,6,3:2:0:0:
152,320,100700,1,2,0:0:0:0:
171,265,100772,2,0,P|191:234|271:249,1,65.9999979858399,10|2,0:0|3:2,0:0:0:0:
467,189,100915,5,6,0:0:0:0:
432,142,100986,1,0,0:0:0:0:
375,131,101058,2,0,P|338:133|311:210,1,65.9999979858399,10|0,3:2|0:0,0:0:0:0:
112,194,101200,5,6,0:0:0:0:
122,206,101272,2,0,P|192:206|204:184,1,65.9999979858399,0|8,3:0|0:0,0:0:0:0:
343,43,101415,5,4,0:0:0:0:
348,57,101486,2,0,P|313:117|287:117,1,65.9999979858399,2|0,3:2|0:0,0:0:0:0:
359,305,101629,6,0,L|319:251,1,65.9999979858399,14|2,3:2|0:0,0:0:0:0:
147,41,101772,6,0,P|206:61|212:123,1,131.99999597168,6|8,3:2|0:0,0:0:0:0:
28,163,101986,1,2,0:0:0:0:
0,197,102058,1,0,1:0:0:0:
3,237,102129,1,0,1:0:0:0:
32,268,102200,2,0,P|72:280|115:231,1,65.9999979858399,14|0,3:2|0:0,0:0:0:0:
135,42,102343,5,2,0:0:0:0:
140,56,102415,2,0,P|130:106|108:131,1,65.9999979858399,0|8,0:0|1:2,0:0:0:0:
183,237,102558,5,2,1:2:0:0:
178,251,102629,2,0,P|191:303|210:326,1,65.9999979858399,4|0,3:2|0:0,0:0:0:0:
261,112,102772,6,0,L|274:227,1,65.9999979858399,10|0,0:0|0:0,0:0:0:0:
356,334,102915,2,0,L|363:268,1,65.9999979858399,2|0,1:2|1:0,0:0:0:0:
403,127,103058,1,12,3:2:0:0:
407,117,103129,1,2,0:0:0:0:
445,111,103200,1,4,3:2:0:0:
476,133,103272,1,0,0:0:0:0:
484,171,103343,2,0,P|474:215|411:217,1,65.9999979858399,10|0,1:2|1:0,0:0:0:0:
327,26,103486,6,0,P|331:83|351:110,1,65.9999979858399,6|0,3:2|0:0,0:0:0:0:
191,173,103629,2,0,P|193:205|183:236,1,65.9999979858399,10|4,0:0|3:2,0:0:0:0:
22,16,103772,6,0,P|49:65|79:81,1,65.9999979858399,2|0,0:0|0:0,0:0:0:0:
239,72,103915,2,0,P|255:100|259:132,1,65.9999979858399,14|0,3:2|0:0,0:0:0:0:
82,306,104058,6,0,P|50:211|127:162,1,153.999995300293,6|8,3:2|0:0,0:0:0:0:
267,207,104272,1,2,0:0:0:0:
259,221,104343,2,0,P|224:236|170:228,1,76.9999976501466,0|0,1:0|1:0,0:0:0:0:
153,83,104486,2,0,L|163:205,1,76.9999976501466,14|0,3:2|0:0,0:0:0:0:
229,336,104629,5,2,0:0:0:0:
227,291,104700,1,0,0:0:0:0:
259,258,104772,1,8,1:2:0:0:
303,259,104843,1,2,1:2:0:0:
334,285,104915,2,0,P|357:318|407:312,1,76.9999976501466,4|0,3:2|0:0,0:0:0:0:
490,135,105058,5,10,0:0:0:0:
482,62,105129,1,0,0:0:0:0:
428,22,105200,1,2,1:2:0:0:
363,20,105272,1,2,1:2:0:0:
312,54,105343,1,14,3:2:0:0:
294,102,105415,1,2,0:0:0:0:
247,124,105486,1,6,3:2:0:0:
199,116,105558,1,2,0:0:0:0:
172,79,105629,1,10,1:2:0:0:
172,35,105700,1,10,3:2:0:0:
194,0,105772,5,6,3:2:0:0:
231,7,105843,1,0,0:0:0:0:
256,38,105915,1,10,0:0:0:0:
260,78,105986,1,4,3:2:0:0:
246,114,106058,1,2,0:0:0:0:
249,152,106129,1,0,0:0:0:0:
275,180,106200,1,14,3:2:0:0:
308,187,106272,1,0,0:0:0:0:
337,179,106343,6,0,P|370:152|472:225,1,153.999995300293,6|8,3:2|3:2,0:0:0:0:
411,382,106558,1,2,0:0:0:0:
403,366,106629,2,0,P|401:312|410:277,1,76.9999976501466,4|0,3:2|0:0,0:0:0:0:
237,144,106772,2,0,P|240:197|252:232,1,76.9999976501466,8|0,3:2|0:0,0:0:0:0:
164,384,106915,5,6,3:2:0:0:
174,372,106986,2,0,L|278:378,1,76.9999976501466,0|8,0:0|3:2,0:0:0:0:
14,205,107129,1,2,0:0:0:0:
24,217,107200,2,0,L|128:211,1,76.9999976501466,4|0,3:2|0:0,0:0:0:0:
305,305,107343,2,0,L|228:300,1,76.9999976501466,10|0,3:2|0:0,0:0:0:0:
61,137,107486,5,4,3:2:0:0:
64,125,107558,1,0,0:0:0:0:
75,115,107629,1,8,1:2:0:0:
89,108,107700,1,0,1:0:0:0:
110,105,107772,1,6,3:2:0:0:
133,109,107843,1,0,0:0:0:0:
159,129,107915,1,10,1:2:0:0:
170,166,107986,1,0,1:0:0:0:
196,199,108058,1,6,3:2:0:0:
244,209,108129,1,0,0:0:0:0:
293,186,108200,1,10,1:2:0:0:
315,135,108272,1,0,1:0:0:0:
295,78,108343,1,6,3:2:0:0:
315,19,108415,1,2,0:0:0:0:
377,1,108486,1,10,1:2:0:0:
437,35,108558,1,2,1:2:0:0:
437,106,108629,6,0,P|373:191|290:139,1,165.000006294251,6|8,3:2|1:2,0:0:0:0:
134,24,108843,1,2,1:2:0:0:
142,28,108915,2,0,P|162:92|163:138,1,82.5000031471254,4|0,3:2|0:0,0:0:0:0:
182,286,109058,2,0,P|188:245|203:206,1,82.5000031471254,8|0,1:2|0:0,0:0:0:0:
330,63,109200,5,6,3:2:0:0:
318,73,109272,2,0,L|219:78,1,82.5000031471254,0|8,0:0|1:2,0:0:0:0:
418,223,109415,1,2,1:2:0:0:
430,233,109486,2,0,L|529:238,1,82.5000031471254,4|0,3:2|0:0,0:0:0:0:
466,0,109629,2,0,L|367:5,1,82.5000031471254,8|0,1:2|0:0,0:0:0:0:
325,302,109772,5,6,3:2:0:0:
325,302,110343,5,10,3:2:0:0:
310,287,110415,1,8,0:0:0:0:
284,272,110486,1,10,3:2:0:0:
245,266,110558,1,8,0:0:0:0:
200,284,110629,1,10,3:2:0:0:
176,340,110700,1,8,0:0:0:0:
115,383,110772,2,0,P|71:387|30:342,1,65.9999979858399,10|8,3:2|0:0,0:0:0:0:
0,229,110915,5,4,3:2:0:0:
39,252,110986,1,0,0:0:0:0:
84,247,111058,1,0,0:0:0:0:
118,216,111129,1,0,0:0:0:0:
127,172,111200,2,0,P|115:136|47:143,1,65.9999979858399,0|0,3:0|0:0,0:0:0:0:
256,7,111343,5,10,0:0:0:0:
301,38,111415,1,2,0:0:0:0:
293,91,111486,5,2,3:2:0:0:
277,125,111558,1,0,0:0:0:0:
243,143,111629,1,8,0:0:0:0:
206,137,111700,1,0,0:0:0:0:
180,109,111772,2,0,P|179:70|190:45,1,55,0|0,3:0|0:0,0:0:0:0:
444,178,111915,5,10,0:0:0:0:
489,147,111986,1,2,0:0:0:0:
481,94,112058,5,2,3:2:0:0:
466,60,112129,1,0,0:0:0:0:
432,42,112200,1,8,0:0:0:0:
395,48,112272,1,0,0:0:0:0:
369,76,112343,1,0,3:0:0:0:
368,117,112415,1,0,0:0:0:0:
346,144,112486,2,0,P|317:151|273:114,1,55,8|0,0:0|0:0,0:0:0:0:
55,0,112629,6,0,P|160:26|208:34,1,110,2|8,3:2|0:0,0:0:0:0:
233,89,112843,2,0,P|128:115|80:123,1,110,2|0,0:0|0:0,0:0:0:0:
123,128,113058,2,0,L|133:199,1,55,10|0,0:0|0:0,0:0:0:0:
80,304,113200,5,0,3:0:0:0:
109,280,113272,1,0,0:0:0:0:
118,243,113343,1,8,0:0:0:0:
101,209,113415,1,0,0:0:0:0:
66,193,113486,2,0,P|14:214|7:234,1,55,0|0,3:0|0:0,0:0:0:0:
185,290,113629,5,10,0:0:0:0:
163,337,113700,1,2,0:0:0:0:
188,377,113772,5,2,3:2:0:0:
225,382,113843,1,0,0:0:0:0:
260,366,113915,1,8,0:0:0:0:
281,334,113986,1,0,0:0:0:0:
283,296,114058,2,0,P|262:260|229:239,1,55,0|0,3:0|0:0,0:0:0:0:
132,126,114200,5,10,0:0:0:0:
154,173,114272,1,2,0:0:0:0:
129,213,114343,5,2,3:2:0:0:
92,218,114415,1,0,0:0:0:0:
57,202,114486,1,8,0:0:0:0:
36,170,114558,1,0,0:0:0:0:
34,132,114629,2,0,P|55:96|88:75,1,55,0|0,3:0|0:0,0:0:0:0:
334,16,114772,5,10,0:0:0:0:
375,41,114843,1,2,0:0:0:0:
381,88,114915,1,6,3:2:0:0:
358,132,114986,2,0,P|337:142|279:121,1,65.9999979858399,0|8,0:0|0:0,0:0:0:0:
148,43,115129,1,2,0:0:0:0:
151,52,115200,2,0,P|168:67|230:61,1,65.9999979858399,0|0,3:0|0:0,0:0:0:0:
229,286,115343,2,0,L|223:220,1,65.9999979858399,10|0,3:2|0:0,0:0:0:0:
451,232,115486,6,0,B|578:109|450:249|332:241|290:249,1,263.99999194336,4|0,3:2|3:0,0:0:0:0:
135,305,115915,5,10,0:0:0:0:
156,349,115986,1,2,0:0:0:0:
119,383,116058,5,2,3:2:0:0:
81,381,116129,1,0,0:0:0:0:
51,358,116200,1,8,0:0:0:0:
41,321,116272,1,0,0:0:0:0:
56,286,116343,2,0,P|83:240|85:216,1,55,0|0,3:0|0:0,0:0:0:0:
24,89,116486,5,10,0:0:0:0:
3,133,116558,1,2,0:0:0:0:
40,167,116629,5,2,3:2:0:0:
78,165,116700,1,0,0:0:0:0:
108,142,116772,1,8,0:0:0:0:
118,105,116843,1,0,0:0:0:0:
103,70,116915,1,0,3:0:0:0:
105,34,116986,1,0,0:0:0:0:
126,7,117058,2,0,P|162:-1|196:15,1,55,8|0,0:0|0:0,0:0:0:0:
312,193,117200,6,0,P|230:169|197:157,1,110,2|8,3:2|0:0,0:0:0:0:
280,107,117415,2,0,B|296:104|333:92|385:74,1,110,2|0,0:0|0:0,0:0:0:0:
392,78,117629,2,0,P|414:143|414:163,1,55,10|0,0:0|0:0,0:0:0:0:
383,384,117772,5,4,3:2:0:0:
358,348,117843,1,0,0:0:0:0:
352,304,117915,1,8,0:0:0:0:
366,263,117986,1,0,0:0:0:0:
397,233,118058,1,0,3:0:0:0:
438,219,118129,1,0,0:0:0:0:
482,226,118200,2,0,P|505:250|507:307,1,55,10|2,0:0|0:0,0:0:0:0:
248,361,118343,5,6,3:2:0:0:
215,333,118415,1,0,0:0:0:0:
197,291,118486,1,8,0:0:0:0:
199,248,118558,1,0,0:0:0:0:
221,211,118629,1,0,3:0:0:0:
220,165,118700,1,0,0:0:0:0:
194,132,118772,2,0,P|168:117|106:135,1,55,10|2,0:0|0:0,0:0:0:0:
0,171,118915,5,6,3:2:0:0:
27,220,118986,1,0,0:0:0:0:
83,238,119058,2,0,P|127:217|144:187,1,65.9999979858399,8|0,0:0|0:0,0:0:0:0:
436,210,119200,5,4,3:2:0:0:
403,256,119272,1,0,0:0:0:0:
347,269,119343,2,0,P|304:244|289:213,1,65.9999979858399,8|0,0:0|0:0,0:0:0:0:
66,54,119486,5,14,3:2:0:0:
61,62,119558,2,0,P|62:110|84:142,1,65.9999979858399,8|8,0:0|3:2,0:0:0:0:
370,90,119700,5,14,0:0:0:0:
374,98,119772,2,0,P|368:145|344:175,1,65.9999979858399,8|8,3:2|0:0,0:0:0:0:
233,3,119915,6,0,L|223:123,1,65.9999979858399,14|8,3:2|0:0,0:0:0:0:
251,335,120058,5,6,3:2:0:0:
223,289,120129,1,0,0:0:0:0:
215,236,120200,1,8,0:2:0:0:
227,184,120272,1,0,0:0:0:0:
259,140,120343,2,0,P|291:125|386:156,1,76.9999976501466,4|0,3:2|0:0,0:0:0:0:
379,318,120486,5,10,0:2:0:0:
430,367,120558,1,2,0:2:0:0:
496,337,120629,5,6,3:2:0:0:
509,285,120700,1,0,0:0:0:0:
487,237,120772,1,8,0:2:0:0:
440,213,120843,1,0,0:0:0:0:
388,224,120915,2,0,P|323:246|298:233,1,76.9999976501466,4|0,3:2|0:0,0:0:0:0:
135,206,121058,5,10,0:2:0:0:
84,255,121129,1,2,0:2:0:0:
18,225,121200,5,6,3:2:0:0:
5,173,121272,1,0,0:0:0:0:
27,125,121343,1,8,0:2:0:0:
74,101,121415,1,0,0:0:0:0:
126,112,121486,1,4,3:2:0:0:
174,133,121558,1,0,0:0:0:0:
225,116,121629,2,0,P|245:86|212:30,1,76.9999976501466,8|0,0:2|0:0,0:0:0:0:
71,0,121772,5,6,3:2:0:0:
69,14,121843,2,0,P|108:84|140:91,1,76.9999976501466,0|8,0:0|0:2,0:0:0:0:
237,208,121986,1,2,0:2:0:0:
235,194,122058,2,0,P|274:123|306:116,1,76.9999976501466,4|0,3:2|0:0,0:0:0:0:
116,267,122200,2,0,P|125:303|153:330,1,76.9999976501466,10|0,0:2|0:0,0:0:0:0:
405,381,122343,5,4,3:2:0:0:
421,330,122415,1,0,0:0:0:0:
402,281,122486,1,8,0:2:0:0:
356,255,122558,1,0,0:0:0:0:
304,264,122629,2,0,P|247:205|251:194,1,76.9999976501466,4|0,3:2|0:0,0:0:0:0:
457,72,122772,5,10,0:2:0:0:
509,117,122843,1,2,0:2:0:0:
494,184,122915,5,6,3:2:0:0:
445,204,122986,1,0,0:0:0:0:
393,192,123058,1,8,0:2:0:0:
360,151,123129,1,0,0:0:0:0:
357,98,123200,2,0,P|290:41|250:46,1,76.9999976501466,4|0,3:2|0:0,0:0:0:0:
118,171,123343,5,10,0:2:0:0:
65,216,123415,1,2,0:2:0:0:
80,284,123486,5,6,3:2:0:0:
129,304,123558,1,0,0:0:0:0:
181,292,123629,1,8,0:2:0:0:
214,251,123700,1,0,0:0:0:0:
217,198,123772,2,0,P|284:141|324:146,1,76.9999976501466,4|0,3:2|0:0,0:0:0:0:
435,384,123915,5,10,0:2:0:0:
456,323,123986,1,2,0:2:0:0:
429,268,124058,1,6,3:2:0:0:
371,247,124129,2,0,P|321:255|285:290,1,76.9999976501466,0|8,0:0|0:2,0:0:0:0:
117,91,124272,1,2,0:2:0:0:
133,91,124343,2,0,P|178:112|204:155,1,76.9999976501466,4|0,3:2|3:0,0:0:0:0:
357,337,124486,2,0,P|322:354|298:384,1,76.9999976501466,10|0,3:2|3:0,0:0:0:0:
3,204,124629,5,4,3:2:0:0:
61,223,124700,1,0,3:0:0:0:
122,231,124772,1,8,0:2:0:0:
183,227,124843,1,0,3:0:0:0:
242,210,124915,2,0,P|300:172|319:149,1,76.9999976501466,4|0,3:2|3:0,0:0:0:0:
380,22,125058,5,10,0:2:0:0:
440,3,125129,1,2,3:2:0:0:
475,54,125200,5,6,3:2:0:0:
465,106,125272,1,0,3:0:0:0:
422,137,125343,1,8,0:2:0:0:
370,133,125415,1,0,3:0:0:0:
334,94,125486,2,0,P|281:71|241:93,1,76.9999976501466,4|0,3:2|3:0,0:0:0:0:
226,293,125629,5,10,0:2:0:0:
286,312,125700,1,2,3:2:0:0:
321,261,125772,5,6,3:2:0:0:
311,209,125843,1,0,3:0:0:0:
268,178,125915,1,8,0:2:0:0:
216,182,125986,1,0,3:0:0:0:
180,221,126058,1,4,3:2:0:0:
132,243,126129,1,0,3:0:0:0:
80,230,126200,2,0,P|41:181|46:142,1,76.9999976501466,8|0,0:2|3:0,0:0:0:0:
87,0,126343,5,6,3:2:0:0:
97,11,126415,2,0,L|107:122,1,76.9999976501466,0|8,3:0|0:2,0:0:0:0:
242,101,126558,1,2,3:2:0:0:
232,112,126629,2,0,L|222:223,1,76.9999976501466,4|0,3:2|3:0,0:0:0:0:
164,342,126772,2,0,L|157:265,1,76.9999976501466,10|0,0:2|3:0,0:0:0:0:
443,161,126915,5,6,3:2:0:0:
456,217,126986,1,0,3:0:0:0:
419,262,127058,1,8,3:2:0:0:
367,271,127129,1,2,3:2:0:0:
323,236,127200,1,4,3:2:0:0:
267,247,127272,1,0,3:0:0:0:
237,294,127343,1,10,3:2:0:0:
240,348,127415,1,0,3:0:0:0:
276,383,127486,5,4,3:2:0:0:
315,325,127558,1,0,3:0:0:0:
306,260,127629,1,8,3:2:0:0:
254,220,127700,1,2,3:2:0:0:
189,236,127772,1,4,3:2:0:0:
136,197,127843,1,0,3:0:0:0:
129,129,127915,1,10,3:2:0:0:
171,78,127986,1,0,3:0:0:0:
236,76,128058,1,6,3:2:0:0:
495,20,128629,5,10,3:2:0:0:
486,40,128700,1,8,0:0:0:0:
469,55,128772,1,10,3:2:0:0:
436,63,128843,1,8,0:0:0:0:
396,51,128915,1,10,3:2:0:0:
346,65,128986,1,10,3:2:0:0:
304,124,129058,2,0,P|294:168|320:232,1,76.9999976501466,10|10,3:2|3:2,0:0:0:0:
454,359,129200,5,6,3:2:0:0:
419,323,129272,1,0,1:0:0:0:
372,304,129343,2,0,P|349:303|288:342,1,82.5000031471254,10|0,1:2|1:0,0:0:0:0:
58,359,129486,5,6,3:2:0:0:
93,323,129558,1,0,1:0:0:0:
140,304,129629,2,0,P|163:303|224:342,1,82.5000031471254,10|0,1:2|1:0,0:0:0:0:
463,278,129772,5,6,3:2:0:0:
416,255,129843,1,0,1:0:0:0:
366,254,129915,2,0,P|344:260|300:318,1,82.5000031471254,10|0,1:2|1:0,0:0:0:0:
49,278,130058,5,6,3:2:0:0:
96,255,130129,1,0,1:0:0:0:
146,254,130200,2,0,P|168:260|212:318,1,82.5000031471254,10|0,1:2|1:0,0:0:0:0:
457,192,130343,5,6,3:2:0:0:
404,186,130415,1,0,1:0:0:0:
357,202,130486,2,0,P|338:216|317:285,1,82.5000031471254,10|0,1:2|1:0,0:0:0:0:
55,192,130629,5,6,3:2:0:0:
108,186,130700,1,0,1:0:0:0:
155,202,130772,2,0,P|174:216|195:285,1,82.5000031471254,10|0,1:2|1:0,0:0:0:0:
422,112,130915,5,6,3:2:0:0:
370,124,130986,1,0,1:0:0:0:
331,155,131058,2,0,P|317:174|321:246,1,82.5000031471254,10|0,1:2|1:0,0:0:0:0:
90,112,131200,5,6,3:2:0:0:
142,124,131272,1,0,1:0:0:0:
181,155,131343,2,0,P|194:174|190:246,1,82.5000031471254,10|0,1:2|1:0,0:0:0:0:
384,208,131486,5,6,3:2:0:0:
378,150,131558,1,0,1:0:0:0:
383,93,131629,2,0,P|392:39|413:4,1,82.5000031471254,10|0,1:2|1:0,0:0:0:0:
128,208,131772,5,6,3:2:0:0:
134,150,131843,1,0,1:0:0:0:
129,93,131915,2,0,P|120:39|99:4,1,82.5000031471254,10|0,1:2|1:0,0:0:0:0:
419,261,132058,5,6,3:2:0:0:
403,204,132129,1,0,1:0:0:0:
398,147,132200,2,0,P|397:93|412:53,1,82.5000031471254,10|0,1:2|1:0,0:0:0:0:
93,261,132343,5,6,3:2:0:0:
109,204,132415,1,0,1:0:0:0:
114,147,132486,2,0,P|115:93|100:53,1,82.5000031471254,10|0,1:2|1:0,0:0:0:0:
462,307,132629,5,6,3:2:0:0:
437,253,132700,1,0,1:0:0:0:
422,198,132772,2,0,P|411:144|419:102,1,82.5000031471254,10|0,1:2|1:0,0:0:0:0:
50,307,132915,5,6,3:2:0:0:
75,253,132986,1,0,1:0:0:0:
90,198,133058,2,0,P|100:144|92:102,1,82.5000031471254,10|0,1:2|1:0,0:0:0:0:
263,21,133200,6,0,P|241:-2|232:-19,1,41.2500015735627,6|2,3:2|0:0,0:0:0:0:
251,90,133272,2,0,P|233:69|226:43,1,41.2500015735627,2|2,3:2|0:0,0:0:0:0:
248,148,133343,2,0,P|224:119|221:89,1,41.2500015735627,10|2,3:2|0:0,0:0:0:0:
251,191,133415,2,0,P|228:173|215:140,1,41.2500015735627,2|2,3:2|0:0,0:0:0:0:
258,224,133486,2,0,P|223:203|214:178,1,41.2500015735627,6|2,3:2|0:0,0:0:0:0:
269,256,133558,2,0,P|236:240|216:220,1,41.2500015735627,2|2,3:2|0:0,0:0:0:0:
280,282,133629,2,0,P|246:270|228:251,1,41.2500015735627,10|2,3:2|0:0,0:0:0:0:
294,301,133700,2,0,P|262:289|240:271,1,41.2500015735627,2|2,3:2|0:0,0:0:0:0:
304,314,133772,1,4,3:2:0:0:
