osu file format v14

[General]
AudioFilename: audio.mp3
AudioLeadIn: 0
PreviewTime: 69772
Countdown: 0
SampleSet: Soft
StackLeniency: 0.3
Mode: 0
LetterboxInBreaks: 0
WidescreenStoryboard: 1

[Editor]
Bookmarks: 1200,5772,14915,17200,26343,35486,44629,51486,60629,69772,78915,88058,92629,101772,110915,120058,128058,133772
DistanceSpacing: 0.2
BeatDivisor: 4
GridSize: 4
TimelineZoom: 3.099999

[Metadata]
Title:Myths Orbis
TitleUnicode:Myths Orbis
Artist:Raimukun
ArtistUnicode:Raimukun
Creator:knowledgeking
Version:River's Hard
Source:osu! World Cup 2022
Tags:-_AzRael_- AzRael Imokora RiverKnowFarm nik nikolomara Musty Mustaash Chemo Serenhaide Sh4rq_ Sh3rg_ kiwies morphne ItsWinter SILENCE PLAYER owc grand finals owc2022GFNM2 nomod fa featured artist electronic instrumental piano Cinematic Speedcore Hardcore hard renaissance stream
BeatmapID:4114039
BeatmapSetID:1889095

[Difficulty]
HPDrainRate:4.5
CircleSize:3.6
OverallDifficulty:6.5
ApproachRate:8
SliderMultiplier:1
SliderTickRate:1

[Events]
//Background and Video events
0,0,"bg.jpg",0,0
//Break Periods
2,51686,59879
2,89343,90736
//Storyboard Layer 0 (Background)
//Storyboard Layer 1 (Fail)
//Storyboard Layer 2 (Pass)
//Storyboard Layer 3 (Foreground)
//Storyboard Layer 4 (Overlay)
//Storyboard Sound Samples

[TimingPoints]
58,285.714285714286,4,2,1,70,1,0
1200,-83.3333333333333,4,2,1,70,0,0
21200,-71.4285714285714,4,2,1,70,0,0
21772,-83.3333333333333,4,2,1,70,0,0
26629,-71.4285714285714,4,2,1,70,0,0
27200,-83.3333333333333,4,2,1,70,0,0
35486,-90.9090909090909,4,2,1,70,0,0
37772,-83.3333333333333,4,2,1,70,0,0
44629,-80,4,2,1,70,0,0
48200,-83.3333333333333,4,2,1,70,0,0
60629,-83.3333333333333,4,2,1,70,0,1
69200,-100,4,2,1,70,0,0
69772,-83.3333333333333,4,2,1,70,0,0
78915,-83.3333333333333,4,1,1,50,0,0
84058,-80,4,1,1,55,0,0
84629,-76.9230769230769,4,1,1,60,0,0
85200,-74.0740740740741,4,1,1,65,0,0
85772,-80,4,1,1,70,0,0
86915,-83.3333333333333,4,1,1,70,0,0
88058,-90.9090909090909,4,2,1,70,0,0
91486,-100,4,2,1,70,0,0
92058,-90.9090909090909,4,2,1,70,0,0
92629,-80,4,2,1,70,0,0
94915,-83.3333333333333,4,2,1,70,0,0
101772,-80,4,2,1,70,0,0
105772,-83.3333333333333,4,2,1,70,0,0
120058,-83.3333333333333,4,1,1,70,0,1
128058,-83.3333333333333,4,2,1,70,0,0
128629,-100,4,2,1,70,0,0
129200,-80,4,2,1,70,0,0
130343,-83.3333333333333,4,2,1,70,0,0
133200,-100,4,2,1,70,0,0

[Colours]
Combo1 : 0,142,0
Combo2 : 130,255,255
Combo3 : 0,67,149
Combo4 : 184,184,184

[HitObjects]
364,9,1200,6,0,P|375:47|386:87,1,59.9999981689454,6|2,3:2|3:2,0:0:0:0:
447,119,1486,2,0,P|435:157|425:197,1,59.9999981689454,6|2,3:2|3:2,0:0:0:0:
356,217,1772,2,0,P|367:255|378:295,1,59.9999981689454,6|2,3:2|3:2,0:0:0:0:
439,327,2058,2,0,P|427:365|417:405,1,59.9999981689454,6|2,3:2|3:2,0:0:0:0:
341,363,2343,6,0,P|311:357|290:336,1,59.9999981689454,6|2,3:2|3:2,0:0:0:0:
210,363,2629,2,0,P|187:342|179:315,1,59.9999981689454,6|2,3:2|3:2,0:0:0:0:
96,297,2915,2,0,P|86:268|93:240,1,59.9999981689454,6|2,3:2|3:2,0:0:0:0:
30,182,3200,2,0,P|35:152|56:131,1,59.9999981689454,6|2,3:2|3:2,0:0:0:0:
130,84,3486,6,0,P|188:99|246:110,1,119.999996337891,6|6,3:2|3:2,0:0:0:0:
313,168,3915,1,2,3:2:0:0:
313,168,4058,2,0,P|333:139|331:99,1,59.9999981689454,6|2,3:2|3:2,0:0:0:0:
293,39,4343,2,0,P|322:33|351:25,1,59.9999981689454,6|2,3:2|3:2,0:0:0:0:
443,46,4629,2,0,P|423:75|425:115,1,59.9999981689454,6|2,3:2|3:2,0:0:0:0:
463,175,4915,2,0,P|433:180|404:188,1,59.9999981689454,6|2,3:2|3:2,0:0:0:0:
344,252,5200,2,0,L|352:286,3,29.9999990844727,14|2|10|2,3:2|1:2|3:2|1:2,0:0:0:0:
384,310,5486,2,0,L|376:344,3,29.9999990844727,14|10|10|10,3:2|1:2|3:2|1:2,0:0:0:0:
349,373,5772,6,0,P|291:338|242:357,1,119.999996337891,4|0,3:2|1:0,0:0:0:0:
183,293,6200,1,4,3:2:0:0:
37,382,6486,1,2,0:0:0:0:
37,382,6558,1,2,0:0:0:0:
37,382,6629,2,0,L|30:352,3,29.9999990844727,2|2|0|0,0:0|0:0|1:0|1:0,0:0:0:0:
54,316,6915,6,0,P|68:254|81:199,1,119.999996337891,4|0,3:2|0:0,0:0:0:0:
0,45,7486,2,0,P|29:49|52:67,1,59.9999981689454,4|0,3:2|1:0,0:0:0:0:
122,121,7772,2,0,P|151:116|174:98,1,59.9999981689454,4|0,3:2|1:0,0:0:0:0:
227,28,8058,6,0,P|283:13|330:47,1,119.999996337891,4|0,3:2|1:0,0:0:0:0:
414,22,8486,1,4,3:2:0:0:
512,179,8772,1,2,0:0:0:0:
512,179,8843,1,2,0:0:0:0:
512,179,8915,2,0,L|482:172,3,29.9999990844727,2|2|0|0,0:0|0:0|1:0|1:0,0:0:0:0:
446,196,9200,6,0,P|384:210|329:223,1,119.999996337891,4|0,3:2|0:0,0:0:0:0:
255,381,9772,2,0,P|284:377|307:359,1,59.9999981689454,4|0,3:2|1:0,0:0:0:0:
377,305,10058,2,0,P|406:310|429:328,1,59.9999981689454,4|0,3:2|1:0,0:0:0:0:
497,384,10343,6,0,P|504:354|511:325,1,59.9999981689454,4|0,3:2|1:0,0:0:0:0:
471,254,10629,1,0,3:0:0:0:
471,254,10772,1,0,1:0:0:0:
510,176,10915,2,0,P|502:146|495:117,1,59.9999981689454,4|0,3:2|1:0,0:0:0:0:
512,35,11200,1,0,3:0:0:0:
512,35,11343,1,0,1:0:0:0:
430,59,11486,6,0,P|400:51|371:44,1,59.9999981689454,4|0,3:2|1:0,0:0:0:0:
298,89,11772,1,0,3:0:0:0:
298,89,11915,1,0,1:0:0:0:
251,16,12058,2,0,P|221:23|192:30,1,59.9999981689454,4|0,3:2|1:0,0:0:0:0:
116,0,12343,1,0,3:0:0:0:
116,0,12486,1,0,3:0:0:0:
85,81,12629,6,0,P|112:93|127:119,1,59.9999981689454,4|0,3:2|1:0,0:0:0:0:
210,112,12915,2,0,P|226:137|227:165,1,59.9999981689454,4|0,3:2|1:0,0:0:0:0:
306,204,13200,2,0,P|308:233|294:259,1,59.9999981689454,4|0,3:2|1:0,0:0:0:0:
341,332,13486,2,0,P|328:359|302:374,1,59.9999981689454,4|0,3:2|1:0,0:0:0:0:
230,327,13772,6,0,L|200:320,3,29.9999990844727,4|0|0|0,3:2|1:0|1:0|1:0,0:0:0:0:
164,344,14058,2,0,L|134:337,3,29.9999990844727,4|0|0|0,3:2|1:0|1:0|1:0,0:0:0:0:
113,300,14343,2,0,L|83:307,3,29.9999990844727,4|0|0|4,3:2|1:0|1:0|3:2,0:0:0:0:
47,283,14629,2,0,L|17:290,3,29.9999990844727,0|0|4|0,1:0|1:0|3:2|1:0,0:0:0:0:
0,330,14915,5,4,3:2:0:0:
256,192,14986,12,8,16629,3:2:0:0:
0,330,17200,6,0,P|62:316|117:303,1,119.999996337891,4|2,3:2|3:2,0:0:0:0:
271,384,17772,2,0,P|267:355|249:332,1,59.9999981689454,2|10,3:2|0:0,0:0:0:0:
195,262,18058,2,0,P|200:233|218:210,1,59.9999981689454,2|10,3:2|0:0,0:0:0:0:
301,179,18343,2,0,P|260:128|189:126,1,119.999996337891,0|0,3:0|3:0,0:0:0:0:
139,171,18772,1,10,0:0:0:0:
139,171,18843,1,0,0:0:0:0:
139,171,18915,2,0,P|122:105|105:43,1,119.999996337891,2|2,3:0|3:2,0:0:0:0:
176,0,19343,1,10,3:2:0:0:
241,58,19486,6,0,P|303:72|358:85,1,119.999996337891,2|0,3:2|3:0,0:0:0:0:
512,4,20058,2,0,P|508:33|490:56,1,59.9999981689454,2|10,3:2|0:0,0:0:0:0:
436,126,20343,2,0,P|441:155|459:178,1,59.9999981689454,2|10,3:2|0:0,0:0:0:0:
504,254,20629,2,0,P|460:292|453:351,1,119.999996337891,2|2,3:2|3:2,0:0:0:0:
372,383,21058,1,10,0:0:0:0:
289,358,21200,2,0,B|301:335|315:316|315:316|298:275|272:204,1,139.999995727539,6|2,3:2|3:2,0:0:0:0:
315,156,21629,1,8,3:2:0:0:
300,70,21772,6,0,P|243:53|190:78,1,119.999996337891,6|2,3:2|3:2,0:0:0:0:
34,2,22343,2,0,P|38:31|56:54,1,59.9999981689454,2|10,3:2|0:0,0:0:0:0:
110,124,22629,2,0,P|105:153|87:176,1,59.9999981689454,2|10,3:2|0:0,0:0:0:0:
4,207,22915,2,0,P|45:258|116:260,1,119.999996337891,0|2,3:0|3:2,0:0:0:0:
169,217,23343,1,8,0:0:0:0:
169,217,23415,1,0,0:0:0:0:
169,217,23486,2,0,P|226:228|261:276,1,119.999996337891,2|2,3:2|3:2,0:0:0:0:
276,362,23915,1,8,3:2:0:0:
342,305,24058,6,0,P|382:295|429:286,1,89.9999972534181,6|2,3:2|0:0,0:0:0:0:
457,252,24343,2,0,P|427:246|398:238,1,59.9999981689454,0|10,3:0|0:0,0:0:0:0:
369,156,24629,2,0,P|329:166|282:175,1,89.9999972534181,4|0,3:2|0:0,0:0:0:0:
254,209,24915,2,0,P|283:214|312:222,1,59.9999981689454,2|8,3:2|0:0,0:0:0:0:
342,305,25200,5,6,3:2:0:0:
455,173,25486,1,6,3:2:0:0:
512,336,25772,2,0,L|483:330,3,29.9999990844727,6|0|0|4,3:2|0:0|3:0|0:0,0:0:0:0:
454,363,26058,2,0,L|425:369,3,29.9999990844727,0|0|6|2,3:0|0:0|3:2|0:0,0:0:0:0:
387,348,26343,5,2,3:2:0:0:
387,348,26629,2,0,B|423:285|362:276|397:209,1,139.999995727539,4|0,3:2|3:0,0:0:0:0:
486,167,27058,1,8,0:0:0:0:
408,130,27200,2,0,P|375:125|344:90,1,59.9999981689454,0|8,3:0|0:0,0:0:0:0:
276,148,27486,2,0,P|249:127|240:81,1,59.9999981689454,2|10,3:2|0:0,0:0:0:0:
219,18,27772,2,0,P|186:23|155:58,1,59.9999981689454,2|10,3:2|0:0,0:0:0:0:
87,0,28058,2,0,P|60:20|51:66,1,59.9999981689454,2|10,3:2|0:0,0:0:0:0:
85,129,28343,1,2,3:2:0:0:
85,129,28415,1,0,0:0:0:0:
85,129,28486,1,10,3:2:0:0:
26,197,28629,6,0,P|59:206|99:218,1,59.9999981689454,2|8,3:2|0:0,0:0:0:0:
172,192,28915,2,0,P|176:225|150:264,1,59.9999981689454,2|10,3:2|0:0,0:0:0:0:
95,303,29200,2,0,P|84:330|90:359,1,59.9999981689454,2|8,3:2|0:0,0:0:0:0:
178,338,29486,2,0,P|206:346|235:354,1,59.9999981689454,0|8,3:0|0:0,0:0:0:0:
322,383,29772,2,0,P|350:374|379:366,1,59.9999981689454,0|8,3:0|0:0,0:0:0:0:
469,384,30058,2,0,P|473:350|447:311,1,59.9999981689454,2|8,3:2|0:0,0:0:0:0:
388,279,30343,6,0,P|402:217|415:162,1,119.999996337891,6|2,3:2|3:2,0:0:0:0:
492,114,30772,1,10,3:2:0:0:
438,42,30915,2,0,P|363:49|329:14,1,119.999996337891,6|0,3:2|3:0,0:0:0:0:
255,67,31343,1,8,3:2:0:0:
173,29,31486,6,0,P|159:91|146:146,1,119.999996337891,4|0,3:2|3:0,0:0:0:0:
191,225,31915,1,8,3:2:0:0:
137,297,32058,2,0,P|62:304|28:269,1,119.999996337891,6|2,3:2|3:2,0:0:0:0:
101,219,32486,1,8,3:2:0:0:
17,187,32629,6,0,P|30:128|43:70,1,119.999996337891,6|2,3:2|3:2,0:0:0:0:
103,1,33058,1,8,3:2:0:0:
133,85,33200,6,0,L|162:91,3,29.9999990844727,6|0|10|0,3:2|1:0|1:2|1:0,0:0:0:0:
203,71,33486,2,0,L|232:77,3,29.9999990844727,6|0|10|0,3:2|1:0|1:2|1:0,0:0:0:0:
266,108,33772,2,0,P|294:99|323:91,1,59.9999981689454,6|10,3:2|1:2,0:0:0:0:
386,26,34058,2,0,P|414:34|443:42,1,59.9999981689454,6|10,3:2|1:2,0:0:0:0:
491,119,34343,5,6,3:2:0:0:
359,334,34915,1,4,3:2:0:0:
216,112,35486,6,0,P|240:150|280:157,2,82.5000025177003,6|2|10,3:2|0:0|0:0,0:0:0:0:
142,161,36058,2,0,P|96:162|70:194,2,82.5000025177003,2|2|10,3:2|0:0|0:0,0:0:0:0:
137,73,36629,2,0,P|158:32|143:-6,2,82.5000025177003,2|2|10,3:2|0:0|0:0,0:0:0:0:
216,112,37200,2,0,P|245:103|292:93,1,55.0000016784668,2|10,3:2|0:0,0:0:0:0:
318,25,37486,1,2,3:2:0:0:
318,25,37629,1,10,3:2:0:0:
377,101,37772,6,0,B|419:111|419:111|427:118|427:118|484:131,2,89.9999972534181,6|2|10,3:2|3:2|3:2,0:0:0:0:
324,181,38343,2,0,B|281:191|281:191|274:198|274:198|217:211,2,89.9999972534181,6|2|10,3:2|3:2|3:2,0:0:0:0:
395,242,38915,5,6,3:2:0:0:
506,311,39129,1,6,3:2:0:0:
398,384,39343,1,6,3:2:0:0:
332,323,39486,2,0,L|281:310,3,29.9999990844727,0|2|2|2,3:0|3:2|3:2|3:2,0:0:0:0:
259,336,39772,2,0,L|208:349,3,29.9999990844727,2|2|2|2,3:2|3:2|3:2|3:2,0:0:0:0:
190,316,40058,5,2,3:2:0:0:
190,316,40343,2,0,P|199:288|207:259,1,59.9999981689454,4|0,3:2|0:0,0:0:0:0:
240,174,40629,2,0,P|212:163|182:168,1,59.9999981689454,2|8,3:2|0:0,0:0:0:0:
122,236,40915,2,0,P|92:240|64:230,1,59.9999981689454,0|10,3:0|0:0,0:0:0:0:
15,162,41200,5,0,3:0:0:0:
15,162,41343,1,8,0:0:0:0:
41,76,41486,2,0,P|33:47|23:18,1,59.9999981689454,0|10,3:0|0:0,0:0:0:0:
113,1,41772,2,0,P|120:29|130:58,1,59.9999981689454,2|10,3:2|0:0,0:0:0:0:
105,148,42058,1,2,3:2:0:0:
105,148,42200,1,10,3:2:0:0:
122,236,42343,6,0,B|162:226|162:226|169:220|169:220|207:211,1,89.9999972534181,6|0,3:2|0:0,0:0:0:0:
242,206,42629,1,2,3:2:0:0:
373,91,42915,6,0,B|332:81|332:81|325:75|325:75|287:66,1,89.9999972534181,6|0,3:2|0:0,0:0:0:0:
253,61,43200,1,2,3:2:0:0:
359,198,43486,6,0,B|377:272,1,59.9999981689454,6|0,3:2|0:0,0:0:0:0:
441,324,43772,1,6,0:0:0:0:
441,324,43915,1,0,3:0:0:0:
508,264,44058,2,0,B|490:190,1,59.9999981689454,6|0,0:0|0:0,0:0:0:0:
426,138,44343,1,6,3:2:0:0:
426,138,44486,1,0,3:0:0:0:
493,73,44629,6,0,P|438:41|377:53,1,125,6|0,3:2|1:0,0:0:0:0:
332,133,45058,2,0,B|310:145|293:157|293:157|259:145|213:131,1,125,14|8,3:2|1:2,0:0:0:0:
207,39,45486,2,0,B|141:41|157:85|75:84,1,125,4|2,3:2|1:2,0:0:0:0:
9,40,45915,1,12,3:2:0:0:
13,134,46058,2,0,P|21:165|29:198,1,62.5,4|10,3:2|0:0,0:0:0:0:
98,257,46343,5,6,3:2:0:0:
6,351,46558,1,4,3:2:0:0:
134,382,46772,1,14,3:2:0:0:
184,302,46915,2,0,P|203:258|186:214,2,93.75,6|2|14,3:2|3:2|3:2,0:0:0:0:
232,384,47486,2,0,P|263:376|296:368,1,62.5,2|8,0:0|0:0,0:0:0:0:
363,306,47772,1,4,3:2:0:0:
445,349,47915,2,0,P|452:318|460:288,1,62.5,10|2,3:2|1:2,0:0:0:0:
416,211,48200,5,14,3:2:0:0:
493,164,48343,2,0,P|485:135|478:106,1,59.9999981689454,6|10,3:2|1:2,0:0:0:0:
421,36,48629,2,0,P|458:13|509:21,2,89.9999972534181,6|4|14,3:2|3:2|3:2,0:0:0:0:
388,122,49200,5,6,3:2:0:0:
388,122,49343,1,8,1:2:0:0:
336,55,49486,1,4,3:2:0:0:
336,55,49629,1,8,1:2:0:0:
250,67,49772,5,6,3:2:0:0:
250,67,49915,1,8,1:2:0:0:
198,0,50058,1,4,3:2:0:0:
198,0,50200,1,10,1:2:0:0:
109,10,50343,6,0,P|115:40|136:61,1,59.9999981689454,6|8,3:2|1:2,0:0:0:0:
109,141,50629,2,0,P|130:164|157:172,1,59.9999981689454,4|10,3:2|1:2,0:0:0:0:
175,255,50915,2,0,P|204:265|232:258,1,59.9999981689454,6|10,3:2|3:2,0:0:0:0:
290,321,51200,2,0,P|320:316|341:295,1,59.9999981689454,6|10,3:2|3:2,0:0:0:0:
360,207,51486,5,4,3:2:0:0:
56,76,60629,6,0,B|69:93|84:111|84:111|70:144|56:189,1,119.999996337891,4|4,3:2|3:2,0:0:0:0:
9,258,61058,1,10,0:0:0:0:
57,334,61200,2,0,P|132:327|166:362,1,119.999996337891,6|4,3:2|3:2,0:0:0:0:
258,382,61629,1,10,0:0:0:0:
258,382,61700,1,2,0:0:0:0:
258,382,61772,6,0,B|272:363|288:346|288:346|280:313|268:262,1,119.999996337891,6|4,3:2|3:2,0:0:0:0:
270,185,62200,1,8,0:0:0:0:
360,190,62343,2,0,P|389:199|440:211,1,59.9999981689454,6|8,3:2|0:0,0:0:0:0:
427,300,62629,1,4,3:2:0:0:
427,300,62772,1,10,3:2:0:0:
498,245,62915,6,0,P|503:171|464:131,1,119.999996337891,4|4,3:2|3:2,0:0:0:0:
461,49,63343,1,10,0:0:0:0:
393,107,63486,2,0,B|378:88|363:71|363:71|371:38|383:-13,1,119.999996337891,6|4,3:2|3:2,0:0:0:0:
288,21,63915,1,10,0:0:0:0:
288,21,63986,1,2,0:0:0:0:
288,21,64058,6,0,P|243:57|187:40,1,119.999996337891,6|4,3:2|3:2,0:0:0:0:
98,39,64486,1,10,0:0:0:0:
102,129,64629,2,0,P|58:124|20:147,2,89.9999972534181,6|6|14,3:2|3:2|3:2,0:0:0:0:
193,128,65200,6,0,P|177:185|163:244,1,119.999996337891,4|4,3:2|3:2,0:0:0:0:
221,314,65629,1,10,1:2:0:0:
146,364,65772,2,0,P|71:357|37:392,1,119.999996337891,6|4,3:2|3:2,0:0:0:0:
0,304,66200,1,10,1:2:0:0:
63,240,66343,6,0,P|77:181|93:123,1,119.999996337891,6|4,3:2|3:2,0:0:0:0:
44,47,66772,1,8,1:2:0:0:
125,7,66915,2,0,P|153:15|182:23,1,59.9999981689454,6|8,3:2|1:2,0:0:0:0:
221,111,67200,1,4,3:2:0:0:
221,111,67343,1,10,1:2:0:0:
278,41,67486,6,0,P|309:90|299:147,1,119.999996337891,6|4,3:2|3:2,0:0:0:0:
226,201,67915,1,10,1:2:0:0:
279,274,68058,2,0,B|331:261|331:261|341:252|341:252|412:236,1,119.999996337891,6|4,3:2|3:2,0:0:0:0:
467,292,68486,1,10,1:2:0:0:
474,202,68629,5,6,3:2:0:0:
232,379,69200,2,0,L|223:343,3,25,10|8|10|8,3:2|0:0|3:2|0:0,0:0:0:0:
243,321,69486,2,0,L|252:285,3,25,10|10|10|10,3:2|0:0|3:2|3:2,0:0:0:0:
228,257,69772,6,0,P|161:305|110:292,1,119.999996337891,6|0,3:2|3:0,0:0:0:0:
50,337,70200,1,8,3:2:0:0:
50,337,70272,1,0,0:0:0:0:
50,337,70343,2,0,P|44:306|38:275,1,59.9999981689454,2|10,3:2|3:2,0:0:0:0:
102,213,70629,2,0,P|95:183|90:154,1,59.9999981689454,2|10,3:2|3:2,0:0:0:0:
8,117,70915,6,0,P|50:64|113:66,1,119.999996337891,2|0,3:2|3:0,0:0:0:0:
178,123,71343,1,10,3:2:0:0:
178,123,71415,1,2,0:0:0:0:
178,123,71486,2,0,P|207:116|236:111,1,59.9999981689454,2|8,3:2|3:2,0:0:0:0:
288,37,71772,2,0,P|317:43|346:48,1,59.9999981689454,2|10,3:2|3:2,0:0:0:0:
424,0,72058,6,0,P|443:65|395:120,1,119.999996337891,2|0,3:2|3:0,0:0:0:0:
444,193,72486,1,10,3:2:0:0:
397,270,72629,2,0,B|451:282|451:282|474:270|474:270|522:280,1,119.999996337891,0|2,3:0|3:2,0:0:0:0:
484,364,73058,1,8,3:2:0:0:
395,358,73200,6,0,P|337:370|260:388,1,119.999996337891,2|0,3:2|3:0,0:0:0:0:
200,339,73629,1,8,3:2:0:0:
278,293,73772,2,0,P|289:230|261:176,1,119.999996337891,2|0,3:2|3:0,0:0:0:0:
273,91,74200,1,8,3:2:0:0:
345,145,74343,6,0,B|415:142|395:102|476:96,1,119.999996337891,2|0,3:2|3:0,0:0:0:0:
476,196,74772,1,10,3:2:0:0:
476,196,74843,1,0,0:0:0:0:
476,196,74915,2,0,P|480:236|500:258,1,59.9999981689454,0|8,3:0|3:2,0:0:0:0:
478,340,75200,2,0,P|441:323|412:329,1,59.9999981689454,2|10,3:2|3:2,0:0:0:0:
345,373,75486,6,0,P|326:308|374:253,1,119.999996337891,2|0,3:2|3:0,0:0:0:0:
325,180,75915,1,10,3:2:0:0:
259,241,76058,2,0,B|205:253|205:253|182:241|182:241|134:251,1,119.999996337891,0|2,3:0|3:2,0:0:0:0:
85,318,76486,1,10,3:2:0:0:
13,264,76629,6,0,P|31:210|-4:144,1,119.999996337891,2|0,3:2|3:0,0:0:0:0:
17,65,77058,1,10,3:2:0:0:
88,121,77200,2,0,B|148:114|135:69|200:63,1,119.999996337891,0|2,3:0|3:2,0:0:0:0:
261,121,77629,1,10,3:2:0:0:
218,200,77772,6,0,P|225:229|230:258,1,59.9999981689454,2|10,3:2|3:2,0:0:0:0:
186,338,78058,2,0,P|223:355|252:349,1,59.9999981689454,2|8,3:2|3:2,0:0:0:0:
334,370,78343,1,0,3:0:0:0:
334,370,78486,1,8,3:2:0:0:
376,292,78629,1,2,3:2:0:0:
376,292,78772,1,8,3:2:0:0:
315,226,78915,6,0,P|248:211|234:162,1,119.999996337891,6|4,3:2|3:2,0:0:0:0:
147,174,79343,1,12,3:2:0:0:
147,174,79415,1,0,0:0:0:0:
147,174,79486,2,0,P|116:168|85:162,1,59.9999981689454,4|12,3:2|3:2,0:0:0:0:
103,73,79772,2,0,P|134:79|165:85,1,59.9999981689454,6|14,3:2|3:2,0:0:0:0:
249,60,80058,6,0,P|308:69|354:17,1,119.999996337891,6|4,3:2|3:2,0:0:0:0:
441,5,80486,1,14,3:2:0:0:
441,5,80558,1,0,0:0:0:0:
441,5,80629,2,0,P|437:36|429:67,1,59.9999981689454,4|12,3:2|3:2,0:0:0:0:
478,141,80915,2,0,P|482:172|490:203,1,59.9999981689454,6|12,3:2|3:2,0:0:0:0:
433,270,81200,6,0,P|456:294|496:291,1,59.9999981689454,6|12,3:2|3:2,0:0:0:0:
438,378,81486,1,6,3:2:0:0:
438,378,81629,2,0,B|413:367|395:357|395:357|360:371|321:387,1,119.999996337891,14|12,3:2|3:2,0:0:0:0:
238,377,82058,2,0,L|244:347,3,29.9999990844727,6|2|14|2,3:2|0:2|3:2|0:2,0:0:0:0:
254,304,82343,6,0,P|219:330|175:326,1,89.9999972534181,6|0,3:2|0:0,0:0:0:0:
135,309,82629,2,0,P|142:280|148:250,1,59.9999981689454,6|14,3:2|3:2,0:0:0:0:
207,177,82915,6,0,P|241:203|285:199,1,89.9999972534181,6|0,3:2|0:0,0:0:0:0:
326,182,83200,2,0,P|318:153|312:123,1,59.9999981689454,6|12,3:2|3:2,0:0:0:0:
252,57,83486,6,0,P|293:34|357:48,2,89.9999972534181,6|2|14,3:2|0:2|3:2,0:0:0:0:
167,105,84058,2,0,P|150:59|184:0,2,93.75,6|2|12,3:2|0:2|3:2,0:0:0:0:
184,208,84629,2,0,P|134:209|85:159,2,97.4999955368044,6|0|14,3:2|0:0|3:2,0:0:0:0:
294,223,85200,2,0,P|281:274|221:305,2,101.250000386238,6|2|14,3:2|0:2|3:2,0:0:0:0:
184,208,85772,6,0,L|171:147,1,62.5,6|14,3:2|3:2,0:0:0:0:
252,99,86058,2,0,L|239:38,1,62.5,6|14,3:2|3:2,0:0:0:0:
345,38,86343,2,0,L|332:100,1,62.5,6|14,3:2|3:2,0:0:0:0:
413,147,86629,2,0,L|400:209,1,62.5,6|14,3:2|3:2,0:0:0:0:
387,298,86915,6,0,P|358:293|337:272,1,59.9999981689454,6|14,3:2|3:2,0:0:0:0:
293,193,87200,2,0,P|272:214|243:220,1,59.9999981689454,6|14,3:2|3:2,0:0:0:0:
227,307,87486,2,0,P|198:302|177:281,1,59.9999981689454,6|14,3:2|3:2,0:0:0:0:
138,202,87772,2,0,P|117:223|88:229,1,59.9999981689454,6|14,3:2|3:2,0:0:0:0:
5,241,88058,5,6,3:2:0:0:
11,262,88200,1,2,0:0:0:0:
17,283,88343,1,2,0:0:0:0:
23,304,88486,1,2,0:0:0:0:
97,352,88629,5,2,0:0:0:0:
100,341,88772,1,2,0:0:0:0:
103,331,88915,1,2,0:0:0:0:
106,320,89058,1,2,0:0:0:0:
465,88,91486,6,0,L|474:124,3,25,2|2|2|2,1:2|1:2|1:2|1:2,0:0:0:0:
457,146,91772,2,0,L|466:182,3,25,2|2|2|2,1:2|1:2|1:2|1:2,0:0:0:0:
503,182,92058,2,0,L|513:221,3,27.5000008392334,2|2|2|2,1:2|1:2|1:2|1:2,0:0:0:0:
495,245,92343,2,0,L|505:284,3,27.5000008392334,2|2|2|2,1:2|1:2|1:2|1:2,0:0:0:0:
477,311,92629,6,0,B|413:312|429:268|365:266,1,125,6|0,3:2|0:0,0:0:0:0:
302,338,93058,2,0,P|268:289|280:224,1,125,6|0,3:2|3:0,0:0:0:0:
356,175,93486,6,0,P|367:114|332:64,1,125,4|2,3:2|3:2,0:0:0:0:
275,140,93915,1,4,3:2:0:0:
233,56,94058,2,0,P|203:49|173:40,1,62.5,4|2,3:2|3:2,0:0:0:0:
84,71,94343,2,0,L|93:100,3,31.25,6|0|2|0,3:2|0:0|3:2|0:0,0:0:0:0:
93,100,94915,6,0,B|135:110|135:110|143:117|143:117|200:130,2,89.9999972534181,6|2|10,3:2|0:0|0:0,0:0:0:0:
85,196,95486,2,0,B|43:206|43:206|35:213|35:213|-22:226,2,89.9999972534181,2|2|10,3:2|0:0|0:0,0:0:0:0:
161,251,96058,5,6,3:2:0:0:
82,356,96272,1,2,0:0:0:0:
209,382,96486,1,10,0:0:0:0:
251,302,96629,2,0,L|302:289,3,29.9999990844727,6|2|10|2,3:2|3:2|3:2|3:2,0:0:0:0:
322,311,96915,2,0,L|373:298,3,29.9999990844727,2|2|10|0,3:2|3:2|3:2|3:2,0:0:0:0:
373,265,97200,6,0,P|388:312|428:331,2,89.9999972534181,6|2|10,3:2|0:0|0:0,0:0:0:0:
300,199,97772,2,0,P|332:169|332:125,2,89.9999972534181,2|2|10,3:2|0:0|0:0,0:0:0:0:
280,294,98343,2,0,P|237:281|198:302,2,89.9999972534181,2|2|10,3:2|0:0|0:0,0:0:0:0:
373,265,98915,2,0,P|404:255|456:244,1,59.9999981689454,6|10,3:2|0:0,0:0:0:0:
478,173,99200,1,2,3:2:0:0:
478,173,99343,1,10,3:2:0:0:
418,107,99486,6,0,P|367:107|339:70,1,89.9999972534181,6|0,3:2|0:0,0:0:0:0:
333,50,99772,1,0,3:0:0:0:
154,72,100058,6,0,P|197:68|229:98,1,89.9999972534181,4|0,3:2|0:0,0:0:0:0:
244,127,100343,1,2,3:2:0:0:
162,260,100629,6,0,P|148:218|168:178,2,89.9999972534181,6|2|10,3:2|3:2|3:2,0:0:0:0:
156,350,101200,2,0,P|126:382|82:384,2,89.9999972534181,6|4|14,0:0|0:0|3:2,0:0:0:0:
240,307,101772,6,0,P|311:306|349:353,1,125,6|0,3:2|1:0,0:0:0:0:
430,384,102200,2,0,B|442:362|454:345|454:345|442:311|428:265,1,125,14|8,3:2|1:2,0:0:0:0:
435,176,102629,2,0,B|369:178|385:222|303:221,1,125,4|2,3:2|1:2,0:0:0:0:
241,176,103058,1,12,3:2:0:0:
317,126,103200,2,0,P|309:95|301:65,1,62.5,4|10,3:2|1:2,0:0:0:0:
226,15,103486,5,6,3:2:0:0:
172,133,103700,1,4,3:2:0:0:
94,28,103915,1,14,3:2:0:0:
84,119,104058,2,0,P|38:124|1:98,2,93.75,6|2|14,3:2|0:0|3:2,0:0:0:0:
115,204,104629,2,0,P|107:234|101:264,1,62.5,2|8,0:0|1:2,0:0:0:0:
18,310,104915,1,4,3:2:0:0:
79,381,105058,2,0,P|109:373|139:367,1,62.5,10|2,0:0|1:2,0:0:0:0:
232,384,105343,5,14,3:2:0:0:
300,324,105486,2,0,P|307:293|317:260,1,62.5,6|10,3:2|1:2,0:0:0:0:
338,178,105772,2,0,P|294:173|256:196,2,89.9999972534181,6|4|14,3:2|3:2|3:2,0:0:0:0:
403,244,106343,5,6,3:2:0:0:
403,244,106486,1,8,3:2:0:0:
456,176,106629,1,4,3:2:0:0:
456,176,106772,1,8,3:2:0:0:
396,116,106915,5,6,3:2:0:0:
396,116,107058,1,8,3:2:0:0:
449,48,107200,1,4,3:2:0:0:
449,48,107343,1,10,3:2:0:0:
360,39,107486,6,0,P|322:50|282:61,1,59.9999981689454,4|8,3:2|1:2,0:0:0:0:
248,128,107772,2,0,P|276:135|305:145,1,59.9999981689454,6|10,3:2|1:2,0:0:0:0:
355,221,108058,2,0,P|317:232|277:243,1,59.9999981689454,6|10,3:2|1:2,0:0:0:0:
243,310,108343,2,0,P|271:317|300:327,1,59.9999981689454,6|10,3:2|1:2,0:0:0:0:
370,384,108629,6,0,P|386:358|386:328,1,59.9999981689454,6|8,3:2|1:2,0:0:0:0:
462,291,108915,2,0,P|463:259|449:235,1,59.9999981689454,4|8,3:2|1:2,0:0:0:0:
496,164,109200,2,0,P|482:136|457:121,1,59.9999981689454,6|8,3:2|1:2,0:0:0:0:
461,36,109486,2,0,P|436:18|406:18,1,59.9999981689454,4|8,3:2|1:2,0:0:0:0:
332,68,109772,5,6,3:2:0:0:
253,171,110915,6,0,P|194:168|156:124,1,119.999996337891,4|0,3:2|3:0,0:0:0:0:
117,43,111343,1,10,0:0:0:0:
33,76,111486,2,0,B|46:93|61:111|61:111|47:144|35:181,1,119.999996337891,2|0,3:2|3:0,0:0:0:0:
86,256,111915,1,10,0:0:0:0:
68,344,112058,6,0,P|126:341|164:297,1,119.999996337891,2|0,3:2|3:0,0:0:0:0:
234,241,112486,1,8,0:0:0:0:
246,330,112629,2,0,P|275:337|303:346,1,59.9999981689454,2|8,3:2|0:0,0:0:0:0:
386,305,112915,1,0,3:0:0:0:
386,305,113058,1,10,0:0:0:0:
445,372,113200,6,0,P|476:322|466:265,1,119.999996337891,0|0,3:0|3:0,0:0:0:0:
389,216,113629,1,10,0:0:0:0:
470,176,113772,2,0,B|457:159|442:141|442:141|456:108|468:71,1,119.999996337891,2|0,3:2|3:0,0:0:0:0:
392,21,114200,1,10,0:0:0:0:
335,90,114343,6,0,P|297:45|238:42,1,119.999996337891,2|0,3:2|3:0,0:0:0:0:
190,119,114772,1,10,0:0:0:0:
148,39,114915,2,0,B|106:29|106:29|98:22|98:22|41:9,2,89.9999972534181,6|2|10,3:2|0:0|3:2,0:0:0:0:
101,116,115486,6,0,B|88:133|73:151|73:151|87:184|101:229,1,119.999996337891,4|0,3:2|3:0,0:0:0:0:
167,281,115915,1,10,0:0:0:0:
114,354,116058,2,0,P|72:313|14:316,1,119.999996337891,2|0,3:2|3:0,0:0:0:0:
0,227,116486,1,10,0:0:0:0:
60,160,116629,6,0,P|117:175|176:189,1,119.999996337891,2|0,3:2|3:0,0:0:0:0:
246,247,117058,1,8,0:0:0:0:
305,179,117200,2,0,P|297:152|289:122,1,59.9999981689454,2|8,3:2|0:0,0:0:0:0:
379,97,117486,1,0,3:0:0:0:
379,97,117629,1,10,0:0:0:0:
309,40,117772,6,0,P|358:9|415:19,1,119.999996337891,4|0,3:2|3:0,0:0:0:0:
468,94,118200,1,10,0:0:0:0:
427,174,118343,2,0,B|438:225|438:225|450:237|450:237|463:291,1,119.999996337891,6|0,3:2|3:0,0:0:0:0:
512,362,118772,1,10,0:0:0:0:
422,370,118915,6,0,P|389:363|342:355,1,59.9999981689454,6|8,3:2|0:0,0:0:0:0:
298,296,119200,2,0,P|265:303|218:311,1,59.9999981689454,4|8,3:2|0:0,0:0:0:0:
150,290,119486,2,0,P|149:334|173:371,2,89.9999972534181,14|14|14,3:2|0:0|3:2,0:0:0:0:
209,221,120058,6,0,B|196:204|181:186|181:186|195:153|209:108,1,119.999996337891,6|4,3:2|3:2,0:0:0:0:
210,25,120486,1,10,0:2:0:0:
131,68,120629,2,0,P|96:58|57:70,2,59.9999981689454,6|8|4,3:2|0:2|3:2,0:0:0:0:
96,156,121058,1,10,0:2:0:0:
96,156,121129,1,2,0:2:0:0:
96,156,121200,6,0,P|80:213|68:273,1,119.999996337891,6|4,3:2|3:2,0:0:0:0:
19,349,121629,1,8,0:2:0:0:
102,384,121772,2,0,P|131:375|160:368,1,59.9999981689454,6|8,3:2|0:2,0:0:0:0:
232,312,122058,1,4,3:2:0:0:
232,312,122200,1,10,0:2:0:0:
286,384,122343,6,0,P|322:337|317:279,1,119.999996337891,4|4,3:2|3:2,0:0:0:0:
321,189,122772,1,10,0:2:0:0:
395,240,122915,2,0,B|408:223|423:205|423:205|409:172|397:135,1,119.999996337891,6|4,3:2|3:2,0:0:0:0:
319,92,123343,1,10,0:2:0:0:
319,92,123415,1,2,0:2:0:0:
319,92,123486,6,0,P|246:102|214:49,1,119.999996337891,6|4,3:2|3:2,0:0:0:0:
140,26,123915,1,10,0:2:0:0:
131,116,124058,2,0,B|89:106|89:106|81:99|81:99|24:86,2,89.9999972534181,6|2|10,3:2|0:2|3:2,0:0:0:0:
218,72,124629,6,0,B|231:89|246:107|246:107|232:140|220:177,1,119.999996337891,4|4,3:2|3:2,0:0:0:0:
231,268,125058,1,10,0:2:0:0:
293,333,125200,2,0,P|270:354|240:358,2,59.9999981689454,6|8|4,3:2|0:2|3:2,0:0:0:0:
348,261,125629,1,10,0:2:0:0:
438,266,125772,6,0,P|452:207|468:149,1,119.999996337891,6|4,3:2|3:2,0:0:0:0:
512,71,126200,1,8,0:2:0:0:
441,16,126343,2,0,P|413:24|384:32,1,59.9999981689454,6|8,3:2|0:2,0:0:0:0:
345,120,126629,1,4,3:2:0:0:
345,120,126772,1,10,0:2:0:0:
288,50,126915,6,0,P|257:99|267:156,1,119.999996337891,6|4,3:2|3:2,0:0:0:0:
340,210,127343,1,10,3:2:0:0:
287,283,127486,2,0,B|235:270|235:270|225:261|225:261|154:245,1,119.999996337891,4|4,3:2|3:2,0:0:0:0:
92,211,127915,1,10,3:2:0:0:
99,301,128058,5,6,3:2:0:0:
399,322,128486,1,0,3:2:0:0:
399,322,128558,1,0,3:2:0:0:
399,322,128629,2,0,L|390:286,3,25,10|8|10|8,3:2|0:0|3:2|0:0,0:0:0:0:
410,264,128915,2,0,L|419:228,3,25,10|10|10|10,3:2|3:2|3:2|3:2,0:0:0:0:
396,209,129200,6,0,L|386:147,1,62.5,6|10,3:2|1:2,0:0:0:0:
309,107,129486,2,0,L|299:45,1,62.5,6|10,3:2|1:2,0:0:0:0:
213,45,129772,2,0,L|203:106,1,62.5,6|10,3:2|1:2,0:0:0:0:
126,147,130058,2,0,L|116:208,1,62.5,6|10,3:2|1:2,0:0:0:0:
128,294,130343,6,0,P|157:289|178:268,1,59.9999981689454,6|10,3:2|1:2,0:0:0:0:
222,189,130629,2,0,P|243:210|272:216,1,59.9999981689454,6|10,3:2|1:2,0:0:0:0:
323,292,130915,2,0,P|343:271|373:265,1,59.9999981689454,6|10,3:2|1:2,0:0:0:0:
437,203,131200,2,0,P|465:209|486:230,1,59.9999981689454,6|10,3:2|1:2,0:0:0:0:
454,317,131486,5,6,3:2:0:0:
454,317,131629,1,10,1:2:0:0:
373,265,131772,5,6,3:2:0:0:
373,265,131915,1,10,1:2:0:0:
346,172,132058,5,6,3:2:0:0:
346,172,132200,1,10,1:2:0:0:
264,119,132343,5,6,3:2:0:0:
264,119,132486,1,10,1:2:0:0:
169,142,132629,5,6,3:2:0:0:
169,142,132772,1,10,1:2:0:0:
87,89,132915,5,6,3:2:0:0:
87,89,133058,1,10,1:2:0:0:
89,173,133200,6,0,L|76:213,3,25,6|2|10|2,3:2|3:2|3:2|3:2,0:0:0:0:
95,234,133486,2,0,L|82:274,3,25,6|2|10|2,3:2|3:2|3:2|3:2,0:0:0:0:
53,290,133772,5,4,3:2:0:0:
