osu file format v14

[General]
AudioFilename: audio.mp3
AudioLeadIn: 0
PreviewTime: 69772
Countdown: 0
SampleSet: Soft
StackLeniency: 0.3
Mode: 0
LetterboxInBreaks: 0
WidescreenStoryboard: 1

[Editor]
Bookmarks: 1200,5772,14915,17200,26343,35486,44629,51486,60629,69772,78915,88058,92629,101772,110915,120058,128058,133772
DistanceSpacing: 0.5
BeatDivisor: 4
GridSize: 16
TimelineZoom: 2.5

[Metadata]
Title:Myths Orbis
TitleUnicode:Myths Orbis
Artist:Raimukun
ArtistUnicode:Raimukun
Creator:knowledgeking
Version:Musty's Expert
Source:osu! World Cup 2022
Tags:-_AzRael_- AzRael Imokora RiverKnowFarm nik nikolomara Musty Mustaash Chemo Serenhaide Sh4rq_ Sh3rg_ kiwies morphne ItsWinter SILENCE PLAYER owc grand finals owc2022GFNM2 nomod fa featured artist electronic instrumental piano Cinematic Speedcore Hardcore hard renaissance stream
BeatmapID:3974395
BeatmapSetID:1889095

[Difficulty]
HPDrainRate:5
CircleSize:3.5
OverallDifficulty:8.5
ApproachRate:9.3
SliderMultiplier:1
SliderTickRate:1

[Events]
//Background and Video events
0,0,"bg.jpg",0,0
//Break Periods
//Storyboard Layer 0 (Background)
//Storyboard Layer 1 (Fail)
//Storyboard Layer 2 (Pass)
//Storyboard Layer 3 (Foreground)
//Storyboard Layer 4 (Overlay)
//Storyboard Sound Samples

[TimingPoints]
58,285.714285714286,4,2,1,70,1,0
1200,-40,4,2,1,70,0,0
17200,-33.3333333333333,4,2,1,70,0,0
17272,-50,4,2,1,70,0,0
19486,-35.7142857142857,4,2,1,70,0,0
19558,-50,4,2,1,70,0,0
21772,-38.4615384615385,4,2,1,70,0,0
21843,-50,4,2,1,70,0,0
26915,-50,4,2,1,70,0,0
28629,-38.4615384615385,4,2,1,70,0,0
28915,-50,4,2,1,70,0,0
30343,-38.4615384615385,4,2,1,70,0,0
35486,-55.5555555555556,4,2,1,70,0,0
37200,-47.6190476190476,4,2,1,70,0,0
37343,-41.6666666666667,4,2,1,70,0,0
37486,-37.037037037037,4,2,1,70,0,0
37629,-33.3333333333333,4,2,1,70,0,0
37772,-55.5555555555556,4,2,1,70,0,0
38915,-33.3333333333333,4,2,1,70,0,0
40058,-50,4,2,1,70,0,0
45200,-50,4,2,1,70,0,0
45772,-45.4545454545455,4,2,1,70,0,0
46343,-41.6666666666667,4,2,1,70,0,0
46915,-38.4615384615385,4,2,1,70,0,0
49200,-40,4,2,1,70,0,0
50343,-44.4444444444445,4,2,1,70,0,0
50915,-50,4,2,1,70,0,0
51486,-57.1428571428571,4,2,1,70,0,0
60629,-50,4,2,1,70,0,1
68629,-40,4,2,1,70,0,0
68915,-50,4,2,1,70,0,0
73772,-50,4,2,1,70,0,0
78915,-41.6666666666667,4,1,1,50,0,0
84058,-41.6666666666667,4,1,1,55,0,0
84629,-41.6666666666667,4,1,1,60,0,0
85200,-41.6666666666667,4,1,1,65,0,0
85772,-41.6666666666667,4,1,1,70,0,0
88058,-55.5555555555556,4,2,1,70,0,0
89343,-50,4,2,1,70,0,0
92629,-66.6666666666667,4,2,1,70,0,0
94915,-50,4,2,1,70,0,0
98343,-45.4545454545455,4,2,1,70,0,0
98915,-50,4,2,1,70,0,0
99486,-55.5555555555556,4,2,1,70,0,0
106343,-50,4,2,1,70,0,0
107486,-55.5555555555556,4,2,1,70,0,0
108629,-50,4,2,1,70,0,0
110915,-50,4,2,1,70,0,0
120058,-45.4545454545455,4,1,1,70,0,1
128058,-37.037037037037,4,2,1,70,0,0
128343,-50,4,2,1,70,0,0
129200,-50,4,2,1,70,0,0
131486,-33.3333333333333,4,2,1,70,0,0
133200,-33.3333333333333,4,2,1,70,0,0

[Colours]
Combo1 : 0,142,0
Combo2 : 130,255,255
Combo3 : 0,67,149
Combo4 : 184,184,184

[HitObjects]
164,294,915,5,2,0:0:0:0:
149,297,986,1,2,0:0:0:0:
134,300,1058,1,2,0:0:0:0:
119,303,1129,1,2,0:0:0:0:
104,306,1200,6,0,L|34:291,3,62.5,6|0|2|0,3:2|1:0|3:2|1:0,0:0:0:0:
83,222,1486,2,0,L|38:159,3,62.5,6|0|2|0,3:2|1:0|3:2|1:0,0:0:0:0:
130,137,1772,2,0,L|116:54,3,62.5,6|0|2|0,3:2|1:0|3:2|1:0,0:0:0:0:
207,82,2058,2,0,L|204:8,3,62.5,6|0|2|0,3:2|1:0|3:2|1:0,0:0:0:0:
305,82,2343,2,0,L|308:8,3,62.5,6|0|2|0,3:2|1:0|3:2|1:0,0:0:0:0:
382,137,2629,2,0,L|392:75,3,62.5,6|0|2|0,3:2|1:0|3:2|1:0,0:0:0:0:
429,222,2915,2,0,L|465:171,3,62.5,6|0|2|0,3:2|1:0|3:2|1:0,0:0:0:0:
408,306,3200,2,0,L|469:292,3,62.5,6|0|2|0,3:2|1:0|3:2|1:0,0:0:0:0:
331,347,3486,6,0,P|317:302|331:258,1,62.5,6|0,3:2|1:0,0:0:0:0:
239,288,3629,2,0,P|249:242|283:210,1,62.5,2|0,3:2|1:0,0:0:0:0:
188,190,3772,2,0,P|219:155|265:145,1,62.5,6|0,3:2|1:0,0:0:0:0:
192,79,3915,2,0,P|237:65|280:79,1,62.5,2|0,3:2|1:0,0:0:0:0:
374,157,4058,6,0,P|329:171|285:157,1,62.5,6|0,3:2|1:0,0:0:0:0:
315,249,4200,2,0,P|269:238|237:204,1,62.5,2|0,3:2|1:0,0:0:0:0:
217,300,4343,2,0,P|182:268|172:222,1,62.5,6|0,3:2|1:0,0:0:0:0:
106,296,4486,2,0,P|92:251|106:207,1,62.5,2|0,3:2|1:0,0:0:0:0:
78,57,4629,6,0,P|92:102|78:146,1,62.5,6|0,3:2|1:0,0:0:0:0:
170,116,4772,2,0,P|159:161|125:193,1,62.5,2|0,3:2|1:0,0:0:0:0:
221,214,4915,2,0,P|189:248|143:258,1,62.5,6|0,3:2|1:0,0:0:0:0:
217,325,5058,2,0,P|172:339|128:325,1,62.5,2|0,3:2|1:0,0:0:0:0:
45,281,5200,5,14,3:2:0:0:
27,247,5272,1,2,1:2:0:0:
23,209,5343,1,10,3:2:0:0:
29,171,5415,1,2,1:2:0:0:
43,136,5486,1,14,3:2:0:0:
70,110,5558,1,10,1:2:0:0:
104,94,5629,1,10,3:2:0:0:
140,85,5700,1,10,1:2:0:0:
177,87,5772,6,0,L|156:165,1,62.5,4|0,3:2|0:0,0:0:0:0:
402,223,6058,1,0,1:0:0:0:
402,223,6129,1,0,1:0:0:0:
402,223,6200,2,0,L|385:162,1,62.5,4|0,3:2|0:0,0:0:0:0:
280,22,6486,1,2,0:0:0:0:
262,48,6558,1,2,0:0:0:0:
253,77,6629,1,2,0:0:0:0:
249,107,6700,1,2,0:0:0:0:
252,138,6772,1,0,1:0:0:0:
263,166,6843,1,0,1:0:0:0:
279,192,6915,6,0,L|258:270,7,62.5,4|0|0|0|0|0|0|0,3:2|0:0|0:0|0:0|0:0|0:0|1:0|1:0,0:0:0:0:
208,336,7486,6,0,L|130:315,3,62.5,4|0|0|0,3:2|0:0|1:0|1:0,0:0:0:0:
64,265,7772,2,0,L|85:187,3,62.5,4|0|0|0,3:2|0:0|1:0|1:0,0:0:0:0:
135,121,8058,5,4,3:2:0:0:
311,339,8343,2,0,L|371:355,2,62.5,0|0|4,1:0|1:0|3:2,0:0:0:0:
446,180,8772,1,2,0:0:0:0:
446,180,8843,1,2,0:0:0:0:
446,180,8915,2,0,L|465:103,3,62.5,2|2|0|0,0:0|0:0|1:0|1:0,0:0:0:0:
425,44,9200,6,0,P|313:33|275:60,1,125,4|0,3:2|0:0,0:0:0:0:
236,216,9486,2,0,P|348:227|386:200,1,125,0|0,0:0|1:0,0:0:0:0:
354,223,9700,1,0,1:0:0:0:
354,223,9772,2,0,L|340:152,1,62.5,4|0,3:2|0:0,0:0:0:0:
233,71,9915,2,0,L|245:132,1,62.5,0|0,1:0|1:0,0:0:0:0:
152,196,10058,2,0,L|137:124,1,62.5,4|0,3:2|0:0,0:0:0:0:
30,43,10200,2,0,L|42:104,1,62.5,0|0,1:0|1:0,0:0:0:0:
34,202,10343,5,4,3:2:0:0:
144,47,10486,1,0,1:0:0:0:
99,257,10629,2,0,P|79:321|73:411,1,125,0|0,3:0|1:0,0:0:0:0:
189,312,10915,5,4,3:2:0:0:
34,202,11058,1,0,1:0:0:0:
244,247,11200,2,0,P|308:267|398:273,1,125,0|0,3:0|1:0,0:0:0:0:
472,211,11486,5,4,3:2:0:0:
486,182,11558,1,0,0:0:0:0:
484,150,11629,1,0,1:0:0:0:
471,121,11700,1,0,1:0:0:0:
448,98,11772,2,0,L|464:32,3,62.5,0|0|0|0,3:0|0:0|1:0|1:0,0:0:0:0:
362,26,12058,5,4,3:2:0:0:
336,43,12129,1,0,0:0:0:0:
306,51,12200,1,0,1:0:0:0:
274,50,12272,1,0,1:0:0:0:
244,40,12343,1,0,3:0:0:0:
214,30,12415,1,0,0:0:0:0:
182,29,12486,1,0,3:0:0:0:
152,37,12558,1,0,0:0:0:0:
126,55,12629,6,0,P|96:139|103:192,1,125,4|0,3:2|1:0,0:0:0:0:
254,274,12915,1,4,3:2:0:0:
208,131,13058,1,0,1:0:0:0:
178,356,13200,6,0,P|262:386|315:379,1,125,4|0,3:2|1:0,0:0:0:0:
397,228,13486,1,4,3:2:0:0:
254,274,13629,1,0,1:0:0:0:
479,304,13772,6,0,P|509:220|502:167,1,125,4|0,3:2|1:0,0:0:0:0:
351,85,14058,1,4,3:2:0:0:
397,228,14200,1,0,1:0:0:0:
455,59,14343,5,4,3:2:0:0:
438,31,14415,1,0,1:0:0:0:
413,12,14486,1,0,1:0:0:0:
382,2,14558,1,4,3:2:0:0:
350,0,14629,1,0,1:0:0:0:
318,2,14700,1,0,1:0:0:0:
287,12,14772,1,4,3:2:0:0:
262,31,14843,1,0,1:0:0:0:
245,59,14915,1,4,3:2:0:0:
257,315,15200,6,0,P|265:343|319:359,3,62.5,2|2|2|2,0:0|0:0|0:0|0:0,0:0:0:0:
373,229,15486,6,0,P|402:230|434:183,3,62.5,2|2|2|2,0:0|0:0|0:0|0:0,0:0:0:0:
327,91,15772,6,0,P|337:64|303:19,3,62.5,2|2|2|2,0:0|0:0|0:0|0:0,0:0:0:0:
182,93,16058,6,0,P|159:75|105:93,3,62.5,2|2|2|2,0:0|0:0|0:0|0:0,0:0:0:0:
139,230,16343,6,0,P|114:246|116:302,3,62.5,2|2|2|2,0:0|0:0|0:0|0:0,0:0:0:0:
247,227,16629,5,8,3:2:0:0:
272,224,16700,1,8,0:0:0:0:
289,206,16772,1,8,3:2:0:0:
291,181,16843,1,8,0:0:0:0:
276,161,16915,1,8,3:2:0:0:
252,155,16986,1,8,3:2:0:0:
229,166,17058,1,8,3:2:0:0:
219,189,17129,1,8,3:2:0:0:
226,213,17200,6,0,P|336:256|416:264,1,150.000005722046,4|10,3:2|0:0,0:0:0:0:
512,106,17486,1,2,3:2:0:0:
488,113,17558,1,2,0:0:0:0:
467,127,17629,1,10,0:0:0:0:
451,146,17700,1,2,0:0:0:0:
441,169,17772,2,0,P|437:206|440:241,3,50,2|0|10|0,3:2|0:0|0:0|0:0,0:0:0:0:
360,263,18058,2,0,P|385:289|414:310,3,50,2|0|10|0,3:2|0:0|0:0|0:0,0:0:0:0:
481,298,18343,1,0,3:0:0:0:
324,369,18486,1,10,0:0:0:0:
324,369,18558,1,0,0:0:0:0:
324,369,18629,2,0,L|266:346,3,50,0|0|10|0,3:0|0:0|0:0|0:0,0:0:0:0:
265,260,18915,2,0,L|218:278,3,50,2|2|10|2,3:0|0:0|0:0|0:0,0:0:0:0:
150,338,19200,5,2,3:2:0:0:
130,333,19272,1,2,0:0:0:0:
110,327,19343,1,10,3:2:0:0:
0,356,19486,2,0,P|40:293|76:200,1,139.999995727539,2|8,3:2|0:0,0:0:0:0:
49,32,19772,5,0,3:0:0:0:
35,46,19843,1,0,0:0:0:0:
26,64,19915,1,8,0:0:0:0:
26,83,19986,1,0,0:0:0:0:
33,101,20058,2,0,L|93:111,3,50,2|0|10|0,3:2|0:0|0:0|0:0,0:0:0:0:
141,38,20343,2,0,L|190:29,3,50,2|0|10|0,3:2|0:0|0:0|0:0,0:0:0:0:
239,106,20629,5,2,3:2:0:0:
258,109,20700,1,0,0:0:0:0:
277,113,20772,1,8,0:0:0:0:
296,116,20843,1,2,0:0:0:0:
315,119,20915,1,2,3:2:0:0:
334,122,20986,1,2,0:0:0:0:
353,126,21058,1,10,0:0:0:0:
372,129,21129,1,2,0:0:0:0:
391,132,21200,6,0,P|421:114|467:113,3,50,6|2|10|2,3:2|0:0|3:2|0:0,0:0:0:0:
469,188,21486,2,0,P|439:206|393:207,3,50,2|0|8|0,3:2|0:0|3:2|0:0,0:0:0:0:
346,209,21772,6,0,P|326:302|341:357,1,129.999994049073,6|8,3:2|0:0,0:0:0:0:
170,351,22058,1,2,3:2:0:0:
151,343,22129,1,2,0:0:0:0:
136,329,22200,1,10,0:0:0:0:
126,311,22272,1,2,0:0:0:0:
127,291,22343,2,0,P|151:273|181:271,3,50,2|0|10|0,3:2|0:0|0:0|0:0,0:0:0:0:
141,192,22629,2,0,P|170:185|198:196,3,50,2|0|10|0,3:2|0:0|0:0|0:0,0:0:0:0:
272,220,22915,1,0,3:0:0:0:
291,212,22986,1,0,0:0:0:0:
306,198,23058,1,8,0:0:0:0:
316,180,23129,1,0,0:0:0:0:
315,160,23200,2,0,P|291:142|261:140,3,50,2|0|8|0,3:2|0:0|0:0|0:0,0:0:0:0:
301,61,23486,2,0,P|271:54|243:65,3,50,2|0|8|0,3:2|0:0|0:0|0:0,0:0:0:0:
176,51,23772,5,2,3:2:0:0:
163,35,23843,1,0,0:0:0:0:
150,19,23915,1,8,3:2:0:0:
40,149,24058,2,0,P|120:133|185:129,1,100,6|8,3:2|0:0,0:0:0:0:
276,257,24343,5,0,3:0:0:0:
296,253,24415,1,0,0:0:0:0:
316,250,24486,1,10,0:0:0:0:
259,90,24629,2,0,P|232:167|203:225,1,100,4|8,3:2|0:0,0:0:0:0:
47,240,24915,5,2,3:2:0:0:
41,259,24986,1,0,0:0:0:0:
33,278,25058,1,8,0:0:0:0:
200,309,25200,2,0,P|146:247|110:193,1,100,6|8,3:2|0:0,0:0:0:0:
187,77,25486,5,6,3:2:0:0:
187,77,25558,1,0,0:0:0:0:
187,77,25629,1,8,0:0:0:0:
307,210,25772,2,0,P|298:322|266:381,2,150,6|4|6,3:2|0:0|3:2,0:0:0:0:
287,97,26343,2,0,P|330:75|400:71,1,100,2|0,3:2|0:0,0:0:0:0:
470,181,26629,5,4,3:2:0:0:
454,193,26700,1,0,0:0:0:0:
439,207,26772,1,0,0:0:0:0:
428,224,26843,1,0,0:0:0:0:
418,241,26915,2,0,L|406:303,3,50,0|0|8|0,3:0|0:0|0:0|0:0,0:0:0:0:
326,276,27200,2,0,L|335:338,3,50,0|0|8|0,3:0|0:0|0:0|0:0,0:0:0:0:
246,310,27486,2,0,P|188:291|130:277,1,100,2|10,3:2|0:0,0:0:0:0:
27,328,27772,1,2,3:2:0:0:
20,309,27843,1,2,0:0:0:0:
14,289,27915,1,10,0:0:0:0:
11,269,27986,1,2,0:0:0:0:
13,249,28058,2,0,L|31:179,3,50,2|0|10|0,3:2|0:0|0:0|0:0,0:0:0:0:
106,195,28343,2,0,L|88:125,3,50,2|0|10|0,3:2|0:0|3:2|0:0,0:0:0:0:
184,141,28629,6,0,P|286:118|328:114,1,129.999994049073,2|8,3:2|0:0,0:0:0:0:
481,226,28915,1,2,3:2:0:0:
455,229,28986,1,2,0:0:0:0:
429,222,29058,1,10,0:0:0:0:
406,210,29129,1,2,0:0:0:0:
392,188,29200,2,0,L|412:120,3,50,2|0|8|0,3:2|0:0|0:0|0:0,0:0:0:0:
317,101,29486,2,0,L|339:27,3,50,0|0|8|0,3:0|0:0|0:0|0:0,0:0:0:0:
276,193,29772,5,0,3:0:0:0:
250,188,29843,1,0,0:0:0:0:
224,183,29915,1,8,0:0:0:0:
198,178,29986,1,0,0:0:0:0:
172,173,30058,1,2,3:2:0:0:
146,168,30129,1,0,0:0:0:0:
120,163,30200,1,8,0:0:0:0:
94,158,30272,1,0,0:0:0:0:
68,153,30343,6,0,P|43:94|43:85,1,64.9999970245363,6|0,3:2|0:0,0:0:0:0:
127,81,30486,2,0,P|156:23|163:17,1,64.9999970245363,8|2,3:2|0:0,0:0:0:0:
220,79,30629,2,0,P|282:64|291:66,1,64.9999970245363,2|2,3:2|0:0,0:0:0:0:
281,148,30772,2,0,P|332:186|336:194,1,64.9999970245363,10|2,3:2|0:0,0:0:0:0:
254,226,30915,5,6,3:2:0:0:
244,250,30986,1,0,0:0:0:0:
244,276,31058,1,8,3:2:0:0:
251,300,31129,1,0,0:0:0:0:
267,319,31200,1,0,3:0:0:0:
288,334,31272,1,0,0:0:0:0:
312,341,31343,1,8,3:2:0:0:
338,340,31415,1,0,0:0:0:0:
362,330,31486,2,0,L|452:336,3,64.9999970245363,4|0|8|0,3:2|0:0|3:2|0:0,0:0:0:0:
407,245,31772,2,0,L|497:251,3,64.9999970245363,0|0|8|0,3:0|0:0|3:2|0:0,0:0:0:0:
268,158,32058,6,0,L|178:164,3,64.9999970245363,6|0|8|0,3:2|0:0|3:2|0:0,0:0:0:0:
223,73,32343,2,0,L|133:79,3,64.9999970245363,2|0|8|0,3:2|0:0|3:2|1:0,0:0:0:0:
351,17,32629,5,6,3:2:0:0:
346,42,32700,1,0,0:0:0:0:
341,67,32772,2,0,L|361:131,1,64.9999970245363,8|0,3:2|0:0,0:0:0:0:
379,248,32915,5,2,3:2:0:0:
354,243,32986,1,0,1:0:0:0:
329,238,33058,2,0,L|265:258,1,64.9999970245363,8|0,3:2|1:0,0:0:0:0:
148,276,33200,5,6,3:2:0:0:
153,251,33272,1,0,1:0:0:0:
158,226,33343,1,10,1:2:0:0:
163,201,33415,1,0,1:0:0:0:
168,176,33486,1,6,3:2:0:0:
173,151,33558,1,0,1:0:0:0:
178,126,33629,1,10,1:2:0:0:
183,101,33700,1,0,1:0:0:0:
188,76,33772,6,0,L|162:12,3,64.9999970245363,6|0|10|0,3:2|1:0|1:2|1:0,0:0:0:0:
265,24,34058,6,0,L|329:-2,3,64.9999970245363,6|0|10|0,3:2|1:0|1:2|1:0,0:0:0:0:
98,75,34343,6,0,L|34:49,1,64.9999970245363,6|0,3:2|0:0,0:0:0:0:
305,333,34915,5,4,3:2:0:0:
323,350,34986,1,0,0:0:0:0:
349,352,35058,1,0,0:0:0:0:
372,342,35129,1,0,0:0:0:0:
395,330,35200,1,10,0:0:0:0:
418,320,35272,1,10,0:0:0:0:
444,322,35343,1,10,0:0:0:0:
462,339,35415,1,10,0:0:0:0:
476,357,35486,6,0,P|503:307|507:259,1,89.9999972534181,6|8,3:2|0:0,0:0:0:0:
442,214,35700,1,2,0:0:0:0:
442,214,35772,2,0,P|470:173|513:149,1,89.9999972534181,0|10,3:0|0:0,0:0:0:0:
383,108,36058,6,0,P|333:81|285:77,1,89.9999972534181,2|8,3:2|0:0,0:0:0:0:
246,140,36272,1,2,0:0:0:0:
246,140,36343,2,0,P|205:112|181:69,1,89.9999972534181,0|10,3:0|0:0,0:0:0:0:
51,29,36629,6,0,P|96:105|111:144,1,89.9999972534181,2|8,3:2|0:0,0:0:0:0:
19,143,36843,1,2,0:0:0:0:
19,143,36915,2,0,P|1:219|0:258,1,89.9999972534181,0|10,3:0|0:0,0:0:0:0:
158,270,37200,5,2,3:2:0:0:
5,335,37343,1,10,0:0:0:0:
95,195,37486,1,2,3:2:0:0:
107,359,37629,1,10,3:2:0:0:
107,359,37700,1,0,0:0:0:0:
107,359,37772,6,0,P|146:343|210:338,1,89.9999972534181,6|8,3:2|0:0,0:0:0:0:
233,265,37986,2,0,P|270:302|276:322,1,44.999998626709,2|0,3:2|0:0,0:0:0:0:
5,335,38200,1,10,3:2:0:0:
290,207,38343,6,0,P|251:191|187:186,1,89.9999972534181,6|8,3:2|0:0,0:0:0:0:
164,113,38558,2,0,P|127:150|121:170,1,44.999998626709,2|0,3:2|0:0,0:0:0:0:
392,183,38772,1,10,3:2:0:0:
166,345,38915,6,0,P|113:270|128:218,1,150.000005722046,6|0,3:2|0:0,0:0:0:0:
203,184,39129,2,0,P|256:259|241:311,1,150.000005722046,6|0,3:2|0:0,0:0:0:0:
319,362,39343,1,6,3:2:0:0:
319,362,39415,1,0,0:0:0:0:
319,362,39486,2,0,P|362:338|412:335,3,75.0000028610231,0|2|2|2,3:0|3:2|3:2|3:2,0:0:0:0:
393,246,39772,2,0,P|439:263|473:299,3,75.0000028610231,2|2|2|2,3:2|3:2|3:2|3:2,0:0:0:0:
470,359,40058,5,2,3:2:0:0:
376,235,40200,1,8,0:0:0:0:
356,223,40272,2,0,P|334:165|350:104,1,100,2|0,0:0|0:0,0:0:0:0:
352,113,40486,1,0,0:0:0:0:
296,36,40629,6,0,P|256:81|191:94,1,100,2|8,3:2|0:0,0:0:0:0:
194,92,40843,2,0,P|136:55|65:52,1,100,2|0,0:0|0:0,0:0:0:0:
84,61,41058,1,10,0:0:0:0:
113,160,41200,6,0,P|122:213|93:310,1,150,0|2,3:0|0:0,0:0:0:0:
84,315,41486,2,0,P|29:271|13:209,1,100,0|10,3:0|0:0,0:0:0:0:
212,175,41772,5,2,3:2:0:0:
231,170,41843,1,0,0:0:0:0:
250,172,41915,1,10,0:0:0:0:
268,180,41986,1,0,0:0:0:0:
285,190,42058,1,2,3:2:0:0:
304,195,42129,1,0,0:0:0:0:
323,193,42200,1,10,3:2:0:0:
341,185,42272,1,0,0:0:0:0:
354,170,42343,6,0,P|366:102|350:57,1,100,6|8,3:2|0:0,0:0:0:0:
302,294,42629,2,0,L|246:271,3,50,2|0|8|0,3:2|0:0|0:0|0:0,0:0:0:0:
333,368,42915,2,0,P|410:349|470:343,1,100,6|8,3:2|0:0,0:0:0:0:
428,204,43200,2,0,L|405:260,3,50,2|0|8|0,3:2|0:0|0:0|0:0,0:0:0:0:
502,173,43486,2,0,P|481:111|472:25,2,150,6|0|0,3:2|3:0|3:0,0:0:0:0:
353,306,44058,5,6,0:0:0:0:
335,314,44129,1,0,3:0:0:0:
315,317,44200,1,0,0:0:0:0:
294,316,44272,1,0,0:0:0:0:
274,311,44343,1,6,3:2:0:0:
256,300,44415,1,0,0:0:0:0:
241,286,44486,1,0,3:0:0:0:
230,268,44558,1,0,0:0:0:0:
227,248,44629,6,0,L|249:148,2,100,6|8|0,3:2|0:0|1:0,0:0:0:0:
68,75,45058,6,0,L|89:172,2,100,14|2|8,3:2|0:0|1:2,0:0:0:0:
31,281,45486,6,0,L|159:309,2,100,4|10|2,3:2|0:0|1:2,0:0:0:0:
279,52,45915,6,0,L|145:82,2,110.000003356934,12|4|10,3:2|3:2|0:0,0:0:0:0:
419,111,46343,6,0,P|448:182|433:258,1,119.999996337891,6|10,3:2|0:0,0:0:0:0:
362,244,46558,2,0,P|333:173|348:97,1,119.999996337891,4|0,3:2|0:0,0:0:0:0:
360,56,46772,1,14,3:2:0:0:
431,335,46915,6,0,L|260:312,1,129.999994049073,6|8,3:2|0:0,0:0:0:0:
227,347,47129,2,0,L|56:324,1,129.999994049073,2|0,3:2|0:0,0:0:0:0:
91,251,47343,2,0,B|73:189|73:189,1,64.9999970245363,14|0,3:2|0:0,0:0:0:0:
129,126,47486,6,0,B|191:110|191:110|256:143,1,129.999994049073,2|8,0:0|0:0,0:0:0:0:
285,221,47700,2,0,B|223:237|223:237|158:204,1,129.999994049073,2|0,0:0|0:0,0:0:0:0:
73,189,47915,5,10,3:2:0:0:
48,174,47986,1,0,0:0:0:0:
27,155,48058,1,2,1:2:0:0:
17,130,48129,1,2,1:2:0:0:
19,104,48200,1,14,3:2:0:0:
34,82,48272,1,2,0:0:0:0:
56,69,48343,1,6,3:2:0:0:
81,61,48415,1,2,0:0:0:0:
106,63,48486,1,10,1:2:0:0:
128,76,48558,1,2,1:2:0:0:
147,93,48629,1,6,3:2:0:0:
169,106,48700,1,0,0:0:0:0:
194,108,48772,1,10,0:0:0:0:
219,100,48843,1,4,3:2:0:0:
241,87,48915,1,2,0:0:0:0:
256,65,48986,1,0,0:0:0:0:
258,39,49058,1,14,3:2:0:0:
248,15,49129,1,0,0:0:0:0:
227,0,49200,6,0,L|160:9,3,62.5,6|0|8|2,3:2|0:0|1:2|0:0,0:0:0:0:
114,92,49486,6,0,L|77:149,3,62.5,4|0|8|0,3:2|0:0|1:2|0:0,0:0:0:0:
111,237,49772,6,0,L|131:301,3,62.5,6|0|8|2,3:2|0:0|1:2|0:0,0:0:0:0:
220,332,50058,6,0,L|282:357,3,62.5,4|0|10|0,3:2|0:0|1:2|0:0,0:0:0:0:
376,331,50343,5,6,3:2:0:0:
365,298,50415,1,0,0:0:0:0:
362,264,50486,1,8,1:2:0:0:
366,230,50558,1,2,1:2:0:0:
378,198,50629,1,4,3:2:0:0:
389,165,50700,1,0,1:0:0:0:
392,131,50772,1,10,1:2:0:0:
388,97,50843,1,0,1:0:0:0:
377,58,50915,5,6,3:2:0:0:
342,38,50986,1,0,0:0:0:0:
301,39,51058,1,10,3:2:0:0:
265,56,51129,1,0,0:0:0:0:
246,91,51200,2,0,L|260:149,1,50,6|0,3:2|0:0,0:0:0:0:
493,191,51343,2,0,L|481:142,1,50,10|0,3:2|0:0,0:0:0:0:
325,223,51486,6,0,P|180:241|194:345,1,262.500002503395,4|2,3:2|0:0,0:0:0:0:
181,328,51986,1,2,0:0:0:0:
181,328,52058,1,2,0:0:0:0:
272,378,52200,1,0,0:0:0:0:
361,329,52343,5,0,0:0:0:0:
369,318,52415,1,0,0:0:0:0:
374,306,52486,2,0,P|376:279|366:256,1,43.7500004172325,2|2,0:0|0:0,0:0:0:0:
312,196,52629,2,0,P|335:136|392:27,1,175.00000166893
385,37,52986,1,0,0:0:0:0:
385,37,53058,1,0,0:0:0:0:
474,95,53200,5,2,0:0:0:0:
209,154,53415,1,2,0:0:0:0:
388,268,53629,1,2,0:0:0:0:
302,306,53772,6,0,P|234:276|198:245,1,87.500000834465,0|0,3:0|0:0,0:0:0:0:
114,295,54058,1,0,0:0:0:0:
114,295,54129,1,0,0:0:0:0:
114,295,54200,1,2,0:0:0:0:
43,212,54343,6,0,P|102:168|147:152,1,87.500000834465,2|0,0:0|0:0,0:0:0:0:
114,162,54558,1,0,0:0:0:0:
114,162,54629,1,0,0:0:0:0:
214,230,54772,1,2,0:0:0:0:
214,230,54843,1,2,0:0:0:0:
214,230,54915,2,0,P|304:121|241:24,1,262.500002503395,2|2,0:0|0:0,0:0:0:0:
252,30,55415,1,2,0:0:0:0:
252,30,55486,5,2,0:0:0:0:
440,106,55700,1,2,0:0:0:0:
426,327,55915,1,2,0:0:0:0:
332,365,56058,6,0,P|337:306|345:267,1,87.500000834465,0|0,3:0|0:0,0:0:0:0:
260,220,56343,1,0,0:0:0:0:
193,283,56486,1,2,0:0:0:0:
193,283,56558,1,2,0:0:0:0:
193,283,56629,2,0,P|151:270|94:259,1,87.500000834465,2|0,0:0|0:0,0:0:0:0:
16,313,56915,1,0,0:0:0:0:
26,213,57058,1,2,0:0:0:0:
26,213,57129,1,2,0:0:0:0:
26,213,57200,2,0,P|51:137|57:109,1,87.500000834465,2|0,0:0|0:0,0:0:0:0:
125,67,57486,5,0,0:0:0:0:
136,72,57558,1,0,0:0:0:0:
148,74,57629,1,0,0:0:0:0:
161,74,57700,1,0,0:0:0:0:
174,73,57772,2,0,P|245:56|321:42,2,131.250001251698,2|2|2,0:0|0:0|0:0,0:0:0:0:
382,77,58343,6,0,P|417:148|429:338,1,262.500002503395,0|2,3:0|0:0,0:0:0:0:
430,328,58843,1,2,0:0:0:0:
430,328,58915,1,2,0:0:0:0:
320,339,59058,1,0,0:0:0:0:
261,260,59200,2,0,P|263:217|275:175,1,87.500000834465,0|2,0:0|0:0,0:0:0:0:
275,175,59415,1,2,0:0:0:0:
275,175,59486,1,2,0:0:0:0:
30,338,60058,5,10,3:2:0:0:
32,325,60129,1,0,0:0:0:0:
34,312,60200,1,8,3:2:0:0:
36,299,60272,1,10,0:0:0:0:
38,286,60343,1,8,3:2:0:0:
40,273,60415,1,8,0:0:0:0:
42,260,60486,1,10,3:2:0:0:
44,247,60558,1,8,0:0:0:0:
46,234,60629,6,0,L|36:131,1,100,4|8,3:2|0:0,0:0:0:0:
205,54,60915,2,0,L|215:157,1,100,4|10,3:2|0:0,0:0:0:0:
137,325,61200,1,6,3:2:0:0:
162,340,61272,1,0,0:0:0:0:
190,346,61343,1,8,0:0:0:0:
220,344,61415,1,0,0:0:0:0:
246,330,61486,1,4,3:2:0:0:
272,316,61558,1,0,0:0:0:0:
302,314,61629,1,10,0:0:0:0:
330,320,61700,1,2,0:0:0:0:
355,335,61772,6,0,L|461:322,1,100,6|8,3:2|0:0,0:0:0:0:
506,145,62058,2,0,L|406:157,1,100,4|8,3:2|0:0,0:0:0:0:
160,283,62343,5,6,3:2:0:0:
137,262,62415,1,0,0:0:0:0:
121,236,62486,1,8,0:0:0:0:
116,206,62558,1,2,0:0:0:0:
121,176,62629,1,4,3:2:0:0:
133,148,62700,1,0,0:0:0:0:
154,126,62772,1,10,3:2:0:0:
179,110,62843,1,0,0:0:0:0:
209,107,62915,6,0,L|232:216,1,100,4|8,3:2|0:0,0:0:0:0:
20,178,63200,2,0,L|0:80,1,100,4|10,3:2|0:0,0:0:0:0:
196,11,63486,5,6,3:2:0:0:
225,17,63558,1,0,0:0:0:0:
254,23,63629,1,8,0:0:0:0:
283,29,63700,1,0,0:0:0:0:
312,35,63772,1,4,3:2:0:0:
341,41,63843,1,0,0:0:0:0:
370,47,63915,1,10,0:0:0:0:
399,53,63986,1,2,0:0:0:0:
428,59,64058,6,0,P|456:105|443:174,1,100,6|8,3:2|0:0,0:0:0:0:
293,239,64343,2,0,P|265:193|278:124,1,100,4|10,3:2|0:0,0:0:0:0:
418,325,64629,5,6,3:2:0:0:
179,121,64843,1,6,3:2:0:0:
27,352,65058,1,14,3:2:0:0:
8,257,65200,6,0,P|21:178|36:133,1,100,4|8,3:2|1:2,0:0:0:0:
202,151,65486,1,4,3:2:0:0:
101,248,65629,1,10,1:2:0:0:
106,42,65772,6,0,P|185:55|230:70,1,100,6|8,3:2|1:2,0:0:0:0:
212,236,66058,1,4,3:2:0:0:
115,135,66200,1,10,1:2:0:0:
321,140,66343,6,0,P|308:219|293:264,1,100,6|8,3:2|1:2,0:0:0:0:
127,246,66629,1,4,3:2:0:0:
228,149,66772,1,8,1:2:0:0:
223,355,66915,6,0,P|144:342|99:327,1,100,6|8,3:2|1:2,0:0:0:0:
117,161,67200,1,4,3:2:0:0:
214,262,67343,1,10,1:2:0:0:
396,103,67486,5,6,3:2:0:0:
364,78,67558,1,0,1:0:0:0:
326,68,67629,1,8,1:2:0:0:
286,74,67700,1,2,1:2:0:0:
252,94,67772,1,4,3:2:0:0:
228,126,67843,1,0,1:0:0:0:
212,168,67915,1,10,1:2:0:0:
188,200,67986,1,0,1:0:0:0:
154,220,68058,1,6,3:2:0:0:
114,226,68129,1,0,1:0:0:0:
76,216,68200,1,8,1:2:0:0:
44,192,68272,1,2,1:2:0:0:
20,160,68343,6,0,L|34:107,3,50,4|0|10|0,3:2|1:0|1:2|1:0,0:0:0:0:
8,29,68629,1,6,3:2:0:0:
160,50,69200,5,10,3:2:0:0:
176,92,69272,1,8,0:0:0:0:
185,135,69343,1,10,3:2:0:0:
183,180,69415,1,8,0:0:0:0:
167,221,69486,1,10,3:2:0:0:
144,260,69558,1,10,0:0:0:0:
113,292,69629,1,10,3:2:0:0:
75,316,69700,1,10,3:2:0:0:
30,323,69772,6,0,P|1:260|8:185,1,100,6|8,3:2|3:2,0:0:0:0:
58,94,70058,5,0,3:0:0:0:
102,64,70129,1,0,0:0:0:0:
155,64,70200,1,8,3:2:0:0:
204,87,70272,1,0,0:0:0:0:
233,131,70343,1,2,3:2:0:0:
262,175,70415,1,0,0:0:0:0:
311,198,70486,1,10,3:2:0:0:
364,198,70558,1,0,0:0:0:0:
408,168,70629,2,0,L|394:101,3,50,2|2|10|2,3:2|0:0|3:2|0:0,0:0:0:0:
467,220,70915,2,0,P|429:280|406:343,1,100,2|8,3:2|3:2,0:0:0:0:
249,353,71200,5,0,3:0:0:0:
197,334,71272,1,0,0:0:0:0:
148,311,71343,1,10,3:2:0:0:
108,273,71415,1,2,0:0:0:0:
75,230,71486,2,0,P|60:149|63:108,1,100,2|8,3:2|3:2,0:0:0:0:
271,137,71772,5,2,3:2:0:0:
252,189,71843,1,2,0:0:0:0:
229,238,71915,1,10,3:2:0:0:
191,278,71986,1,0,0:0:0:0:
148,311,72058,2,0,P|67:326|26:323,1,100,2|8,3:2|3:2,0:0:0:0:
163,148,72343,5,0,3:0:0:0:
216,357,72486,1,10,3:2:0:0:
75,230,72629,2,0,P|60:149|63:108,1,100,0|8,3:0|3:2,0:0:0:0:
195,24,72915,5,2,3:2:0:0:
234,60,72986,1,0,0:0:0:0:
281,87,73058,1,8,3:2:0:0:
333,100,73129,1,0,0:0:0:0:
386,100,73200,2,0,P|440:89|470:76,3,50,2|0|8|0,3:2|0:0|3:2|0:0,0:0:0:0:
477,188,73486,2,0,P|423:177|391:163,3,50,0|0|8|0,3:0|0:0|3:2|0:0,0:0:0:0:
344,202,73772,5,2,3:2:0:0:
327,226,73843,1,0,0:0:0:0:
318,254,73915,1,8,3:2:0:0:
318,283,73986,1,0,0:0:0:0:
326,312,74058,1,0,3:0:0:0:
341,337,74129,1,0,0:0:0:0:
366,352,74200,1,8,3:2:0:0:
394,361,74272,1,0,0:0:0:0:
423,360,74343,6,0,P|429:281|406:228,1,100,2|8,3:2|3:2,0:0:0:0:
351,117,74629,1,0,3:0:0:0:
301,110,74700,1,0,0:0:0:0:
252,124,74772,1,10,3:2:0:0:
211,153,74843,1,0,0:0:0:0:
186,196,74915,2,0,L|171:70,1,100,0|8,3:0|3:2,0:0:0:0:
28,161,75200,5,2,3:2:0:0:
21,211,75272,1,0,0:0:0:0:
35,260,75343,1,10,3:2:0:0:
64,301,75415,1,0,0:0:0:0:
107,326,75486,2,0,L|-19:341,1,100,2|8,3:2|3:2,0:0:0:0:
158,270,75700,1,0,0:0:0:0:
158,270,75772,2,0,L|284:285,1,100,0|10,3:0|3:2,0:0:0:0:
327,349,75986,1,0,0:0:0:0:
327,349,76058,2,0,P|370:288|474:327,1,200,0|2,3:0|3:2,0:0:0:0:
187,358,76486,1,10,3:2:0:0:
245,136,76629,5,2,3:2:0:0:
266,91,76700,1,0,0:0:0:0:
309,65,76772,1,8,3:2:0:0:
358,56,76843,1,0,0:0:0:0:
407,63,76915,2,0,L|428:124,3,50,0|0|10|0,3:0|0:0|3:2|0:0,0:0:0:0:
330,183,77200,2,0,L|346:135,3,50,0|0|8|0,3:0|0:0|3:2|0:0,0:0:0:0:
246,245,77486,5,2,3:2:0:0:
201,267,77558,1,2,0:0:0:0:
151,265,77629,1,10,3:2:0:0:
106,242,77700,1,2,0:0:0:0:
78,199,77772,1,2,3:2:0:0:
56,154,77843,1,2,1:2:0:0:
58,104,77915,1,10,3:2:0:0:
81,59,77986,1,2,1:2:0:0:
124,31,78058,6,0,L|203:42,3,50,2|0|8|0,3:2|0:0|3:2|0:0,0:0:0:0:
197,136,78343,2,0,L|147:129,3,50,0|0|8|0,3:0|0:0|3:2|0:0,0:0:0:0:
262,78,78629,5,2,3:2:0:0:
290,69,78700,1,0,0:0:0:0:
318,60,78772,1,8,3:2:0:0:
346,51,78843,1,0,0:0:0:0:
374,42,78915,6,0,L|363:112,1,59.9999981689454,6|0,3:2|0:0,0:0:0:0:
424,157,79058,6,0,L|363:193,1,59.9999981689454,12|0,3:2|0:0,0:0:0:0:
368,269,79200,6,0,L|300:246,1,59.9999981689454,4|0,3:2|0:0,0:0:0:0:
246,298,79343,6,0,L|220:231,1,59.9999981689454,12|0,3:2|0:0,0:0:0:0:
145,223,79486,6,0,L|179:160,1,59.9999981689454,4|0,3:2|0:0,0:0:0:0:
137,97,79629,6,0,L|206:83,1,59.9999981689454,12|0,3:2|0:0,0:0:0:0:
229,11,79772,6,0,L|284:55,1,59.9999981689454,6|0,3:2|0:0,0:0:0:0:
291,138,79915,5,14,3:2:0:0:
291,138,79986,1,0,0:0:0:0:
291,138,80058,2,0,L|244:191,1,59.9999981689454,6|0,3:2|0:0,0:0:0:0:
272,262,80200,6,0,L|201:260,1,59.9999981689454,12|0,3:2|0:0,0:0:0:0:
165,327,80343,6,0,L|120:271,1,59.9999981689454,4|0,3:2|0:0,0:0:0:0:
46,287,80486,6,0,L|59:217,1,59.9999981689454,14|0,3:2|0:0,0:0:0:0:
0,170,80629,6,0,L|61:135,1,59.9999981689454,4|0,3:2|0:0,0:0:0:0:
60,59,80772,6,0,L|126:84,1,59.9999981689454,12|0,3:2|0:0,0:0:0:0:
184,34,80915,6,0,L|207:100,1,59.9999981689454,6|0,3:2|0:0,0:0:0:0:
160,177,81058,5,12,3:2:0:0:
160,177,81129,1,0,0:0:0:0:
160,177,81200,2,0,L|143:236,1,59.9999981689454,6|0,3:2|0:0,0:0:0:0:
241,206,81343,6,0,L|224:265,1,59.9999981689454,12|0,3:2|0:0,0:0:0:0:
322,235,81486,6,0,L|305:294,1,59.9999981689454,6|2,3:2|0:2,0:0:0:0:
403,264,81629,6,0,L|386:323,1,59.9999981689454,14|0,3:2|0:0,0:0:0:0:
464,208,81772,6,0,L|481:149,1,59.9999981689454,4|0,3:2|0:0,0:0:0:0:
383,179,81915,6,0,L|400:120,1,59.9999981689454,12|2,3:2|0:2,0:0:0:0:
302,150,82058,6,0,L|319:91,1,59.9999981689454,6|2,3:2|0:2,0:0:0:0:
221,121,82200,6,0,L|238:62,1,59.9999981689454,14|2,3:2|0:2,0:0:0:0:
161,29,82343,5,6,3:2:0:0:
125,35,82415,1,0,0:0:0:0:
89,41,82486,1,14,3:2:0:0:
53,47,82558,1,0,0:0:0:0:
17,53,82629,2,0,P|6:95|6:139,3,59.9999981689454,6|0|14|0,3:2|0:0|3:2|0:0,0:0:0:0:
86,190,82915,2,0,P|97:148|97:104,3,59.9999981689454,6|0|12|0,3:2|0:0|3:2|0:0,0:0:0:0:
3,212,83200,2,0,P|26:273|31:333,1,119.999996337891,6|12,3:2|3:2,0:0:0:0:
171,351,83486,6,0,P|226:329|286:329,1,119.999996337891,6|12,3:2|3:2,0:0:0:0:
363,360,83700,1,2,0:2:0:0:
363,360,83772,2,0,P|445:384|487:380,1,119.999996337891,4|14,3:2|3:2,0:0:0:0:
430,222,84058,6,0,P|374:200|314:200,1,119.999996337891,6|12,3:2|3:2,0:0:0:0:
238,231,84272,1,2,0:2:0:0:
237,231,84343,2,0,P|181:252|121:252,1,119.999996337891,4|12,3:2|3:2,0:0:0:0:
46,111,84629,5,6,3:2:0:0:
59,77,84700,1,0,0:0:0:0:
90,59,84772,1,12,3:2:0:0:
125,53,84843,1,0,0:0:0:0:
159,63,84915,2,0,L|211:92,3,59.9999981689454,4|0|14|0,3:2|0:0|3:2|0:0,0:0:0:0:
289,42,85200,5,6,3:2:0:0:
302,76,85272,1,0,0:0:0:0:
333,94,85343,1,12,3:2:0:0:
368,100,85415,1,2,0:2:0:0:
402,90,85486,2,0,L|454:61,3,59.9999981689454,4|0|14|0,3:2|0:0|3:2|0:0,0:0:0:0:
467,154,85772,6,0,L|453:216,1,59.9999981689454,6|0,3:2|0:0,0:0:0:0:
454,164,85915,6,0,L|440:226,1,59.9999981689454,14|0,3:2|0:0,0:0:0:0:
441,174,86058,6,0,L|427:236,1,59.9999981689454,6|0,3:2|0:0,0:0:0:0:
428,184,86200,6,0,L|414:246,1,59.9999981689454,14|0,3:2|0:0,0:0:0:0:
415,194,86343,6,0,L|401:256,1,59.9999981689454,6|0,3:2|0:0,0:0:0:0:
402,204,86486,6,0,L|388:266,1,59.9999981689454,14|0,3:2|0:0,0:0:0:0:
389,214,86629,6,0,L|375:276,1,59.9999981689454,6|0,3:2|0:0,0:0:0:0:
376,224,86772,6,0,L|362:286,1,59.9999981689454,14|0,3:2|0:0,0:0:0:0:
363,234,86915,6,0,L|349:296,1,59.9999981689454,6|0,3:2|0:0,0:0:0:0:
350,244,87058,6,0,L|336:306,1,59.9999981689454,14|0,3:2|0:0,0:0:0:0:
337,254,87200,6,0,L|323:316,1,59.9999981689454,6|0,3:2|0:0,0:0:0:0:
324,264,87343,6,0,L|310:326,1,59.9999981689454,14|0,3:2|0:0,0:0:0:0:
311,274,87486,6,0,L|297:336,1,59.9999981689454,6|0,3:2|0:0,0:0:0:0:
298,284,87629,6,0,L|284:346,1,59.9999981689454,14|0,3:2|0:0,0:0:0:0:
285,294,87772,6,0,L|271:356,1,59.9999981689454,6|0,3:2|0:0,0:0:0:0:
272,304,87915,6,0,L|258:366,1,59.9999981689454,14|0,3:2|0:0,0:0:0:0:
183,309,88058,6,0,L|134:297,1,44.999998626709,6|0,3:2|0:0,0:0:0:0:
174,297,88200,6,0,L|125:285,1,44.999998626709,2|0,0:0|0:0,0:0:0:0:
166,287,88343,6,0,L|117:275,1,44.999998626709,2|0,0:0|0:0,0:0:0:0:
158,277,88486,6,0,L|109:265,1,44.999998626709,2|0,0:0|0:0,0:0:0:0:
150,267,88629,6,0,L|101:255,1,44.999998626709,2|0,0:0|0:0,0:0:0:0:
143,257,88772,6,0,L|94:245,1,44.999998626709,2|0,0:0|0:0,0:0:0:0:
134,247,88915,6,0,L|85:235,1,44.999998626709,2|0,0:0|0:0,0:0:0:0:
127,236,89058,6,0,L|78:224,1,44.999998626709,2|0,0:0|0:0,0:0:0:0:
256,114,89343,5,2,0:0:0:0:
245,103,89415,1,2,0:0:0:0:
256,92,89486,1,2,0:0:0:0:
266,103,89558,1,2,0:0:0:0:
262,113,89629,1,2,0:0:0:0:
247,108,89700,1,2,0:0:0:0:
247,93,89772,1,2,0:0:0:0:
262,88,89843,1,2,0:0:0:0:
270,100,89915,1,2,0:0:0:0:
270,115,89986,1,2,0:0:0:0:
245,115,90058,1,2,0:0:0:0:
232,93,90129,1,2,0:0:0:0:
245,71,90200,1,2,0:0:0:0:
270,71,90272,1,2,0:0:0:0:
279,95,90343,6,0,L|337:104,3,50,2|2|2|2,0:0|0:0|0:0|0:0,0:0:0:0:
404,171,90629,2,0,L|395:229,3,50,2|2|2|2,0:0|0:0|0:0|0:0,0:0:0:0:
328,296,90915,2,0,L|270:287,3,50,2|2|2|2,0:0|0:0|0:0|0:0,0:0:0:0:
203,220,91200,2,0,L|212:162,3,50,2|2|2|2,0:0|0:0|0:0|0:0,0:0:0:0:
150,95,91486,5,2,1:2:0:0:
135,98,91558,1,2,1:2:0:0:
120,101,91629,1,2,1:2:0:0:
105,104,91700,1,2,1:2:0:0:
90,107,91772,1,2,1:2:0:0:
75,110,91843,1,2,1:2:0:0:
60,113,91915,1,2,1:2:0:0:
45,116,91986,1,2,1:2:0:0:
30,116,92058,2,0,P|15:88|33:48,3,50,2|2|2|2,1:2|1:2|1:2|1:2,0:0:0:0:
69,198,92343,2,0,P|84:226|66:266,3,50,2|2|2|2,1:2|1:2|1:2|1:2,0:0:0:0:
62,193,92629,6,0,P|37:255|27:339,1,150.000005722046,6|0,3:2|0:0,0:0:0:0:
224,160,93058,2,0,P|182:107|115:56,1,150.000005722046,6|0,3:2|3:0,0:0:0:0:
171,316,93486,2,0,P|237:306|314:273,1,150.000005722046,4|2,3:2|3:2,0:0:0:0:
388,149,93915,5,4,3:2:0:0:
388,149,93986,1,2,3:2:0:0:
388,149,94058,1,4,3:2:0:0:
424,272,94200,1,2,3:2:0:0:
430,297,94272,1,0,3:0:0:0:
436,322,94343,2,0,L|411:375,3,37.5000014305115,6|0|2|0,3:2|0:0|3:2|0:0,0:0:0:0:
51,356,94915,6,0,P|39:279|68:224,1,100,6|8,3:2|0:0,0:0:0:0:
149,172,95200,1,0,3:0:0:0:
169,144,95272,1,0,0:0:0:0:
179,110,95343,1,10,0:0:0:0:
179,75,95415,1,0,0:0:0:0:
169,41,95486,2,0,P|124:24|61:30,1,100,2|8,3:2|0:0,0:0:0:0:
266,145,95772,5,0,3:0:0:0:
294,165,95843,1,0,0:0:0:0:
328,175,95915,1,10,0:0:0:0:
363,175,95986,1,0,0:0:0:0:
397,165,96058,2,0,P|414:120|408:57,1,100,6|8,3:2|0:0,0:0:0:0:
231,229,96343,1,0,3:0:0:0:
407,303,96486,1,10,0:0:0:0:
195,338,96629,5,6,3:2:0:0:
166,317,96700,1,2,3:2:0:0:
144,289,96772,1,10,3:2:0:0:
131,256,96843,1,2,3:2:0:0:
126,220,96915,1,2,3:2:0:0:
131,185,96986,1,2,3:2:0:0:
143,152,97058,1,10,3:2:0:0:
161,122,97129,1,0,3:2:0:0:
187,99,97200,6,0,P|268:80|310:88,1,100,6|8,3:2|0:0,0:0:0:0:
318,90,97415,2,0,P|367:89|414:72,1,100,2|0,0:0|0:0,0:0:0:0:
437,45,97629,1,10,0:0:0:0:
510,134,97772,6,0,P|491:215|499:257,1,100,2|8,3:2|0:0,0:0:0:0:
501,265,97986,2,0,P|500:314|483:361,1,100,2|0,0:0|0:0,0:0:0:0:
456,384,98200,1,10,0:0:0:0:
293,299,98343,2,0,P|339:227|427:181,2,165.000005035401,2|2|10,3:2|0:0|0:0,0:0:0:0:
164,341,98915,5,6,3:2:0:0:
18,229,99058,1,10,0:0:0:0:
63,368,99200,1,2,3:2:0:0:
119,202,99343,1,10,3:2:0:0:
21,62,99486,6,0,P|71:71|111:89,1,89.9999972534181,6|8,3:2|0:0,0:0:0:0:
243,212,99772,1,0,3:0:0:0:
225,185,99843,1,0,0:0:0:0:
219,153,99915,1,8,0:0:0:0:
223,121,99986,1,0,0:0:0:0:
236,92,100058,2,0,P|272:41|289:1,1,89.9999972534181,4|8,3:2|0:0,0:0:0:0:
452,177,100343,5,2,3:2:0:0:
421,172,100415,1,0,0:0:0:0:
390,179,100486,1,10,0:0:0:0:
367,201,100558,1,0,0:0:0:0:
351,228,100629,2,0,P|335:295|353:371,2,134.999995880127,6|2|10,3:2|3:2|3:2,0:0:0:0:
242,236,101200,5,6,0:0:0:0:
223,261,101272,1,0,3:0:0:0:
193,270,101343,1,8,0:0:0:0:
162,260,101415,1,4,0:0:0:0:
144,234,101486,2,0,L|85:253,3,44.999998626709,2|0|14|2,3:2|0:0|3:2|0:0,0:0:0:0:
18,279,101772,6,0,P|65:174|51:113,1,179.999994506836,6|0,3:2|1:0,0:0:0:0:
34,15,102200,2,0,P|66:76|171:97,1,179.999994506836,14|8,3:2|1:2,0:0:0:0:
222,175,102629,2,0,P|313:111|400:119,1,179.999994506836,4|2,3:2|1:2,0:0:0:0:
437,186,103058,1,12,3:2:0:0:
346,203,103200,2,0,P|321:260|327:327,1,89.9999972534181,4|10,3:2|1:2,0:0:0:0:
459,351,103486,2,0,P|499:315|505:208,2,134.999995880127,6|4|14,3:2|3:2|3:2,0:0:0:0:
374,352,104058,6,0,P|253:345|188:389,1,179.999994506836,6|0,3:2|1:0,0:0:0:0:
137,317,104486,2,0,P|125:258|198:157,1,179.999994506836,14|8,3:2|1:2,0:0:0:0:
268,120,104915,2,0,P|191:144|103:66,1,179.999994506836,4|2,3:2|1:2,0:0:0:0:
50,24,105343,5,14,3:2:0:0:
7,100,105486,2,0,P|35:141|19:193,1,89.9999972534181,6|10,3:2|1:2,0:0:0:0:
6,298,105772,2,0,P|61:287|168:272,2,134.999995880127,6|4|14,3:2|3:2|3:2,0:0:0:0:
124,187,106343,6,0,P|212:154|246:157,1,100,6|8,3:2|3:2,0:0:0:0:
382,297,106629,2,0,P|291:271|265:249,1,100,4|8,3:2|3:2,0:0:0:0:
239,56,106915,2,0,P|297:129|305:162,1,100,6|8,3:2|3:2,0:0:0:0:
213,336,107200,2,0,P|208:242|222:210,1,100,4|10,3:2|3:2,0:0:0:0:
399,124,107486,5,4,3:2:0:0:
390,144,107558,1,0,0:0:0:0:
379,164,107629,1,8,1:2:0:0:
366,182,107700,1,0,1:0:0:0:
350,199,107772,2,0,L|296:190,3,44.999998626709,6|0|10|0,3:2|0:0|1:2|1:0,0:0:0:0:
223,176,108058,2,0,L|169:167,3,44.999998626709,6|0|10|0,3:2|0:0|1:2|1:0,0:0:0:0:
96,153,108343,2,0,L|42:144,3,44.999998626709,6|2|10|2,3:2|0:0|1:2|1:2,0:0:0:0:
190,93,108629,6,0,P|226:179|224:213,1,100,6|8,3:2|1:2,0:0:0:0:
89,354,108915,2,0,P|110:262|132:236,1,100,4|8,3:2|1:2,0:0:0:0:
324,203,109200,2,0,P|252:264|219:272,1,100,6|8,3:2|1:2,0:0:0:0:
44,187,109486,2,0,P|137:179|169:191,1,100,4|8,3:2|1:2,0:0:0:0:
253,368,109772,5,6,3:2:0:0:
232,359,109843,1,0,0:0:0:0:
212,348,109915,1,0,0:0:0:0:
194,335,109986,1,2,0:0:0:0:
178,319,110058,2,0,L|186:261,3,50,0|0|2|0,0:0|0:0|0:0|0:0,0:0:0:0:
201,192,110343,2,0,L|210:136,3,50,10|8|10|8,3:2|0:0|3:2|0:0,0:0:0:0:
224,65,110629,2,0,L|234:6,3,50,10|8|10|8,3:2|0:0|3:2|0:0,0:0:0:0:
350,23,110915,6,0,P|393:93|393:153,1,100,4|0,3:2|0:0,0:0:0:0:
359,306,111200,1,0,3:0:0:0:
319,313,111272,1,0,0:0:0:0:
281,298,111343,1,10,0:0:0:0:
254,267,111415,1,2,0:0:0:0:
247,227,111486,2,0,L|271:160,3,50,2|0|8|0,3:2|0:0|0:0|0:0,0:0:0:0:
222,101,111772,1,0,3:0:0:0:
187,81,111843,1,0,0:0:0:0:
146,81,111915,1,10,0:0:0:0:
108,94,111986,1,2,0:0:0:0:
86,127,112058,2,0,P|83:204|65:255,1,100,2|8,3:2|0:0,0:0:0:0:
12,341,112343,5,0,3:0:0:0:
47,322,112415,1,0,0:0:0:0:
86,320,112486,1,8,0:0:0:0:
126,325,112558,1,0,0:0:0:0:
164,335,112629,2,0,P|217:362|273:372,1,100,2|8,3:2|0:0,0:0:0:0:
284,341,112843,2,0,P|342:318|408:313,1,100,2|0,0:0|0:0,0:0:0:0:
416,327,113058,1,10,0:0:0:0:
512,382,113200,2,0,P|497:299|498:259,1,100,0|8,3:0|0:0,0:0:0:0:
408,206,113486,5,0,3:0:0:0:
436,177,113558,1,0,0:0:0:0:
450,140,113629,1,10,0:0:0:0:
455,100,113700,1,2,0:0:0:0:
444,61,113772,2,0,P|390:36|332:51,1,100,2|8,3:2|0:0,0:0:0:0:
223,129,114058,1,0,3:0:0:0:
233,167,114129,1,0,0:0:0:0:
243,205,114200,1,10,0:0:0:0:
253,243,114272,1,2,0:0:0:0:
263,281,114343,2,0,L|375:300,1,100,2|8,3:2|0:0,0:0:0:0:
159,340,114629,5,0,3:0:0:0:
121,326,114700,1,0,0:0:0:0:
89,300,114772,1,10,0:0:0:0:
67,266,114843,1,2,0:0:0:0:
58,226,114915,2,0,P|79:142|82:89,1,100,6|8,3:2|0:0,0:0:0:0:
28,28,115200,1,0,3:0:0:0:
28,28,115343,1,10,3:2:0:0:
168,146,115486,6,0,P|251:119|303:118,1,100,4|8,3:2|0:0,0:0:0:0:
412,21,115772,1,0,3:0:0:0:
430,56,115843,1,0,0:0:0:0:
441,94,115915,1,10,0:0:0:0:
446,133,115986,1,2,0:0:0:0:
442,173,116058,2,0,P|359:200|307:201,1,100,2|8,3:2|0:0,0:0:0:0:
281,312,116343,1,0,3:0:0:0:
248,288,116415,1,0,0:0:0:0:
211,271,116486,1,10,0:0:0:0:
171,264,116558,1,2,0:0:0:0:
132,273,116629,2,0,P|105:335|106:404,1,100,2|8,3:2|0:0,0:0:0:0:
35,221,116915,5,0,3:0:0:0:
24,182,116986,1,0,0:0:0:0:
27,141,117058,1,8,0:0:0:0:
46,106,117129,1,0,0:0:0:0:
74,78,117200,2,0,L|71:13,3,50,2|0|8|2,3:2|0:0|0:0|0:0,0:0:0:0:
163,50,117486,2,0,L|166:-15,3,50,0|0|10|0,3:0|0:0|0:0|0:0,0:0:0:0:
247,24,117772,6,0,P|295:84|302:122,1,100,4|8,3:2|0:0,0:0:0:0:
184,183,118058,1,0,3:0:0:0:
155,155,118129,1,0,0:0:0:0:
134,120,118200,1,10,0:0:0:0:
459,168,118343,6,0,P|399:216|361:223,1,100,6|8,3:2|0:0,0:0:0:0:
300,105,118629,1,0,3:0:0:0:
328,76,118700,1,0,0:0:0:0:
363,55,118772,1,10,0:0:0:0:
314,380,118915,6,0,P|266:320|259:282,1,100,6|8,3:2|0:0,0:0:0:0:
377,221,119200,2,0,P|425:281|432:319,1,100,4|8,3:2|0:0,0:0:0:0:
174,336,119486,2,0,P|87:341|1:375,2,150,14|14|14,3:2|0:0|3:2,0:0:0:0:
87,242,120058,6,0,P|60:190|60:120,1,110.000003356934,6|8,3:2|0:2,0:0:0:0:
237,58,120343,2,0,P|264:110|264:180,1,110.000003356934,4|10,3:2|0:2,0:0:0:0:
216,326,120629,1,6,3:2:0:0:
247,335,120700,1,0,0:0:0:0:
280,337,120772,1,8,0:2:0:0:
312,336,120843,1,0,0:0:0:0:
344,331,120915,1,4,3:2:0:0:
375,323,120986,1,0,0:0:0:0:
405,309,121058,1,10,0:2:0:0:
431,289,121129,1,2,0:2:0:0:
455,267,121200,6,0,L|467:149,1,110.000003356934,6|8,3:2|0:2,0:0:0:0:
287,70,121486,2,0,L|275:179,1,110.000003356934,4|8,3:2|0:2,0:0:0:0:
100,301,121772,5,6,3:2:0:0:
77,277,121843,1,0,0:0:0:0:
65,245,121915,1,8,0:2:0:0:
65,212,121986,1,2,0:2:0:0:
78,181,122058,1,4,3:2:0:0:
97,154,122129,1,0,0:0:0:0:
120,130,122200,1,10,0:2:0:0:
132,98,122272,1,0,0:0:0:0:
132,65,122343,6,0,P|77:35|3:39,1,110.000003356934,4|8,3:2|0:2,0:0:0:0:
169,232,122629,2,0,P|224:262|298:258,1,110.000003356934,4|10,3:2|0:2,0:0:0:0:
384,162,122915,5,6,3:2:0:0:
365,134,122986,1,0,0:0:0:0:
336,116,123058,1,8,0:2:0:0:
303,113,123129,1,0,0:0:0:0:
271,122,123200,1,4,3:2:0:0:
239,131,123272,1,0,0:0:0:0:
206,128,123343,1,10,0:2:0:0:
177,110,123415,1,2,0:2:0:0:
158,82,123486,6,0,P|207:45|272:52,1,110.000003356934,6|8,3:2|0:2,0:0:0:0:
169,232,123772,2,0,P|120:269|55:262,1,110.000003356934,4|10,3:2|0:2,0:0:0:0:
255,354,124058,5,6,3:2:0:0:
267,323,124129,1,0,0:0:0:0:
287,297,124200,1,8,0:2:0:0:
312,275,124272,1,2,0:2:0:0:
341,261,124343,1,4,3:2:0:0:
373,252,124415,1,0,3:0:0:0:
405,247,124486,1,10,3:2:0:0:
438,249,124558,1,0,3:0:0:0:
469,257,124629,6,0,P|481:285|486:310,3,55.0000016784668,4|0|8|0,3:2|3:0|0:2|3:0,0:0:0:0:
411,329,124915,2,0,P|397:356|381:376,3,55.0000016784668,4|0|10|2,3:2|3:0|0:2|3:2,0:0:0:0:
318,330,125200,2,0,P|288:336|262:337,3,55.0000016784668,6|0|8|0,3:2|3:0|0:2|3:0,0:0:0:0:
257,260,125486,2,0,P|232:241|215:222,3,55.0000016784668,4|0|10|2,3:2|3:0|0:2|3:2,0:0:0:0:
262,131,125772,6,0,P|274:103|279:78,3,55.0000016784668,6|0|8|0,3:2|3:0|0:2|3:0,0:0:0:0:
204,59,126058,2,0,P|190:31|174:11,3,55.0000016784668,4|0|8|0,3:2|3:0|0:2|3:0,0:0:0:0:
111,58,126343,2,0,P|81:51|55:50,3,55.0000016784668,6|0|8|2,3:2|3:0|0:2|3:2,0:0:0:0:
50,128,126629,2,0,P|25:146|8:165,3,55.0000016784668,4|0|10|0,3:2|3:0|0:2|3:0,0:0:0:0:
18,245,126915,5,6,3:2:0:0:
44,239,126986,1,0,3:0:0:0:
71,233,127058,1,8,3:2:0:0:
98,227,127129,1,2,3:2:0:0:
125,222,127200,1,4,3:2:0:0:
152,216,127272,1,0,3:0:0:0:
179,210,127343,1,10,3:2:0:0:
206,204,127415,1,0,3:0:0:0:
233,199,127486,1,4,3:2:0:0:
260,193,127558,1,0,3:0:0:0:
286,187,127629,1,8,3:2:0:0:
313,181,127700,1,2,3:2:0:0:
340,176,127772,1,4,3:2:0:0:
367,170,127843,1,0,3:0:0:0:
394,164,127915,1,10,3:2:0:0:
421,159,127986,1,0,3:0:0:0:
448,153,128058,1,6,3:2:0:0:
321,323,128343,5,2,3:2:0:0:
299,344,128415,1,0,3:2:0:0:
270,353,128486,1,0,3:2:0:0:
240,347,128558,1,0,3:2:0:0:
215,330,128629,2,0,L|205:279,3,50,10|8|10|8,3:2|0:0|3:2|0:0,0:0:0:0:
118,300,128915,2,0,L|108:249,3,50,10|10|10|10,3:2|3:2|3:2|3:2,0:0:0:0:
174,194,129200,5,6,3:2:0:0:
266,79,129343,6,0,P|252:121|243:134,1,50,10|0,1:2|1:0,0:0:0:0:
174,194,129486,1,6,3:2:0:0:
321,178,129629,6,0,P|281:197|265:200,1,50,10|0,1:2|1:0,0:0:0:0:
174,194,129772,1,6,3:2:0:0:
289,286,129915,6,0,P|247:272|234:263,1,50,10|0,1:2|1:0,0:0:0:0:
174,194,130058,1,6,3:2:0:0:
190,341,130200,6,0,P|170:301|167:285,1,50,10|0,1:2|1:0,0:0:0:0:
174,194,130343,1,6,3:2:0:0:
82,309,130486,6,0,P|96:267|105:254,1,50,10|0,1:2|1:0,0:0:0:0:
174,194,130629,1,6,3:2:0:0:
27,210,130772,6,0,P|66:190|82:187,1,50,10|0,1:2|1:0,0:0:0:0:
174,194,130915,1,6,3:2:0:0:
59,102,131058,6,0,P|100:116|114:125,1,50,10|0,1:2|1:0,0:0:0:0:
174,194,131200,1,6,3:2:0:0:
158,48,131343,6,0,P|177:87|180:103,1,50,10|0,1:2|1:0,0:0:0:0:
174,194,131486,6,0,P|152:243|146:287,3,75.0000028610231,6|0|10|0,3:2|1:0|1:2|1:0,0:0:0:0:
246,304,131772,6,0,P|277:347|312:374,3,75.0000028610231,6|0|10|0,3:2|1:0|1:2|1:0,0:0:0:0:
377,296,132058,6,0,P|430:290|471:273,3,75.0000028610231,6|0|10|0,3:2|1:0|1:2|1:0,0:0:0:0:
436,178,132343,6,0,P|458:129|463:85,3,75.0000028610231,6|0|10|0,3:2|1:0|1:2|1:0,0:0:0:0:
363,69,132629,6,0,P|331:25|296:-1,3,75.0000028610231,6|0|10|0,3:2|1:0|1:2|1:0,0:0:0:0:
232,77,132915,6,0,P|178:82|137:99,3,75.0000028610231,6|0|10|0,3:2|1:0|1:2|1:0,0:0:0:0:
80,144,133200,5,6,3:2:0:0:
74,189,133272,1,2,3:2:0:0:
68,234,133343,1,10,3:2:0:0:
63,279,133415,1,2,3:2:0:0:
57,324,133486,6,0,L|50:377,8,37.5000014305115,6|2|2|2|10|2|2|2|4,3:2|0:0|3:2|0:0|3:2|0:0|3:2|0:0|3:2,0:0:0:0:
