osu file format v14

[General]
AudioFilename: audio.mp3
AudioLeadIn: 0
PreviewTime: 69772
Countdown: 0
SampleSet: Soft
StackLeniency: 0.3
Mode: 0
LetterboxInBreaks: 0
WidescreenStoryboard: 1

[Editor]
DistanceSpacing: 1
BeatDivisor: 2
GridSize: 16
TimelineZoom: 2.999999

[Metadata]
Title:Myths Orbis
TitleUnicode:Myths Orbis
Artist:Raimukun
ArtistUnicode:Raimukun
Creator:knowledgeking
Version:Imokora's Normal
Source:osu! World Cup 2022
Tags:-_AzRael_- AzRael Imokora RiverKnowFarm nik nikolomara Musty Mustaash Chemo Serenhaide Sh4rq_ Sh3rg_ kiwies morphne ItsWinter SILENCE PLAYER owc grand finals owc2022GFNM2 nomod fa featured artist electronic instrumental piano Cinematic Speedcore Hardcore hard renaissance stream
BeatmapID:3925628
BeatmapSetID:1889095

[Difficulty]
HPDrainRate:3
CircleSize:3.4
OverallDifficulty:5
ApproachRate:6
SliderMultiplier:1
SliderTickRate:1

[Events]
//Background and Video events
0,0,"bg.jpg",0,0
//Break Periods
2,51686,59008
//Storyboard Layer 0 (Background)
//Storyboard Layer 1 (Fail)
//Storyboard Layer 2 (Pass)
//Storyboard Layer 3 (Foreground)
//Storyboard Layer 4 (Overlay)
//Storyboard Sound Samples

[TimingPoints]
58,285.714285714286,4,2,1,70,1,0
40485,-100,4,2,1,70,0,0
40629,-100,4,2,1,70,0,0
60629,-100,4,2,1,70,0,1
68629,-100,4,2,1,70,0,0
78915,-100,4,1,1,50,0,0
84058,-100,4,1,1,55,0,0
84629,-100,4,1,1,60,0,0
85200,-100,4,1,1,65,0,0
85772,-100,4,1,1,70,0,0
88058,-100,4,2,1,70,0,0
120058,-100,4,1,1,70,0,1
128058,-100,4,2,1,70,0,0

[Colours]
Combo1 : 0,142,0
Combo2 : 130,255,255
Combo3 : 0,67,149
Combo4 : 184,184,184

[HitObjects]
36,57,1200,5,6,3:2:0:0:
23,153,1486,1,6,3:2:0:0:
80,230,1772,1,6,3:2:0:0:
176,245,2058,1,6,3:2:0:0:
256,190,2343,1,6,3:2:0:0:
335,133,2629,1,6,3:2:0:0:
431,148,2915,1,6,3:2:0:0:
490,226,3200,1,6,3:2:0:0:
477,322,3486,6,0,P|425:328|377:340,1,100,6|6,3:2|3:2,0:0:0:0:
328,335,3915,1,2,3:2:0:0:
290,301,4058,2,0,P|285:263|343:216,1,100,6|6,3:2|3:2,0:0:0:0:
374,220,4486,1,2,3:2:0:0:
408,184,4629,2,0,P|412:151|424:80,2,100,6|6|14,3:2|3:2|3:2,0:0:0:0:
320,134,5486,2,0,L|326:66,1,50,14|10,3:2|3:2,0:0:0:0:
303,38,5772,6,0,P|225:47|134:59,1,150,4|4,3:2|3:2,0:0:0:0:
64,290,6915,1,4,3:2:0:0:
242,378,7486,1,4,3:2:0:0:
224,278,7772,1,4,3:2:0:0:
207,179,8058,6,0,P|208:130|297:95,1,150,4|4,3:2|3:2,0:0:0:0:
443,290,9200,1,4,3:2:0:0:
270,378,9772,1,4,3:2:0:0:
288,278,10058,1,4,3:2:0:0:
305,179,10343,6,0,P|304:130|215:95,1,150,4|0,3:2|1:0,0:0:0:0:
190,52,10915,2,0,P|141:53|91:134,1,150,4|0,3:2|1:0,0:0:0:0:
62,173,11486,2,0,P|128:196|173:216,1,100,4|0,3:2|3:0,0:0:0:0:
208,293,12058,2,0,L|317:276,1,100,4|0,3:2|3:0,0:0:0:0:
393,328,12629,5,4,3:2:0:0:
481,279,12915,1,4,3:2:0:0:
450,183,13200,1,4,3:2:0:0:
500,95,13486,1,4,3:2:0:0:
439,15,13772,2,0,L|330:-2,1,100,4|4,3:2|3:2,0:0:0:0:
249,40,14343,2,0,P|233:78|243:121,2,75,4|4|4,3:2|3:2|3:2,0:0:0:0:
220,1,14915,1,4,3:2:0:0:
512,318,16629,6,0,P|468:327|361:358,1,150,8|8,3:2|3:2,0:0:0:0:
328,323,17200,2,0,P|278:300|274:241,1,100,4|2,3:2|3:2,0:0:0:0:
330,180,17772,1,2,3:2:0:0:
422,219,18058,1,2,3:2:0:0:
489,145,18343,2,0,P|498:96|453:57,1,100,0|0,3:0|3:0,0:0:0:0:
373,24,18915,2,0,L|256:40,1,100,2|2,3:0|3:2,0:0:0:0:
232,66,19343,1,10,3:2:0:0:
190,37,19486,6,0,P|144:22|95:50,1,100,2|0,3:2|3:0,0:0:0:0:
32,118,20058,1,2,3:2:0:0:
88,199,20343,1,2,3:2:0:0:
26,277,20629,2,0,P|41:336|79:352,1,100,2|2,3:2|3:2,0:0:0:0:
170,371,21200,2,0,L|191:266,1,100,6|2,3:2|3:2,0:0:0:0:
222,235,21629,1,8,3:2:0:0:
271,241,21772,6,0,P|307:211|310:155,1,100,6|2,3:2|3:2,0:0:0:0:
328,61,22343,1,2,3:2:0:0:
402,1,22629,1,2,3:2:0:0:
489,42,22915,2,0,L|502:143,1,100,0|2,3:0|3:2,0:0:0:0:
462,233,23486,2,0,P|481:282|451:326,1,100,2|2,3:2|3:2,0:0:0:0:
409,330,23915,1,8,3:2:0:0:
367,301,24058,6,0,P|361:244|355:194,1,100,6|0,3:2|3:0,0:0:0:0:
255,203,24629,2,0,P|249:252|243:302,1,100,4|2,3:2|3:2,0:0:0:0:
170,370,25200,1,6,3:2:0:0:
93,304,25486,1,6,3:2:0:0:
18,371,25772,6,0,P|-9:342|-9:300,2,75,6|4|6,3:2|0:0|3:2,0:0:0:0:
166,350,26629,5,4,3:2:0:0:
240,282,26915,2,0,L|221:161,1,100,0|0,3:0|3:0,0:0:0:0:
157,110,27486,1,2,3:2:0:0:
66,152,27772,1,2,3:2:0:0:
1,75,28058,2,0,P|3:31|50:1,1,100,2|2,3:2|3:2,0:0:0:0:
90,24,28486,1,10,3:2:0:0:
131,52,28629,6,0,L|232:40,1,100,2|2,3:2|3:2,0:0:0:0:
311,98,29200,2,0,L|425:82,1,100,2|0,3:2|3:0,0:0:0:0:
481,153,29772,1,0,3:0:0:0:
441,244,30058,1,2,3:2:0:0:
510,315,30343,1,6,3:2:0:0:
319,375,30915,6,0,P|317:326|280:290,1,100,6|0,3:2|3:0,0:0:0:0:
251,196,31486,2,0,P|207:173|157:187,1,100,4|0,3:2|3:0,0:0:0:0:
62,166,32058,2,0,P|20:192|7:242,1,100,6|2,3:2|3:2,0:0:0:0:
41,334,32629,2,0,P|100:345|155:355,1,100,6|2,3:2|3:2,0:0:0:0:
239,357,33200,5,6,3:2:0:0:
305,281,33486,1,6,3:2:0:0:
250,197,33772,1,6,3:2:0:0:
188,117,34058,1,6,3:2:0:0:
252,41,34343,1,6,3:2:0:0:
403,170,34915,1,4,3:2:0:0:
496,136,35200,6,0,P|486:113|479:87,1,50,10|10,0:0|0:0,0:0:0:0:
446,50,35486,2,0,P|461:19|500:-1,2,75,6|2|10,3:2|0:0|0:0,0:0:0:0:
401,73,36058,2,0,P|368:66|322:62,1,75,2|2,3:2|0:0,0:0:0:0:
267,172,36629,2,0,P|282:203|321:223,2,75,2|2|10,3:2|0:0|0:0,0:0:0:0:
222,149,37200,2,0,P|189:156|157:157,1,50,2|10,3:2|0:0,0:0:0:0:
122,157,37486,1,2,3:2:0:0:
45,91,37772,6,0,P|41:49|33:13,2,75,6|2|10,3:2|3:2|3:2,0:0:0:0:
8,124,38343,2,0,L|15:201,1,75,6|2,3:2|3:2,0:0:0:0:
78,306,38915,2,0,P|82:348|90:384,2,75,6|6|6,3:2|3:2|3:2,0:0:0:0:
106,264,39486,2,0,L|162:255,1,50,0|2,3:0|3:2,0:0:0:0:
196,226,39772,1,2,3:2:0:0:
242,243,39915,1,2,3:2:0:0:
334,125,40343,6,0,P|344:152|360:168,1,50,4|0,3:2|0:0,0:0:0:0:
392,205,40629,2,0,L|375:288,2,75,2|2|10,3:2|0:0|0:0,0:0:0:0:
438,188,41200,2,0,P|479:178|514:123,1,100,0|0,3:0|3:0,0:0:0:0:
509,82,41629,1,10,0:0:0:0:
491,35,41772,1,2,3:2:0:0:
403,83,42058,1,2,3:2:0:0:
325,19,42343,6,0,L|218:3,1,100,6|2,3:2|3:2,0:0:0:0:
170,88,42915,2,0,L|71:102,1,100,6|2,3:2|3:2,0:0:0:0:
6,178,43486,1,6,3:2:0:0:
82,241,43772,1,6,0:0:0:0:
88,340,44058,1,6,0:0:0:0:
187,328,44343,1,6,3:2:0:0:
274,376,44629,6,0,B|298:228,1,150,6|14,3:2|3:2,0:0:0:0:
341,84,45486,2,0,B|393:97|393:97|430:68|430:68|483:81,1,150,4|12,3:2|3:2,0:0:0:0:
502,124,46058,1,4,3:2:0:0:
459,214,46343,2,0,P|484:233|487:282,2,75,6|4|14,3:2|3:2|3:2,0:0:0:0:
409,203,46915,6,0,B|260:226,1,150,6|14,3:2|3:2,0:0:0:0:
175,349,47772,2,0,B|127:335|127:335|110:291|110:291|58:276,1,150,4|14,3:2|3:2,0:0:0:0:
25,240,48343,1,6,3:2:0:0:
39,141,48629,2,0,P|14:122|11:73,2,75,6|4|14,3:2|3:2|3:2,0:0:0:0:
89,141,49200,5,6,3:2:0:0:
154,64,49486,1,4,3:2:0:0:
252,80,49772,1,6,3:2:0:0:
349,103,50058,1,4,3:2:0:0:
287,181,50343,1,6,3:2:0:0:
228,262,50629,2,0,L|237:322,2,50,4|10|6,3:2|1:2|3:2,0:0:0:0:
183,238,51058,1,10,3:2:0:0:
145,271,51200,1,6,3:2:0:0:
46,286,51486,5,4,3:2:0:0:
99,22,60058,6,0,L|113:187,1,150,10|10,3:2|3:2,0:0:0:0:
74,205,60629,2,0,P|66:252|92:294,1,100,4|4,3:2|3:2,0:0:0:0:
173,353,61200,1,6,3:2:0:0:
268,323,61486,1,4,3:2:0:0:
354,373,61772,2,0,P|398:356|422:312,1,100,6|4,3:2|3:2,0:0:0:0:
403,213,62343,1,6,3:2:0:0:
458,129,62629,1,4,3:2:0:0:
411,40,62915,6,0,P|374:9|324:11,1,100,4|4,3:2|3:2,0:0:0:0:
255,83,63486,1,6,3:2:0:0:
159,52,63772,1,4,3:2:0:0:
83,118,64058,2,0,P|96:172|100:221,1,100,6|4,3:2|3:2,0:0:0:0:
122,260,64486,1,10,0:0:0:0:
87,296,64629,2,0,P|49:301|13:309,2,75,6|6|14,3:2|3:2|3:2,0:0:0:0:
120,333,65200,6,0,L|231:341,1,100,4|4,3:2|3:2,0:0:0:0:
265,318,65629,1,10,1:2:0:0:
308,292,65772,1,6,3:2:0:0:
276,196,66058,1,4,3:2:0:0:
235,104,66343,6,0,L|124:96,1,100,6|4,3:2|3:2,0:0:0:0:
90,119,66772,1,8,1:2:0:0:
47,145,66915,1,6,3:2:0:0:
79,241,67200,1,4,3:2:0:0:
110,335,67486,6,0,P|157:319|208:339,1,100,6|4,3:2|3:2,0:0:0:0:
253,329,67915,1,10,1:2:0:0:
297,351,68058,2,0,P|351:347|386:304,1,100,6|4,3:2|3:2,0:0:0:0:
417,281,68486,1,10,1:2:0:0:
406,232,68629,1,6,3:2:0:0:
511,62,69200,6,0,L|362:79,1,150,10|10,3:2|3:2,0:0:0:0:
332,120,69772,2,0,P|289:139|237:124,1,100,6|0,3:2|3:0,0:0:0:0:
205,88,70200,1,8,3:2:0:0:
195,38,70343,1,2,3:2:0:0:
100,4,70629,1,2,3:2:0:0:
36,81,70915,6,0,P|29:115|12:187,1,100,2|0,3:2|3:0,0:0:0:0:
88,245,71486,2,0,P|81:279|64:351,1,100,2|2,3:2|3:2,0:0:0:0:
164,363,72058,2,0,P|198:370|270:387,1,100,2|0,3:2|3:0,0:0:0:0:
328,311,72629,2,0,P|362:318|434:335,1,100,0|2,3:0|3:2,0:0:0:0:
505,272,73200,6,0,P|482:219|434:202,1,100,2|0,3:2|3:0,0:0:0:0:
362,145,73772,2,0,P|309:168|292:216,1,100,2|0,3:2|3:0,0:0:0:0:
273,302,74343,2,0,P|224:312|175:323,1,100,2|0,3:2|3:0,0:0:0:0:
160,372,74772,1,10,3:2:0:0:
111,384,74915,1,0,3:0:0:0:
27,328,75200,1,2,3:2:0:0:
54,231,75486,6,0,P|92:207|151:217,1,100,2|0,3:2|3:0,0:0:0:0:
206,134,76058,2,0,P|188:92|209:36,1,100,0|2,3:0|3:2,0:0:0:0:
304,41,76629,2,0,P|319:87|302:133,1,100,2|0,3:2|3:0,0:0:0:0:
363,212,77200,2,0,P|411:204|453:229,1,100,0|2,3:0|3:2,0:0:0:0:
507,314,77772,6,0,B|484:366|429:355|429:355|330:334|330:334|277:324|249:384,1,300,2|2,3:2|3:2,0:0:0:0:
150,383,78915,6,0,B|144:284,1,100,6|4,3:2|3:2,0:0:0:0:
119,239,79343,1,12,3:2:0:0:
137,192,79486,1,4,3:2:0:0:
233,219,79772,1,6,3:2:0:0:
300,144,80058,6,0,B|294:45,1,100,6|4,3:2|3:2,0:0:0:0:
253,14,80486,1,14,3:2:0:0:
211,42,80629,1,4,3:2:0:0:
114,14,80915,1,6,3:2:0:0:
43,84,81200,6,0,P|39:129|82:172,1,100,6|6,3:2|3:2,0:0:0:0:
122,175,81629,2,0,P|154:211|151:259,1,100,14|12,3:2|3:2,0:0:0:0:
117,295,82058,1,6,3:2:0:0:
193,358,82343,2,0,L|397:341,1,200,6|6,3:2|3:2,0:0:0:0:
478,290,83200,6,0,L|473:231,1,50,6|12,3:2|3:2,0:0:0:0:
428,218,83486,2,0,P|426:189|423:141,2,75,6|2|14,3:2|0:2|3:2,0:0:0:0:
392,254,84058,1,6,3:2:0:0:
293,237,84343,6,0,L|288:296,1,50,4|12,3:2|3:2,0:0:0:0:
243,309,84629,2,0,P|241:338|238:386,2,75,6|0|14,3:2|0:0|3:2,0:0:0:0:
207,273,85200,1,6,3:2:0:0:
172,179,85486,2,0,L|176:129,1,50,4|14,3:2|3:2,0:0:0:0:
208,90,85772,5,6,3:2:0:0:
148,9,86058,1,6,3:2:0:0:
52,41,86343,1,6,3:2:0:0:
52,142,86629,1,6,3:2:0:0:
148,173,86915,5,6,3:2:0:0:
244,145,87200,1,6,3:2:0:0:
299,228,87486,1,6,3:2:0:0:
390,187,87772,1,6,3:2:0:0:
471,245,88058,6,0,L|454:292,1,50,6|2,3:2|0:0,0:0:0:0:
406,306,88343,2,0,L|389:353,1,50,2|2,0:0|0:0,0:0:0:0:
339,356,88629,2,0,L|322:308,1,50,2|2,0:0|0:0,0:0:0:0:
274,295,88915,2,0,L|257:247,1,50,2|2,0:0|0:0,0:0:0:0:
0,169,91486,6,0,L|309:198,1,300,2|2,1:2|1:2,0:0:0:0:
390,157,92629,2,0,P|426:92|404:17,1,150,6|6,3:2|3:2,0:0:0:0:
259,2,93486,2,0,P|223:67|245:142,1,150,4|4,3:2|3:2,0:0:0:0:
282,165,94058,1,4,3:2:0:0:
366,112,94343,1,6,3:2:0:0:
415,119,94486,1,2,3:2:0:0:
438,267,94915,6,0,L|519:254,2,75,6|2|10,3:2|0:0|0:0,0:0:0:0:
414,311,95486,2,0,P|381:329|331:326,1,75,2|2,3:2|0:0,0:0:0:0:
270,228,96058,2,0,L|283:147,2,75,6|2|10,3:2|0:0|0:0,0:0:0:0:
260,277,96629,1,6,3:2:0:0:
181,338,96915,2,0,P|149:330|114:340,1,50,2|10,3:2|3:2,0:0:0:0:
88,355,97200,6,0,L|72:266,1,75,6|2,3:2|0:0,0:0:0:0:
73,156,97772,2,0,L|-1:173,2,75,2|2|10,3:2|0:0|0:0,0:0:0:0:
116,181,98343,2,0,P|160:185|207:146,1,100,2|0,3:2|3:0,0:0:0:0:
231,111,98772,1,10,0:0:0:0:
217,62,98915,1,6,3:2:0:0:
296,2,99200,2,0,L|345:6,1,50,2|10,3:2|3:2,0:0:0:0:
386,35,99486,6,0,P|366:145|385:237,1,200,6|4,3:2|3:2,0:0:0:0:
460,293,100343,1,2,3:2:0:0:
401,373,100629,2,0,L|298:366,1,100,6|6,3:2|0:0,0:0:0:0:
202,350,101200,2,0,P|164:358|129:338,2,75,6|4|14,0:0|0:0|3:2,0:0:0:0:
218,302,101772,6,0,P|221:222|231:143,1,150,6|14,3:2|3:2,0:0:0:0:
134,36,102629,2,0,B|70:72|70:72|44:115|80:149,1,150,4|12,3:2|3:2,0:0:0:0:
122,152,103200,1,4,3:2:0:0:
99,250,103486,2,0,L|6:235,2,75,6|4|14,3:2|3:2|3:2,0:0:0:0:
137,283,104058,6,0,P|207:274|286:269,1,150,6|14,3:2|3:2,0:0:0:0:
416,344,104915,2,0,B|480:308|480:308|506:265|470:231,1,150,4|14,3:2|3:2,0:0:0:0:
433,211,105486,1,6,3:2:0:0:
349,155,105772,2,0,L|344:81,2,75,6|4|14,3:2|3:2|3:2,0:0:0:0:
321,196,106343,5,6,3:2:0:0:
271,283,106629,1,4,3:2:0:0:
173,262,106915,1,6,3:2:0:0:
76,238,107200,1,4,3:2:0:0:
123,150,107486,2,0,L|189:141,2,50,4|8|6,3:2|1:2|3:2,0:0:0:0:
87,114,107915,1,10,1:2:0:0:
52,77,108058,2,0,L|2:83,2,50,6|10|6,3:2|1:2|3:2,0:0:0:0:
89,43,108486,1,10,1:2:0:0:
120,3,108629,5,6,3:2:0:0:
218,17,108915,1,4,3:2:0:0:
316,34,109200,2,0,L|329:89,1,50,6|8,3:2|1:2,0:0:0:0:
369,110,109486,2,0,L|364:159,1,50,4|8,3:2|1:2,0:0:0:0:
334,200,109772,1,6,3:2:0:0:
203,351,110343,6,0,B|128:381|128:381|57:359,1,150,10|10,3:2|3:2,0:0:0:0:
25,326,110915,2,0,P|12:278|36:233,1,100,4|0,3:2|3:0,0:0:0:0:
98,158,111486,1,2,3:2:0:0:
47,72,111772,1,0,3:0:0:0:
113,0,112058,2,0,L|218:7,1,100,2|0,3:2|3:0,0:0:0:0:
291,68,112629,2,0,P|280:101|291:143,2,75,2|2|10,3:2|0:0|0:0,0:0:0:0:
332,40,113200,6,0,L|437:47,1,100,0|0,3:0|3:0,0:0:0:0:
495,124,113772,1,2,3:2:0:0:
431,201,114058,1,0,3:0:0:0:
492,279,114343,2,0,P|489:338|452:369,1,100,2|0,3:2|3:0,0:0:0:0:
361,362,114915,2,0,L|277:371,2,75,6|2|10,3:2|0:0|3:2,0:0:0:0:
378,314,115486,6,0,L|362:201,1,100,4|0,3:2|3:0,0:0:0:0:
273,172,116058,1,2,3:2:0:0:
209,249,116343,1,0,3:0:0:0:
116,210,116629,2,0,P|63:230|19:216,1,100,2|0,3:2|3:0,0:0:0:0:
7,119,117200,2,0,B|-2:41,2,75,2|2|10,3:2|0:0|0:0,0:0:0:0:
56,130,117772,6,0,L|157:115,1,100,4|0,3:2|3:0,0:0:0:0:
216,36,118343,2,0,L|314:50,1,100,6|0,3:2|3:0,0:0:0:0:
390,116,118915,1,6,3:2:0:0:
481,75,119200,1,4,3:2:0:0:
502,172,119486,2,0,L|513:261,2,75,14|14|14,3:2|0:0|3:2,0:0:0:0:
463,204,120058,6,0,P|414:226|356:214,1,100,6|4,3:2|3:2,0:0:0:0:
323,240,120486,1,10,0:2:0:0:
278,217,120629,2,0,P|228:212|184:233,1,100,6|4,3:2|3:2,0:0:0:0:
147,267,121058,1,10,0:2:0:0:
100,250,121200,2,0,L|90:144,1,100,6|4,3:2|3:2,0:0:0:0:
23,75,121772,6,0,P|7:38|13:4,2,75,6|2|10,3:2|0:2|0:2,0:0:0:0:
72,70,122343,6,0,P|116:52|173:59,1,100,4|4,3:2|3:2,0:0:0:0:
199,95,122772,1,10,0:2:0:0:
247,81,122915,2,0,P|296:86|342:67,1,100,6|4,3:2|3:2,0:0:0:0:
392,68,123343,1,10,0:2:0:0:
432,39,123486,2,0,L|443:141,1,100,6|4,3:2|3:2,0:0:0:0:
438,239,124058,6,0,L|518:233,2,75,6|2|10,3:2|0:2|3:2,0:0:0:0:
418,284,124629,6,0,P|364:308|326:292,1,100,4|4,3:2|3:2,0:0:0:0:
282,313,125058,1,10,0:2:0:0:
233,323,125200,2,0,P|185:288|180:247,1,100,6|4,3:2|3:2,0:0:0:0:
148,210,125629,1,10,0:2:0:0:
118,169,125772,2,0,P|124:110|157:85,1,100,6|4,3:2|3:2,0:0:0:0:
252,103,126343,6,0,L|268:184,2,75,6|2|10,3:2|3:2|0:2,0:0:0:0:
270,56,126915,6,0,B|311:24|311:24|364:42,1,100,6|4,3:2|3:2,0:0:0:0:
391,74,127343,1,10,3:2:0:0:
414,118,127486,2,0,L|390:219,1,100,4|4,3:2|3:2,0:0:0:0:
366,259,127915,1,10,3:2:0:0:
317,272,128058,1,6,3:2:0:0:
135,355,128629,6,0,L|37:337,1,100,10|10,3:2|3:2,0:0:0:0:
0,244,129200,5,6,3:2:0:0:
36,150,129486,1,6,3:2:0:0:
133,172,129772,1,6,3:2:0:0:
180,83,130058,1,6,3:2:0:0:
262,138,130343,1,6,3:2:0:0:
346,84,130629,1,6,3:2:0:0:
401,167,130915,1,6,3:2:0:0:
497,195,131200,1,6,3:2:0:0:
447,282,131486,6,0,L|380:303,1,50,6|10,3:2|1:2,0:0:0:0:
351,312,131772,1,6,3:2:0:0:
279,381,132058,6,0,L|227:333,1,50,6|10,3:2|1:2,0:0:0:0:
209,308,132343,1,6,3:2:0:0:
110,289,132629,6,0,L|125:220,1,50,6|10,3:2|1:2,0:0:0:0:
142,195,132915,1,6,3:2:0:0:
115,98,133200,6,0,P|136:85|161:83,1,50,6|10,3:2|3:2,0:0:0:0:
198,117,133486,2,0,P|219:129|244:131,1,50,6|10,3:2|3:2,0:0:0:0:
286,104,133772,1,4,3:2:0:0:
