osu file format v14

[General]
AudioFilename: audio.mp3
AudioLeadIn: 0
PreviewTime: 35486
Countdown: 0
SampleSet: Soft
StackLeniency: 0.7
Mode: 3
LetterboxInBreaks: 0
SpecialStyle: 0
WidescreenStoryboard: 1

[Editor]
DistanceSpacing: 1
BeatDivisor: 4
GridSize: 32
TimelineZoom: 1.8

[Metadata]
Title:Myths Orbis
TitleUnicode:Myths Orbis
Artist:Raimukun
ArtistUnicode:Raimukun
Creator:Ppass
Version:Insane
Source:osu! World Cup 2022
Tags:Nicknem_ owc2022 owc22 fa featured artist electronic instrumental piano Cinematic Speedcore Hardcore Hard Renaissance Rice Jumpstream Handstream stamina
BeatmapID:3955584
BeatmapSetID:1916843

[Difficulty]
HPDrainRate:8
CircleSize:4
OverallDifficulty:8
ApproachRate:5
SliderMultiplier:1.4
SliderTickRate:1

[Events]
//Background and Video events
0,0,"bg.jpg",0,0
//Break Periods
//Storyboard Layer 0 (Background)
//Storyboard Layer 1 (Fail)
//Storyboard Layer 2 (Pass)
//Storyboard Layer 3 (Foreground)
//Storyboard Layer 4 (Overlay)
//Storyboard Sound Samples

[TimingPoints]
58,285.714285714286,4,2,1,65,1,0
1200,-100,4,2,1,65,0,1
5772,-100,4,2,1,65,0,0
12629,-100,4,2,1,65,0,1
14915,-100,4,2,1,65,0,0
30915,-100,4,2,1,65,0,1
34343,-100,4,2,1,65,0,0
49200,-100,4,2,1,65,0,1
51486,-100,4,2,1,65,0,0
65200,-100,4,2,1,65,0,1
68629,-100,4,2,1,65,0,0
85772,-100,4,2,1,65,0,1
88058,-100,4,2,1,65,0,0
106343,-100,4,2,1,65,0,1
109772,-100,4,2,1,65,0,0
124629,-100,4,2,1,65,0,1
128058,-100,4,2,1,65,0,0

[HitObjects]
320,192,915,5,0,0:0:0:0:
192,192,986,1,0,0:0:0:0:
448,192,1058,1,0,0:0:0:0:
320,192,1129,1,0,0:0:0:0:
64,192,1200,1,2,0:0:0:0:
192,192,1200,1,8,0:0:0:0:
64,192,1343,1,2,0:0:0:0:
192,192,1343,1,0,0:0:0:0:
192,192,1486,1,2,0:0:0:0:
448,192,1486,1,8,0:0:0:0:
192,192,1629,1,2,0:0:0:0:
448,192,1629,1,0,0:0:0:0:
320,192,1772,1,2,0:0:0:0:
448,192,1772,1,8,0:0:0:0:
320,192,1915,1,2,0:0:0:0:
448,192,1915,1,0,0:0:0:0:
64,192,2058,1,2,0:0:0:0:
320,192,2058,1,8,0:0:0:0:
64,192,2200,1,2,0:0:0:0:
320,192,2200,1,0,0:0:0:0:
64,192,2343,1,2,0:0:0:0:
192,192,2343,1,8,0:0:0:0:
64,192,2486,1,2,0:0:0:0:
192,192,2486,1,0,0:0:0:0:
192,192,2629,1,2,0:0:0:0:
448,192,2629,1,8,0:0:0:0:
192,192,2772,1,2,0:0:0:0:
448,192,2772,1,0,0:0:0:0:
320,192,2915,1,2,0:0:0:0:
448,192,2915,1,8,0:0:0:0:
320,192,3058,1,2,0:0:0:0:
448,192,3058,1,0,0:0:0:0:
64,192,3200,1,2,0:0:0:0:
320,192,3200,1,8,0:0:0:0:
64,192,3343,1,2,0:0:0:0:
320,192,3343,1,0,0:0:0:0:
64,192,3486,1,2,0:0:0:0:
192,192,3486,1,8,0:0:0:0:
192,192,3629,1,2,0:0:0:0:
448,192,3629,1,0,0:0:0:0:
320,192,3772,1,2,0:0:0:0:
448,192,3772,1,8,0:0:0:0:
64,192,3915,1,2,0:0:0:0:
320,192,3915,1,0,0:0:0:0:
64,192,4058,1,2,0:0:0:0:
192,192,4058,1,8,0:0:0:0:
320,192,4200,1,2,0:0:0:0:
448,192,4200,1,0,0:0:0:0:
64,192,4343,1,2,0:0:0:0:
320,192,4343,1,8,0:0:0:0:
64,192,4486,1,2,0:0:0:0:
192,192,4486,1,0,0:0:0:0:
192,192,4629,1,2,0:0:0:0:
448,192,4629,1,8,0:0:0:0:
320,192,4772,1,2,0:0:0:0:
448,192,4772,1,0,0:0:0:0:
64,192,4915,1,2,0:0:0:0:
192,192,4915,1,8,0:0:0:0:
192,192,5058,1,2,0:0:0:0:
448,192,5058,1,0,0:0:0:0:
320,192,5200,1,2,0:0:0:0:
448,192,5200,1,8,0:0:0:0:
64,192,5272,1,0,0:0:0:0:
192,192,5343,1,2,0:0:0:0:
320,192,5343,1,0,0:0:0:0:
448,192,5415,1,0,0:0:0:0:
64,192,5486,1,2,0:0:0:0:
192,192,5486,1,8,0:0:0:0:
448,192,5558,1,0,0:0:0:0:
64,192,5629,1,2,0:0:0:0:
192,192,5629,1,0,0:0:0:0:
320,192,5700,1,0,0:0:0:0:
64,192,5772,1,2,0:0:0:0:
192,192,5772,1,4,0:0:0:0:
448,192,5772,1,0,0:0:0:0:
320,192,6058,1,2,0:0:0:0:
192,192,6129,1,2,0:0:0:0:
64,192,6200,1,2,0:0:0:0:
320,192,6200,1,8,0:0:0:0:
448,192,6200,1,0,0:0:0:0:
320,192,6486,1,0,0:0:0:0:
192,192,6558,1,0,0:0:0:0:
320,192,6629,1,0,0:0:0:0:
64,192,6700,1,0,0:0:0:0:
448,192,6772,1,2,0:0:0:0:
192,192,6843,1,2,0:0:0:0:
64,192,6915,1,8,0:0:0:0:
320,192,6915,1,2,0:0:0:0:
448,192,6915,1,0,0:0:0:0:
192,192,6986,1,0,0:0:0:0:
64,192,7058,1,0,0:0:0:0:
320,192,7129,1,0,0:0:0:0:
192,192,7200,1,0,0:0:0:0:
448,192,7272,1,0,0:0:0:0:
64,192,7343,1,2,0:0:0:0:
320,192,7415,1,2,0:0:0:0:
64,192,7486,1,8,0:0:0:0:
192,192,7486,1,2,0:0:0:0:
448,192,7486,1,0,0:0:0:0:
320,192,7629,1,2,0:0:0:0:
192,192,7700,1,2,0:0:0:0:
64,192,7772,1,8,0:0:0:0:
320,192,7772,1,2,0:0:0:0:
448,192,7772,1,0,0:0:0:0:
192,192,7843,1,0,0:0:0:0:
448,192,7915,1,0,0:0:0:0:
320,192,7986,1,0,0:0:0:0:
64,192,8058,1,2,0:0:0:0:
192,192,8058,1,8,0:0:0:0:
448,192,8058,1,0,0:0:0:0:
192,192,8343,1,2,0:0:0:0:
320,192,8415,1,2,0:0:0:0:
64,192,8486,1,2,0:0:0:0:
192,192,8486,1,8,0:0:0:0:
448,192,8486,1,0,0:0:0:0:
192,192,8772,1,0,0:0:0:0:
320,192,8843,1,0,0:0:0:0:
192,192,8915,1,0,0:0:0:0:
448,192,8986,1,0,0:0:0:0:
64,192,9058,1,2,0:0:0:0:
320,192,9129,1,2,0:0:0:0:
64,192,9200,1,2,0:0:0:0:
192,192,9200,1,8,0:0:0:0:
448,192,9200,1,0,0:0:0:0:
320,192,9272,1,0,0:0:0:0:
192,192,9343,1,0,0:0:0:0:
448,192,9415,1,0,0:0:0:0:
320,192,9486,1,0,0:0:0:0:
64,192,9558,1,0,0:0:0:0:
192,192,9629,1,2,0:0:0:0:
320,192,9700,1,2,0:0:0:0:
64,192,9772,1,8,0:0:0:0:
192,192,9772,1,2,0:0:0:0:
448,192,9843,1,0,0:0:0:0:
64,192,9915,1,2,0:0:0:0:
192,192,9986,1,2,0:0:0:0:
320,192,10058,1,8,0:0:0:0:
448,192,10058,1,2,0:0:0:0:
64,192,10129,1,0,0:0:0:0:
448,192,10200,1,2,0:0:0:0:
192,192,10272,1,0,0:0:0:0:
64,192,10343,1,2,0:0:0:0:
320,192,10343,1,8,0:0:0:0:
448,192,10343,1,0,0:0:0:0:
192,192,10415,1,0,0:0:0:0:
320,192,10486,1,0,0:0:0:0:
64,192,10558,1,2,0:0:0:0:
192,192,10629,1,2,0:0:0:0:
448,192,10700,1,0,0:0:0:0:
320,192,10772,1,0,0:0:0:0:
192,192,10843,1,0,0:0:0:0:
64,192,10915,1,8,0:0:0:0:
320,192,10915,1,2,0:0:0:0:
448,192,10915,1,0,0:0:0:0:
192,192,10986,1,0,0:0:0:0:
448,192,11058,1,0,0:0:0:0:
320,192,11129,1,0,0:0:0:0:
192,192,11200,1,2,0:0:0:0:
64,192,11272,1,0,0:0:0:0:
448,192,11343,1,0,0:0:0:0:
320,192,11415,1,0,0:0:0:0:
64,192,11486,1,2,0:0:0:0:
192,192,11486,1,8,0:0:0:0:
448,192,11486,1,0,0:0:0:0:
320,192,11558,1,0,0:0:0:0:
64,192,11629,1,0,0:0:0:0:
192,192,11700,1,0,0:0:0:0:
320,192,11772,1,2,0:0:0:0:
64,192,11843,1,0,0:0:0:0:
320,192,11915,1,0,0:0:0:0:
448,192,11986,1,0,0:0:0:0:
64,192,12058,1,8,0:0:0:0:
192,192,12058,1,2,0:0:0:0:
320,192,12058,1,0,0:0:0:0:
448,192,12129,1,0,0:0:0:0:
192,192,12200,1,0,0:0:0:0:
320,192,12272,1,0,0:0:0:0:
448,192,12343,1,2,0:0:0:0:
64,192,12415,1,0,0:0:0:0:
448,192,12486,1,2,0:0:0:0:
192,192,12558,1,0,0:0:0:0:
64,192,12629,1,2,0:0:0:0:
320,192,12629,1,8,0:0:0:0:
448,192,12629,1,0,0:0:0:0:
64,192,12772,1,2,0:0:0:0:
320,192,12843,1,0,0:0:0:0:
192,192,12915,1,2,0:0:0:0:
448,192,12915,1,8,0:0:0:0:
64,192,12986,1,0,0:0:0:0:
320,192,13058,1,2,0:0:0:0:
448,192,13129,1,0,0:0:0:0:
64,192,13200,1,2,0:0:0:0:
192,192,13200,1,8,0:0:0:0:
320,192,13272,1,0,0:0:0:0:
448,192,13343,1,2,0:0:0:0:
64,192,13415,1,0,0:0:0:0:
192,192,13486,1,8,0:0:0:0:
320,192,13486,1,2,0:0:0:0:
448,192,13558,1,0,0:0:0:0:
192,192,13629,1,2,0:0:0:0:
64,192,13700,1,0,0:0:0:0:
320,192,13772,1,8,0:0:0:0:
448,192,13772,1,2,0:0:0:0:
192,192,13843,1,2,0:0:0:0:
448,192,13915,1,2,0:0:0:0:
192,192,13986,1,2,0:0:0:0:
64,192,14058,1,2,0:0:0:0:
448,192,14058,1,8,0:0:0:0:
320,192,14129,1,2,0:0:0:0:
64,192,14200,1,2,0:0:0:0:
320,192,14272,1,2,0:0:0:0:
64,192,14343,1,2,0:0:0:0:
192,192,14343,1,8,0:0:0:0:
448,192,14415,1,2,0:0:0:0:
192,192,14486,1,2,0:0:0:0:
320,192,14558,1,2,0:0:0:0:
448,192,14558,1,8,0:0:0:0:
64,192,14629,1,2,0:0:0:0:
320,192,14700,1,2,0:0:0:0:
64,192,14772,1,2,0:0:0:0:
192,192,14772,1,8,0:0:0:0:
320,192,14843,1,2,0:0:0:0:
64,192,14915,1,2,0:0:0:0:
192,192,14915,1,4,0:0:0:0:
448,192,14915,1,0,0:0:0:0:
320,192,15200,1,0,0:0:0:0:
192,192,15272,1,0,0:0:0:0:
448,192,15343,1,0,0:0:0:0:
320,192,15415,1,0,0:0:0:0:
192,192,15486,1,0,0:0:0:0:
64,192,15558,1,0,0:0:0:0:
320,192,15629,1,0,0:0:0:0:
192,192,15700,1,0,0:0:0:0:
448,192,15772,1,0,0:0:0:0:
320,192,15843,1,0,0:0:0:0:
192,192,15915,1,0,0:0:0:0:
64,192,15986,1,0,0:0:0:0:
320,192,16058,1,0,0:0:0:0:
448,192,16129,1,0,0:0:0:0:
64,192,16200,1,0,0:0:0:0:
192,192,16272,1,0,0:0:0:0:
320,192,16343,1,0,0:0:0:0:
448,192,16415,1,0,0:0:0:0:
192,192,16486,1,0,0:0:0:0:
64,192,16558,1,0,0:0:0:0:
448,192,16629,1,2,0:0:0:0:
192,192,16700,1,0,0:0:0:0:
448,192,16772,1,2,0:0:0:0:
64,192,16843,1,0,0:0:0:0:
320,192,16915,1,2,0:0:0:0:
192,192,16986,1,2,0:0:0:0:
320,192,17058,1,2,0:0:0:0:
192,192,17129,1,2,0:0:0:0:
64,192,17200,1,2,0:0:0:0:
320,192,17200,1,4,0:0:0:0:
448,192,17200,1,0,0:0:0:0:
192,192,17272,1,0,0:0:0:0:
448,192,17343,1,0,0:0:0:0:
320,192,17415,1,0,0:0:0:0:
64,192,17486,1,2,0:0:0:0:
192,192,17486,1,0,0:0:0:0:
448,192,17558,1,0,0:0:0:0:
320,192,17629,1,0,0:0:0:0:
192,192,17700,1,0,0:0:0:0:
64,192,17772,1,2,0:0:0:0:
448,192,17772,1,0,0:0:0:0:
320,192,17843,1,0,0:0:0:0:
192,192,17915,1,0,0:0:0:0:
448,192,17986,1,0,0:0:0:0:
64,192,18058,1,2,0:0:0:0:
320,192,18058,1,0,0:0:0:0:
192,192,18129,1,0,0:0:0:0:
448,192,18200,1,0,0:0:0:0:
320,192,18272,1,0,0:0:0:0:
64,192,18343,1,2,0:0:0:0:
192,192,18343,1,0,0:0:0:0:
448,192,18415,1,0,0:0:0:0:
320,192,18486,1,0,0:0:0:0:
64,192,18558,1,0,0:0:0:0:
192,192,18629,1,2,0:0:0:0:
448,192,18629,1,0,0:0:0:0:
320,192,18700,1,0,0:0:0:0:
64,192,18772,1,0,0:0:0:0:
192,192,18843,1,0,0:0:0:0:
320,192,18915,1,2,0:0:0:0:
448,192,18915,1,0,0:0:0:0:
64,192,18986,1,0,0:0:0:0:
192,192,19058,1,0,0:0:0:0:
320,192,19129,1,0,0:0:0:0:
64,192,19200,1,2,0:0:0:0:
448,192,19200,1,0,0:0:0:0:
192,192,19272,1,0,0:0:0:0:
320,192,19343,1,2,0:0:0:0:
64,192,19415,1,0,0:0:0:0:
320,192,19486,1,2,0:0:0:0:
448,192,19486,1,0,0:0:0:0:
192,192,19558,1,0,0:0:0:0:
64,192,19629,1,0,0:0:0:0:
320,192,19700,1,0,0:0:0:0:
192,192,19772,1,2,0:0:0:0:
448,192,19772,1,0,0:0:0:0:
64,192,19843,1,0,0:0:0:0:
320,192,19915,1,0,0:0:0:0:
448,192,19986,1,0,0:0:0:0:
64,192,20058,1,2,0:0:0:0:
192,192,20058,1,0,0:0:0:0:
320,192,20129,1,0,0:0:0:0:
448,192,20200,1,0,0:0:0:0:
64,192,20272,1,0,0:0:0:0:
192,192,20343,1,2,0:0:0:0:
320,192,20343,1,0,0:0:0:0:
448,192,20415,1,0,0:0:0:0:
192,192,20486,1,0,0:0:0:0:
320,192,20558,1,0,0:0:0:0:
64,192,20629,1,2,0:0:0:0:
448,192,20629,1,0,0:0:0:0:
192,192,20700,1,0,0:0:0:0:
320,192,20772,1,0,0:0:0:0:
64,192,20843,1,0,0:0:0:0:
320,192,20915,1,2,0:0:0:0:
448,192,20915,1,0,0:0:0:0:
192,192,20986,1,0,0:0:0:0:
64,192,21058,1,0,0:0:0:0:
320,192,21129,1,0,0:0:0:0:
64,192,21200,1,2,0:0:0:0:
192,192,21200,1,8,0:0:0:0:
448,192,21200,1,0,0:0:0:0:
320,192,21272,1,0,0:0:0:0:
448,192,21343,1,2,0:0:0:0:
192,192,21415,1,0,0:0:0:0:
64,192,21486,1,2,0:0:0:0:
320,192,21558,1,0,0:0:0:0:
64,192,21629,1,2,0:0:0:0:
192,192,21700,1,0,0:0:0:0:
64,192,21772,1,2,0:0:0:0:
320,192,21772,1,8,0:0:0:0:
448,192,21772,1,0,0:0:0:0:
192,192,21843,1,0,0:0:0:0:
448,192,21915,1,0,0:0:0:0:
320,192,21986,1,0,0:0:0:0:
64,192,22058,1,2,0:0:0:0:
192,192,22058,1,0,0:0:0:0:
448,192,22129,1,0,0:0:0:0:
320,192,22200,1,0,0:0:0:0:
192,192,22272,1,0,0:0:0:0:
64,192,22343,1,2,0:0:0:0:
448,192,22343,1,0,0:0:0:0:
320,192,22415,1,0,0:0:0:0:
192,192,22486,1,0,0:0:0:0:
448,192,22558,1,0,0:0:0:0:
64,192,22629,1,2,0:0:0:0:
320,192,22629,1,0,0:0:0:0:
192,192,22700,1,0,0:0:0:0:
448,192,22772,1,0,0:0:0:0:
64,192,22843,1,0,0:0:0:0:
192,192,22915,1,2,0:0:0:0:
320,192,22915,1,0,0:0:0:0:
448,192,22986,1,0,0:0:0:0:
64,192,23058,1,0,0:0:0:0:
192,192,23129,1,0,0:0:0:0:
320,192,23200,1,2,0:0:0:0:
448,192,23200,1,0,0:0:0:0:
64,192,23272,1,0,0:0:0:0:
192,192,23343,1,0,0:0:0:0:
448,192,23415,1,0,0:0:0:0:
64,192,23486,1,2,0:0:0:0:
320,192,23486,1,0,0:0:0:0:
192,192,23558,1,0,0:0:0:0:
448,192,23629,1,0,0:0:0:0:
320,192,23700,1,0,0:0:0:0:
64,192,23772,1,2,0:0:0:0:
192,192,23772,1,0,0:0:0:0:
448,192,23843,1,0,0:0:0:0:
64,192,23915,1,2,0:0:0:0:
192,192,23986,1,0,0:0:0:0:
64,192,24058,1,2,0:0:0:0:
320,192,24058,1,8,0:0:0:0:
448,192,24058,1,0,0:0:0:0:
192,192,24129,1,0,0:0:0:0:
320,192,24200,1,0,0:0:0:0:
64,192,24272,1,0,0:0:0:0:
192,192,24343,1,2,0:0:0:0:
448,192,24415,1,0,0:0:0:0:
320,192,24486,1,0,0:0:0:0:
192,192,24558,1,0,0:0:0:0:
64,192,24629,1,2,0:0:0:0:
320,192,24629,1,8,0:0:0:0:
448,192,24629,1,0,0:0:0:0:
192,192,24700,1,0,0:0:0:0:
448,192,24772,1,0,0:0:0:0:
320,192,24843,1,0,0:0:0:0:
192,192,24915,1,2,0:0:0:0:
64,192,24986,1,0,0:0:0:0:
448,192,25058,1,0,0:0:0:0:
192,192,25129,1,0,0:0:0:0:
64,192,25200,1,2,0:0:0:0:
448,192,25200,1,8,0:0:0:0:
320,192,25272,1,0,0:0:0:0:
64,192,25343,1,0,0:0:0:0:
192,192,25415,1,0,0:0:0:0:
320,192,25486,1,2,0:0:0:0:
448,192,25486,1,8,0:0:0:0:
64,192,25558,1,0,0:0:0:0:
448,192,25629,1,0,0:0:0:0:
320,192,25700,1,0,0:0:0:0:
64,192,25772,1,2,0:0:0:0:
192,192,25772,1,8,0:0:0:0:
448,192,25843,1,0,0:0:0:0:
192,192,25915,1,2,0:0:0:0:
320,192,25986,1,8,0:0:0:0:
448,192,25986,1,0,0:0:0:0:
64,192,26058,1,2,0:0:0:0:
320,192,26129,1,0,0:0:0:0:
64,192,26200,1,2,0:0:0:0:
192,192,26200,1,8,0:0:0:0:
448,192,26272,1,0,0:0:0:0:
320,192,26343,1,2,0:0:0:0:
192,192,26343,1,0,0:0:0:0:
64,192,26629,1,2,0:0:0:0:
192,192,26629,1,4,0:0:0:0:
448,192,26629,1,0,0:0:0:0:
320,192,26700,1,0,0:0:0:0:
64,192,26772,1,0,0:0:0:0:
192,192,26843,1,0,0:0:0:0:
320,192,26915,1,2,0:0:0:0:
448,192,26915,1,0,0:0:0:0:
64,192,26986,1,0,0:0:0:0:
192,192,27058,1,0,0:0:0:0:
320,192,27129,1,0,0:0:0:0:
64,192,27200,1,2,0:0:0:0:
448,192,27200,1,0,0:0:0:0:
192,192,27272,1,0,0:0:0:0:
320,192,27343,1,0,0:0:0:0:
64,192,27415,1,0,0:0:0:0:
192,192,27486,1,2,0:0:0:0:
448,192,27486,1,0,0:0:0:0:
320,192,27558,1,0,0:0:0:0:
64,192,27629,1,0,0:0:0:0:
320,192,27700,1,0,0:0:0:0:
64,192,27772,1,2,0:0:0:0:
448,192,27772,1,0,0:0:0:0:
192,192,27843,1,0,0:0:0:0:
448,192,27915,1,0,0:0:0:0:
192,192,27986,1,0,0:0:0:0:
64,192,28058,1,2,0:0:0:0:
320,192,28058,1,0,0:0:0:0:
448,192,28129,1,0,0:0:0:0:
192,192,28200,1,0,0:0:0:0:
64,192,28272,1,0,0:0:0:0:
320,192,28343,1,2,0:0:0:0:
448,192,28343,1,0,0:0:0:0:
64,192,28415,1,0,0:0:0:0:
448,192,28486,1,2,0:0:0:0:
192,192,28558,1,0,0:0:0:0:
448,192,28629,1,2,0:0:0:0:
64,192,28629,1,0,0:0:0:0:
320,192,28700,1,0,0:0:0:0:
192,192,28772,1,0,0:0:0:0:
448,192,28843,1,0,0:0:0:0:
64,192,28915,1,2,0:0:0:0:
320,192,28915,1,0,0:0:0:0:
448,192,28986,1,0,0:0:0:0:
192,192,29058,1,0,0:0:0:0:
320,192,29129,1,0,0:0:0:0:
64,192,29200,1,2,0:0:0:0:
448,192,29200,1,0,0:0:0:0:
192,192,29272,1,0,0:0:0:0:
320,192,29343,1,0,0:0:0:0:
64,192,29415,1,0,0:0:0:0:
192,192,29486,1,2,0:0:0:0:
448,192,29486,1,0,0:0:0:0:
320,192,29558,1,0,0:0:0:0:
64,192,29629,1,0,0:0:0:0:
192,192,29700,1,0,0:0:0:0:
320,192,29772,1,2,0:0:0:0:
448,192,29772,1,0,0:0:0:0:
64,192,29843,1,0,0:0:0:0:
192,192,29915,1,0,0:0:0:0:
448,192,29986,1,0,0:0:0:0:
64,192,30058,1,2,0:0:0:0:
320,192,30058,1,0,0:0:0:0:
192,192,30129,1,0,0:0:0:0:
448,192,30200,1,0,0:0:0:0:
320,192,30272,1,0,0:0:0:0:
64,192,30343,1,2,0:0:0:0:
192,192,30343,1,8,0:0:0:0:
448,192,30343,1,0,0:0:0:0:
320,192,30415,1,0,0:0:0:0:
64,192,30486,1,2,0:0:0:0:
192,192,30558,1,0,0:0:0:0:
448,192,30629,1,2,0:0:0:0:
64,192,30700,1,0,0:0:0:0:
448,192,30772,1,2,0:0:0:0:
320,192,30843,1,0,0:0:0:0:
64,192,30915,1,2,0:0:0:0:
192,192,30915,1,8,0:0:0:0:
448,192,30915,1,0,0:0:0:0:
320,192,30986,1,0,0:0:0:0:
192,192,31058,1,2,0:0:0:0:
448,192,31129,1,0,0:0:0:0:
320,192,31200,1,2,0:0:0:0:
64,192,31272,1,0,0:0:0:0:
320,192,31343,1,2,0:0:0:0:
192,192,31415,1,0,0:0:0:0:
64,192,31486,1,2,0:0:0:0:
320,192,31486,1,8,0:0:0:0:
448,192,31486,1,0,0:0:0:0:
192,192,31558,1,0,0:0:0:0:
448,192,31629,1,2,0:0:0:0:
64,192,31700,1,0,0:0:0:0:
192,192,31772,1,2,0:0:0:0:
448,192,31843,1,0,0:0:0:0:
192,192,31915,1,2,0:0:0:0:
320,192,31986,1,0,0:0:0:0:
64,192,32058,1,2,0:0:0:0:
192,192,32058,1,8,0:0:0:0:
448,192,32058,1,0,0:0:0:0:
320,192,32129,1,0,0:0:0:0:
64,192,32200,1,2,0:0:0:0:
448,192,32272,1,0,0:0:0:0:
320,192,32343,1,2,0:0:0:0:
64,192,32415,1,0,0:0:0:0:
320,192,32486,1,2,0:0:0:0:
192,192,32558,1,0,0:0:0:0:
64,192,32629,1,2,0:0:0:0:
320,192,32629,1,8,0:0:0:0:
448,192,32629,1,0,0:0:0:0:
192,192,32700,1,0,0:0:0:0:
448,192,32772,1,2,0:0:0:0:
64,192,32843,1,0,0:0:0:0:
192,192,32915,1,2,0:0:0:0:
448,192,32986,1,0,0:0:0:0:
192,192,33058,1,2,0:0:0:0:
320,192,33129,1,0,0:0:0:0:
64,192,33200,1,2,0:0:0:0:
448,192,33200,1,8,0:0:0:0:
192,192,33272,1,2,0:0:0:0:
448,192,33343,1,2,0:0:0:0:
192,192,33415,1,2,0:0:0:0:
320,192,33486,1,2,0:0:0:0:
448,192,33486,1,8,0:0:0:0:
64,192,33558,1,2,0:0:0:0:
320,192,33629,1,2,0:0:0:0:
64,192,33700,1,2,0:0:0:0:
192,192,33772,1,2,0:0:0:0:
320,192,33772,1,8,0:0:0:0:
448,192,33843,1,2,0:0:0:0:
192,192,33915,1,2,0:0:0:0:
448,192,33986,1,2,0:0:0:0:
64,192,34058,1,2,0:0:0:0:
192,192,34058,1,8,0:0:0:0:
320,192,34129,1,2,0:0:0:0:
64,192,34200,1,2,0:0:0:0:
320,192,34272,1,2,0:0:0:0:
64,192,34343,1,2,0:0:0:0:
192,192,34343,1,4,0:0:0:0:
448,192,34343,1,0,0:0:0:0:
64,192,34915,1,2,0:0:0:0:
320,192,34915,1,8,0:0:0:0:
448,192,34915,1,0,0:0:0:0:
320,192,35200,1,2,0:0:0:0:
192,192,35272,1,0,0:0:0:0:
448,192,35343,1,2,0:0:0:0:
320,192,35415,1,2,0:0:0:0:
64,192,35486,1,2,0:0:0:0:
192,192,35486,1,4,0:0:0:0:
448,192,35486,1,0,0:0:0:0:
320,192,35558,1,0,0:0:0:0:
64,192,35629,1,0,0:0:0:0:
192,192,35700,1,0,0:0:0:0:
320,192,35772,1,2,0:0:0:0:
448,192,35772,1,0,0:0:0:0:
64,192,35843,1,0,0:0:0:0:
192,192,35915,1,0,0:0:0:0:
320,192,35986,1,0,0:0:0:0:
64,192,36058,1,2,0:0:0:0:
448,192,36058,1,0,0:0:0:0:
192,192,36129,1,0,0:0:0:0:
320,192,36200,1,0,0:0:0:0:
448,192,36272,1,0,0:0:0:0:
64,192,36343,1,2,0:0:0:0:
192,192,36343,1,0,0:0:0:0:
320,192,36415,1,0,0:0:0:0:
448,192,36486,1,0,0:0:0:0:
64,192,36558,1,0,0:0:0:0:
192,192,36629,1,2,0:0:0:0:
448,192,36629,1,0,0:0:0:0:
320,192,36700,1,0,0:0:0:0:
64,192,36772,1,0,0:0:0:0:
192,192,36843,1,0,0:0:0:0:
320,192,36915,1,2,0:0:0:0:
448,192,36915,1,0,0:0:0:0:
192,192,36986,1,0,0:0:0:0:
448,192,37058,1,0,0:0:0:0:
320,192,37129,1,0,0:0:0:0:
64,192,37200,1,2,0:0:0:0:
192,192,37200,1,0,0:0:0:0:
448,192,37272,1,0,0:0:0:0:
64,192,37343,1,0,0:0:0:0:
192,192,37415,1,0,0:0:0:0:
320,192,37486,1,2,0:0:0:0:
448,192,37486,1,0,0:0:0:0:
64,192,37558,1,0,0:0:0:0:
320,192,37629,1,2,0:0:0:0:
192,192,37700,1,0,0:0:0:0:
64,192,37772,1,2,0:0:0:0:
448,192,37772,1,8,0:0:0:0:
320,192,37843,1,0,0:0:0:0:
64,192,37915,1,0,0:0:0:0:
320,192,37986,1,2,0:0:0:0:
448,192,37986,1,0,0:0:0:0:
192,192,38058,1,0,0:0:0:0:
448,192,38129,1,0,0:0:0:0:
64,192,38200,1,2,0:0:0:0:
192,192,38200,1,0,0:0:0:0:
320,192,38272,1,0,0:0:0:0:
64,192,38343,1,2,0:0:0:0:
448,192,38343,1,8,0:0:0:0:
320,192,38415,1,0,0:0:0:0:
192,192,38486,1,0,0:0:0:0:
64,192,38558,1,2,0:0:0:0:
448,192,38558,1,0,0:0:0:0:
192,192,38629,1,0,0:0:0:0:
320,192,38700,1,0,0:0:0:0:
64,192,38772,1,2,0:0:0:0:
448,192,38772,1,0,0:0:0:0:
192,192,38843,1,0,0:0:0:0:
320,192,38915,1,2,0:0:0:0:
448,192,38915,1,8,0:0:0:0:
192,192,39129,1,2,0:0:0:0:
320,192,39129,1,8,0:0:0:0:
448,192,39129,1,0,0:0:0:0:
64,192,39343,1,2,0:0:0:0:
192,192,39343,1,8,0:0:0:0:
320,192,39343,1,0,0:0:0:0:
448,192,39486,1,2,0:0:0:0:
64,192,39558,1,8,0:0:0:0:
192,192,39558,1,0,0:0:0:0:
320,192,39558,1,0,0:0:0:0:
448,192,39629,1,2,0:0:0:0:
320,192,39700,1,0,0:0:0:0:
64,192,39772,1,2,0:0:0:0:
192,192,39772,1,8,0:0:0:0:
448,192,39843,1,2,0:0:0:0:
64,192,39915,1,2,0:0:0:0:
192,192,39915,1,0,0:0:0:0:
448,192,39986,1,2,0:0:0:0:
320,192,40058,1,2,0:0:0:0:
192,192,40058,1,0,0:0:0:0:
64,192,40343,1,2,0:0:0:0:
192,192,40343,1,4,0:0:0:0:
448,192,40343,1,0,0:0:0:0:
320,192,40415,1,0,0:0:0:0:
64,192,40486,1,0,0:0:0:0:
448,192,40558,1,0,0:0:0:0:
192,192,40629,1,2,0:0:0:0:
320,192,40629,1,0,0:0:0:0:
448,192,40700,1,0,0:0:0:0:
64,192,40772,1,0,0:0:0:0:
192,192,40843,1,0,0:0:0:0:
320,192,40915,1,2,0:0:0:0:
448,192,40915,1,0,0:0:0:0:
64,192,40986,1,0,0:0:0:0:
320,192,41058,1,0,0:0:0:0:
192,192,41129,1,0,0:0:0:0:
64,192,41200,1,2,0:0:0:0:
448,192,41200,1,0,0:0:0:0:
320,192,41272,1,0,0:0:0:0:
192,192,41343,1,0,0:0:0:0:
64,192,41415,1,0,0:0:0:0:
320,192,41486,1,2,0:0:0:0:
448,192,41486,1,0,0:0:0:0:
192,192,41558,1,0,0:0:0:0:
64,192,41629,1,0,0:0:0:0:
320,192,41700,1,0,0:0:0:0:
64,192,41772,1,2,0:0:0:0:
448,192,41772,1,0,0:0:0:0:
192,192,41843,1,0,0:0:0:0:
448,192,41915,1,0,0:0:0:0:
320,192,41986,1,0,0:0:0:0:
64,192,42058,1,2,0:0:0:0:
192,192,42058,1,0,0:0:0:0:
448,192,42129,1,0,0:0:0:0:
192,192,42200,1,2,0:0:0:0:
320,192,42272,1,0,0:0:0:0:
64,192,42343,1,2,0:0:0:0:
192,192,42343,1,8,0:0:0:0:
448,192,42343,1,0,0:0:0:0:
320,192,42415,1,0,0:0:0:0:
448,192,42486,1,0,0:0:0:0:
64,192,42558,1,0,0:0:0:0:
192,192,42629,1,2,0:0:0:0:
448,192,42700,1,0,0:0:0:0:
320,192,42772,1,0,0:0:0:0:
192,192,42843,1,0,0:0:0:0:
64,192,42915,1,2,0:0:0:0:
320,192,42915,1,8,0:0:0:0:
448,192,42915,1,0,0:0:0:0:
192,192,42986,1,0,0:0:0:0:
448,192,43058,1,0,0:0:0:0:
320,192,43129,1,0,0:0:0:0:
192,192,43200,1,2,0:0:0:0:
64,192,43272,1,0,0:0:0:0:
448,192,43343,1,0,0:0:0:0:
320,192,43415,1,0,0:0:0:0:
64,192,43486,1,2,0:0:0:0:
192,192,43486,1,8,0:0:0:0:
448,192,43486,1,0,0:0:0:0:
320,192,43558,1,0,0:0:0:0:
192,192,43629,1,0,0:0:0:0:
320,192,43700,1,2,0:0:0:0:
448,192,43700,1,0,0:0:0:0:
64,192,43772,1,8,0:0:0:0:
448,192,43843,1,0,0:0:0:0:
64,192,43915,1,2,0:0:0:0:
192,192,43915,1,0,0:0:0:0:
320,192,43986,1,0,0:0:0:0:
192,192,44058,1,8,0:0:0:0:
64,192,44129,1,2,0:0:0:0:
448,192,44129,1,0,0:0:0:0:
320,192,44200,1,0,0:0:0:0:
192,192,44272,1,0,0:0:0:0:
64,192,44343,1,2,0:0:0:0:
448,192,44343,1,8,0:0:0:0:
192,192,44415,1,0,0:0:0:0:
320,192,44486,1,2,0:0:0:0:
448,192,44486,1,8,0:0:0:0:
192,192,44558,1,0,0:0:0:0:
64,192,44629,1,2,0:0:0:0:
320,192,44629,1,4,0:0:0:0:
448,192,44629,1,0,0:0:0:0:
64,192,44843,1,0,0:0:0:0:
320,192,44915,1,2,0:0:0:0:
192,192,44986,1,2,0:0:0:0:
64,192,45058,1,2,0:0:0:0:
320,192,45058,1,8,0:0:0:0:
448,192,45058,1,0,0:0:0:0:
192,192,45200,1,0,0:0:0:0:
448,192,45272,1,0,0:0:0:0:
192,192,45343,1,2,0:0:0:0:
320,192,45415,1,2,0:0:0:0:
64,192,45486,1,2,0:0:0:0:
192,192,45486,1,8,0:0:0:0:
448,192,45486,1,0,0:0:0:0:
448,192,45629,1,0,0:0:0:0:
192,192,45700,1,0,0:0:0:0:
320,192,45772,1,0,0:0:0:0:
64,192,45843,1,0,0:0:0:0:
320,192,45915,1,2,0:0:0:0:
448,192,45915,1,8,0:0:0:0:
192,192,45986,1,0,0:0:0:0:
64,192,46058,1,2,0:0:0:0:
448,192,46058,1,8,0:0:0:0:
320,192,46129,1,0,0:0:0:0:
64,192,46200,1,0,0:0:0:0:
192,192,46272,1,0,0:0:0:0:
320,192,46343,1,2,0:0:0:0:
448,192,46343,1,8,0:0:0:0:
64,192,46415,1,0,0:0:0:0:
320,192,46486,1,0,0:0:0:0:
64,192,46558,1,2,0:0:0:0:
192,192,46558,1,8,0:0:0:0:
448,192,46629,1,0,0:0:0:0:
192,192,46700,1,0,0:0:0:0:
320,192,46772,1,2,0:0:0:0:
448,192,46772,1,8,0:0:0:0:
192,192,46843,1,0,0:0:0:0:
64,192,46915,1,2,0:0:0:0:
448,192,46915,1,8,0:0:0:0:
192,192,47058,1,0,0:0:0:0:
320,192,47129,1,2,0:0:0:0:
64,192,47200,1,0,0:0:0:0:
320,192,47272,1,0,0:0:0:0:
64,192,47343,1,2,0:0:0:0:
192,192,47343,1,8,0:0:0:0:
448,192,47343,1,0,0:0:0:0:
192,192,47486,1,0,0:0:0:0:
320,192,47558,1,2,0:0:0:0:
64,192,47629,1,0,0:0:0:0:
320,192,47700,1,0,0:0:0:0:
64,192,47772,1,2,0:0:0:0:
448,192,47772,1,8,0:0:0:0:
192,192,47843,1,0,0:0:0:0:
320,192,47915,1,2,0:0:0:0:
448,192,47915,1,0,0:0:0:0:
64,192,47986,1,0,0:0:0:0:
320,192,48058,1,2,0:0:0:0:
192,192,48129,1,2,0:0:0:0:
320,192,48200,1,2,0:0:0:0:
448,192,48200,1,8,0:0:0:0:
192,192,48272,1,0,0:0:0:0:
64,192,48343,1,2,0:0:0:0:
448,192,48343,1,8,0:0:0:0:
320,192,48415,1,0,0:0:0:0:
192,192,48486,1,0,0:0:0:0:
64,192,48558,1,0,0:0:0:0:
320,192,48629,1,2,0:0:0:0:
448,192,48629,1,8,0:0:0:0:
192,192,48700,1,0,0:0:0:0:
448,192,48772,1,0,0:0:0:0:
64,192,48843,1,2,0:0:0:0:
192,192,48843,1,8,0:0:0:0:
320,192,48915,1,0,0:0:0:0:
64,192,48986,1,0,0:0:0:0:
320,192,49058,1,2,0:0:0:0:
448,192,49058,1,8,0:0:0:0:
192,192,49129,1,0,0:0:0:0:
64,192,49200,1,2,0:0:0:0:
320,192,49200,1,8,0:0:0:0:
448,192,49200,1,0,0:0:0:0:
192,192,49343,1,2,0:0:0:0:
448,192,49343,1,0,0:0:0:0:
64,192,49486,1,2,0:0:0:0:
320,192,49486,1,8,0:0:0:0:
64,192,49629,1,2,0:0:0:0:
192,192,49629,1,0,0:0:0:0:
192,192,49772,1,2,0:0:0:0:
448,192,49772,1,8,0:0:0:0:
64,192,49915,1,2,0:0:0:0:
320,192,49915,1,0,0:0:0:0:
192,192,50058,1,2,0:0:0:0:
448,192,50058,1,8,0:0:0:0:
192,192,50200,1,2,0:0:0:0:
320,192,50200,1,0,0:0:0:0:
64,192,50343,1,2,0:0:0:0:
448,192,50343,1,8,0:0:0:0:
320,192,50415,1,0,0:0:0:0:
64,192,50486,1,2,0:0:0:0:
192,192,50558,1,0,0:0:0:0:
320,192,50629,1,2,0:0:0:0:
448,192,50629,1,8,0:0:0:0:
64,192,50700,1,2,0:0:0:0:
448,192,50772,1,2,0:0:0:0:
320,192,50843,1,2,0:0:0:0:
64,192,50915,1,2,0:0:0:0:
192,192,50915,1,8,0:0:0:0:
64,192,51058,1,2,0:0:0:0:
320,192,51058,1,0,0:0:0:0:
320,192,51200,1,2,0:0:0:0:
448,192,51200,1,8,0:0:0:0:
192,192,51343,1,0,0:0:0:0:
64,192,51486,1,2,0:0:0:0:
320,192,51486,1,4,0:0:0:0:
448,192,51486,1,0,0:0:0:0:
448,192,51915,1,0,0:0:0:0:
192,192,51915,1,0,0:0:0:0:
320,192,51986,1,0,0:0:0:0:
192,192,52058,1,0,0:0:0:0:
64,192,52058,1,0,0:0:0:0:
320,192,52343,1,0,0:0:0:0:
448,192,52415,1,0,0:0:0:0:
64,192,52486,1,0,0:0:0:0:
192,192,52486,1,0,0:0:0:0:
320,192,52558,1,0,0:0:0:0:
192,192,52629,1,0,0:0:0:0:
448,192,52629,1,0,0:0:0:0:
192,192,52915,1,0,0:0:0:0:
64,192,52986,1,0,0:0:0:0:
320,192,53058,1,0,0:0:0:0:
192,192,53129,1,0,0:0:0:0:
448,192,53200,1,0,0:0:0:0:
320,192,53415,1,0,0:0:0:0:
192,192,53629,1,0,0:0:0:0:
64,192,53772,1,2,0:0:0:0:
448,192,53772,1,0,0:0:0:0:
448,192,54200,1,0,0:0:0:0:
192,192,54200,1,0,0:0:0:0:
320,192,54272,1,0,0:0:0:0:
192,192,54343,1,0,0:0:0:0:
64,192,54343,1,0,0:0:0:0:
320,192,54629,1,0,0:0:0:0:
448,192,54700,1,0,0:0:0:0:
64,192,54772,1,0,0:0:0:0:
192,192,54772,1,0,0:0:0:0:
320,192,54843,1,0,0:0:0:0:
448,192,54915,1,0,0:0:0:0:
192,192,54915,1,0,0:0:0:0:
320,192,55200,1,0,0:0:0:0:
448,192,55272,1,0,0:0:0:0:
320,192,55343,1,0,0:0:0:0:
192,192,55343,1,0,0:0:0:0:
64,192,55415,1,0,0:0:0:0:
192,192,55486,1,0,0:0:0:0:
448,192,55486,1,0,0:0:0:0:
64,192,55700,1,0,0:0:0:0:
320,192,55915,1,0,0:0:0:0:
64,192,56058,1,2,0:0:0:0:
448,192,56058,1,0,0:0:0:0:
448,192,56486,1,0,0:0:0:0:
192,192,56486,1,0,0:0:0:0:
320,192,56558,1,0,0:0:0:0:
192,192,56629,1,0,0:0:0:0:
64,192,56629,1,0,0:0:0:0:
448,192,56915,1,0,0:0:0:0:
320,192,56986,1,0,0:0:0:0:
64,192,57058,1,0,0:0:0:0:
192,192,57058,1,0,0:0:0:0:
320,192,57129,1,0,0:0:0:0:
448,192,57200,1,0,0:0:0:0:
192,192,57200,1,0,0:0:0:0:
64,192,57415,1,0,0:0:0:0:
320,192,57486,1,0,0:0:0:0:
192,192,57558,1,0,0:0:0:0:
64,192,57629,1,0,0:0:0:0:
320,192,57700,1,0,0:0:0:0:
448,192,57772,1,0,0:0:0:0:
320,192,57986,1,0,0:0:0:0:
192,192,58200,1,0,0:0:0:0:
64,192,58343,1,2,0:0:0:0:
448,192,58343,1,0,0:0:0:0:
448,192,58772,1,0,0:0:0:0:
192,192,58772,1,0,0:0:0:0:
320,192,58843,1,0,0:0:0:0:
192,192,58915,1,0,0:0:0:0:
64,192,58915,1,0,0:0:0:0:
448,192,59200,1,0,0:0:0:0:
320,192,59272,1,0,0:0:0:0:
64,192,59343,1,0,0:0:0:0:
192,192,59343,1,0,0:0:0:0:
320,192,59415,1,0,0:0:0:0:
192,192,59486,1,2,0:0:0:0:
448,192,59486,1,0,0:0:0:0:
320,192,59915,1,0,0:0:0:0:
192,192,59915,1,0,0:0:0:0:
64,192,59986,1,0,0:0:0:0:
192,192,60058,1,2,0:0:0:0:
448,192,60058,1,0,0:0:0:0:
320,192,60129,1,0,0:0:0:0:
192,192,60200,1,2,0:0:0:0:
64,192,60272,1,0,0:0:0:0:
320,192,60343,1,2,0:0:0:0:
448,192,60343,1,0,0:0:0:0:
192,192,60415,1,0,0:0:0:0:
320,192,60486,1,2,0:0:0:0:
192,192,60558,1,0,0:0:0:0:
64,192,60629,1,2,0:0:0:0:
320,192,60629,1,4,0:0:0:0:
448,192,60629,1,0,0:0:0:0:
192,192,60772,1,0,0:0:0:0:
448,192,60843,1,0,0:0:0:0:
64,192,60915,1,2,0:0:0:0:
320,192,60915,1,8,0:0:0:0:
192,192,61058,1,0,0:0:0:0:
448,192,61058,1,0,0:0:0:0:
320,192,61129,1,0,0:0:0:0:
64,192,61200,1,2,0:0:0:0:
192,192,61200,1,8,0:0:0:0:
64,192,61343,1,0,0:0:0:0:
192,192,61415,1,0,0:0:0:0:
320,192,61486,1,2,0:0:0:0:
448,192,61486,1,8,0:0:0:0:
64,192,61629,1,0,0:0:0:0:
192,192,61629,1,0,0:0:0:0:
320,192,61700,1,0,0:0:0:0:
192,192,61772,1,2,0:0:0:0:
448,192,61772,1,8,0:0:0:0:
320,192,61915,1,0,0:0:0:0:
64,192,62058,1,2,0:0:0:0:
192,192,62058,1,8,0:0:0:0:
320,192,62129,1,0,0:0:0:0:
448,192,62200,1,0,0:0:0:0:
192,192,62272,1,0,0:0:0:0:
320,192,62343,1,8,0:0:0:0:
448,192,62343,1,2,0:0:0:0:
64,192,62415,1,0,0:0:0:0:
192,192,62486,1,0,0:0:0:0:
320,192,62558,1,0,0:0:0:0:
64,192,62629,1,2,0:0:0:0:
448,192,62629,1,8,0:0:0:0:
64,192,62772,1,2,0:0:0:0:
448,192,62772,1,0,0:0:0:0:
192,192,62915,1,2,0:0:0:0:
320,192,62915,1,8,0:0:0:0:
192,192,63058,1,0,0:0:0:0:
64,192,63200,1,2,0:0:0:0:
320,192,63200,1,8,0:0:0:0:
192,192,63343,1,0,0:0:0:0:
448,192,63343,1,0,0:0:0:0:
320,192,63415,1,0,0:0:0:0:
64,192,63486,1,2,0:0:0:0:
192,192,63486,1,8,0:0:0:0:
64,192,63629,1,0,0:0:0:0:
192,192,63700,1,0,0:0:0:0:
320,192,63772,1,2,0:0:0:0:
448,192,63772,1,8,0:0:0:0:
64,192,63915,1,0,0:0:0:0:
192,192,63915,1,0,0:0:0:0:
320,192,63986,1,0,0:0:0:0:
192,192,64058,1,2,0:0:0:0:
448,192,64058,1,8,0:0:0:0:
64,192,64200,1,0,0:0:0:0:
320,192,64343,1,2,0:0:0:0:
448,192,64343,1,8,0:0:0:0:
192,192,64486,1,0,0:0:0:0:
320,192,64486,1,0,0:0:0:0:
64,192,64558,1,0,0:0:0:0:
192,192,64629,1,2,0:0:0:0:
448,192,64629,1,8,0:0:0:0:
64,192,64843,1,2,0:0:0:0:
320,192,64843,1,8,0:0:0:0:
64,192,65058,1,2,0:0:0:0:
192,192,65058,1,8,0:0:0:0:
64,192,65200,1,2,0:0:0:0:
448,192,65200,1,8,0:0:0:0:
192,192,65343,1,2,0:0:0:0:
320,192,65343,1,0,0:0:0:0:
64,192,65486,1,2,0:0:0:0:
320,192,65486,1,8,0:0:0:0:
192,192,65629,1,2,0:0:0:0:
448,192,65629,1,0,0:0:0:0:
320,192,65700,1,0,0:0:0:0:
64,192,65772,1,2,0:0:0:0:
192,192,65772,1,8,0:0:0:0:
64,192,65915,1,2,0:0:0:0:
448,192,65915,1,0,0:0:0:0:
320,192,66058,1,2,0:0:0:0:
448,192,66058,1,8,0:0:0:0:
64,192,66200,1,2,0:0:0:0:
192,192,66200,1,0,0:0:0:0:
320,192,66272,1,0,0:0:0:0:
192,192,66343,1,2,0:0:0:0:
448,192,66343,1,8,0:0:0:0:
64,192,66486,1,2,0:0:0:0:
448,192,66486,1,0,0:0:0:0:
64,192,66629,1,2,0:0:0:0:
320,192,66629,1,8,0:0:0:0:
320,192,66772,1,2,0:0:0:0:
448,192,66772,1,0,0:0:0:0:
64,192,66915,1,2,0:0:0:0:
192,192,66915,1,8,0:0:0:0:
192,192,67058,1,2,0:0:0:0:
448,192,67058,1,0,0:0:0:0:
320,192,67200,1,2,0:0:0:0:
448,192,67200,1,8,0:0:0:0:
64,192,67343,1,2,0:0:0:0:
320,192,67343,1,0,0:0:0:0:
64,192,67486,1,2,0:0:0:0:
448,192,67486,1,8,0:0:0:0:
192,192,67558,1,2,0:0:0:0:
320,192,67629,1,2,0:0:0:0:
192,192,67700,1,2,0:0:0:0:
320,192,67772,1,2,0:0:0:0:
448,192,67772,1,8,0:0:0:0:
64,192,67843,1,2,0:0:0:0:
192,192,67915,1,2,0:0:0:0:
64,192,67986,1,2,0:0:0:0:
192,192,68058,1,2,0:0:0:0:
320,192,68058,1,8,0:0:0:0:
448,192,68129,1,2,0:0:0:0:
320,192,68200,1,2,0:0:0:0:
448,192,68272,1,2,0:0:0:0:
64,192,68343,1,2,0:0:0:0:
192,192,68343,1,8,0:0:0:0:
320,192,68415,1,2,0:0:0:0:
192,192,68486,1,2,0:0:0:0:
320,192,68558,1,2,0:0:0:0:
64,192,68629,1,2,0:0:0:0:
192,192,68629,1,4,0:0:0:0:
448,192,68629,1,0,0:0:0:0:
64,192,69200,1,2,0:0:0:0:
320,192,69272,1,0,0:0:0:0:
64,192,69343,1,2,0:0:0:0:
192,192,69415,1,0,0:0:0:0:
448,192,69486,1,2,0:0:0:0:
320,192,69558,1,0,0:0:0:0:
448,192,69629,1,2,0:0:0:0:
320,192,69700,1,0,0:0:0:0:
64,192,69772,1,2,0:0:0:0:
192,192,69772,1,4,0:0:0:0:
448,192,69772,1,0,0:0:0:0:
192,192,69915,1,2,0:0:0:0:
448,192,69986,1,0,0:0:0:0:
192,192,70058,1,2,0:0:0:0:
64,192,70129,1,0,0:0:0:0:
320,192,70200,1,2,0:0:0:0:
192,192,70272,1,0,0:0:0:0:
320,192,70343,1,2,0:0:0:0:
64,192,70415,1,0,0:0:0:0:
320,192,70486,1,2,0:0:0:0:
192,192,70558,1,0,0:0:0:0:
448,192,70629,1,2,0:0:0:0:
320,192,70700,1,0,0:0:0:0:
448,192,70772,1,2,0:0:0:0:
192,192,70843,1,0,0:0:0:0:
64,192,70915,1,2,0:0:0:0:
448,192,70915,1,0,0:0:0:0:
320,192,70986,1,0,0:0:0:0:
64,192,71058,1,2,0:0:0:0:
448,192,71129,1,0,0:0:0:0:
320,192,71200,1,2,0:0:0:0:
64,192,71272,1,0,0:0:0:0:
320,192,71343,1,2,0:0:0:0:
192,192,71415,1,0,0:0:0:0:
64,192,71486,1,2,0:0:0:0:
448,192,71486,1,0,0:0:0:0:
320,192,71558,1,0,0:0:0:0:
448,192,71629,1,2,0:0:0:0:
64,192,71700,1,0,0:0:0:0:
192,192,71772,1,2,0:0:0:0:
448,192,71843,1,0,0:0:0:0:
192,192,71915,1,2,0:0:0:0:
320,192,71986,1,0,0:0:0:0:
64,192,72058,1,2,0:0:0:0:
448,192,72058,1,0,0:0:0:0:
320,192,72129,1,0,0:0:0:0:
192,192,72200,1,2,0:0:0:0:
64,192,72272,1,0,0:0:0:0:
192,192,72343,1,2,0:0:0:0:
448,192,72415,1,0,0:0:0:0:
192,192,72486,1,2,0:0:0:0:
320,192,72558,1,0,0:0:0:0:
64,192,72629,1,2,0:0:0:0:
448,192,72629,1,0,0:0:0:0:
192,192,72700,1,0,0:0:0:0:
320,192,72772,1,2,0:0:0:0:
448,192,72843,1,0,0:0:0:0:
320,192,72915,1,2,0:0:0:0:
64,192,72986,1,0,0:0:0:0:
320,192,73058,1,2,0:0:0:0:
192,192,73129,1,0,0:0:0:0:
64,192,73200,1,2,0:0:0:0:
448,192,73200,1,0,0:0:0:0:
320,192,73272,1,0,0:0:0:0:
64,192,73343,1,2,0:0:0:0:
448,192,73415,1,0,0:0:0:0:
320,192,73486,1,2,0:0:0:0:
64,192,73558,1,0,0:0:0:0:
320,192,73629,1,2,0:0:0:0:
192,192,73700,1,0,0:0:0:0:
64,192,73772,1,2,0:0:0:0:
448,192,73772,1,0,0:0:0:0:
320,192,73843,1,0,0:0:0:0:
448,192,73915,1,2,0:0:0:0:
64,192,73986,1,0,0:0:0:0:
192,192,74058,1,2,0:0:0:0:
448,192,74129,1,0,0:0:0:0:
192,192,74200,1,2,0:0:0:0:
320,192,74272,1,0,0:0:0:0:
64,192,74343,1,2,0:0:0:0:
448,192,74343,1,0,0:0:0:0:
320,192,74486,1,2,0:0:0:0:
64,192,74486,1,0,0:0:0:0:
448,192,74629,1,2,0:0:0:0:
320,192,74700,1,0,0:0:0:0:
448,192,74772,1,2,0:0:0:0:
64,192,74772,1,0,0:0:0:0:
192,192,74915,1,2,0:0:0:0:
64,192,74915,1,0,0:0:0:0:
320,192,75058,1,2,0:0:0:0:
448,192,75129,1,0,0:0:0:0:
320,192,75200,1,2,0:0:0:0:
64,192,75272,1,0,0:0:0:0:
320,192,75343,1,2,0:0:0:0:
192,192,75415,1,0,0:0:0:0:
448,192,75486,1,2,0:0:0:0:
64,192,75486,1,0,0:0:0:0:
192,192,75629,1,2,0:0:0:0:
320,192,75629,1,0,0:0:0:0:
64,192,75772,1,2,0:0:0:0:
192,192,75843,1,0,0:0:0:0:
64,192,75915,1,2,0:0:0:0:
320,192,75986,1,0,0:0:0:0:
64,192,76058,1,2,0:0:0:0:
448,192,76058,1,0,0:0:0:0:
320,192,76200,1,2,0:0:0:0:
192,192,76200,1,0,0:0:0:0:
448,192,76343,1,2,0:0:0:0:
192,192,76415,1,0,0:0:0:0:
448,192,76486,1,2,0:0:0:0:
320,192,76558,1,0,0:0:0:0:
64,192,76629,1,2,0:0:0:0:
448,192,76629,1,0,0:0:0:0:
320,192,76772,1,2,0:0:0:0:
64,192,76772,1,0,0:0:0:0:
448,192,76915,1,2,0:0:0:0:
192,192,76915,1,0,0:0:0:0:
448,192,77058,1,2,0:0:0:0:
320,192,77129,1,0,0:0:0:0:
64,192,77200,1,2,0:0:0:0:
448,192,77200,1,0,0:0:0:0:
192,192,77343,1,2,0:0:0:0:
64,192,77415,1,0,0:0:0:0:
192,192,77486,1,2,0:0:0:0:
448,192,77558,1,0,0:0:0:0:
192,192,77629,1,2,0:0:0:0:
320,192,77700,1,0,0:0:0:0:
64,192,77772,1,2,0:0:0:0:
448,192,77772,1,0,0:0:0:0:
320,192,77843,1,0,0:0:0:0:
448,192,77915,1,2,0:0:0:0:
192,192,77986,1,0,0:0:0:0:
320,192,78058,1,2,0:0:0:0:
64,192,78129,1,0,0:0:0:0:
320,192,78200,1,2,0:0:0:0:
448,192,78272,1,0,0:0:0:0:
192,192,78343,1,2,0:0:0:0:
320,192,78415,1,0,0:0:0:0:
192,192,78486,1,2,0:0:0:0:
448,192,78558,1,0,0:0:0:0:
64,192,78629,1,2,0:0:0:0:
320,192,78700,1,0,0:0:0:0:
64,192,78772,1,2,0:0:0:0:
192,192,78843,1,0,0:0:0:0:
64,192,78915,1,2,0:0:0:0:
320,192,78915,1,8,0:0:0:0:
448,192,78915,1,0,0:0:0:0:
320,192,79058,1,2,0:0:0:0:
448,192,79058,1,8,0:0:0:0:
64,192,79200,1,2,0:0:0:0:
320,192,79200,1,8,0:0:0:0:
64,192,79343,1,2,0:0:0:0:
320,192,79343,1,8,0:0:0:0:
64,192,79486,1,2,0:0:0:0:
192,192,79486,1,8,0:0:0:0:
448,192,79558,1,0,0:0:0:0:
192,192,79629,1,10,0:0:0:0:
320,192,79700,1,0,0:0:0:0:
64,192,79772,1,2,0:0:0:0:
448,192,79772,1,8,0:0:0:0:
192,192,79843,1,0,0:0:0:0:
64,192,79915,1,2,0:0:0:0:
448,192,79915,1,8,0:0:0:0:
448,192,80058,1,2,0:0:0:0:
192,192,80058,1,8,0:0:0:0:
192,192,80200,1,2,0:0:0:0:
448,192,80200,1,8,0:0:0:0:
192,192,80343,1,2,0:0:0:0:
320,192,80343,1,8,0:0:0:0:
448,192,80415,1,0,0:0:0:0:
192,192,80486,1,2,0:0:0:0:
320,192,80486,1,8,0:0:0:0:
64,192,80629,1,2,0:0:0:0:
320,192,80629,1,8,0:0:0:0:
192,192,80700,1,0,0:0:0:0:
448,192,80772,1,10,0:0:0:0:
320,192,80843,1,0,0:0:0:0:
192,192,80915,1,2,0:0:0:0:
64,192,80915,1,8,0:0:0:0:
64,192,81058,1,2,0:0:0:0:
192,192,81058,1,8,0:0:0:0:
320,192,81200,1,2,0:0:0:0:
448,192,81200,1,8,0:0:0:0:
320,192,81343,1,2,0:0:0:0:
448,192,81343,1,8,0:0:0:0:
64,192,81486,1,2,0:0:0:0:
448,192,81486,1,8,0:0:0:0:
320,192,81558,1,0,0:0:0:0:
448,192,81629,1,10,0:0:0:0:
64,192,81700,1,0,0:0:0:0:
192,192,81772,1,2,0:0:0:0:
320,192,81772,1,8,0:0:0:0:
192,192,81915,1,10,0:0:0:0:
320,192,81986,1,0,0:0:0:0:
64,192,82058,1,2,0:0:0:0:
448,192,82058,1,8,0:0:0:0:
192,192,82129,1,0,0:0:0:0:
320,192,82200,1,10,0:0:0:0:
64,192,82272,1,0,0:0:0:0:
320,192,82343,1,2,0:0:0:0:
448,192,82343,1,8,0:0:0:0:
192,192,82415,1,0,0:0:0:0:
448,192,82486,1,10,0:0:0:0:
64,192,82558,1,0,0:0:0:0:
192,192,82629,1,2,0:0:0:0:
320,192,82629,1,8,0:0:0:0:
448,192,82700,1,0,0:0:0:0:
320,192,82772,1,10,0:0:0:0:
64,192,82843,1,0,0:0:0:0:
192,192,82915,1,2,0:0:0:0:
448,192,82915,1,8,0:0:0:0:
192,192,83058,1,2,0:0:0:0:
448,192,83058,1,8,0:0:0:0:
64,192,83200,1,2,0:0:0:0:
320,192,83200,1,8,0:0:0:0:
320,192,83343,1,2,0:0:0:0:
64,192,83343,1,8,0:0:0:0:
64,192,83486,1,2,0:0:0:0:
448,192,83486,1,8,0:0:0:0:
320,192,83558,1,2,0:0:0:0:
192,192,83629,1,10,0:0:0:0:
64,192,83700,1,2,0:0:0:0:
320,192,83772,1,2,0:0:0:0:
448,192,83772,1,8,0:0:0:0:
192,192,83843,1,2,0:0:0:0:
64,192,83915,1,10,0:0:0:0:
448,192,83986,1,2,0:0:0:0:
192,192,84058,1,2,0:0:0:0:
320,192,84058,1,8,0:0:0:0:
64,192,84129,1,2,0:0:0:0:
448,192,84200,1,10,0:0:0:0:
320,192,84272,1,2,0:0:0:0:
64,192,84343,1,2,0:0:0:0:
192,192,84343,1,8,0:0:0:0:
448,192,84415,1,2,0:0:0:0:
320,192,84486,1,10,0:0:0:0:
192,192,84558,1,2,0:0:0:0:
64,192,84629,1,2,0:0:0:0:
448,192,84629,1,8,0:0:0:0:
192,192,84700,1,2,0:0:0:0:
320,192,84772,1,10,0:0:0:0:
448,192,84843,1,2,0:0:0:0:
64,192,84915,1,2,0:0:0:0:
192,192,84915,1,8,0:0:0:0:
320,192,84986,1,2,0:0:0:0:
448,192,85058,1,10,0:0:0:0:
64,192,85129,1,2,0:0:0:0:
192,192,85200,1,2,0:0:0:0:
320,192,85200,1,8,0:0:0:0:
448,192,85272,1,2,0:0:0:0:
64,192,85343,1,10,0:0:0:0:
192,192,85415,1,2,0:0:0:0:
320,192,85486,1,2,0:0:0:0:
448,192,85486,1,8,0:0:0:0:
64,192,85558,1,2,0:0:0:0:
192,192,85629,1,10,0:0:0:0:
320,192,85700,1,2,0:0:0:0:
64,192,85772,1,2,0:0:0:0:
448,192,85772,1,8,0:0:0:0:
192,192,85843,1,2,0:0:0:0:
448,192,85915,1,10,0:0:0:0:
192,192,85986,1,2,0:0:0:0:
320,192,86058,1,2,0:0:0:0:
448,192,86058,1,8,0:0:0:0:
64,192,86129,1,2,0:0:0:0:
320,192,86200,1,10,0:0:0:0:
64,192,86272,1,2,0:0:0:0:
192,192,86343,1,2,0:0:0:0:
320,192,86343,1,8,0:0:0:0:
448,192,86415,1,2,0:0:0:0:
192,192,86486,1,10,0:0:0:0:
448,192,86558,1,2,0:0:0:0:
64,192,86629,1,2,0:0:0:0:
192,192,86629,1,8,0:0:0:0:
320,192,86700,1,2,0:0:0:0:
64,192,86772,1,10,0:0:0:0:
320,192,86843,1,2,0:0:0:0:
64,192,86915,1,2,0:0:0:0:
448,192,86915,1,8,0:0:0:0:
192,192,86986,1,2,0:0:0:0:
448,192,87058,1,10,0:0:0:0:
192,192,87129,1,2,0:0:0:0:
320,192,87200,1,2,0:0:0:0:
448,192,87200,1,8,0:0:0:0:
64,192,87272,1,2,0:0:0:0:
320,192,87343,1,10,0:0:0:0:
64,192,87415,1,2,0:0:0:0:
192,192,87486,1,2,0:0:0:0:
320,192,87486,1,8,0:0:0:0:
448,192,87558,1,2,0:0:0:0:
192,192,87629,1,10,0:0:0:0:
448,192,87700,1,2,0:0:0:0:
64,192,87772,1,2,0:0:0:0:
192,192,87772,1,8,0:0:0:0:
320,192,87843,1,2,0:0:0:0:
64,192,87915,1,10,0:0:0:0:
320,192,87986,1,2,0:0:0:0:
64,192,88058,1,2,0:0:0:0:
448,192,88058,1,4,0:0:0:0:
192,192,88129,1,0,0:0:0:0:
320,192,88200,1,0,0:0:0:0:
448,192,88272,1,0,0:0:0:0:
192,192,88343,1,0,0:0:0:0:
320,192,88415,1,0,0:0:0:0:
448,192,88486,1,0,0:0:0:0:
64,192,88558,1,0,0:0:0:0:
192,192,88629,1,0,0:0:0:0:
320,192,88700,1,0,0:0:0:0:
64,192,88772,1,0,0:0:0:0:
192,192,88843,1,0,0:0:0:0:
320,192,88915,1,0,0:0:0:0:
64,192,88986,1,0,0:0:0:0:
192,192,89058,1,0,0:0:0:0:
448,192,89343,1,0,0:0:0:0:
320,192,89415,1,0,0:0:0:0:
448,192,89486,1,0,0:0:0:0:
192,192,89558,1,0,0:0:0:0:
448,192,89629,1,0,0:0:0:0:
320,192,89700,1,0,0:0:0:0:
192,192,89772,1,0,0:0:0:0:
448,192,89843,1,0,0:0:0:0:
192,192,89915,1,0,0:0:0:0:
320,192,89986,1,0,0:0:0:0:
64,192,90058,1,0,0:0:0:0:
192,192,90129,1,0,0:0:0:0:
448,192,90200,1,0,0:0:0:0:
320,192,90272,1,0,0:0:0:0:
192,192,90343,1,0,0:0:0:0:
64,192,90415,1,0,0:0:0:0:
320,192,90486,1,0,0:0:0:0:
192,192,90558,1,0,0:0:0:0:
64,192,90629,1,0,0:0:0:0:
448,192,90700,1,0,0:0:0:0:
320,192,90772,1,0,0:0:0:0:
192,192,90843,1,0,0:0:0:0:
448,192,90915,1,0,0:0:0:0:
320,192,90986,1,0,0:0:0:0:
64,192,91058,1,0,0:0:0:0:
192,192,91129,1,0,0:0:0:0:
320,192,91200,1,0,0:0:0:0:
64,192,91272,1,0,0:0:0:0:
448,192,91343,1,0,0:0:0:0:
192,192,91415,1,0,0:0:0:0:
320,192,91486,1,2,0:0:0:0:
64,192,91558,1,2,0:0:0:0:
320,192,91629,1,2,0:0:0:0:
64,192,91700,1,2,0:0:0:0:
448,192,91772,1,2,0:0:0:0:
192,192,91843,1,2,0:0:0:0:
448,192,91915,1,2,0:0:0:0:
192,192,91986,1,2,0:0:0:0:
64,192,92058,1,2,0:0:0:0:
448,192,92129,1,2,0:0:0:0:
64,192,92200,1,2,0:0:0:0:
448,192,92272,1,2,0:0:0:0:
320,192,92343,1,2,0:0:0:0:
192,192,92415,1,2,0:0:0:0:
320,192,92486,1,2,0:0:0:0:
192,192,92558,1,2,0:0:0:0:
64,192,92629,1,2,0:0:0:0:
320,192,92629,1,8,0:0:0:0:
448,192,92629,1,0,0:0:0:0:
320,192,92915,1,2,0:0:0:0:
448,192,92915,1,0,0:0:0:0:
64,192,93058,1,2,0:0:0:0:
192,192,93058,1,8,0:0:0:0:
448,192,93058,1,0,0:0:0:0:
64,192,93200,1,0,0:0:0:0:
320,192,93343,1,2,0:0:0:0:
448,192,93343,1,0,0:0:0:0:
192,192,93415,1,0,0:0:0:0:
64,192,93486,1,2,0:0:0:0:
448,192,93486,1,8,0:0:0:0:
192,192,93629,1,0,0:0:0:0:
320,192,93772,1,2,0:0:0:0:
448,192,93772,1,0,0:0:0:0:
64,192,93915,1,2,0:0:0:0:
192,192,93915,1,8,0:0:0:0:
320,192,93986,1,2,0:0:0:0:
448,192,93986,1,0,0:0:0:0:
64,192,94058,1,2,0:0:0:0:
192,192,94058,1,8,0:0:0:0:
320,192,94200,1,2,0:0:0:0:
448,192,94200,1,0,0:0:0:0:
192,192,94272,1,2,0:0:0:0:
64,192,94343,1,2,0:0:0:0:
320,192,94343,1,8,0:0:0:0:
448,192,94415,1,2,0:0:0:0:
192,192,94486,1,10,0:0:0:0:
448,192,94558,1,2,0:0:0:0:
192,192,94629,1,0,0:0:0:0:
320,192,94772,1,0,0:0:0:0:
64,192,94915,1,2,0:0:0:0:
192,192,94915,1,4,0:0:0:0:
448,192,94915,1,0,0:0:0:0:
320,192,94986,1,0,0:0:0:0:
192,192,95058,1,0,0:0:0:0:
448,192,95129,1,0,0:0:0:0:
64,192,95200,1,2,0:0:0:0:
192,192,95200,1,0,0:0:0:0:
320,192,95272,1,0,0:0:0:0:
448,192,95343,1,0,0:0:0:0:
64,192,95415,1,0,0:0:0:0:
192,192,95486,1,2,0:0:0:0:
320,192,95486,1,0,0:0:0:0:
448,192,95558,1,0,0:0:0:0:
64,192,95629,1,0,0:0:0:0:
320,192,95700,1,0,0:0:0:0:
192,192,95772,1,2,0:0:0:0:
448,192,95772,1,0,0:0:0:0:
64,192,95843,1,0,0:0:0:0:
320,192,95915,1,0,0:0:0:0:
192,192,95986,1,0,0:0:0:0:
64,192,96058,1,2,0:0:0:0:
320,192,96058,1,8,0:0:0:0:
448,192,96058,1,0,0:0:0:0:
192,192,96129,1,0,0:0:0:0:
320,192,96200,1,0,0:0:0:0:
448,192,96272,1,0,0:0:0:0:
192,192,96343,1,2,0:0:0:0:
448,192,96415,1,0,0:0:0:0:
64,192,96486,1,0,0:0:0:0:
320,192,96558,1,0,0:0:0:0:
64,192,96629,1,2,0:0:0:0:
192,192,96629,1,8,0:0:0:0:
448,192,96629,1,0,0:0:0:0:
320,192,96700,1,0,0:0:0:0:
192,192,96772,1,2,0:0:0:0:
448,192,96843,1,0,0:0:0:0:
320,192,96915,1,2,0:0:0:0:
64,192,96986,1,0,0:0:0:0:
320,192,97058,1,2,0:0:0:0:
192,192,97129,1,0,0:0:0:0:
64,192,97200,1,2,0:0:0:0:
320,192,97200,1,8,0:0:0:0:
448,192,97200,1,0,0:0:0:0:
192,192,97272,1,0,0:0:0:0:
448,192,97343,1,0,0:0:0:0:
320,192,97415,1,0,0:0:0:0:
64,192,97486,1,2,0:0:0:0:
192,192,97486,1,0,0:0:0:0:
448,192,97558,1,0,0:0:0:0:
320,192,97629,1,0,0:0:0:0:
64,192,97700,1,0,0:0:0:0:
192,192,97772,1,2,0:0:0:0:
448,192,97772,1,0,0:0:0:0:
320,192,97843,1,0,0:0:0:0:
64,192,97915,1,0,0:0:0:0:
192,192,97986,1,0,0:0:0:0:
320,192,98058,1,2,0:0:0:0:
448,192,98058,1,0,0:0:0:0:
64,192,98129,1,0,0:0:0:0:
192,192,98200,1,0,0:0:0:0:
320,192,98272,1,0,0:0:0:0:
64,192,98343,1,2,0:0:0:0:
448,192,98343,1,0,0:0:0:0:
192,192,98415,1,0,0:0:0:0:
320,192,98486,1,0,0:0:0:0:
64,192,98558,1,0,0:0:0:0:
320,192,98629,1,2,0:0:0:0:
448,192,98629,1,0,0:0:0:0:
192,192,98700,1,0,0:0:0:0:
64,192,98772,1,0,0:0:0:0:
320,192,98843,1,0,0:0:0:0:
64,192,98915,1,2,0:0:0:0:
192,192,98915,1,8,0:0:0:0:
448,192,98915,1,0,0:0:0:0:
320,192,98986,1,0,0:0:0:0:
192,192,99058,1,0,0:0:0:0:
448,192,99129,1,0,0:0:0:0:
320,192,99200,1,2,0:0:0:0:
64,192,99272,1,0,0:0:0:0:
320,192,99343,1,2,0:0:0:0:
192,192,99415,1,0,0:0:0:0:
64,192,99486,1,2,0:0:0:0:
320,192,99486,1,8,0:0:0:0:
448,192,99486,1,0,0:0:0:0:
192,192,99558,1,0,0:0:0:0:
448,192,99629,1,0,0:0:0:0:
320,192,99700,1,0,0:0:0:0:
192,192,99772,1,2,0:0:0:0:
64,192,99843,1,0,0:0:0:0:
448,192,99915,1,0,0:0:0:0:
320,192,99986,1,0,0:0:0:0:
64,192,100058,1,2,0:0:0:0:
192,192,100058,1,8,0:0:0:0:
448,192,100058,1,0,0:0:0:0:
320,192,100129,1,0,0:0:0:0:
64,192,100200,1,0,0:0:0:0:
192,192,100272,1,0,0:0:0:0:
320,192,100343,1,2,0:0:0:0:
64,192,100415,1,0,0:0:0:0:
448,192,100486,1,0,0:0:0:0:
320,192,100558,1,0,0:0:0:0:
64,192,100629,1,2,0:0:0:0:
192,192,100629,1,8,0:0:0:0:
448,192,100700,1,0,0:0:0:0:
64,192,100772,1,0,0:0:0:0:
192,192,100843,1,2,0:0:0:0:
320,192,100915,1,8,0:0:0:0:
448,192,100915,1,0,0:0:0:0:
64,192,100986,1,0,0:0:0:0:
320,192,101058,1,2,0:0:0:0:
448,192,101129,1,0,0:0:0:0:
64,192,101200,1,8,0:0:0:0:
192,192,101200,1,0,0:0:0:0:
320,192,101272,1,2,0:0:0:0:
64,192,101343,1,0,0:0:0:0:
320,192,101415,1,8,0:0:0:0:
448,192,101415,1,0,0:0:0:0:
192,192,101486,1,2,0:0:0:0:
448,192,101558,1,0,0:0:0:0:
64,192,101629,1,2,0:0:0:0:
192,192,101629,1,8,0:0:0:0:
320,192,101700,1,0,0:0:0:0:
64,192,101772,1,2,0:0:0:0:
192,192,101772,1,4,0:0:0:0:
448,192,101772,1,0,0:0:0:0:
192,192,101986,1,0,0:0:0:0:
320,192,102058,1,2,0:0:0:0:
192,192,102129,1,2,0:0:0:0:
64,192,102200,1,2,0:0:0:0:
320,192,102200,1,8,0:0:0:0:
448,192,102200,1,0,0:0:0:0:
64,192,102343,1,0,0:0:0:0:
448,192,102415,1,0,0:0:0:0:
192,192,102486,1,2,0:0:0:0:
320,192,102558,1,2,0:0:0:0:
64,192,102629,1,2,0:0:0:0:
192,192,102629,1,8,0:0:0:0:
448,192,102629,1,0,0:0:0:0:
320,192,102772,1,0,0:0:0:0:
192,192,102843,1,0,0:0:0:0:
448,192,102915,1,2,0:0:0:0:
320,192,102986,1,2,0:0:0:0:
64,192,103058,1,2,0:0:0:0:
192,192,103058,1,8,0:0:0:0:
320,192,103129,1,0,0:0:0:0:
64,192,103200,1,2,0:0:0:0:
448,192,103200,1,8,0:0:0:0:
320,192,103343,1,0,0:0:0:0:
64,192,103415,1,0,0:0:0:0:
320,192,103486,1,2,0:0:0:0:
448,192,103486,1,8,0:0:0:0:
192,192,103558,1,0,0:0:0:0:
448,192,103629,1,0,0:0:0:0:
64,192,103700,1,2,0:0:0:0:
192,192,103700,1,8,0:0:0:0:
320,192,103772,1,0,0:0:0:0:
64,192,103843,1,0,0:0:0:0:
320,192,103915,1,2,0:0:0:0:
448,192,103915,1,8,0:0:0:0:
192,192,103986,1,0,0:0:0:0:
64,192,104058,1,2,0:0:0:0:
448,192,104058,1,8,0:0:0:0:
64,192,104272,1,0,0:0:0:0:
320,192,104343,1,2,0:0:0:0:
192,192,104415,1,2,0:0:0:0:
64,192,104486,1,2,0:0:0:0:
320,192,104486,1,8,0:0:0:0:
448,192,104486,1,0,0:0:0:0:
192,192,104629,1,0,0:0:0:0:
320,192,104700,1,0,0:0:0:0:
64,192,104772,1,2,0:0:0:0:
320,192,104843,1,2,0:0:0:0:
64,192,104915,1,2,0:0:0:0:
192,192,104915,1,8,0:0:0:0:
448,192,104915,1,0,0:0:0:0:
192,192,105058,1,0,0:0:0:0:
64,192,105129,1,0,0:0:0:0:
320,192,105200,1,2,0:0:0:0:
448,192,105272,1,2,0:0:0:0:
64,192,105343,1,2,0:0:0:0:
192,192,105343,1,8,0:0:0:0:
320,192,105415,1,0,0:0:0:0:
64,192,105486,1,2,0:0:0:0:
448,192,105486,1,8,0:0:0:0:
192,192,105558,1,0,0:0:0:0:
320,192,105629,1,0,0:0:0:0:
192,192,105700,1,0,0:0:0:0:
64,192,105772,1,2,0:0:0:0:
448,192,105772,1,8,0:0:0:0:
320,192,105843,1,0,0:0:0:0:
192,192,105915,1,0,0:0:0:0:
64,192,105986,1,2,0:0:0:0:
448,192,105986,1,8,0:0:0:0:
192,192,106058,1,0,0:0:0:0:
320,192,106129,1,0,0:0:0:0:
64,192,106200,1,2,0:0:0:0:
448,192,106200,1,8,0:0:0:0:
192,192,106272,1,0,0:0:0:0:
320,192,106343,1,2,0:0:0:0:
448,192,106343,1,8,0:0:0:0:
64,192,106486,1,2,0:0:0:0:
320,192,106486,1,0,0:0:0:0:
64,192,106629,1,2,0:0:0:0:
192,192,106629,1,8,0:0:0:0:
192,192,106772,1,2,0:0:0:0:
448,192,106772,1,0,0:0:0:0:
320,192,106915,1,2,0:0:0:0:
448,192,106915,1,8,0:0:0:0:
64,192,107058,1,2,0:0:0:0:
320,192,107058,1,0,0:0:0:0:
64,192,107200,1,2,0:0:0:0:
192,192,107200,1,8,0:0:0:0:
192,192,107343,1,2,0:0:0:0:
448,192,107343,1,0,0:0:0:0:
320,192,107486,1,2,0:0:0:0:
448,192,107486,1,8,0:0:0:0:
64,192,107629,1,2,0:0:0:0:
320,192,107629,1,0,0:0:0:0:
448,192,107700,1,0,0:0:0:0:
64,192,107772,1,2,0:0:0:0:
192,192,107772,1,8,0:0:0:0:
320,192,107843,1,0,0:0:0:0:
448,192,107915,1,2,0:0:0:0:
64,192,107986,1,0,0:0:0:0:
192,192,108058,1,2,0:0:0:0:
320,192,108058,1,8,0:0:0:0:
448,192,108129,1,0,0:0:0:0:
64,192,108200,1,2,0:0:0:0:
192,192,108272,1,0,0:0:0:0:
320,192,108343,1,2,0:0:0:0:
448,192,108343,1,8,0:0:0:0:
64,192,108415,1,0,0:0:0:0:
192,192,108486,1,2,0:0:0:0:
320,192,108558,1,0,0:0:0:0:
64,192,108629,1,2,0:0:0:0:
448,192,108629,1,8,0:0:0:0:
192,192,108700,1,2,0:0:0:0:
448,192,108772,1,2,0:0:0:0:
192,192,108843,1,2,0:0:0:0:
320,192,108915,1,2,0:0:0:0:
448,192,108915,1,8,0:0:0:0:
64,192,108986,1,2,0:0:0:0:
320,192,109058,1,2,0:0:0:0:
64,192,109129,1,2,0:0:0:0:
192,192,109200,1,2,0:0:0:0:
320,192,109200,1,8,0:0:0:0:
448,192,109272,1,2,0:0:0:0:
192,192,109343,1,2,0:0:0:0:
448,192,109415,1,2,0:0:0:0:
64,192,109486,1,2,0:0:0:0:
192,192,109486,1,8,0:0:0:0:
320,192,109558,1,2,0:0:0:0:
64,192,109629,1,2,0:0:0:0:
320,192,109700,1,2,0:0:0:0:
64,192,109772,1,2,0:0:0:0:
192,192,109772,1,4,0:0:0:0:
448,192,109772,1,0,0:0:0:0:
448,192,110343,1,2,0:0:0:0:
320,192,110415,1,0,0:0:0:0:
448,192,110486,1,2,0:0:0:0:
64,192,110558,1,0,0:0:0:0:
192,192,110629,1,2,0:0:0:0:
320,192,110700,1,0,0:0:0:0:
192,192,110772,1,2,0:0:0:0:
320,192,110843,1,0,0:0:0:0:
64,192,110915,1,2,0:0:0:0:
192,192,110915,1,4,0:0:0:0:
448,192,110915,1,0,0:0:0:0:
320,192,110986,1,0,0:0:0:0:
64,192,111058,1,0,0:0:0:0:
192,192,111129,1,0,0:0:0:0:
320,192,111200,1,2,0:0:0:0:
448,192,111200,1,0,0:0:0:0:
64,192,111272,1,0,0:0:0:0:
192,192,111343,1,0,0:0:0:0:
448,192,111343,1,0,0:0:0:0:
320,192,111415,1,0,0:0:0:0:
64,192,111486,1,2,0:0:0:0:
192,192,111486,1,0,0:0:0:0:
448,192,111558,1,0,0:0:0:0:
320,192,111629,1,0,0:0:0:0:
192,192,111700,1,0,0:0:0:0:
64,192,111772,1,2,0:0:0:0:
448,192,111772,1,0,0:0:0:0:
320,192,111843,1,0,0:0:0:0:
64,192,111915,1,0,0:0:0:0:
192,192,111915,1,0,0:0:0:0:
320,192,111986,1,0,0:0:0:0:
192,192,112058,1,2,0:0:0:0:
448,192,112058,1,0,0:0:0:0:
64,192,112129,1,0,0:0:0:0:
320,192,112200,1,0,0:0:0:0:
192,192,112272,1,0,0:0:0:0:
64,192,112343,1,2,0:0:0:0:
448,192,112343,1,0,0:0:0:0:
320,192,112415,1,0,0:0:0:0:
192,192,112486,1,0,0:0:0:0:
64,192,112558,1,0,0:0:0:0:
320,192,112629,1,2,0:0:0:0:
448,192,112629,1,0,0:0:0:0:
192,192,112700,1,0,0:0:0:0:
64,192,112772,1,0,0:0:0:0:
320,192,112843,1,0,0:0:0:0:
64,192,112915,1,2,0:0:0:0:
192,192,112915,1,0,0:0:0:0:
448,192,112986,1,0,0:0:0:0:
192,192,113058,1,0,0:0:0:0:
320,192,113129,1,0,0:0:0:0:
64,192,113200,1,2,0:0:0:0:
448,192,113200,1,0,0:0:0:0:
192,192,113272,1,0,0:0:0:0:
320,192,113343,1,0,0:0:0:0:
64,192,113415,1,0,0:0:0:0:
320,192,113486,1,2,0:0:0:0:
448,192,113486,1,0,0:0:0:0:
64,192,113558,1,0,0:0:0:0:
192,192,113629,1,0,0:0:0:0:
448,192,113629,1,0,0:0:0:0:
320,192,113700,1,0,0:0:0:0:
64,192,113772,1,2,0:0:0:0:
192,192,113772,1,0,0:0:0:0:
448,192,113843,1,0,0:0:0:0:
320,192,113915,1,0,0:0:0:0:
192,192,113986,1,0,0:0:0:0:
64,192,114058,1,2,0:0:0:0:
448,192,114058,1,0,0:0:0:0:
320,192,114129,1,0,0:0:0:0:
64,192,114200,1,0,0:0:0:0:
192,192,114200,1,0,0:0:0:0:
320,192,114272,1,0,0:0:0:0:
192,192,114343,1,2,0:0:0:0:
448,192,114343,1,0,0:0:0:0:
64,192,114415,1,0,0:0:0:0:
320,192,114486,1,0,0:0:0:0:
448,192,114558,1,0,0:0:0:0:
192,192,114629,1,2,0:0:0:0:
320,192,114629,1,0,0:0:0:0:
64,192,114700,1,0,0:0:0:0:
320,192,114772,1,0,0:0:0:0:
448,192,114772,1,0,0:0:0:0:
192,192,114843,1,0,0:0:0:0:
64,192,114915,1,2,0:0:0:0:
320,192,114915,1,8,0:0:0:0:
448,192,114915,1,0,0:0:0:0:
192,192,114986,1,0,0:0:0:0:
64,192,115058,1,0,0:0:0:0:
320,192,115129,1,0,0:0:0:0:
64,192,115200,1,2,0:0:0:0:
192,192,115200,1,0,0:0:0:0:
448,192,115272,1,0,0:0:0:0:
192,192,115343,1,2,0:0:0:0:
320,192,115415,1,0,0:0:0:0:
64,192,115486,1,2,0:0:0:0:
192,192,115486,1,8,0:0:0:0:
448,192,115486,1,0,0:0:0:0:
320,192,115558,1,0,0:0:0:0:
192,192,115629,1,0,0:0:0:0:
64,192,115700,1,0,0:0:0:0:
320,192,115772,1,2,0:0:0:0:
448,192,115772,1,0,0:0:0:0:
192,192,115843,1,0,0:0:0:0:
64,192,115915,1,0,0:0:0:0:
448,192,115915,1,0,0:0:0:0:
320,192,115986,1,0,0:0:0:0:
64,192,116058,1,2,0:0:0:0:
192,192,116058,1,0,0:0:0:0:
320,192,116129,1,0,0:0:0:0:
448,192,116200,1,0,0:0:0:0:
64,192,116272,1,0,0:0:0:0:
192,192,116343,1,2,0:0:0:0:
320,192,116343,1,0,0:0:0:0:
448,192,116415,1,0,0:0:0:0:
64,192,116486,1,0,0:0:0:0:
192,192,116486,1,0,0:0:0:0:
320,192,116558,1,0,0:0:0:0:
64,192,116629,1,2,0:0:0:0:
448,192,116629,1,0,0:0:0:0:
192,192,116700,1,0,0:0:0:0:
320,192,116772,1,0,0:0:0:0:
448,192,116843,1,0,0:0:0:0:
64,192,116915,1,2,0:0:0:0:
192,192,116915,1,0,0:0:0:0:
320,192,116986,1,0,0:0:0:0:
448,192,117058,1,0,0:0:0:0:
64,192,117129,1,0,0:0:0:0:
192,192,117200,1,2,0:0:0:0:
320,192,117200,1,0,0:0:0:0:
448,192,117272,1,0,0:0:0:0:
64,192,117343,1,0,0:0:0:0:
320,192,117415,1,0,0:0:0:0:
64,192,117486,1,2,0:0:0:0:
192,192,117486,1,0,0:0:0:0:
448,192,117558,1,0,0:0:0:0:
320,192,117629,1,0,0:0:0:0:
192,192,117700,1,0,0:0:0:0:
64,192,117772,1,2,0:0:0:0:
320,192,117772,1,8,0:0:0:0:
448,192,117772,1,0,0:0:0:0:
192,192,117843,1,0,0:0:0:0:
64,192,117915,1,0,0:0:0:0:
448,192,117986,1,0,0:0:0:0:
192,192,118058,1,2,0:0:0:0:
320,192,118058,1,0,0:0:0:0:
64,192,118129,1,0,0:0:0:0:
448,192,118200,1,0,0:0:0:0:
192,192,118200,1,0,0:0:0:0:
320,192,118272,1,0,0:0:0:0:
64,192,118343,1,2,0:0:0:0:
192,192,118343,1,8,0:0:0:0:
448,192,118343,1,0,0:0:0:0:
320,192,118415,1,0,0:0:0:0:
192,192,118486,1,0,0:0:0:0:
320,192,118558,1,0,0:0:0:0:
64,192,118629,1,2,0:0:0:0:
448,192,118629,1,0,0:0:0:0:
192,192,118700,1,0,0:0:0:0:
320,192,118772,1,0,0:0:0:0:
448,192,118772,1,0,0:0:0:0:
192,192,118843,1,0,0:0:0:0:
64,192,118915,1,2,0:0:0:0:
448,192,118915,1,8,0:0:0:0:
320,192,118915,1,0,0:0:0:0:
192,192,118986,1,0,0:0:0:0:
320,192,119058,1,0,0:0:0:0:
448,192,119129,1,0,0:0:0:0:
64,192,119200,1,2,0:0:0:0:
192,192,119200,1,8,0:0:0:0:
448,192,119272,1,0,0:0:0:0:
192,192,119343,1,0,0:0:0:0:
320,192,119343,1,0,0:0:0:0:
64,192,119415,1,0,0:0:0:0:
192,192,119486,1,2,0:0:0:0:
448,192,119486,1,8,0:0:0:0:
64,192,119558,1,0,0:0:0:0:
320,192,119629,1,2,0:0:0:0:
192,192,119700,1,8,0:0:0:0:
320,192,119772,1,2,0:0:0:0:
448,192,119772,1,0,0:0:0:0:
64,192,119843,1,0,0:0:0:0:
192,192,119915,1,10,0:0:0:0:
320,192,119986,1,0,0:0:0:0:
64,192,120058,1,2,0:0:0:0:
192,192,120058,1,4,0:0:0:0:
448,192,120058,1,0,0:0:0:0:
64,192,120200,1,2,0:0:0:0:
320,192,120200,1,0,0:0:0:0:
320,192,120343,1,2,0:0:0:0:
448,192,120343,1,8,0:0:0:0:
192,192,120486,1,2,0:0:0:0:
448,192,120486,1,0,0:0:0:0:
320,192,120558,1,0,0:0:0:0:
64,192,120629,1,2,0:0:0:0:
192,192,120629,1,8,0:0:0:0:
64,192,120772,1,2,0:0:0:0:
320,192,120772,1,0,0:0:0:0:
320,192,120915,1,2,0:0:0:0:
448,192,120915,1,8,0:0:0:0:
64,192,121058,1,2,0:0:0:0:
192,192,121058,1,0,0:0:0:0:
320,192,121129,1,2,0:0:0:0:
192,192,121200,1,2,0:0:0:0:
448,192,121200,1,8,0:0:0:0:
64,192,121343,1,2,0:0:0:0:
448,192,121343,1,0,0:0:0:0:
64,192,121486,1,2,0:0:0:0:
192,192,121486,1,8,0:0:0:0:
448,192,121558,1,0,0:0:0:0:
192,192,121629,1,2,0:0:0:0:
320,192,121700,1,0,0:0:0:0:
64,192,121772,1,2,0:0:0:0:
448,192,121772,1,8,0:0:0:0:
64,192,121915,1,2,0:0:0:0:
192,192,121915,1,0,0:0:0:0:
320,192,122058,1,2,0:0:0:0:
448,192,122058,1,8,0:0:0:0:
192,192,122129,1,2,0:0:0:0:
64,192,122200,1,2,0:0:0:0:
448,192,122200,1,0,0:0:0:0:
320,192,122272,1,2,0:0:0:0:
64,192,122343,1,2,0:0:0:0:
192,192,122343,1,8,0:0:0:0:
192,192,122486,1,2,0:0:0:0:
320,192,122486,1,0,0:0:0:0:
320,192,122629,1,2,0:0:0:0:
448,192,122629,1,8,0:0:0:0:
192,192,122772,1,2,0:0:0:0:
448,192,122772,1,0,0:0:0:0:
320,192,122843,1,0,0:0:0:0:
64,192,122915,1,2,0:0:0:0:
192,192,122915,1,8,0:0:0:0:
64,192,123058,1,2,0:0:0:0:
320,192,123058,1,0,0:0:0:0:
320,192,123200,1,2,0:0:0:0:
448,192,123200,1,8,0:0:0:0:
64,192,123343,1,2,0:0:0:0:
192,192,123343,1,0,0:0:0:0:
320,192,123415,1,2,0:0:0:0:
192,192,123486,1,2,0:0:0:0:
448,192,123486,1,8,0:0:0:0:
64,192,123629,1,2,0:0:0:0:
320,192,123700,1,2,0:0:0:0:
64,192,123772,1,2,0:0:0:0:
192,192,123772,1,8,0:0:0:0:
192,192,123915,1,2,0:0:0:0:
320,192,123915,1,0,0:0:0:0:
448,192,123986,1,2,0:0:0:0:
64,192,124058,1,2,0:0:0:0:
320,192,124058,1,8,0:0:0:0:
192,192,124129,1,0,0:0:0:0:
64,192,124200,1,2,0:0:0:0:
320,192,124272,1,2,0:0:0:0:
192,192,124343,1,2,0:0:0:0:
448,192,124343,1,8,0:0:0:0:
64,192,124415,1,2,0:0:0:0:
320,192,124486,1,2,0:0:0:0:
448,192,124486,1,0,0:0:0:0:
192,192,124558,1,2,0:0:0:0:
64,192,124629,1,2,0:0:0:0:
448,192,124629,1,8,0:0:0:0:
320,192,124700,1,2,0:0:0:0:
192,192,124772,1,2,0:0:0:0:
64,192,124843,1,2,0:0:0:0:
320,192,124915,1,2,0:0:0:0:
448,192,124915,1,8,0:0:0:0:
192,192,124986,1,2,0:0:0:0:
64,192,125058,1,2,0:0:0:0:
448,192,125058,1,0,0:0:0:0:
320,192,125129,1,2,0:0:0:0:
64,192,125200,1,2,0:0:0:0:
192,192,125200,1,8,0:0:0:0:
448,192,125272,1,2,0:0:0:0:
320,192,125343,1,2,0:0:0:0:
64,192,125415,1,2,0:0:0:0:
192,192,125486,1,2,0:0:0:0:
320,192,125486,1,8,0:0:0:0:
448,192,125558,1,2,0:0:0:0:
64,192,125629,1,2,0:0:0:0:
192,192,125629,1,0,0:0:0:0:
320,192,125700,1,2,0:0:0:0:
64,192,125772,1,2,0:0:0:0:
448,192,125772,1,8,0:0:0:0:
192,192,125843,1,2,0:0:0:0:
320,192,125915,1,2,0:0:0:0:
64,192,125986,1,2,0:0:0:0:
320,192,126058,1,2,0:0:0:0:
448,192,126058,1,8,0:0:0:0:
192,192,126129,1,2,0:0:0:0:
64,192,126200,1,2,0:0:0:0:
320,192,126272,1,2,0:0:0:0:
192,192,126343,1,2,0:0:0:0:
448,192,126343,1,8,0:0:0:0:
64,192,126415,1,2,0:0:0:0:
320,192,126486,1,2,0:0:0:0:
448,192,126558,1,2,0:0:0:0:
64,192,126629,1,2,0:0:0:0:
192,192,126629,1,8,0:0:0:0:
320,192,126700,1,2,0:0:0:0:
448,192,126772,1,2,0:0:0:0:
192,192,126843,1,2,0:0:0:0:
64,192,126915,1,2,0:0:0:0:
448,192,126915,1,8,0:0:0:0:
320,192,126986,1,2,0:0:0:0:
64,192,127058,1,2,0:0:0:0:
320,192,127129,1,2,0:0:0:0:
64,192,127200,1,2,0:0:0:0:
192,192,127200,1,8,0:0:0:0:
448,192,127272,1,2,0:0:0:0:
192,192,127343,1,2,0:0:0:0:
448,192,127415,1,2,0:0:0:0:
192,192,127486,1,2,0:0:0:0:
320,192,127486,1,8,0:0:0:0:
64,192,127558,1,2,0:0:0:0:
320,192,127629,1,2,0:0:0:0:
64,192,127700,1,2,0:0:0:0:
320,192,127772,1,2,0:0:0:0:
448,192,127772,1,8,0:0:0:0:
192,192,127843,1,2,0:0:0:0:
448,192,127915,1,2,0:0:0:0:
192,192,127986,1,2,0:0:0:0:
64,192,128058,1,2,0:0:0:0:
320,192,128058,1,4,0:0:0:0:
448,192,128058,1,0,0:0:0:0:
192,192,128629,1,2,0:0:0:0:
448,192,128629,1,8,0:0:0:0:
192,192,128772,1,2,0:0:0:0:
64,192,128915,1,2,0:0:0:0:
320,192,128986,1,2,0:0:0:0:
64,192,129058,1,2,0:0:0:0:
320,192,129129,1,2,0:0:0:0:
64,192,129200,1,2,0:0:0:0:
448,192,129200,1,4,0:0:0:0:
192,192,129272,1,2,0:0:0:0:
448,192,129343,1,2,0:0:0:0:
192,192,129415,1,2,0:0:0:0:
320,192,129486,1,2,0:0:0:0:
448,192,129486,1,8,0:0:0:0:
64,192,129558,1,2,0:0:0:0:
320,192,129629,1,2,0:0:0:0:
64,192,129700,1,2,0:0:0:0:
192,192,129772,1,2,0:0:0:0:
320,192,129772,1,8,0:0:0:0:
448,192,129843,1,2,0:0:0:0:
192,192,129915,1,2,0:0:0:0:
448,192,129986,1,2,0:0:0:0:
64,192,130058,1,2,0:0:0:0:
192,192,130058,1,8,0:0:0:0:
320,192,130129,1,2,0:0:0:0:
64,192,130200,1,2,0:0:0:0:
320,192,130272,1,2,0:0:0:0:
64,192,130343,1,2,0:0:0:0:
448,192,130343,1,8,0:0:0:0:
192,192,130415,1,2,0:0:0:0:
448,192,130486,1,2,0:0:0:0:
192,192,130558,1,2,0:0:0:0:
320,192,130629,1,2,0:0:0:0:
448,192,130629,1,8,0:0:0:0:
64,192,130700,1,2,0:0:0:0:
320,192,130772,1,2,0:0:0:0:
64,192,130843,1,2,0:0:0:0:
192,192,130915,1,2,0:0:0:0:
320,192,130915,1,8,0:0:0:0:
448,192,130986,1,2,0:0:0:0:
192,192,131058,1,2,0:0:0:0:
448,192,131129,1,2,0:0:0:0:
64,192,131200,1,2,0:0:0:0:
192,192,131200,1,8,0:0:0:0:
320,192,131272,1,2,0:0:0:0:
64,192,131343,1,2,0:0:0:0:
320,192,131415,1,2,0:0:0:0:
64,192,131486,1,2,0:0:0:0:
448,192,131486,1,8,0:0:0:0:
192,192,131558,1,2,0:0:0:0:
320,192,131629,1,2,0:0:0:0:
448,192,131700,1,2,0:0:0:0:
64,192,131772,1,2,0:0:0:0:
192,192,131772,1,8,0:0:0:0:
320,192,131843,1,2,0:0:0:0:
448,192,131915,1,2,0:0:0:0:
64,192,131986,1,2,0:0:0:0:
192,192,132058,1,2,0:0:0:0:
320,192,132058,1,8,0:0:0:0:
448,192,132129,1,2,0:0:0:0:
64,192,132200,1,2,0:0:0:0:
192,192,132272,1,2,0:0:0:0:
320,192,132343,1,2,0:0:0:0:
448,192,132343,1,8,0:0:0:0:
64,192,132415,1,2,0:0:0:0:
192,192,132486,1,2,0:0:0:0:
320,192,132558,1,2,0:0:0:0:
64,192,132629,1,2,0:0:0:0:
448,192,132629,1,8,0:0:0:0:
192,192,132700,1,2,0:0:0:0:
320,192,132772,1,2,0:0:0:0:
448,192,132843,1,2,0:0:0:0:
64,192,132915,1,2,0:0:0:0:
192,192,132915,1,8,0:0:0:0:
320,192,132986,1,2,0:0:0:0:
448,192,133058,1,2,0:0:0:0:
64,192,133129,1,2,0:0:0:0:
192,192,133200,1,2,0:0:0:0:
320,192,133200,1,8,0:0:0:0:
448,192,133272,1,2,0:0:0:0:
64,192,133343,1,2,0:0:0:0:
192,192,133415,1,2,0:0:0:0:
320,192,133486,1,2,0:0:0:0:
448,192,133486,1,8,0:0:0:0:
192,192,133558,1,2,0:0:0:0:
320,192,133629,1,2,0:0:0:0:
192,192,133700,1,2,0:0:0:0:
64,192,133772,1,2,0:0:0:0:
320,192,133772,1,4,0:0:0:0:
448,192,133772,1,0,0:0:0:0:
