osu file format v14

[General]
AudioFilename: audio.mp3
AudioLeadIn: 0
PreviewTime: 93637
Countdown: 0
SampleSet: Normal
StackLeniency: 0.7
Mode: 1
LetterboxInBreaks: 0
WidescreenStoryboard: 1

[Editor]
Bookmarks: 1460,11782,22105,27266,32427,53072,63395,73718,84040,94363,133072
DistanceSpacing: 1.5
BeatDivisor: 4
GridSize: 32
TimelineZoom: 2.6

[Metadata]
Title:Cthulhu
TitleUnicode:C†hulhu
Artist:Raimukun
ArtistUnicode:Raimukun
Creator:KyeX
Version:Muzukashii
Source:
Tags:electronic instrumental hardcore Hard Baroque fa o!tfac #2 o!tfac#2 osu!taiko featured artist cup: 2nd second edition first 1st place winner mappers mappers' guild mpg mg
BeatmapID:3721580
BeatmapSetID:1814085

[Difficulty]
HPDrainRate:6
CircleSize:3
OverallDifficulty:5
ApproachRate:10
SliderMultiplier:1.4
SliderTickRate:1

[Events]
//Background and Video events
0,0,"aaaaaa.jpg",0,0
//Break Periods
//Storyboard Layer 0 (Background)
//Storyboard Layer 1 (Fail)
//Storyboard Layer 2 (Pass)
//Storyboard Layer 3 (Foreground)
//Storyboard Layer 4 (Overlay)
//Storyboard Sound Samples

[TimingPoints]
814,322.58064516129,4,1,0,10,1,8
814,-125,4,1,0,10,0,0
894,-125,4,1,0,19,0,0
975,-125,4,1,0,27,0,0
1055,-125,4,1,0,36,0,0
1136,-125,4,1,0,45,0,0
1217,-125,4,1,0,54,0,0
1297,-125,4,1,0,62,0,0
1378,-125,4,1,0,71,0,0
1460,322.58064516129,4,1,0,80,1,0
1460,-125,4,1,0,80,0,0
11459,-125,4,1,0,80,0,0
11621,-121.200750469043,4,1,0,80,0,0
11782,-117.647058823529,4,1,0,80,0,0
11943,-117.647058823529,4,1,0,85,0,0
22105,-125,4,1,0,85,0,0
22266,-124.999734498976,4,1,0,85,0,0
22347,-124.999098361476,4,1,0,85,0,0
22427,-124.997876023391,4,1,0,85,0,0
22589,-124.992787255994,4,1,0,85,0,0
22750,-124.982930950813,4,1,0,85,0,0
22911,-124.966697341903,4,1,0,85,0,0
22992,-124.955618075785,4,1,0,85,0,0
23072,-124.942499834562,4,1,0,85,0,0
23234,-124.908514271774,4,1,0,85,0,0
23395,-124.863578007748,4,1,0,85,0,0
23476,-124.836268355642,4,1,0,85,0,0
23556,-124.805948500301,4,1,0,85,0,0
23637,-124.771665388045,4,1,0,85,0,0
23718,-124.73358052249,4,1,0,85,0,0
23879,-124.645824868814,4,1,0,85,0,0
24040,-124.54076611857,4,1,0,85,0,0
24201,-124.416913830439,4,1,0,85,0,0
24282,-124.347034552394,4,1,0,85,0,0
24363,-124.271844660194,4,1,0,85,0,0
24524,-124.10591345044,4,1,0,85,0,0
24685,-123.916898557953,4,1,0,85,0,0
24766,-123.812649005935,4,1,0,85,0,0
24847,-123.702047733236,4,1,0,85,0,0
24927,-123.586417202676,4,1,0,85,0,0
25008,-123.462707930861,4,1,0,85,0,0
25169,-123.19638545153,4,1,0,85,0,0
25250,-123.05181827214,4,1,0,85,0,0
25330,-122.901895007641,4,1,0,85,0,0
25492,-122.576011491501,4,1,0,85,0,0
25572,-122.40381310687,4,1,0,85,0,0
25653,-122.221703154889,4,1,0,85,0,0
25814,-121.836077127219,4,1,0,85,0,0
25976,-121.415543749187,4,1,0,85,0,0
26056,-121.195589382486,4,1,0,85,0,0
26137,-120.964485304283,4,1,0,85,0,0
26218,-120.724841188993,4,1,0,85,0,0
26298,-120.479693108799,4,1,0,85,0,0
26459,-119.960549301298,4,1,0,85,0,0
26540,-119.686209050208,4,1,0,85,0,0
26621,-119.402985074627,4,1,0,85,0,0
26782,-118.813468006044,4,1,0,85,0,0
26943,-118.18835863149,4,1,0,85,0,0
27024,-117.860338331172,4,1,0,85,0,0
27105,-117.523243079347,4,1,0,85,0,0
27185,-117.181394852472,4,1,0,85,0,0
27266,-116.826247461116,4,1,0,90,0,0
27427,-116.093406214629,4,1,0,90,0,0
27508,-115.711196652669,4,1,0,90,0,0
27589,-115.319977468374,4,1,0,90,0,0
27750,-114.5157682845,4,1,0,90,0,0
27830,-114.103090099777,4,1,0,90,0,0
27911,-113.676486137961,4,1,0,90,0,0
28072,-112.802614240687,4,1,0,90,0,0
28234,-111.889002160913,4,1,0,90,0,0
28287,-111.582749123621,4,1,0,90,0,0
28341,-111.267034926495,4,1,0,90,0,0
28395,-110.947633717689,4,1,0,90,0,0
28556,-109.973779501461,4,1,0,90,0,0
28664,-109.302753560799,4,1,0,90,0,0
28771,-108.62421722477,4,1,0,90,0,0
28879,-107.925801011804,4,1,0,90,0,0
28986,-107.220765502415,4,1,0,90,0,0
29094,-106.49628028468,4,1,0,90,0,0
29201,-105.766121050564,4,1,0,90,0,0
29309,-105.0170188349,4,1,0,90,0,0
29416,-104.263234107724,4,1,0,90,0,0
29524,-103.491083727703,4,1,0,90,0,0
29847,-101.118144168752,4,1,0,90,0,0
29927,-100.516646334545,4,1,0,90,0,0
30008,-99.90243902439,4,1,0,90,0,0
30089,-99.283204471474,4,1,0,90,0,0
30169,-98.666874476238,4,1,0,90,0,0
30250,-98.038239292908,4,1,0,90,0,0
30330,-97.413017605241,4,1,0,90,0,0
30411,-96.775780352739,4,1,0,90,0,0
30492,-96.134520586607,4,1,0,90,0,0
30572,-95.497430262331,4,1,0,90,0,0
30653,-94.848786268664,4,1,0,90,0,0
30734,-94.196735769394,4,1,0,90,0,0
30814,-93.549593813574,4,1,0,90,0,0
30895,-92.891386557076,4,1,0,90,0,0
30976,-92.230390499331,4,1,0,90,0,0
31056,-91.57501895821,4,1,0,90,0,0
31137,-90.909090909091,4,1,0,90,0,0
32427,-100,4,1,0,100,0,1
52427,-100,4,1,0,100,0,0
52750,-125,4,1,0,85,0,0
63072,-125,4,1,0,85,0,0
63234,-121.200750469043,4,1,0,85,0,0
63395,-117.647058823529,4,1,0,90,0,0
73718,-125,4,1,0,85,0,0
84040,-125,4,1,0,85,0,0
84201,-124.999645998886,4,1,0,85,0,0
84363,-124.997141581156,4,1,0,85,0,0
84524,-124.990383192961,4,1,0,85,0,0
84685,-124.977242303623,4,1,0,85,0,0
84847,-124.955434993679,4,1,0,85,0,0
85008,-124.92310695376,4,1,0,85,0,0
85169,-124.878048780488,4,1,0,85,0,0
85330,-124.818170158569,4,1,0,85,0,0
85492,-124.740864557497,4,1,0,85,0,0
85653,-124.645026221797,4,1,0,85,0,0
85814,-124.528212079881,4,1,0,85,0,0
85976,-124.387493091314,4,1,0,85,0,0
86137,-124.222654098753,4,1,0,85,0,0
86298,-124.031007751938,4,1,0,85,0,0
86459,-123.810720118309,4,1,0,85,0,0
86621,-123.558368063087,4,1,0,85,0,0
86782,-123.275366290269,4,1,0,85,0,0
86943,-122.958645662039,4,1,0,85,0,0
87105,-122.604392392677,4,1,0,85,0,0
87266,-122.215560345966,4,1,0,85,0,0
87427,-121.788772597526,4,1,0,85,0,0
87589,-121.319828947414,4,1,0,85,0,0
87750,-120.81345977845,4,1,0,85,0,0
87911,-120.265975409674,4,1,0,85,0,0
88072,-119.676600820695,4,1,0,85,0,0
88234,-119.040651401617,4,1,0,85,0,0
88395,-118.365505291819,4,1,0,85,0,0
88556,-117.647058823529,4,1,0,85,0,0
88718,-116.880296432547,4,1,0,85,0,0
88798,-116.485422369885,4,1,0,85,0,0
88879,-116.074703222775,4,1,0,85,0,0
88959,-115.65830848642,4,1,0,85,0,0
89040,-115.225867604546,4,1,0,85,0,0
89121,-114.782568363913,4,1,0,85,0,0
89201,-114.33414347313,4,1,0,90,0,0
89363,-113.394118175108,4,1,0,90,0,0
89524,-112.418085207648,4,1,0,90,0,0
89685,-111.401218450827,4,1,0,90,0,0
89847,-110.33783346983,4,1,0,90,0,0
90008,-109.242215391232,4,1,0,90,0,0
90169,-108.109216291104,4,1,0,90,0,0
90330,-106.94026370204,4,1,0,90,0,0
90411,-106.339047816138,4,1,0,90,0,0
90492,-105.729331522036,4,1,0,90,0,0
90653,-104.493045304402,4,1,0,90,0,0
90814,-103.225806451613,4,1,0,90,0,0
90976,-101.921339706296,4,1,0,90,0,0
91137,-100.597703496523,4,1,0,90,0,0
91298,-99.24894586049,4,1,0,90,0,0
91459,-97.877134170766,4,1,0,90,0,0
91621,-96.475667027495,4,1,0,90,0,0
91701,-95.776430999693,4,1,0,90,0,0
91782,-95.063998296589,4,1,0,90,0,0
91863,-94.347355949667,4,1,0,90,0,0
91943,-93.635698610095,4,1,0,90,0,0
92024,-92.911507808642,4,1,0,90,0,0
92105,-92.18393097877,4,1,0,90,0,0
92185,-91.462281561729,4,1,0,90,0,0
92266,-90.728789203247,4,1,0,90,0,0
94363,-90.9090909090909,4,1,0,100,0,1
133072,-66.6666666666667,4,1,0,100,0,0

[HitObjects]
263,191,814,5,0,0:0:0:0:
263,191,975,1,0,0:0:0:0:
256,192,1055,1,0,0:0:0:0:
263,191,1136,1,0,0:0:0:0:
263,191,1297,1,0,0:0:0:0:
256,192,1460,1,12,0:0:0:0:
256,192,2750,1,0,0:0:0:0:
256,192,3072,1,0,0:0:0:0:
256,192,3718,1,0,0:0:0:0:
256,192,3798,1,0,0:0:0:0:
256,192,3879,1,0,0:0:0:0:
256,192,4040,1,8,0:0:0:0:
256,192,5008,1,8,0:0:0:0:
256,192,5330,1,0,0:0:0:0:
256,192,5653,1,0,0:0:0:0:
256,192,6298,1,0,0:0:0:0:
256,192,6459,1,0,0:0:0:0:
256,192,6621,1,8,0:0:0:0:
256,192,7911,1,0,0:0:0:0:
256,192,8234,1,0,0:0:0:0:
256,192,8879,1,0,0:0:0:0:
256,192,8959,1,0,0:0:0:0:
256,192,9040,1,0,0:0:0:0:
256,192,9201,1,8,0:0:0:0:
256,192,10169,1,8,0:0:0:0:
256,192,10492,1,8,0:0:0:0:
256,192,10653,1,0,0:0:0:0:
256,192,10814,1,8,0:0:0:0:
256,192,11459,1,0,0:0:0:0:
256,192,11621,1,0,0:0:0:0:
256,192,11782,1,8,0:0:0:0:
256,192,12105,1,8,0:0:0:0:
256,192,12266,1,8,0:0:0:0:
256,192,12427,1,0,0:0:0:0:
256,192,12589,1,0,0:0:0:0:
256,192,12750,1,8,0:0:0:0:
256,192,12911,1,0,0:0:0:0:
256,192,13072,1,8,0:0:0:0:
256,192,13395,1,0,0:0:0:0:
256,192,13556,1,0,0:0:0:0:
256,192,13718,1,8,0:0:0:0:
256,192,13879,1,0,0:0:0:0:
256,192,14040,1,8,0:0:0:0:
256,192,14363,1,8,0:0:0:0:
256,192,14685,1,0,0:0:0:0:
256,192,14847,1,8,0:0:0:0:
256,192,15008,1,0,0:0:0:0:
256,192,15169,1,0,0:0:0:0:
256,192,15330,1,8,0:0:0:0:
256,192,15492,1,0,0:0:0:0:
256,192,15653,1,8,0:0:0:0:
256,192,15976,1,0,0:0:0:0:
256,192,16137,1,0,0:0:0:0:
256,192,16298,1,8,0:0:0:0:
256,192,16459,1,8,0:0:0:0:
256,192,16621,1,0,0:0:0:0:
256,192,16943,1,8,0:0:0:0:
256,192,17266,1,8,0:0:0:0:
256,192,17427,1,0,0:0:0:0:
256,192,17589,1,8,0:0:0:0:
256,192,17750,1,8,0:0:0:0:
256,192,17911,1,0,0:0:0:0:
256,192,18072,1,0,0:0:0:0:
256,192,18234,1,8,0:0:0:0:
256,192,18556,1,0,0:0:0:0:
256,192,18718,1,0,0:0:0:0:
256,192,18879,1,8,0:0:0:0:
256,192,19040,1,0,0:0:0:0:
256,192,19201,1,8,0:0:0:0:
256,192,19363,1,8,0:0:0:0:
256,192,19524,1,0,0:0:0:0:
256,192,19847,1,8,0:0:0:0:
256,192,20008,1,0,0:0:0:0:
256,192,20169,1,8,0:0:0:0:
256,192,20330,1,8,0:0:0:0:
256,192,20492,1,0,0:0:0:0:
256,192,20653,1,0,0:0:0:0:
256,192,20814,1,8,0:0:0:0:
256,192,22105,1,12,0:0:0:0:
256,192,22427,1,8,0:0:0:0:
256,192,22589,1,0,0:0:0:0:
256,192,22750,1,8,0:0:0:0:
256,192,23072,1,0,0:0:0:0:
256,192,23234,1,8,0:0:0:0:
256,192,23395,1,0,0:0:0:0:
256,192,23476,1,0,0:0:0:0:
256,192,23556,1,0,0:0:0:0:
256,192,23718,1,8,0:0:0:0:
256,192,24040,1,8,0:0:0:0:
256,192,24363,1,8,0:0:0:0:
256,192,24524,1,8,0:0:0:0:
256,192,24685,1,0,0:0:0:0:
256,192,24766,1,0,0:0:0:0:
256,192,24847,1,0,0:0:0:0:
256,192,25008,1,8,0:0:0:0:
256,192,25330,1,8,0:0:0:0:
256,192,25653,1,8,0:0:0:0:
256,192,25814,1,8,0:0:0:0:
256,192,25976,1,0,0:0:0:0:
256,192,26056,1,0,0:0:0:0:
256,192,26137,1,0,0:0:0:0:
256,192,26298,1,8,0:0:0:0:
256,192,26621,1,8,0:0:0:0:
256,192,26943,1,8,0:0:0:0:
256,192,27024,1,8,0:0:0:0:
256,192,27105,1,8,0:0:0:0:
256,192,27266,1,0,0:0:0:0:
256,192,27427,1,0,0:0:0:0:
256,192,27589,1,8,0:0:0:0:
256,192,27750,1,8,0:0:0:0:
256,192,27911,1,0,0:0:0:0:
256,192,28072,1,0,0:0:0:0:
256,192,28234,1,8,0:0:0:0:
256,192,28556,1,8,0:0:0:0:
256,192,28771,1,0,0:0:0:0:
256,192,28879,1,0,0:0:0:0:
256,192,29094,1,8,0:0:0:0:
256,192,29201,1,8,0:0:0:0:
256,192,29524,1,0,0:0:0:0:
256,192,29847,1,8,0:0:0:0:
256,192,30008,1,0,0:0:0:0:
256,192,30089,1,0,0:0:0:0:
256,192,30169,1,0,0:0:0:0:
256,192,30330,1,8,0:0:0:0:
256,192,30492,1,0,0:0:0:0:
256,192,30653,1,8,0:0:0:0:
256,192,30734,1,8,0:0:0:0:
256,192,30814,1,8,0:0:0:0:
256,192,30976,1,0,0:0:0:0:
256,192,31137,1,8,0:0:0:0:
256,192,32427,1,4,0:0:0:0:
256,192,32750,1,8,0:0:0:0:
256,192,32911,1,8,0:0:0:0:
256,192,33072,1,0,0:0:0:0:
256,192,33234,1,0,0:0:0:0:
256,192,33395,1,8,0:0:0:0:
256,192,33718,1,8,0:0:0:0:
256,192,33879,1,8,0:0:0:0:
256,192,33959,1,8,0:0:0:0:
256,192,34040,1,8,0:0:0:0:
256,192,34201,1,0,0:0:0:0:
256,192,34363,1,8,0:0:0:0:
256,192,34685,1,0,0:0:0:0:
256,192,34847,1,0,0:0:0:0:
256,192,35008,1,8,0:0:0:0:
256,192,35492,1,8,0:0:0:0:
256,192,35653,1,0,0:0:0:0:
256,192,35814,1,8,0:0:0:0:
256,192,35976,1,0,0:0:0:0:
256,192,36137,1,8,0:0:0:0:
256,192,36298,1,0,0:0:0:0:
256,192,36621,1,8,0:0:0:0:
256,192,36782,1,8,0:0:0:0:
256,192,36943,1,0,0:0:0:0:
256,192,37024,1,0,0:0:0:0:
256,192,37105,1,0,0:0:0:0:
256,192,37266,1,8,0:0:0:0:
256,192,37589,1,4,0:0:0:0:
256,192,37911,1,8,0:0:0:0:
256,192,38072,1,8,0:0:0:0:
256,192,38234,1,8,0:0:0:0:
256,192,38395,1,0,0:0:0:0:
256,192,38556,1,8,0:0:0:0:
256,192,38879,1,8,0:0:0:0:
256,192,39040,1,8,0:0:0:0:
256,192,39121,1,8,0:0:0:0:
256,192,39201,1,8,0:0:0:0:
256,192,39363,1,0,0:0:0:0:
256,192,39524,1,8,0:0:0:0:
256,192,39847,1,8,0:0:0:0:
256,192,40008,1,8,0:0:0:0:
256,192,40169,1,0,0:0:0:0:
256,192,40492,1,8,0:0:0:0:
256,192,40814,1,8,0:0:0:0:
256,192,41137,1,8,0:0:0:0:
256,192,41459,1,8,0:0:0:0:
256,192,41621,1,8,0:0:0:0:
256,192,41701,1,8,0:0:0:0:
256,192,41782,1,8,0:0:0:0:
256,192,41943,1,0,0:0:0:0:
256,192,42105,1,8,0:0:0:0:
256,192,42266,1,8,0:0:0:0:
256,192,42427,1,0,0:0:0:0:
256,192,42750,1,4,0:0:0:0:
256,192,43072,1,8,0:0:0:0:
256,192,43234,1,8,0:0:0:0:
256,192,43395,1,0,0:0:0:0:
256,192,43556,1,0,0:0:0:0:
256,192,43718,1,8,0:0:0:0:
256,192,44040,1,8,0:0:0:0:
256,192,44201,1,8,0:0:0:0:
256,192,44282,1,8,0:0:0:0:
256,192,44363,1,8,0:0:0:0:
256,192,44524,1,0,0:0:0:0:
256,192,44685,1,8,0:0:0:0:
256,192,45008,1,0,0:0:0:0:
256,192,45169,1,0,0:0:0:0:
256,192,45330,1,8,0:0:0:0:
256,192,45814,1,8,0:0:0:0:
256,192,45976,1,0,0:0:0:0:
256,192,46137,1,8,0:0:0:0:
256,192,46298,1,0,0:0:0:0:
256,192,46459,1,8,0:0:0:0:
256,192,46621,1,0,0:0:0:0:
256,192,46782,1,8,0:0:0:0:
256,192,46863,1,8,0:0:0:0:
256,192,46943,1,8,0:0:0:0:
256,192,47105,1,0,0:0:0:0:
256,192,47185,1,0,0:0:0:0:
256,192,47266,1,0,0:0:0:0:
256,192,47427,1,8,0:0:0:0:
256,192,47589,1,0,0:0:0:0:
256,192,47911,1,4,0:0:0:0:
256,192,48234,1,8,0:0:0:0:
256,192,48395,1,8,0:0:0:0:
256,192,48556,1,0,0:0:0:0:
256,192,48879,1,8,0:0:0:0:
256,192,49040,1,8,0:0:0:0:
256,192,49201,1,0,0:0:0:0:
256,192,49363,1,0,0:0:0:0:
256,192,49524,1,8,0:0:0:0:
256,192,49847,1,8,0:0:0:0:
256,192,50008,1,0,0:0:0:0:
256,192,50089,1,0,0:0:0:0:
256,192,50169,1,0,0:0:0:0:
256,192,50330,1,8,0:0:0:0:
256,192,50411,1,8,0:0:0:0:
256,192,50492,1,8,0:0:0:0:
256,192,50653,1,0,0:0:0:0:
256,192,50814,1,8,0:0:0:0:
256,192,51137,1,8,0:0:0:0:
256,192,51459,1,8,0:0:0:0:
256,192,51782,1,8,0:0:0:0:
256,192,51943,1,8,0:0:0:0:
256,192,52024,1,8,0:0:0:0:
256,192,52105,1,8,0:0:0:0:
256,192,52266,1,0,0:0:0:0:
256,192,52427,1,8,0:0:0:0:
256,192,53072,1,8,0:0:0:0:
256,192,53395,1,8,0:0:0:0:
256,192,54363,1,0,0:0:0:0:
256,192,54685,1,0,0:0:0:0:
256,192,55330,1,0,0:0:0:0:
256,192,55411,1,0,0:0:0:0:
256,192,55492,1,0,0:0:0:0:
256,192,55653,1,8,0:0:0:0:
256,192,55976,1,8,0:0:0:0:
256,192,56621,1,8,0:0:0:0:
256,192,56943,1,0,0:0:0:0:
256,192,57266,1,0,0:0:0:0:
256,192,57911,1,0,0:0:0:0:
256,192,58072,1,0,0:0:0:0:
256,192,58234,1,8,0:0:0:0:
256,192,58556,1,8,0:0:0:0:
256,192,59524,1,0,0:0:0:0:
256,192,59847,1,0,0:0:0:0:
256,192,60492,1,0,0:0:0:0:
256,192,60572,1,0,0:0:0:0:
256,192,60653,1,0,0:0:0:0:
256,192,60814,1,8,0:0:0:0:
256,192,61137,1,0,0:0:0:0:
256,192,61782,1,8,0:0:0:0:
256,192,62105,1,8,0:0:0:0:
256,192,62427,1,0,0:0:0:0:
256,192,63072,1,0,0:0:0:0:
256,192,63234,1,0,0:0:0:0:
256,192,63395,1,8,0:0:0:0:
256,192,63718,1,8,0:0:0:0:
256,192,63879,1,8,0:0:0:0:
256,192,64040,1,0,0:0:0:0:
256,192,64201,1,8,0:0:0:0:
256,192,64363,1,0,0:0:0:0:
256,192,64524,1,0,0:0:0:0:
256,192,64685,1,8,0:0:0:0:
256,192,65008,1,0,0:0:0:0:
256,192,65330,1,8,0:0:0:0:
256,192,65492,1,8,0:0:0:0:
256,192,65653,1,0,0:0:0:0:
256,192,65814,1,0,0:0:0:0:
256,192,65976,1,8,0:0:0:0:
256,192,66298,1,8,0:0:0:0:
256,192,66459,1,0,0:0:0:0:
256,192,66621,1,8,0:0:0:0:
256,192,66782,1,8,0:0:0:0:
256,192,66943,1,0,0:0:0:0:
256,192,67105,1,0,0:0:0:0:
256,192,67266,1,8,0:0:0:0:
256,192,67589,1,8,0:0:0:0:
256,192,67750,1,0,0:0:0:0:
256,192,67911,1,8,0:0:0:0:
256,192,68072,1,8,0:0:0:0:
256,192,68234,1,0,0:0:0:0:
256,192,68556,1,8,0:0:0:0:
256,192,68879,1,8,0:0:0:0:
256,192,69040,1,8,0:0:0:0:
256,192,69201,1,0,0:0:0:0:
256,192,69363,1,0,0:0:0:0:
256,192,69524,1,8,0:0:0:0:
256,192,69685,1,8,0:0:0:0:
256,192,69847,1,0,0:0:0:0:
256,192,70169,1,0,0:0:0:0:
256,192,70330,1,8,0:0:0:0:
256,192,70492,1,0,0:0:0:0:
256,192,70653,1,0,0:0:0:0:
256,192,70814,1,8,0:0:0:0:
256,192,71137,1,8,0:0:0:0:
256,192,71459,1,8,0:0:0:0:
256,192,71621,1,0,0:0:0:0:
256,192,71782,1,8,0:0:0:0:
256,192,71943,1,8,0:0:0:0:
256,192,72105,1,0,0:0:0:0:
256,192,72266,1,0,0:0:0:0:
256,192,72427,1,8,0:0:0:0:
256,192,73718,1,12,0:0:0:0:
256,192,74201,1,8,0:0:0:0:
256,192,74363,1,0,0:0:0:0:
256,192,74524,1,0,0:0:0:0:
256,192,74685,1,8,0:0:0:0:
256,192,74847,1,0,0:0:0:0:
256,192,75008,1,8,0:0:0:0:
256,192,75492,1,8,0:0:0:0:
256,192,75976,1,8,0:0:0:0:
256,192,76298,1,0,0:0:0:0:
256,192,76943,1,8,0:0:0:0:
256,192,77185,1,8,0:0:0:0:
256,192,77427,1,8,0:0:0:0:
256,192,77589,1,0,0:0:0:0:
256,192,78072,1,8,0:0:0:0:
256,192,78556,1,8,0:0:0:0:
256,192,78718,1,0,0:0:0:0:
256,192,78879,1,8,0:0:0:0:
256,192,79524,1,8,0:0:0:0:
256,192,79685,1,0,0:0:0:0:
256,192,79847,1,8,0:0:0:0:
256,192,80008,1,8,0:0:0:0:
256,192,80169,1,0,0:0:0:0:
256,192,80653,1,8,0:0:0:0:
256,192,80976,1,0,0:0:0:0:
256,192,81137,1,8,0:0:0:0:
256,192,81298,1,0,0:0:0:0:
256,192,81459,1,8,0:0:0:0:
256,192,81943,1,0,0:0:0:0:
256,192,82427,1,8,0:0:0:0:
256,192,82750,1,8,0:0:0:0:
256,192,83072,1,0,0:0:0:0:
256,192,83234,1,0,0:0:0:0:
256,192,83395,1,8,0:0:0:0:
256,192,83718,1,8,0:0:0:0:
256,192,83879,1,8,0:0:0:0:
256,192,84040,1,8,0:0:0:0:
256,192,84363,1,8,0:0:0:0:
256,192,84685,1,0,0:0:0:0:
256,192,84847,1,0,0:0:0:0:
256,192,85008,1,8,0:0:0:0:
256,192,85169,1,0,0:0:0:0:
256,192,85330,1,0,0:0:0:0:
256,192,85492,1,8,0:0:0:0:
256,192,85814,1,0,0:0:0:0:
256,192,85976,1,8,0:0:0:0:
256,192,86298,1,8,0:0:0:0:
256,192,86459,1,8,0:0:0:0:
256,192,86621,1,8,0:0:0:0:
256,192,86782,1,0,0:0:0:0:
256,192,86943,1,0,0:0:0:0:
256,192,87105,1,8,0:0:0:0:
256,192,87427,1,0,0:0:0:0:
256,192,87589,1,8,0:0:0:0:
256,192,87911,1,8,0:0:0:0:
256,192,88072,1,0,0:0:0:0:
256,192,88556,1,8,0:0:0:0:
256,192,88718,1,8,0:0:0:0:
256,192,88879,1,0,0:0:0:0:
256,192,88959,1,0,0:0:0:0:
256,192,89040,1,0,0:0:0:0:
256,192,89201,1,8,0:0:0:0:
256,192,89524,1,0,0:0:0:0:
256,192,89685,1,0,0:0:0:0:
256,192,89847,1,8,0:0:0:0:
256,192,90169,1,8,0:0:0:0:
256,192,90330,1,0,0:0:0:0:
256,192,90411,1,0,0:0:0:0:
256,192,90492,1,0,0:0:0:0:
256,192,90653,1,8,0:0:0:0:
256,192,90814,1,0,0:0:0:0:
256,192,90976,1,0,0:0:0:0:
256,192,91137,1,8,0:0:0:0:
256,192,91459,1,8,0:0:0:0:
256,192,91621,1,0,0:0:0:0:
256,192,91782,1,8,0:0:0:0:
256,192,91863,1,8,0:0:0:0:
256,192,91943,1,8,0:0:0:0:
256,192,92105,1,0,0:0:0:0:
256,192,92266,1,8,0:0:0:0:
256,192,92427,2,0,L|320:192,8,38.576509056001
256,192,94363,1,12,0:0:0:0:
256,192,94685,1,0,0:0:0:0:
256,192,95008,1,0,0:0:0:0:
256,192,95169,1,8,0:0:0:0:
256,192,95250,1,8,0:0:0:0:
256,192,95330,1,8,0:0:0:0:
256,192,95492,1,0,0:0:0:0:
256,192,95653,1,8,0:0:0:0:
256,192,95976,1,0,0:0:0:0:
256,192,96137,1,8,0:0:0:0:
256,192,96621,1,8,0:0:0:0:
256,192,96782,1,8,0:0:0:0:
256,192,96863,1,8,0:0:0:0:
256,192,96943,1,8,0:0:0:0:
256,192,97266,1,8,0:0:0:0:
256,192,97589,1,8,0:0:0:0:
256,192,97750,1,0,0:0:0:0:
256,192,97911,1,8,0:0:0:0:
256,192,98234,1,8,0:0:0:0:
256,192,98395,1,0,0:0:0:0:
256,192,98476,1,0,0:0:0:0:
256,192,98556,1,0,0:0:0:0:
256,192,98718,1,8,0:0:0:0:
256,192,98879,1,0,0:0:0:0:
256,192,99040,1,8,0:0:0:0:
256,192,99121,1,8,0:0:0:0:
256,192,99201,1,8,0:0:0:0:
256,192,99363,1,0,0:0:0:0:
256,192,99524,1,8,0:0:0:0:
256,192,99847,1,8,0:0:0:0:
256,192,100008,1,8,0:0:0:0:
256,192,100492,1,0,0:0:0:0:
256,192,100653,1,8,0:0:0:0:
256,192,100734,1,8,0:0:0:0:
256,192,100814,1,8,0:0:0:0:
256,192,100976,1,0,0:0:0:0:
256,192,101137,1,8,0:0:0:0:
256,192,101459,1,0,0:0:0:0:
256,192,101782,1,8,0:0:0:0:
256,192,102105,1,8,0:0:0:0:
256,192,102320,1,0,0:0:0:0:
256,192,102427,1,0,0:0:0:0:
256,192,102642,1,8,0:0:0:0:
256,192,102750,1,8,0:0:0:0:
256,192,103072,1,8,0:0:0:0:
256,192,103395,1,8,0:0:0:0:
256,192,103556,1,0,0:0:0:0:
256,192,103637,1,0,0:0:0:0:
256,192,103718,1,0,0:0:0:0:
256,192,103879,1,8,0:0:0:0:
256,192,104040,1,0,0:0:0:0:
256,192,104201,1,8,0:0:0:0:
256,192,104282,1,8,0:0:0:0:
256,192,104363,1,8,0:0:0:0:
256,192,104524,1,0,0:0:0:0:
256,192,104685,1,8,0:0:0:0:
256,192,105008,1,8,0:0:0:0:
256,192,105330,1,0,0:0:0:0:
256,192,105653,1,8,0:0:0:0:
256,192,105814,1,0,0:0:0:0:
256,192,105976,1,8,0:0:0:0:
256,192,106137,1,0,0:0:0:0:
256,192,106218,1,0,0:0:0:0:
256,192,106298,1,0,0:0:0:0:
256,192,106459,1,8,0:0:0:0:
256,192,106943,1,8,0:0:0:0:
256,192,107105,1,8,0:0:0:0:
256,192,107266,1,0,0:0:0:0:
256,192,107589,1,8,0:0:0:0:
256,192,107911,1,8,0:0:0:0:
256,192,108072,1,0,0:0:0:0:
256,192,108234,1,8,0:0:0:0:
256,192,108556,1,8,0:0:0:0:
256,192,108718,1,0,0:0:0:0:
256,192,108798,1,0,0:0:0:0:
256,192,108879,1,0,0:0:0:0:
256,192,109040,1,8,0:0:0:0:
256,192,109201,1,0,0:0:0:0:
256,192,109363,1,8,0:0:0:0:
256,192,109443,1,8,0:0:0:0:
256,192,109524,1,8,0:0:0:0:
256,192,109685,1,0,0:0:0:0:
256,192,109847,1,8,0:0:0:0:
256,192,110169,1,0,0:0:0:0:
256,192,110330,1,8,0:0:0:0:
256,192,110814,1,8,0:0:0:0:
256,192,110976,1,0,0:0:0:0:
256,192,111137,1,8,0:0:0:0:
256,192,111459,1,0,0:0:0:0:
256,192,111782,1,8,0:0:0:0:
256,192,111943,1,8,0:0:0:0:
256,192,112024,1,8,0:0:0:0:
256,192,112105,1,8,0:0:0:0:
256,192,112266,1,0,0:0:0:0:
256,192,112427,1,12,0:0:0:0:
256,192,112750,1,8,0:0:0:0:
256,192,113072,1,0,0:0:0:0:
256,192,113234,1,0,0:0:0:0:
256,192,113395,1,8,0:0:0:0:
256,192,113556,1,0,0:0:0:0:
256,192,113718,1,8,0:0:0:0:
256,192,114040,1,0,0:0:0:0:
256,192,114201,1,8,0:0:0:0:
256,192,114282,1,8,0:0:0:0:
256,192,114363,1,8,0:0:0:0:
256,192,114524,1,0,0:0:0:0:
256,192,114605,1,0,0:0:0:0:
256,192,114685,1,0,0:0:0:0:
256,192,114847,1,8,0:0:0:0:
256,192,115008,1,8,0:0:0:0:
256,192,115330,1,0,0:0:0:0:
256,192,115653,1,8,0:0:0:0:
256,192,115976,1,8,0:0:0:0:
256,192,116137,1,0,0:0:0:0:
256,192,116298,1,8,0:0:0:0:
256,192,116459,1,0,0:0:0:0:
256,192,116540,1,0,0:0:0:0:
256,192,116621,1,0,0:0:0:0:
256,192,116782,1,8,0:0:0:0:
256,192,116943,1,0,0:0:0:0:
256,192,117105,1,8,0:0:0:0:
256,192,117185,1,8,0:0:0:0:
256,192,117266,1,8,0:0:0:0:
256,192,117427,1,0,0:0:0:0:
256,192,117589,1,8,0:0:0:0:
256,192,117911,1,8,0:0:0:0:
256,192,118234,1,0,0:0:0:0:
256,192,118395,1,0,0:0:0:0:
256,192,118556,1,8,0:0:0:0:
256,192,118879,1,8,0:0:0:0:
256,192,118959,1,8,0:0:0:0:
256,192,119040,1,8,0:0:0:0:
256,192,119201,1,0,0:0:0:0:
256,192,119363,1,8,0:0:0:0:
256,192,119524,1,0,0:0:0:0:
256,192,119605,1,0,0:0:0:0:
256,192,119685,1,0,0:0:0:0:
256,192,119847,1,8,0:0:0:0:
256,192,120008,1,8,0:0:0:0:
256,192,120169,1,0,0:0:0:0:
256,192,120492,1,8,0:0:0:0:
256,192,120814,1,8,0:0:0:0:
256,192,121137,1,0,0:0:0:0:
256,192,121298,1,0,0:0:0:0:
256,192,121459,1,8,0:0:0:0:
256,192,121621,1,0,0:0:0:0:
256,192,121701,1,0,0:0:0:0:
256,192,121782,1,0,0:0:0:0:
256,192,121943,1,8,0:0:0:0:
256,192,122105,1,0,0:0:0:0:
256,192,122266,1,8,0:0:0:0:
256,192,122347,1,8,0:0:0:0:
256,192,122427,1,8,0:0:0:0:
256,192,122589,1,0,0:0:0:0:
256,192,122750,1,8,0:0:0:0:
256,192,122911,1,8,0:0:0:0:
256,192,123072,1,8,0:0:0:0:
256,192,123395,1,0,0:0:0:0:
256,192,123718,1,8,0:0:0:0:
256,192,123879,1,8,0:0:0:0:
256,192,123959,1,8,0:0:0:0:
256,192,124040,1,8,0:0:0:0:
256,192,124201,1,0,0:0:0:0:
256,192,124363,1,8,0:0:0:0:
256,192,124524,1,0,0:0:0:0:
256,192,124605,1,0,0:0:0:0:
256,192,124685,1,0,0:0:0:0:
256,192,124847,1,0,0:0:0:0:
256,192,125008,1,8,0:0:0:0:
256,192,125169,1,8,0:0:0:0:
256,192,125330,1,0,0:0:0:0:
256,192,125653,1,0,0:0:0:0:
256,192,125976,1,8,0:0:0:0:
256,192,126298,1,8,0:0:0:0:
256,192,126459,1,0,0:0:0:0:
256,192,126621,1,8,0:0:0:0:
256,192,126782,1,0,0:0:0:0:
256,192,126863,1,0,0:0:0:0:
256,192,126943,1,0,0:0:0:0:
256,192,127105,1,8,0:0:0:0:
256,192,127266,1,0,0:0:0:0:
256,192,127427,1,8,0:0:0:0:
256,192,127508,1,8,0:0:0:0:
256,192,127589,1,8,0:0:0:0:
256,192,127750,1,0,0:0:0:0:
256,192,127911,1,8,0:0:0:0:
256,192,128072,1,8,0:0:0:0:
256,192,128234,1,8,0:0:0:0:
256,192,128556,1,8,0:0:0:0:
256,192,128879,1,0,0:0:0:0:
256,192,129201,1,8,0:0:0:0:
256,192,129363,1,8,0:0:0:0:
256,192,129524,1,8,0:0:0:0:
256,192,129847,1,8,0:0:0:0:
256,192,130008,1,0,0:0:0:0:
256,192,130089,1,0,0:0:0:0:
256,192,130169,1,0,0:0:0:0:
256,192,130330,1,8,0:0:0:0:
256,192,130411,1,8,0:0:0:0:
256,192,130492,1,8,0:0:0:0:
256,192,130653,1,0,0:0:0:0:
256,192,130814,1,8,0:0:0:0:
256,192,131137,1,8,0:0:0:0:
256,192,131459,1,0,0:0:0:0:
256,192,131782,1,8,0:0:0:0:
256,192,131943,1,0,0:0:0:0:
256,192,132024,1,0,0:0:0:0:
256,192,132105,1,0,0:0:0:0:
256,192,132266,1,8,0:0:0:0:
256,192,132347,1,8,0:0:0:0:
256,192,132427,1,8,0:0:0:0:
256,192,132589,1,0,0:0:0:0:
256,192,132750,1,8,0:0:0:0:
256,192,133072,1,12,0:0:0:0:
