osu file format v14

[General]
AudioFilename: audio.mp3
AudioLeadIn: 0
PreviewTime: 93637
Countdown: 0
SampleSet: Normal
StackLeniency: 0.7
Mode: 1
LetterboxInBreaks: 0
WidescreenStoryboard: 1

[Editor]
Bookmarks: 1460,11782,22105,27266,32427,53072,63395,73718,84040,94363,133072
DistanceSpacing: 1.7
BeatDivisor: 2
GridSize: 32
TimelineZoom: 2.5

[Metadata]
Title:Cthulhu
TitleUnicode:C†hulhu
Artist:Raimukun
ArtistUnicode:Raimukun
Creator:KyeX
Version:Futsuu
Source:
Tags:electronic instrumental hardcore Hard Baroque fa o!tfac #2 o!tfac#2 osu!taiko featured artist cup: 2nd second edition first 1st place winner mappers mappers' guild mpg mg
BeatmapID:3722654
BeatmapSetID:1814085

[Difficulty]
HPDrainRate:7
CircleSize:3
OverallDifficulty:4
ApproachRate:10
SliderMultiplier:1.4
SliderTickRate:1

[Events]
//Background and Video events
0,0,"aaaaaa.jpg",0,0
//Break Periods
//Storyboard Layer 0 (Background)
//Storyboard Layer 1 (Fail)
//Storyboard Layer 2 (Pass)
//Storyboard Layer 3 (Foreground)
//Storyboard Layer 4 (Overlay)
//Storyboard Sound Samples

[TimingPoints]
814,322.58064516129,4,1,0,10,1,8
1460,322.58064516129,4,1,0,80,1,0
1460,-125,4,1,0,80,0,0
11459,-125,4,1,0,80,0,0
11621,-121.200750469043,4,1,0,80,0,0
11782,-117.647058823529,4,1,0,80,0,0
11943,-117.647058823529,4,1,0,85,0,0
22105,-111.111111111111,4,1,0,85,0,0
27266,-111.111111111111,4,1,0,90,0,0
32427,-100,4,1,0,100,0,1
52427,-100,4,1,0,100,0,0
52750,-125,4,1,0,85,0,0
63072,-125,4,1,0,85,0,0
63234,-121.200750469043,4,1,0,85,0,0
63395,-117.647058823529,4,1,0,90,0,0
73718,-111.111111111111,4,1,0,85,0,0
89201,-111.111111111111,4,1,0,90,0,0
94363,-100,4,1,0,100,0,1
133072,-100,4,1,0,100,0,0

[HitObjects]
256,192,1460,5,12,0:0:0:0:
256,192,2750,1,0,0:0:0:0:
256,192,3072,1,0,0:0:0:0:
256,192,3718,1,0,0:0:0:0:
256,192,3879,1,0,0:0:0:0:
256,192,4040,1,8,0:0:0:0:
256,192,5008,1,8,0:0:0:0:
256,192,5330,1,0,0:0:0:0:
256,192,5653,1,0,0:0:0:0:
256,192,6298,1,0,0:0:0:0:
256,192,6621,1,8,0:0:0:0:
256,192,7911,1,0,0:0:0:0:
256,192,8234,1,0,0:0:0:0:
256,192,8879,1,0,0:0:0:0:
256,192,9040,1,0,0:0:0:0:
256,192,9201,1,8,0:0:0:0:
256,192,10169,1,8,0:0:0:0:
256,192,10492,1,0,0:0:0:0:
256,192,10814,1,8,0:0:0:0:
256,192,11459,1,0,0:0:0:0:
256,192,11782,1,8,0:0:0:0:
256,192,12105,1,8,0:0:0:0:
224,192,12266,1,0,0:0:0:0:
256,192,12589,1,0,0:0:0:0:
256,192,12750,1,8,0:0:0:0:
256,192,13072,1,0,0:0:0:0:
256,192,13234,1,8,0:0:0:0:
256,192,13395,1,0,0:0:0:0:
256,192,13718,1,8,0:0:0:0:
256,192,14363,1,8,0:0:0:0:
256,192,14685,1,0,0:0:0:0:
256,192,14847,1,8,0:0:0:0:
256,192,15169,1,8,0:0:0:0:
256,192,15330,1,0,0:0:0:0:
256,192,15653,1,8,0:0:0:0:
256,192,15814,1,8,0:0:0:0:
256,192,15976,1,0,0:0:0:0:
256,192,16298,1,8,0:0:0:0:
256,192,16943,1,8,0:0:0:0:
256,192,17266,1,8,0:0:0:0:
256,192,17427,1,0,0:0:0:0:
256,192,17750,1,0,0:0:0:0:
256,192,17911,1,8,0:0:0:0:
256,192,18234,1,0,0:0:0:0:
256,192,18395,1,8,0:0:0:0:
256,192,18556,1,0,0:0:0:0:
256,192,18879,1,8,0:0:0:0:
256,192,19201,1,8,0:0:0:0:
256,192,19524,1,0,0:0:0:0:
256,192,19847,1,8,0:0:0:0:
256,192,20008,1,0,0:0:0:0:
256,192,20330,1,0,0:0:0:0:
256,192,20492,1,8,0:0:0:0:
256,192,20814,1,0,0:0:0:0:
256,192,22105,1,12,0:0:0:0:
256,192,22750,1,8,0:0:0:0:
256,192,23072,1,0,0:0:0:0:
256,192,23395,1,0,0:0:0:0:
256,192,23556,1,0,0:0:0:0:
256,192,23718,1,8,0:0:0:0:
256,192,24040,1,8,0:0:0:0:
256,192,24363,1,8,0:0:0:0:
256,192,24524,1,8,0:0:0:0:
256,192,24685,1,0,0:0:0:0:
256,192,25008,1,0,0:0:0:0:
256,192,25330,1,8,0:0:0:0:
256,192,25653,1,0,0:0:0:0:
256,192,25814,1,8,0:0:0:0:
256,192,25976,1,0,0:0:0:0:
256,192,26298,1,0,0:0:0:0:
256,192,26621,1,8,0:0:0:0:
256,192,26943,1,8,0:0:0:0:
256,192,27105,1,8,0:0:0:0:
256,192,27266,1,0,0:0:0:0:
256,192,27589,1,8,0:0:0:0:
256,192,27911,1,0,0:0:0:0:
256,192,28556,1,8,0:0:0:0:
256,192,28879,1,0,0:0:0:0:
256,192,29201,1,8,0:0:0:0:
256,192,29847,1,8,0:0:0:0:
256,192,30169,1,0,0:0:0:0:
256,192,30492,1,8,0:0:0:0:
256,192,30653,1,8,0:0:0:0:
256,192,30814,1,0,0:0:0:0:
256,192,31137,1,8,0:0:0:0:
256,192,32427,1,4,0:0:0:0:
256,192,32750,1,8,0:0:0:0:
256,192,33072,1,0,0:0:0:0:
256,192,33234,1,0,0:0:0:0:
256,192,33395,1,8,0:0:0:0:
256,192,33718,1,8,0:0:0:0:
256,192,34040,1,8,0:0:0:0:
256,192,34201,1,0,0:0:0:0:
256,192,34363,1,8,0:0:0:0:
256,192,34685,1,0,0:0:0:0:
256,192,35008,1,8,0:0:0:0:
256,192,35653,1,0,0:0:0:0:
256,192,35814,1,8,0:0:0:0:
256,192,35976,1,0,0:0:0:0:
256,192,36298,1,0,0:0:0:0:
256,192,36621,1,8,0:0:0:0:
256,192,36782,1,8,0:0:0:0:
256,192,36943,1,0,0:0:0:0:
256,192,37105,1,0,0:0:0:0:
256,192,37266,1,8,0:0:0:0:
256,192,37589,1,4,0:0:0:0:
256,192,37911,1,8,0:0:0:0:
256,192,38234,1,8,0:0:0:0:
256,192,38395,1,0,0:0:0:0:
256,192,38556,1,8,0:0:0:0:
256,192,38879,1,8,0:0:0:0:
256,192,39201,1,0,0:0:0:0:
256,192,39524,1,8,0:0:0:0:
256,192,39847,1,8,0:0:0:0:
256,192,40008,1,8,0:0:0:0:
256,192,40169,1,0,0:0:0:0:
256,192,40814,1,8,0:0:0:0:
256,192,41137,1,8,0:0:0:0:
256,192,41459,1,8,0:0:0:0:
256,192,41621,1,0,0:0:0:0:
256,192,41782,1,8,0:0:0:0:
256,192,42105,1,8,0:0:0:0:
256,192,42266,1,8,0:0:0:0:
256,192,42427,1,0,0:0:0:0:
256,192,42750,1,4,0:0:0:0:
256,192,43072,1,8,0:0:0:0:
256,192,43395,1,0,0:0:0:0:
256,192,43556,1,0,0:0:0:0:
256,192,43718,1,8,0:0:0:0:
256,192,44040,1,8,0:0:0:0:
256,192,44363,1,8,0:0:0:0:
256,192,44524,1,0,0:0:0:0:
256,192,44685,1,8,0:0:0:0:
256,192,45008,1,0,0:0:0:0:
256,192,45330,1,8,0:0:0:0:
256,192,45976,1,0,0:0:0:0:
256,192,46137,1,8,0:0:0:0:
256,192,46298,1,0,0:0:0:0:
256,192,46621,1,0,0:0:0:0:
256,192,46943,1,8,0:0:0:0:
256,192,47105,1,8,0:0:0:0:
256,192,47266,1,0,0:0:0:0:
256,192,47589,1,8,0:0:0:0:
256,192,47911,1,4,0:0:0:0:
256,192,48234,1,8,0:0:0:0:
256,192,48556,1,0,0:0:0:0:
256,192,48879,1,8,0:0:0:0:
256,192,49040,1,8,0:0:0:0:
256,192,49201,1,0,0:0:0:0:
256,192,49524,1,8,0:0:0:0:
256,192,49847,1,8,0:0:0:0:
256,192,50008,1,8,0:0:0:0:
256,192,50169,1,8,0:0:0:0:
256,192,50492,1,8,0:0:0:0:
256,192,51137,1,8,0:0:0:0:
256,192,51459,1,8,0:0:0:0:
256,192,51782,1,8,0:0:0:0:
256,192,51943,1,8,0:0:0:0:
256,192,52105,1,0,0:0:0:0:
256,192,52266,1,0,0:0:0:0:
256,192,52427,1,8,0:0:0:0:
256,192,53072,1,8,0:0:0:0:
256,192,53395,1,8,0:0:0:0:
256,192,54363,1,0,0:0:0:0:
256,192,54685,1,0,0:0:0:0:
256,192,55330,1,0,0:0:0:0:
256,192,55492,1,0,0:0:0:0:
256,192,55653,1,8,0:0:0:0:
256,192,55976,1,8,0:0:0:0:
256,192,56621,1,8,0:0:0:0:
256,192,56943,1,0,0:0:0:0:
256,192,57266,1,0,0:0:0:0:
256,192,57911,1,0,0:0:0:0:
256,192,58234,1,8,0:0:0:0:
256,192,58556,1,8,0:0:0:0:
256,192,59524,1,0,0:0:0:0:
256,192,59847,1,0,0:0:0:0:
256,192,60492,1,0,0:0:0:0:
256,192,60653,1,0,0:0:0:0:
256,192,60814,1,8,0:0:0:0:
256,192,61137,1,0,0:0:0:0:
256,192,61782,1,8,0:0:0:0:
256,192,62105,1,8,0:0:0:0:
256,192,62427,1,0,0:0:0:0:
256,192,63072,1,0,0:0:0:0:
256,192,63395,1,8,0:0:0:0:
256,192,64040,1,8,0:0:0:0:
256,192,64363,1,8,0:0:0:0:
256,192,64524,1,8,0:0:0:0:
256,192,64685,1,0,0:0:0:0:
256,192,65008,1,0,0:0:0:0:
256,192,65330,1,8,0:0:0:0:
256,192,65492,1,8,0:0:0:0:
256,192,65653,1,0,0:0:0:0:
256,192,65814,1,0,0:0:0:0:
256,192,65976,1,8,0:0:0:0:
256,192,66298,1,0,0:0:0:0:
256,192,66943,1,8,0:0:0:0:
256,192,67105,1,8,0:0:0:0:
256,192,67266,1,0,0:0:0:0:
256,192,67589,1,8,0:0:0:0:
256,192,67911,1,0,0:0:0:0:
256,192,68072,1,0,0:0:0:0:
256,192,68234,1,8,0:0:0:0:
256,192,68556,1,8,0:0:0:0:
256,192,68879,1,0,0:0:0:0:
256,192,69524,1,8,0:0:0:0:
256,192,69847,1,0,0:0:0:0:
256,192,70169,1,8,0:0:0:0:
256,192,70330,1,8,0:0:0:0:
256,192,70492,1,0,0:0:0:0:
256,192,70653,1,0,0:0:0:0:
256,192,70814,1,8,0:0:0:0:
256,192,71137,1,8,0:0:0:0:
256,192,71459,1,0,0:0:0:0:
256,192,71782,1,8,0:0:0:0:
256,192,72105,1,0,0:0:0:0:
256,192,72266,1,0,0:0:0:0:
256,192,72427,1,8,0:0:0:0:
256,192,73718,1,12,0:0:0:0:
256,192,74363,1,0,0:0:0:0:
256,192,74524,1,0,0:0:0:0:
256,192,74685,1,8,0:0:0:0:
256,192,75008,1,8,0:0:0:0:
256,192,75492,1,0,0:0:0:0:
256,192,75976,1,8,0:0:0:0:
256,192,76298,1,0,0:0:0:0:
256,192,76943,1,8,0:0:0:0:
256,192,77427,1,8,0:0:0:0:
256,192,77589,1,0,0:0:0:0:
256,192,78072,1,8,0:0:0:0:
256,192,78556,1,8,0:0:0:0:
256,192,78718,1,0,0:0:0:0:
256,192,78879,1,8,0:0:0:0:
256,192,79524,1,0,0:0:0:0:
256,192,79847,1,8,0:0:0:0:
256,192,80008,1,8,0:0:0:0:
256,192,80169,1,0,0:0:0:0:
256,192,80653,1,8,0:0:0:0:
256,192,80976,1,0,0:0:0:0:
256,192,81137,1,8,0:0:0:0:
256,192,81459,1,8,0:0:0:0:
256,192,81943,1,0,0:0:0:0:
256,192,82427,1,8,0:0:0:0:
256,192,82750,1,0,0:0:0:0:
256,192,83395,1,8,0:0:0:0:
256,192,83718,1,8,0:0:0:0:
256,192,83879,1,8,0:0:0:0:
256,192,84040,1,8,0:0:0:0:
256,192,84363,1,8,0:0:0:0:
256,192,84685,1,0,0:0:0:0:
256,192,85008,1,8,0:0:0:0:
256,192,85169,1,0,0:0:0:0:
256,192,85492,1,8,0:0:0:0:
256,192,85976,1,0,0:0:0:0:
256,192,86298,1,8,0:0:0:0:
256,192,86459,1,8,0:0:0:0:
256,192,86621,1,8,0:0:0:0:
256,192,86943,1,0,0:0:0:0:
256,192,87105,1,8,0:0:0:0:
256,192,87589,1,8,0:0:0:0:
256,192,87911,1,8,0:0:0:0:
256,192,88072,1,0,0:0:0:0:
256,192,88556,1,8,0:0:0:0:
256,192,88879,1,0,0:0:0:0:
256,192,89201,1,8,0:0:0:0:
256,192,89847,1,8,0:0:0:0:
256,192,90169,1,8,0:0:0:0:
256,192,90330,1,8,0:0:0:0:
256,192,90492,1,0,0:0:0:0:
256,192,90814,1,0,0:0:0:0:
256,192,91137,1,8,0:0:0:0:
256,192,91459,1,8,0:0:0:0:
256,192,91782,1,8,0:0:0:0:
256,192,91943,1,8,0:0:0:0:
256,192,92105,1,0,0:0:0:0:
256,192,92266,1,0,0:0:0:0:
256,192,92427,2,0,L|288:192,8,31.4999990386963
256,192,94363,1,12,0:0:0:0:
256,192,95008,1,0,0:0:0:0:
256,192,95169,1,0,0:0:0:0:
256,192,95330,1,8,0:0:0:0:
256,192,95492,1,0,0:0:0:0:
256,192,95653,1,8,0:0:0:0:
256,192,96137,1,8,0:0:0:0:
256,192,96621,1,0,0:0:0:0:
256,192,96782,1,0,0:0:0:0:
256,192,96943,1,8,0:0:0:0:
256,192,97589,1,8,0:0:0:0:
256,192,97911,1,0,0:0:0:0:
256,192,98234,1,0,0:0:0:0:
256,192,98395,1,8,0:0:0:0:
256,192,98556,1,8,0:0:0:0:
256,192,98879,1,0,0:0:0:0:
256,192,99040,1,8,0:0:0:0:
256,192,99201,1,8,0:0:0:0:
256,192,99363,1,0,0:0:0:0:
256,192,99524,1,8,0:0:0:0:
256,192,99847,1,8,0:0:0:0:
256,192,100492,1,8,0:0:0:0:
256,192,100653,1,8,0:0:0:0:
256,192,100814,1,0,0:0:0:0:
256,192,100976,1,0,0:0:0:0:
256,192,101137,1,8,0:0:0:0:
256,192,101459,1,0,0:0:0:0:
256,192,102105,1,8,0:0:0:0:
256,192,102427,1,0,0:0:0:0:
256,192,102750,1,8,0:0:0:0:
256,192,103072,1,8,0:0:0:0:
256,192,103395,1,0,0:0:0:0:
256,192,103556,1,8,0:0:0:0:
256,192,103718,1,8,0:0:0:0:
256,192,104040,1,0,0:0:0:0:
256,192,104201,1,8,0:0:0:0:
256,192,104363,1,8,0:0:0:0:
256,192,104524,1,0,0:0:0:0:
256,192,104685,1,8,0:0:0:0:
256,192,105330,1,0,0:0:0:0:
256,192,105492,1,8,0:0:0:0:
256,192,105653,1,0,0:0:0:0:
256,192,105814,1,0,0:0:0:0:
256,192,105976,1,8,0:0:0:0:
256,192,106459,1,8,0:0:0:0:
256,192,106943,1,8,0:0:0:0:
256,192,107105,1,8,0:0:0:0:
256,192,107266,1,0,0:0:0:0:
256,192,107911,1,8,0:0:0:0:
256,192,108234,1,8,0:0:0:0:
256,192,108556,1,0,0:0:0:0:
256,192,108718,1,8,0:0:0:0:
256,192,108879,1,8,0:0:0:0:
256,192,109201,1,0,0:0:0:0:
256,192,109363,1,8,0:0:0:0:
256,192,109524,1,8,0:0:0:0:
256,192,109685,1,0,0:0:0:0:
256,192,109847,1,8,0:0:0:0:
256,192,110169,1,0,0:0:0:0:
256,192,110814,1,8,0:0:0:0:
256,192,111137,1,0,0:0:0:0:
256,192,111782,1,8,0:0:0:0:
256,192,111943,1,8,0:0:0:0:
256,192,112105,1,0,0:0:0:0:
256,192,112427,1,12,0:0:0:0:
256,192,113072,1,8,0:0:0:0:
256,192,113234,1,8,0:0:0:0:
256,192,113395,1,0,0:0:0:0:
256,192,113718,1,8,0:0:0:0:
256,192,114040,1,0,0:0:0:0:
256,192,114201,1,8,0:0:0:0:
256,192,114363,1,8,0:0:0:0:
256,192,114685,1,8,0:0:0:0:
256,192,114847,1,0,0:0:0:0:
256,192,115008,1,8,0:0:0:0:
256,192,115653,1,8,0:0:0:0:
256,192,115976,1,0,0:0:0:0:
256,192,116298,1,0,0:0:0:0:
256,192,116459,1,8,0:0:0:0:
256,192,116621,1,8,0:0:0:0:
256,192,116943,1,0,0:0:0:0:
256,192,117105,1,8,0:0:0:0:
256,192,117266,1,8,0:0:0:0:
256,192,117427,1,0,0:0:0:0:
256,192,117589,1,8,0:0:0:0:
256,192,118234,1,0,0:0:0:0:
256,192,118556,1,8,0:0:0:0:
256,192,118879,1,8,0:0:0:0:
256,192,119040,1,8,0:0:0:0:
256,192,119201,1,0,0:0:0:0:
256,192,119363,1,0,0:0:0:0:
256,192,119524,1,8,0:0:0:0:
256,192,119847,1,8,0:0:0:0:
256,192,120008,1,8,0:0:0:0:
256,192,120169,1,0,0:0:0:0:
256,192,120492,1,0,0:0:0:0:
256,192,120814,1,0,0:0:0:0:
256,192,121137,1,8,0:0:0:0:
256,192,121459,1,0,0:0:0:0:
256,192,121621,1,8,0:0:0:0:
256,192,121782,1,8,0:0:0:0:
256,192,122105,1,0,0:0:0:0:
256,192,122266,1,8,0:0:0:0:
256,192,122427,1,8,0:0:0:0:
256,192,122589,1,0,0:0:0:0:
256,192,122750,1,8,0:0:0:0:
256,192,123395,1,0,0:0:0:0:
256,192,123718,1,8,0:0:0:0:
256,192,124040,1,8,0:0:0:0:
256,192,124201,1,0,0:0:0:0:
256,192,124363,1,8,0:0:0:0:
256,192,124685,1,0,0:0:0:0:
256,192,125008,1,8,0:0:0:0:
256,192,125169,1,8,0:0:0:0:
256,192,125330,1,0,0:0:0:0:
256,192,125976,1,8,0:0:0:0:
256,192,126298,1,0,0:0:0:0:
256,192,126621,1,8,0:0:0:0:
256,192,126782,1,8,0:0:0:0:
256,192,126943,1,8,0:0:0:0:
256,192,127266,1,8,0:0:0:0:
256,192,127427,1,8,0:0:0:0:
256,192,127589,1,8,0:0:0:0:
256,192,127750,1,0,0:0:0:0:
256,192,127911,1,8,0:0:0:0:
256,192,128234,1,8,0:0:0:0:
256,192,128556,1,8,0:0:0:0:
256,192,128879,1,0,0:0:0:0:
256,192,129201,1,8,0:0:0:0:
256,192,129363,1,8,0:0:0:0:
256,192,129524,1,8,0:0:0:0:
256,192,129847,1,0,0:0:0:0:
256,192,130008,1,8,0:0:0:0:
256,192,130169,1,8,0:0:0:0:
256,192,130330,1,0,0:0:0:0:
256,192,130492,1,8,0:0:0:0:
256,192,130814,1,8,0:0:0:0:
256,192,131137,1,8,0:0:0:0:
256,192,131459,1,0,0:0:0:0:
256,192,131782,1,0,0:0:0:0:
256,192,131943,1,8,0:0:0:0:
256,192,132105,1,8,0:0:0:0:
256,192,132427,1,8,0:0:0:0:
256,192,132589,1,0,0:0:0:0:
256,192,132750,1,8,0:0:0:0:
256,192,133072,1,12,0:0:0:0:
