osu file format v14

[General]
AudioFilename: Mami Kawada - Wings of Courage -Sora o Koete-.mp3
AudioLeadIn: 0
PreviewTime: 79980
Countdown: 0
SampleSet: Soft
StackLeniency: 0.7
Mode: 3
LetterboxInBreaks: 0
SpecialStyle: 0
WidescreenStoryboard: 1
SamplesMatchPlaybackRate: 1

[Editor]
Bookmarks: 11824,17824,29824,41824,65824,80824,104824,128824
DistanceSpacing: 1.1
BeatDivisor: 4
GridSize: 8
TimelineZoom: 1.8

[Metadata]
Title:Long Note Practice Pack
TitleUnicode:Long Note Practice Pack
Artist:Raika
ArtistUnicode:Raika
Creator:LordRaika
Version:Level(5)7K
Source:
Tags:LN inverse shield ~~ !! @@ ## $$ ^^ && ** Mami Kawada Portamento All In Good Time Silent Siren Yumeoi ユメオイ ELISA Shining Wind Hinatsu Unravel (remix) Wings of Courage -Sora o Koete- ice Theme of Tomoe Mami Zedd ft. Matthew Koma Spectrum (Razihel Remix) Manami Watanabe Toki wo Kizamu Uta Amber Wishes
BeatmapID:811898
BeatmapSetID:329814

[Difficulty]
HPDrainRate:9
CircleSize:7
OverallDifficulty:7
ApproachRate:5
SliderMultiplier:1
SliderTickRate:1

[Events]
//Background and Video events
0,0,"Mami Kawada - Wings of Courage -Sora o Koete-.jpg",0,0
//Break Periods
//Storyboard Layer 0 (Background)
//Storyboard Layer 1 (Fail)
//Storyboard Layer 2 (Pass)
//Storyboard Layer 3 (Foreground)
Sprite,Foreground,Centre,"Old Folder (998)\5.png",470,240 V,0,-15400,-15300,0.14,0.14,0.14,0.75 M,0,-15400,0,470,240 V,2,-15200,-14750,0.14,0.75,0.75,0.75 V,2,-13250,-12800,0.75,0.75,0.14,0.75 V,2,-12700,-12600,0.14,0.75,0.14,0.14 F,0,-12600,-12250,1,0 R,0,-12600,-12250,12.5665,0
//Storyboard Sound Samples

[TimingPoints]
11824,375,4,2,99,25,1,0
80824,-100,4,2,99,25,0,1
104824,-100,4,2,99,25,0,0
129199,-100,4,2,99,12,0,0

[HitObjects]
36,192,11824,128,0,11917:0:0:0:0:
475,192,11824,1,2,0:0:0:0:
109,192,12011,128,0,12105:0:0:0:0:
402,192,12011,1,0,0:0:0:0:
36,192,12199,128,0,12292:0:0:0:0:
475,192,12199,1,2,0:0:0:0:
182,192,12386,128,0,12480:0:0:0:0:
329,192,12386,1,0,0:0:0:0:
36,192,12574,128,0,12667:0:0:0:0:
475,192,12574,1,2,0:0:0:0:
256,192,12761,128,0,12855:0:0:0:0:
475,192,12949,1,2,0:0:0:0:
36,192,12949,128,0,13042:0:0:0:0:
182,192,13136,1,0,0:0:0:0:
329,192,13136,128,0,13230:0:0:0:0:
475,192,13324,1,2,0:0:0:0:
36,192,13324,128,0,13417:0:0:0:0:
109,192,13511,1,0,0:0:0:0:
402,192,13511,128,0,13605:0:0:0:0:
36,192,13699,1,0,0:0:0:0:
475,192,13699,128,2,13792:0:0:0:0:
182,192,13886,1,0,0:0:0:0:
329,192,13886,128,0,13980:0:0:0:0:
36,192,14074,1,0,0:0:0:0:
475,192,14074,128,2,14167:0:0:0:0:
256,192,14261,128,0,14355:0:0:0:0:
36,192,14449,1,0,0:0:0:0:
475,192,14449,128,2,14542:0:0:0:0:
329,192,14636,1,0,0:0:0:0:
182,192,14636,128,0,14730:0:0:0:0:
36,192,14824,1,0,0:0:0:0:
475,192,14824,128,2,14917:0:0:0:0:
402,192,15011,1,0,0:0:0:0:
109,192,15011,128,0,15105:0:0:0:0:
256,192,15199,1,0,0:0:0:0:
36,192,15199,128,0,15292:0:0:0:0:
475,192,15199,128,2,15292:0:0:0:0:
256,192,15386,1,0,0:0:0:0:
36,192,15386,128,0,15480:0:0:0:0:
475,192,15386,128,2,15480:0:0:0:0:
256,192,15761,1,0,0:0:0:0:
36,192,15761,1,0,0:0:0:0:
475,192,15761,1,2,0:0:0:0:
402,192,16136,128,2,16277:1:0:0:12:
329,192,16183,128,2,16324:1:0:0:12:
256,192,16230,128,2,16370:1:0:0:12:
182,192,16277,128,2,16417:1:0:0:12:
109,192,16324,128,2,16464:1:0:0:12:
475,192,16511,1,0,0:0:0:0:
402,192,16699,1,0,0:0:0:0:
329,192,16699,1,0,0:0:0:0:
182,192,16886,1,0,0:0:0:0:
256,192,17074,1,0,0:0:0:0:
36,192,17261,1,0,0:0:0:0:
475,192,17449,1,0,0:0:0:0:
109,192,17636,128,2,17777:1:0:0:12:
182,192,17683,128,2,17824:1:0:0:12:
256,192,17730,128,2,17870:1:0:0:12:
329,192,17777,128,2,17917:1:0:0:12:
475,192,17824,1,4,0:0:0:0:
402,192,17824,128,6,17964:1:0:0:12:
36,192,17824,1,0,0:0:0:0:
109,192,18011,128,0,18199:0:0:0:0:
475,192,18199,128,0,18386:0:0:0:0:
256,192,18199,1,8,1:0:0:45:
36,192,18199,1,0,0:0:0:0:
182,192,18386,128,0,18574:0:0:0:0:
329,192,18386,1,0,0:0:0:0:
402,192,18574,1,2,1:0:0:0:
329,192,18761,128,0,18949:0:0:0:0:
36,192,18761,1,0,0:0:0:0:
402,192,18949,1,8,1:0:0:45:
182,192,18949,1,0,0:0:0:0:
109,192,19136,128,0,19324:0:0:0:0:
475,192,19136,1,0,0:0:0:0:
256,192,19324,1,2,1:0:0:0:
329,192,19511,128,0,19699:0:0:0:0:
36,192,19511,1,0,0:0:0:0:
475,192,19699,1,8,1:0:0:45:
182,192,19699,1,0,0:0:0:0:
402,192,19886,128,0,20074:0:0:0:0:
109,192,19886,1,0,0:0:0:0:
36,192,20074,1,2,1:0:0:0:
182,192,20261,1,0,0:0:0:0:
329,192,20261,1,0,0:0:0:0:
329,192,20449,128,0,20636:0:0:0:0:
182,192,20449,128,0,20636:0:0:0:0:
109,192,20824,128,0,21011:0:0:0:0:
36,192,20824,1,2,1:0:0:0:
475,192,20824,1,0,0:0:0:0:
402,192,20824,1,0,0:0:0:0:
329,192,21011,128,0,21199:0:0:0:0:
182,192,21199,128,0,21386:0:0:0:0:
256,192,21199,1,8,1:0:0:45:
475,192,21199,1,0,0:0:0:0:
402,192,21386,128,0,21574:0:0:0:0:
36,192,21386,1,0,0:0:0:0:
329,192,21574,1,2,1:0:0:0:
109,192,21761,128,0,21949:0:0:0:0:
475,192,21761,1,0,0:0:0:0:
402,192,21949,1,8,1:0:0:45:
36,192,21949,1,0,0:0:0:0:
329,192,22136,128,0,22324:0:0:0:0:
182,192,22136,1,0,0:0:0:0:
256,192,22324,1,2,1:0:0:0:
402,192,22511,128,0,22699:0:0:0:0:
109,192,22511,1,0,0:0:0:0:
182,192,22699,128,0,22886:0:0:0:0:
256,192,22699,1,8,1:0:0:45:
475,192,22699,1,0,0:0:0:0:
329,192,22886,128,0,23074:0:0:0:0:
109,192,22886,1,0,0:0:0:0:
36,192,23074,1,2,1:0:0:0:
109,192,23261,128,0,23449:0:0:0:0:
475,192,23261,1,0,0:0:0:0:
402,192,23449,128,0,23636:0:0:0:0:
182,192,23449,1,8,1:0:0:45:
329,192,23449,1,0,0:0:0:0:
36,192,23824,1,2,1:0:0:0:
475,192,23824,128,0,24011:0:0:0:0:
256,192,23824,1,0,0:0:0:0:
182,192,23824,1,0,0:0:0:0:
109,192,23824,1,0,0:0:0:0:
329,192,24011,128,0,24199:0:0:0:0:
182,192,24199,1,8,1:0:0:45:
475,192,24199,128,0,24386:0:0:0:0:
256,192,24199,1,0,0:0:0:0:
329,192,24386,128,0,24574:0:0:0:0:
109,192,24386,1,0,0:0:0:0:
36,192,24574,1,2,1:0:0:0:
182,192,24761,128,0,24949:0:0:0:0:
475,192,24761,1,0,0:0:0:0:
109,192,24949,1,8,1:0:0:45:
329,192,24949,1,0,0:0:0:0:
402,192,25136,128,0,25324:0:0:0:0:
182,192,25136,1,0,0:0:0:0:
36,192,25324,1,2,1:0:0:0:
182,192,25511,128,0,25699:0:0:0:0:
329,192,25511,1,0,0:0:0:0:
475,192,25699,1,8,1:0:0:45:
256,192,25699,1,0,0:0:0:0:
402,192,25886,128,0,26074:0:0:0:0:
109,192,25886,1,0,0:0:0:0:
36,192,26074,1,2,1:0:0:0:
402,192,26261,1,0,0:0:0:0:
109,192,26261,1,0,0:0:0:0:
109,192,26449,128,0,26636:0:0:0:0:
402,192,26449,128,0,26636:0:0:0:0:
182,192,26824,1,2,1:0:0:0:
475,192,26824,128,0,27011:0:0:0:0:
36,192,27011,128,0,27199:0:0:0:0:
402,192,27199,128,8,27339:1:0:0:45:
329,192,27292,128,0,27433:1:0:0:99:
109,192,27386,128,0,27527:1:0:0:99:
182,192,27480,128,0,27620:1:0:0:99:
256,192,27574,1,2,1:0:0:0:
475,192,27761,128,0,27949:0:0:0:0:
109,192,27949,128,8,28089:1:0:0:45:
182,192,28042,128,0,28183:1:0:0:99:
402,192,28136,128,0,28277:1:0:0:99:
329,192,28230,128,0,28370:1:0:0:99:
256,192,28324,1,2,1:0:0:0:
475,192,28511,128,0,28699:0:0:0:0:
109,192,28699,128,8,28839:1:0:0:45:
182,192,28792,128,0,28933:1:0:0:99:
402,192,28886,128,0,29027:1:0:0:99:
329,192,28980,128,0,29120:1:0:0:99:
36,192,29074,128,2,29261:1:0:0:0:
475,192,29261,128,0,29449:0:0:0:0:
182,192,29261,1,8,1:0:0:45:
36,192,29449,128,0,29636:0:0:0:0:
329,192,29449,1,8,1:0:0:45:
475,192,29636,128,0,29824:0:0:0:0:
182,192,29636,1,8,1:0:0:45:
329,192,29824,5,4,0:0:0:0:
256,192,29824,1,4,0:0:0:0:
109,192,29824,128,2,29917:1:0:0:0:
402,192,30011,128,0,30105:0:0:0:0:
182,192,30011,1,0,0:0:0:0:
475,192,30199,128,8,30292:1:0:0:45:
36,192,30199,128,0,30292:0:0:0:0:
329,192,30199,1,0,0:0:0:0:
256,192,30386,128,0,30480:0:0:0:0:
182,192,30386,1,0,0:0:0:0:
109,192,30574,128,2,30667:1:0:0:0:
402,192,30761,128,0,30855:0:0:0:0:
36,192,30761,1,0,0:0:0:0:
329,192,30949,128,8,31042:1:0:0:45:
182,192,30949,128,0,31042:0:0:0:0:
36,192,31136,128,0,31230:0:0:0:0:
475,192,31136,1,0,0:0:0:0:
256,192,31324,128,2,31417:1:0:0:0:
109,192,31511,128,0,31605:0:0:0:0:
402,192,31511,1,0,0:0:0:0:
475,192,31699,128,8,31792:1:0:0:45:
182,192,31699,128,0,31792:0:0:0:0:
329,192,31886,128,0,31980:0:0:0:0:
109,192,32074,128,2,32167:1:0:0:0:
402,192,32261,128,0,32355:0:0:0:0:
182,192,32261,1,0,0:0:0:0:
36,192,32449,128,0,32542:0:0:0:0:
475,192,32449,128,8,32542:1:0:0:45:
182,192,32449,1,0,0:0:0:0:
256,192,32636,128,0,32730:0:0:0:0:
109,192,32824,128,2,32917:1:0:0:0:
475,192,32824,1,0,0:0:0:0:
402,192,32824,1,0,0:0:0:0:
256,192,33011,128,0,33105:0:0:0:0:
36,192,33011,1,0,0:0:0:0:
329,192,33199,128,8,33292:1:0:0:45:
109,192,33199,128,0,33292:0:0:0:0:
475,192,33199,1,0,0:0:0:0:
182,192,33386,128,0,33480:0:0:0:0:
36,192,33386,1,0,0:0:0:0:
402,192,33574,128,2,33667:1:0:0:0:
36,192,33761,128,0,33855:0:0:0:0:
256,192,33761,1,0,0:0:0:0:
475,192,33949,128,8,34042:1:0:0:45:
182,192,33949,128,0,34042:0:0:0:0:
329,192,34136,128,0,34230:0:0:0:0:
36,192,34136,1,0,0:0:0:0:
109,192,34324,128,2,34417:1:0:0:0:
256,192,34511,128,0,34605:0:0:0:0:
182,192,34511,1,0,0:0:0:0:
475,192,34699,128,8,34792:1:0:0:45:
36,192,34699,128,0,34792:0:0:0:0:
329,192,34699,1,0,0:0:0:0:
256,192,34886,128,0,34980:0:0:0:0:
109,192,34886,1,0,0:0:0:0:
182,192,35074,128,2,35167:1:0:0:0:
475,192,35261,128,0,35355:0:0:0:0:
36,192,35261,1,0,0:0:0:0:
109,192,35449,128,0,35542:0:0:0:0:
329,192,35449,128,8,35542:1:0:0:45:
256,192,35449,1,0,0:0:0:0:
475,192,35636,128,0,35730:0:0:0:0:
402,192,35824,128,2,35917:1:0:0:0:
109,192,35824,1,4,0:0:0:0:
36,192,35824,1,0,0:0:0:0:
182,192,35824,1,4,0:0:0:0:
256,192,36011,128,0,36105:0:0:0:0:
36,192,36011,1,0,0:0:0:0:
109,192,36199,128,0,36292:0:0:0:0:
329,192,36199,128,8,36292:1:0:0:45:
402,192,36199,1,0,0:0:0:0:
475,192,36386,128,0,36480:0:0:0:0:
182,192,36386,1,0,0:0:0:0:
109,192,36574,128,2,36667:1:0:0:0:
402,192,36761,128,0,36855:0:0:0:0:
182,192,36761,1,0,0:0:0:0:
36,192,36949,128,0,37042:0:0:0:0:
329,192,36949,128,8,37042:1:0:0:45:
475,192,37136,128,0,37230:0:0:0:0:
109,192,37136,1,0,0:0:0:0:
182,192,37136,1,0,0:0:0:0:
256,192,37324,128,2,37417:1:0:0:0:
36,192,37511,128,0,37605:0:0:0:0:
329,192,37511,1,0,0:0:0:0:
402,192,37699,128,8,37792:1:0:0:45:
182,192,37699,128,0,37792:0:0:0:0:
329,192,37886,128,0,37980:0:0:0:0:
109,192,37886,1,0,0:0:0:0:
182,192,38074,128,2,38167:1:0:0:0:
402,192,38261,128,0,38355:0:0:0:0:
109,192,38261,1,0,0:0:0:0:
475,192,38449,128,8,38542:1:0:0:45:
36,192,38449,128,0,38542:0:0:0:0:
256,192,38449,1,0,0:0:0:0:
182,192,38636,128,0,40324:0:0:0:0:
329,192,38636,128,0,40324:0:0:0:0:
256,192,39011,128,2,39105:1:0:0:0:
475,192,39199,128,8,39292:1:0:0:45:
36,192,39199,128,0,39292:0:0:0:0:
256,192,39574,128,2,39667:1:0:0:0:
256,192,39761,128,2,39855:1:0:0:0:
475,192,39949,128,8,40042:1:0:0:45:
36,192,39949,128,0,40042:0:0:0:0:
475,192,40511,128,2,40652:1:0:0:12:
329,192,40558,128,2,40699:1:0:0:12:
256,192,40605,128,2,40745:1:0:0:12:
182,192,40652,128,2,40792:1:0:0:12:
36,192,40699,128,2,40839:1:0:0:12:
402,192,40886,128,2,40980:1:0:0:0:
329,192,40886,128,0,40980:0:0:0:0:
402,192,41074,128,2,41167:1:0:0:0:
329,192,41074,128,0,41167:0:0:0:0:
402,192,41261,128,2,41355:1:0:0:0:
329,192,41261,128,0,41355:0:0:0:0:
36,192,41449,1,8,1:0:0:0:
109,192,41449,1,8,1:0:0:0:
182,192,41449,1,8,0:0:0:0:
256,192,41449,1,8,1:0:0:0:
475,192,41449,1,0,0:0:0:0:
36,192,41824,5,4,0:0:0:0:
329,192,41824,1,0,0:0:0:0:
182,192,41824,1,0,0:0:0:0:
475,192,41824,128,4,41917:0:0:0:0:
256,192,42011,128,0,42105:0:0:0:0:
475,192,42199,128,2,42292:1:0:0:0:
109,192,42199,128,0,42292:0:0:0:0:
329,192,42386,128,0,42480:0:0:0:0:
475,192,42574,128,2,42667:1:0:0:0:
182,192,42574,128,0,42667:0:0:0:0:
36,192,42761,128,0,42855:0:0:0:0:
475,192,42949,128,2,43042:1:0:0:0:
109,192,42949,128,0,43042:0:0:0:0:
256,192,43136,128,0,43230:0:0:0:0:
475,192,43324,128,2,43417:1:0:0:0:
182,192,43324,128,0,43417:0:0:0:0:
109,192,43511,128,0,43605:0:0:0:0:
475,192,43699,128,2,43792:1:0:0:0:
329,192,43699,128,0,43792:0:0:0:0:
109,192,43886,128,0,43980:0:0:0:0:
475,192,44074,128,2,44167:1:0:0:0:
256,192,44074,1,0,0:0:0:0:
36,192,44074,1,0,0:0:0:0:
109,192,44261,1,0,0:0:0:0:
329,192,44261,128,0,44355:0:0:0:0:
475,192,44449,128,2,44542:1:0:0:0:
182,192,44449,1,0,0:0:0:0:
36,192,44542,128,0,44636:0:0:0:0:
109,192,44636,1,0,0:0:0:0:
329,192,44636,128,2,44730:1:0:0:0:
475,192,44824,128,2,44917:1:0:0:0:
182,192,44824,128,0,44917:0:0:0:0:
256,192,45011,128,0,45105:0:0:0:0:
475,192,45199,128,2,45292:1:0:0:0:
182,192,45199,1,0,0:0:0:0:
36,192,45199,1,0,0:0:0:0:
329,192,45199,128,0,45292:0:0:0:0:
109,192,45386,128,0,45480:0:0:0:0:
475,192,45574,128,2,45667:1:0:0:0:
182,192,45574,128,0,45667:0:0:0:0:
329,192,45761,128,0,45855:0:0:0:0:
475,192,45949,128,2,46042:1:0:0:0:
109,192,45949,128,0,46042:0:0:0:0:
182,192,46136,128,0,46230:0:0:0:0:
329,192,46230,128,0,46324:0:0:0:0:
475,192,46324,128,2,46417:1:0:0:0:
36,192,46324,128,0,46417:0:0:0:0:
109,192,46511,1,0,0:0:0:0:
256,192,46511,1,0,0:0:0:0:
475,192,46699,128,2,46792:1:0:0:0:
182,192,46699,128,0,46792:0:0:0:0:
256,192,46886,1,0,0:0:0:0:
109,192,46886,128,0,46980:0:0:0:0:
475,192,47074,128,2,47167:1:0:0:0:
182,192,47074,1,0,0:0:0:0:
36,192,47074,1,0,0:0:0:0:
256,192,47261,128,0,47355:0:0:0:0:
475,192,47449,128,2,47542:1:0:0:0:
109,192,47449,128,0,47542:0:0:0:0:
402,192,47636,128,2,47730:1:0:0:0:
36,192,47636,128,0,47730:0:0:0:0:
109,192,47824,128,0,48199:0:0:0:0:
256,192,47824,128,0,48386:0:0:0:0:
329,192,47824,128,0,48011:0:0:0:0:
475,192,48011,128,0,48386:0:0:0:0:
182,192,48199,128,0,48386:0:0:0:0:
182,192,48574,128,0,48761:0:0:0:0:
256,192,48574,128,0,49136:0:0:0:0:
475,192,48574,128,0,48949:0:0:0:0:
109,192,48761,128,0,49324:0:0:0:0:
402,192,48949,128,0,49324:0:0:0:0:
182,192,49136,128,0,49324:0:0:0:0:
182,192,49511,128,0,50074:0:0:0:0:
402,192,49511,128,0,49699:0:0:0:0:
109,192,49511,128,0,49886:0:0:0:0:
329,192,49699,128,0,50074:0:0:0:0:
36,192,49886,128,0,50074:0:0:0:0:
182,192,50261,128,0,51011:0:0:0:0:
36,192,50261,128,0,50449:0:0:0:0:
329,192,50261,128,0,50824:0:0:0:0:
402,192,50449,128,0,50824:0:0:0:0:
256,192,50824,128,0,51386:0:0:0:0:
109,192,50824,128,0,51011:0:0:0:0:
475,192,50824,1,0,0:0:0:0:
36,192,51011,128,0,51386:0:0:0:0:
329,192,51199,128,0,51386:0:0:0:0:
36,192,51574,128,0,52324:0:0:0:0:
182,192,51574,128,0,51761:0:0:0:0:
402,192,51574,128,0,51949:0:0:0:0:
256,192,51761,128,0,52136:0:0:0:0:
109,192,51949,128,0,52324:0:0:0:0:
329,192,52136,128,0,52324:0:0:0:0:
329,192,52511,128,0,53074:0:0:0:0:
109,192,52511,128,0,52699:0:0:0:0:
36,192,52511,128,0,52886:0:0:0:0:
475,192,52699,128,0,53074:0:0:0:0:
182,192,52886,128,0,53074:0:0:0:0:
475,192,53261,128,0,53730:0:0:0:0:
329,192,53261,128,0,53730:0:0:0:0:
182,192,53261,128,0,53449:0:0:0:0:
109,192,53449,128,0,53730:0:0:0:0:
109,192,53824,1,4,0:0:0:0:
329,192,53824,1,4,0:0:0:0:
475,192,53824,1,0,0:0:0:0:
36,192,53824,128,4,53917:0:0:0:0:
256,192,54011,128,0,54105:0:0:0:0:
402,192,54199,128,0,54292:0:0:0:0:
36,192,54199,128,2,54292:1:0:0:0:
182,192,54386,128,0,54480:0:0:0:0:
475,192,54574,128,0,54667:0:0:0:0:
36,192,54574,128,2,54667:1:0:0:0:
256,192,54761,128,0,54855:0:0:0:0:
36,192,54949,128,2,55042:1:0:0:0:
402,192,54949,128,0,55042:0:0:0:0:
182,192,55136,128,0,55230:0:0:0:0:
329,192,55324,128,0,55417:0:0:0:0:
36,192,55324,128,2,55417:1:0:0:0:
256,192,55511,128,0,55605:0:0:0:0:
36,192,55699,128,2,55792:1:0:0:0:
402,192,55699,128,0,55792:0:0:0:0:
182,192,55886,128,0,55980:0:0:0:0:
36,192,56074,128,2,56167:1:0:0:0:
475,192,56074,1,0,0:0:0:0:
256,192,56074,1,0,0:0:0:0:
182,192,56261,128,0,56355:0:0:0:0:
402,192,56261,1,0,0:0:0:0:
256,192,56449,1,0,0:0:0:0:
36,192,56449,128,2,56542:1:0:0:0:
182,192,56542,128,0,56636:0:0:0:0:
329,192,56636,128,2,56730:1:0:0:0:
109,192,56636,1,0,0:0:0:0:
475,192,56636,1,0,0:0:0:0:
402,192,56824,128,0,56917:0:0:0:0:
36,192,56824,128,2,56917:1:0:0:0:
256,192,57011,128,0,57105:0:0:0:0:
329,192,57199,1,0,0:0:0:0:
475,192,57199,128,0,57292:0:0:0:0:
182,192,57199,1,0,0:0:0:0:
36,192,57199,128,2,57292:1:0:0:0:
256,192,57386,128,0,57480:0:0:0:0:
36,192,57574,128,2,57667:1:0:0:0:
329,192,57574,128,0,57667:0:0:0:0:
182,192,57761,128,0,57855:0:0:0:0:
36,192,57949,128,2,58042:1:0:0:0:
402,192,57949,128,0,58042:0:0:0:0:
109,192,58136,128,0,58230:0:0:0:0:
256,192,58230,128,0,58324:0:0:0:0:
475,192,58324,128,0,58417:0:0:0:0:
36,192,58324,128,2,58417:1:0:0:0:
182,192,58511,1,0,0:0:0:0:
402,192,58511,1,0,0:0:0:0:
329,192,58699,128,0,58792:0:0:0:0:
36,192,58699,128,2,58792:1:0:0:0:
402,192,58886,128,0,58980:0:0:0:0:
182,192,58886,1,0,0:0:0:0:
36,192,59074,128,2,59167:1:0:0:0:
329,192,59074,1,0,0:0:0:0:
475,192,59074,1,0,0:0:0:0:
256,192,59261,128,0,59355:0:0:0:0:
402,192,59449,128,0,59542:0:0:0:0:
36,192,59449,128,2,59542:1:0:0:0:
109,192,59636,128,2,59730:1:0:0:0:
475,192,59636,128,0,59730:0:0:0:0:
36,192,59824,128,0,60386:0:0:0:0:
402,192,59824,128,0,60199:0:0:0:0:
256,192,59824,128,0,60011:0:0:0:0:
182,192,60011,128,0,60386:0:0:0:0:
329,192,60199,128,0,60386:0:0:0:0:
36,192,60574,128,0,61136:0:0:0:0:
182,192,60574,128,0,60949:0:0:0:0:
329,192,60574,128,0,60761:0:0:0:0:
402,192,60761,128,0,61324:0:0:0:0:
256,192,60949,128,0,61324:0:0:0:0:
109,192,61136,128,0,61324:0:0:0:0:
256,192,61511,128,0,61886:0:0:0:0:
402,192,61511,128,0,62074:0:0:0:0:
109,192,61511,128,0,61699:0:0:0:0:
36,192,61699,128,0,62074:0:0:0:0:
182,192,61886,128,0,62074:0:0:0:0:
329,192,62261,128,0,62449:0:0:0:0:
36,192,62261,128,0,63011:0:0:0:0:
182,192,62261,128,0,62824:0:0:0:0:
402,192,62449,128,0,62824:0:0:0:0:
329,192,62824,128,0,63199:0:0:0:0:
475,192,62824,128,0,63386:0:0:0:0:
256,192,62824,1,0,0:0:0:0:
109,192,63011,128,0,63386:0:0:0:0:
256,192,63199,128,0,63386:0:0:0:0:
109,192,63574,128,0,63761:0:0:0:0:
475,192,63574,128,0,64136:0:0:0:0:
256,192,63574,128,0,63949:0:0:0:0:
36,192,63761,128,0,64324:0:0:0:0:
182,192,63949,128,0,64324:0:0:0:0:
402,192,64136,128,0,64324:0:0:0:0:
475,192,64511,128,0,64699:0:0:0:0:
36,192,64511,128,0,64699:0:0:0:0:
256,192,64886,1,2,1:0:0:0:
475,192,64886,128,0,64980:0:0:0:0:
36,192,64886,128,0,64980:0:0:0:0:
182,192,64980,1,8,0:0:0:0:
329,192,65074,1,2,1:0:0:0:
402,192,65074,128,0,65167:0:0:0:0:
109,192,65074,128,0,65167:0:0:0:0:
182,192,65261,1,0,0:0:0:0:
36,192,65261,128,8,65355:1:0:0:0:
475,192,65261,128,0,65355:0:0:0:0:
329,192,65449,1,8,1:0:0:0:
402,192,65449,128,0,65542:0:0:0:0:
109,192,65449,128,0,65542:0:0:0:0:
256,192,65542,1,8,0:0:0:0:
475,192,65636,1,0,0:0:0:0:
182,192,65636,1,2,1:0:0:0:
36,192,65636,1,0,0:0:0:0:
475,192,65824,5,4,0:0:0:0:
109,192,65824,1,0,0:0:0:0:
256,192,65824,1,4,0:0:0:0:
402,192,65824,1,0,0:0:0:0:
182,192,65824,1,0,0:0:0:0:
36,192,66011,1,0,0:0:0:0:
329,192,66011,128,0,66105:0:0:0:0:
402,192,66199,128,0,66292:0:0:0:0:
182,192,66199,128,2,66292:1:0:0:0:
256,192,66386,128,0,66480:0:0:0:0:
109,192,66574,128,2,66667:1:0:0:0:
329,192,66574,128,0,66667:0:0:0:0:
36,192,66761,1,0,0:0:0:0:
256,192,66761,128,0,66855:0:0:0:0:
402,192,66949,128,0,67042:0:0:0:0:
182,192,66949,128,2,67042:1:0:0:0:
329,192,67136,128,0,67230:0:0:0:0:
109,192,67324,128,2,67417:1:0:0:0:
475,192,67324,128,0,67417:0:0:0:0:
256,192,67511,128,0,67605:0:0:0:0:
329,192,67699,128,0,67792:0:0:0:0:
182,192,67699,128,2,67792:1:0:0:0:
109,192,67886,1,0,0:0:0:0:
402,192,67886,1,0,0:0:0:0:
36,192,68074,1,0,0:0:0:0:
182,192,68074,128,2,68167:1:0:0:0:
329,192,68074,128,0,68167:0:0:0:0:
109,192,68261,1,0,0:0:0:0:
256,192,68261,1,0,0:0:0:0:
36,192,68449,128,2,68542:1:0:0:0:
329,192,68449,1,0,0:0:0:0:
402,192,68449,1,4,0:0:0:0:
475,192,68449,1,4,0:0:0:0:
182,192,68449,128,0,68542:0:0:0:0:
256,192,68636,128,0,68730:0:0:0:0:
109,192,68824,128,2,68917:1:0:0:0:
329,192,68824,128,0,68917:0:0:0:0:
475,192,69011,128,0,69105:0:0:0:0:
329,192,69199,128,0,69292:0:0:0:0:
182,192,69199,128,2,69292:1:0:0:0:
36,192,69386,128,0,69480:0:0:0:0:
182,192,69574,128,2,69667:1:0:0:0:
329,192,69574,128,0,69667:0:0:0:0:
475,192,69761,128,0,69855:0:0:0:0:
329,192,69949,128,0,70042:0:0:0:0:
182,192,69949,128,2,70042:1:0:0:0:
109,192,70136,128,0,70230:0:0:0:0:
182,192,70324,128,2,70417:1:0:0:0:
329,192,70324,128,0,70417:0:0:0:0:
36,192,70511,5,0,0:0:0:0:
402,192,70511,128,0,70605:0:0:0:0:
109,192,70699,1,0,0:0:0:0:
329,192,70699,128,0,70792:0:0:0:0:
182,192,70699,128,2,70792:1:0:0:0:
36,192,70886,1,0,0:0:0:0:
475,192,70886,128,0,70980:0:0:0:0:
182,192,71074,128,2,71167:1:0:0:0:
329,192,71074,128,0,71167:0:0:0:0:
109,192,71261,128,0,71355:0:0:0:0:
402,192,71261,1,0,0:0:0:0:
329,192,71449,128,0,71542:0:0:0:0:
182,192,71449,128,2,71542:1:0:0:0:
475,192,71636,128,0,71730:0:0:0:0:
182,192,71824,1,0,0:0:0:0:
109,192,71824,1,4,0:0:0:0:
36,192,71824,1,4,0:0:0:0:
256,192,71824,128,2,71917:1:0:0:0:
402,192,71824,128,0,71917:0:0:0:0:
36,192,72011,128,0,72105:0:0:0:0:
475,192,72199,1,0,0:0:0:0:
329,192,72199,128,0,72292:0:0:0:0:
182,192,72199,128,2,72292:1:0:0:0:
109,192,72386,128,0,72480:0:0:0:0:
475,192,72574,1,0,0:0:0:0:
182,192,72574,128,2,72667:1:0:0:0:
329,192,72574,128,0,72667:0:0:0:0:
402,192,72761,128,0,72855:0:0:0:0:
109,192,72949,128,8,73042:1:0:0:0:
182,192,72949,128,8,73042:1:0:0:0:
256,192,72949,128,8,73042:1:0:0:0:
329,192,72949,128,0,73042:0:0:0:0:
475,192,73136,1,0,0:0:0:0:
36,192,73136,128,0,73230:0:0:0:0:
329,192,73324,128,0,73417:0:0:0:0:
182,192,73324,128,2,73417:1:0:0:0:
475,192,73511,1,0,0:0:0:0:
36,192,73511,128,0,73605:0:0:0:0:
182,192,73699,128,2,73792:1:0:0:0:
329,192,73699,128,0,73792:0:0:0:0:
402,192,73886,128,0,73980:0:0:0:0:
475,192,74074,5,0,0:0:0:0:
256,192,74074,128,0,74167:0:0:0:0:
109,192,74074,128,2,74167:1:0:0:0:
36,192,74261,128,0,74355:0:0:0:0:
475,192,74449,1,0,0:0:0:0:
182,192,74449,128,8,74542:1:0:0:0:
256,192,74449,128,8,74542:1:0:0:0:
329,192,74449,128,8,74542:1:0:0:0:
402,192,74449,128,0,74542:0:0:0:0:
36,192,74824,128,0,74964:0:0:0:0:
329,192,74824,1,0,0:0:0:0:
109,192,74870,128,0,75011:0:0:0:0:
182,192,74917,128,0,75058:0:0:0:0:
475,192,74964,128,0,75105:0:0:0:0:
402,192,75011,128,0,75152:0:0:0:0:
329,192,75058,128,0,75199:0:0:0:0:
182,192,75199,128,0,75339:0:0:0:0:
109,192,75245,128,0,75386:0:0:0:0:
36,192,75292,128,0,75433:0:0:0:0:
329,192,75339,128,0,75480:0:0:0:0:
402,192,75386,128,0,75527:0:0:0:0:
475,192,75433,128,0,75574:0:0:0:0:
36,192,75574,128,0,75714:0:0:0:0:
109,192,75620,128,0,75761:0:0:0:0:
182,192,75667,128,0,75808:0:0:0:0:
475,192,75714,128,0,75855:0:0:0:0:
402,192,75761,128,0,75902:0:0:0:0:
329,192,75808,128,0,75949:0:0:0:0:
182,192,75949,128,0,76089:0:0:0:0:
109,192,75995,128,0,76136:0:0:0:0:
36,192,76042,128,0,76183:0:0:0:0:
329,192,76089,128,0,76230:0:0:0:0:
402,192,76136,128,0,76277:0:0:0:0:
475,192,76183,128,0,76324:0:0:0:0:
36,192,76324,1,0,0:0:0:0:
182,192,76324,1,0,0:0:0:0:
109,192,76324,1,0,0:0:0:0:
182,192,76605,1,0,0:0:0:0:
109,192,76605,1,0,0:0:0:0:
36,192,76605,1,0,0:0:0:0:
182,192,76886,1,0,0:0:0:0:
109,192,76886,1,0,0:0:0:0:
36,192,76886,1,0,0:0:0:0:
402,192,77074,1,0,0:0:0:0:
475,192,77074,1,0,0:0:0:0:
329,192,77074,1,0,0:0:0:0:
256,192,77261,1,0,0:0:0:0:
182,192,77355,1,0,0:0:0:0:
109,192,77355,1,0,0:0:0:0:
36,192,77355,1,0,0:0:0:0:
182,192,77636,1,0,0:0:0:0:
109,192,77636,1,0,0:0:0:0:
36,192,77636,1,0,0:0:0:0:
329,192,77824,1,0,0:0:0:0:
402,192,77824,1,0,0:0:0:0:
475,192,77824,1,0,0:0:0:0:
329,192,78011,1,0,0:0:0:0:
402,192,78011,1,0,0:0:0:0:
475,192,78011,1,0,0:0:0:0:
329,192,78199,1,0,0:0:0:0:
402,192,78199,1,0,0:0:0:0:
475,192,78199,1,0,0:0:0:0:
329,192,78386,128,0,78574:0:0:0:0:
402,192,78386,128,0,78574:0:0:0:0:
475,192,78386,128,0,78574:0:0:0:0:
182,192,78386,1,0,0:0:0:0:
329,192,78761,128,0,78949:0:0:0:0:
402,192,78761,128,0,78949:0:0:0:0:
475,192,78761,128,0,78949:0:0:0:0:
182,192,78761,1,0,0:0:0:0:
109,192,78761,1,0,0:0:0:0:
402,192,79136,128,0,79417:0:0:0:0:
475,192,79136,128,0,79417:0:0:0:0:
182,192,79136,128,0,79417:0:0:0:0:
109,192,79136,128,0,79417:0:0:0:0:
36,192,79136,128,0,79417:0:0:0:0:
329,192,79136,128,0,79417:0:0:0:0:
36,192,79511,1,0,0:0:0:0:
109,192,79511,1,0,0:0:0:0:
182,192,79511,1,0,0:0:0:0:
329,192,79511,1,0,0:0:0:0:
402,192,79511,1,0,0:0:0:0:
475,192,79511,1,0,0:0:0:0:
182,192,79699,128,0,80074:0:0:0:0:
109,192,79699,128,0,80074:0:0:0:0:
36,192,79699,128,0,80074:0:0:0:0:
329,192,79699,128,0,80074:0:0:0:0:
402,192,79699,128,0,80074:0:0:0:0:
475,192,79699,128,0,80074:0:0:0:0:
402,192,80449,1,0,0:0:0:0:
329,192,80449,1,2,1:0:0:0:
109,192,80636,128,2,80777:1:0:0:12:
182,192,80683,128,2,80824:1:0:0:12:
256,192,80730,128,2,80870:1:0:0:12:
329,192,80777,128,2,80917:1:0:0:12:
475,192,80824,1,0,0:0:0:0:
402,192,80824,128,6,80964:1:0:0:12:
36,192,80824,1,4,0:0:0:0:
182,192,81011,128,0,81105:0:0:0:0:
475,192,81199,1,8,1:0:0:45:
109,192,81199,128,0,81292:0:0:0:0:
256,192,81199,128,0,81292:0:0:0:0:
329,192,81386,128,0,81480:0:0:0:0:
36,192,81574,1,2,1:0:0:0:
182,192,81574,128,0,81667:0:0:0:0:
402,192,81574,128,0,81667:0:0:0:0:
256,192,81761,128,0,81855:0:0:0:0:
402,192,81949,1,8,1:0:0:45:
36,192,81949,128,0,82042:0:0:0:0:
182,192,81949,128,0,82042:0:0:0:0:
329,192,82136,128,0,83074:0:0:0:0:
475,192,82136,128,0,83074:0:0:0:0:
109,192,82136,128,0,82230:0:0:0:0:
36,192,82324,1,2,1:0:0:0:
256,192,82324,128,0,82417:0:0:0:0:
182,192,82511,128,0,82605:0:0:0:0:
256,192,82699,1,8,1:0:0:45:
109,192,82699,128,0,82792:0:0:0:0:
36,192,83074,1,2,1:0:0:0:
182,192,83074,128,0,83167:0:0:0:0:
402,192,83074,128,0,83167:0:0:0:0:
256,192,83261,128,0,83355:0:0:0:0:
475,192,83449,1,8,1:0:0:45:
109,192,83449,128,0,83542:0:0:0:0:
329,192,83449,128,0,83542:0:0:0:0:
402,192,83636,128,0,83730:0:0:0:0:
182,192,83824,128,0,85511:0:0:0:0:
36,192,83824,1,2,1:0:0:0:
329,192,83824,128,0,83917:0:0:0:0:
256,192,84011,128,0,84105:0:0:0:0:
475,192,84199,1,8,1:0:0:45:
109,192,84199,128,0,84292:0:0:0:0:
402,192,84386,128,0,84480:0:0:0:0:
36,192,84574,1,2,1:0:0:0:
329,192,84574,128,0,84667:0:0:0:0:
256,192,84761,128,0,84855:0:0:0:0:
475,192,84949,1,8,1:0:0:45:
109,192,84949,128,0,85042:0:0:0:0:
402,192,85136,128,0,85230:0:0:0:0:
36,192,85324,1,2,1:0:0:0:
329,192,85324,128,0,85417:0:0:0:0:
256,192,85511,128,0,85605:0:0:0:0:
329,192,85699,128,0,85792:0:0:0:0:
475,192,85699,128,8,85792:1:0:0:45:
109,192,85699,128,0,85792:0:0:0:0:
182,192,85886,128,0,85980:0:0:0:0:
256,192,86074,1,2,1:0:0:0:
36,192,86074,128,0,87949:0:0:0:0:
402,192,86074,128,0,86167:0:0:0:0:
475,192,86449,1,8,1:0:0:45:
182,192,86449,128,0,87949:0:0:0:0:
329,192,86449,128,0,86542:0:0:0:0:
329,192,86824,128,0,87949:0:0:0:0:
475,192,86824,128,2,86917:1:0:0:0:
256,192,87011,128,0,87105:0:0:0:0:
402,192,87199,1,8,1:0:0:45:
109,192,87199,128,0,87292:0:0:0:0:
256,192,87386,128,0,87480:0:0:0:0:
109,192,87574,1,2,1:0:0:0:
475,192,87574,128,0,87667:0:0:0:0:
475,192,87949,1,8,1:0:0:45:
256,192,87949,128,0,88042:0:0:0:0:
109,192,87949,128,0,88042:0:0:0:0:
402,192,88136,128,0,88230:0:0:0:0:
36,192,88324,1,2,1:0:0:0:
182,192,88324,128,0,88417:0:0:0:0:
329,192,88324,128,0,88417:0:0:0:0:
256,192,88511,128,0,88605:0:0:0:0:
329,192,88699,1,8,1:0:0:45:
402,192,88699,128,0,89636:0:0:0:0:
182,192,88699,128,0,88792:0:0:0:0:
109,192,88886,128,0,88980:0:0:0:0:
256,192,89074,128,0,89636:0:0:0:0:
475,192,89074,1,2,1:0:0:0:
36,192,89074,128,0,89167:0:0:0:0:
182,192,89261,128,0,89355:0:0:0:0:
109,192,89449,128,0,89636:0:0:0:0:
256,192,89824,128,0,90199:0:0:0:0:
109,192,89824,128,0,90199:0:0:0:0:
402,192,89824,128,0,90199:0:0:0:0:
329,192,89824,1,0,0:0:0:0:
182,192,89824,1,2,1:0:0:0:
475,192,90199,1,8,1:0:0:45:
182,192,90199,128,0,90292:0:0:0:0:
36,192,90199,128,0,90292:0:0:0:0:
329,192,90386,128,0,90480:0:0:0:0:
256,192,90480,128,8,90574:1:0:0:0:
402,192,90574,128,0,90667:0:0:0:0:
36,192,90574,1,2,1:0:0:0:
182,192,90574,128,0,90667:0:0:0:0:
256,192,90761,128,0,90855:0:0:0:0:
402,192,90949,1,8,1:0:0:45:
182,192,90949,128,0,91042:0:0:0:0:
475,192,91136,128,0,91699:0:0:0:0:
109,192,91136,128,0,91230:0:0:0:0:
256,192,91324,1,2,1:0:0:0:
36,192,91324,128,0,91417:0:0:0:0:
329,192,91511,128,0,91886:0:0:0:0:
402,192,91699,128,0,92074:0:0:0:0:
182,192,91699,1,8,1:0:0:45:
475,192,91886,128,0,92261:0:0:0:0:
36,192,91886,128,0,91980:0:0:0:0:
109,192,91980,128,0,92074:0:0:0:0:
329,192,92074,1,2,1:0:0:0:
182,192,92074,128,0,92167:0:0:0:0:
109,192,92261,128,0,92355:0:0:0:0:
475,192,92449,1,8,1:0:0:45:
329,192,92449,128,0,92542:0:0:0:0:
36,192,92449,128,0,92542:0:0:0:0:
256,192,92542,128,0,92636:0:0:0:0:
182,192,92636,128,0,92730:0:0:0:0:
109,192,92730,128,0,92824:0:0:0:0:
329,192,92824,5,4,0:0:0:0:
402,192,92824,1,4,0:0:0:0:
475,192,92824,1,0,0:0:0:0:
256,192,92824,1,4,0:0:0:0:
36,192,92824,128,2,92917:1:0:0:0:
182,192,93011,128,0,93105:0:0:0:0:
475,192,93199,1,8,1:0:0:45:
109,192,93199,128,0,93292:0:0:0:0:
256,192,93199,128,0,93292:0:0:0:0:
329,192,93386,128,0,93480:0:0:0:0:
36,192,93574,1,2,1:0:0:0:
182,192,93574,128,0,93667:0:0:0:0:
402,192,93574,128,0,93667:0:0:0:0:
256,192,93761,128,0,93855:0:0:0:0:
475,192,93949,1,8,1:0:0:45:
109,192,93949,128,0,94042:0:0:0:0:
329,192,93949,128,0,94042:0:0:0:0:
182,192,94136,128,0,94230:0:0:0:0:
36,192,94324,1,2,1:0:0:0:
256,192,94324,128,0,94417:0:0:0:0:
402,192,94324,128,0,94417:0:0:0:0:
109,192,94511,128,0,94605:0:0:0:0:
475,192,94699,1,8,1:0:0:45:
182,192,94699,128,0,94792:0:0:0:0:
329,192,94699,128,0,94792:0:0:0:0:
256,192,94886,128,0,94980:0:0:0:0:
36,192,95074,1,2,1:0:0:0:
182,192,95074,128,0,95167:0:0:0:0:
402,192,95074,128,0,95167:0:0:0:0:
109,192,95261,128,0,95355:0:0:0:0:
475,192,95449,1,8,1:0:0:45:
182,192,95449,128,0,95542:0:0:0:0:
329,192,95449,128,0,95542:0:0:0:0:
402,192,95636,128,0,95730:0:0:0:0:
36,192,95824,128,0,96199:0:0:0:0:
256,192,95824,128,0,96199:0:0:0:0:
109,192,95824,1,2,1:0:0:0:
182,192,96199,1,8,1:0:0:45:
402,192,96292,1,0,0:0:0:0:
109,192,96386,128,0,96574:0:0:0:0:
329,192,96386,128,0,96574:0:0:0:0:
256,192,96574,1,2,1:0:0:0:
36,192,96667,1,0,0:0:0:0:
182,192,96761,128,0,96949:0:0:0:0:
402,192,96761,128,0,96949:0:0:0:0:
329,192,96949,1,8,1:0:0:45:
109,192,97042,1,0,0:0:0:0:
256,192,97136,128,0,97511:0:0:0:0:
475,192,97136,128,0,97511:0:0:0:0:
182,192,97324,1,2,1:0:0:0:
36,192,97511,1,0,0:0:0:0:
109,192,97699,1,0,0:0:0:0:
256,192,97699,128,0,97792:0:0:0:0:
475,192,97699,128,8,97792:1:0:0:45:
182,192,97886,1,0,0:0:0:0:
329,192,97886,1,0,0:0:0:0:
36,192,98074,1,2,1:0:0:0:
256,192,98074,1,0,0:0:0:0:
402,192,98074,1,0,0:0:0:0:
182,192,98261,128,0,98542:0:0:0:0:
329,192,98355,128,0,98636:0:0:0:0:
475,192,98449,128,8,98636:1:0:0:45:
109,192,98542,128,0,98824:0:0:0:0:
256,192,98636,128,0,98824:0:0:0:0:
402,192,98730,1,0,0:0:0:0:
36,192,98824,1,4,0:0:0:0:
475,192,98824,1,4,0:0:0:0:
182,192,99011,1,0,0:0:0:0:
329,192,99011,1,0,0:0:0:0:
36,192,99199,128,0,99292:0:0:0:0:
256,192,99199,128,0,99292:0:0:0:0:
402,192,99199,128,8,99292:1:0:0:45:
109,192,99386,1,0,0:0:0:0:
329,192,99386,1,0,0:0:0:0:
182,192,99574,1,2,1:0:0:0:
256,192,99574,1,0,0:0:0:0:
475,192,99574,1,0,0:0:0:0:
36,192,99761,1,0,0:0:0:0:
329,192,99761,1,0,0:0:0:0:
109,192,99949,128,0,100042:0:0:0:0:
256,192,99949,128,0,100042:0:0:0:0:
402,192,99949,128,8,100042:1:0:0:45:
329,192,100136,1,0,0:0:0:0:
182,192,100136,1,0,0:0:0:0:
36,192,100324,1,2,1:0:0:0:
475,192,100324,1,0,0:0:0:0:
256,192,100324,1,0,0:0:0:0:
109,192,100511,1,0,0:0:0:0:
329,192,100511,1,0,0:0:0:0:
182,192,100699,128,0,100792:0:0:0:0:
402,192,100699,128,0,100792:0:0:0:0:
475,192,100699,128,8,100792:1:0:0:45:
109,192,100886,1,0,0:0:0:0:
329,192,100886,1,0,0:0:0:0:
36,192,101074,1,2,1:0:0:0:
182,192,101074,1,0,0:0:0:0:
256,192,101074,1,0,0:0:0:0:
329,192,101261,1,0,0:0:0:0:
109,192,101261,1,0,0:0:0:0:
182,192,101449,128,0,101542:0:0:0:0:
402,192,101449,128,0,101542:0:0:0:0:
475,192,101449,128,8,101542:1:0:0:45:
329,192,101636,1,0,0:0:0:0:
109,192,101636,1,0,0:0:0:0:
36,192,101824,1,0,0:0:0:0:
475,192,101824,1,0,0:0:0:0:
109,192,101917,1,0,0:0:0:0:
402,192,101917,1,0,0:0:0:0:
182,192,102011,1,0,0:0:0:0:
329,192,102011,1,0,0:0:0:0:
475,192,102105,1,0,0:0:0:0:
36,192,102105,1,0,0:0:0:0:
402,192,102199,1,0,0:0:0:0:
109,192,102199,1,0,0:0:0:0:
329,192,102292,1,0,0:0:0:0:
182,192,102292,1,0,0:0:0:0:
402,192,102386,1,0,0:0:0:0:
109,192,102386,1,0,0:0:0:0:
475,192,102480,1,0,0:0:0:0:
36,192,102480,1,0,0:0:0:0:
256,192,102574,1,0,0:0:0:0:
182,192,102761,1,0,0:0:0:0:
329,192,102761,1,0,0:0:0:0:
109,192,102949,128,0,103042:0:0:0:0:
256,192,102949,128,0,103042:0:0:0:0:
402,192,102949,128,0,103042:0:0:0:0:
36,192,103136,5,0,0:0:0:0:
475,192,103136,1,0,0:0:0:0:
109,192,103230,1,0,0:0:0:0:
402,192,103230,1,0,0:0:0:0:
182,192,103324,128,0,103699:0:0:0:0:
256,192,103324,128,0,103699:0:0:0:0:
329,192,103324,128,0,103699:0:0:0:0:
402,192,103886,128,0,104074:0:0:0:0:
109,192,103886,128,0,104074:0:0:0:0:
182,192,103886,128,0,104074:0:0:0:0:
329,192,103886,128,0,104074:0:0:0:0:
475,192,104261,128,0,104542:0:0:0:0:
36,192,104261,128,0,104542:0:0:0:0:
182,192,104261,128,0,104542:0:0:0:0:
329,192,104261,128,0,104542:0:0:0:0:
256,192,104261,128,0,104542:0:0:0:0:
475,192,104824,5,4,0:0:0:0:
36,192,104824,1,4,0:0:0:0:
182,192,104824,128,0,107261:0:0:0:0:
329,192,104824,128,0,107261:0:0:0:0:
109,192,104824,1,0,0:0:0:0:
402,192,104824,1,0,0:0:0:0:
475,192,105199,1,8,1:0:0:45:
109,192,105199,128,0,105292:0:0:0:0:
256,192,105386,128,0,105480:0:0:0:0:
36,192,105574,1,2,1:0:0:0:
402,192,105574,128,0,105667:0:0:0:0:
256,192,105761,128,0,105855:0:0:0:0:
475,192,105949,1,8,1:0:0:45:
109,192,105949,128,0,106042:0:0:0:0:
256,192,106136,128,0,106230:0:0:0:0:
36,192,106324,1,2,1:0:0:0:
402,192,106324,128,0,106417:0:0:0:0:
256,192,106511,128,0,106605:0:0:0:0:
475,192,106699,1,8,1:0:0:45:
109,192,106699,128,0,106792:0:0:0:0:
256,192,106886,128,0,106980:0:0:0:0:
475,192,107074,128,0,107542:0:0:0:0:
36,192,107074,128,0,107542:0:0:0:0:
329,192,107355,128,0,107730:0:0:0:0:
182,192,107355,128,0,107730:0:0:0:0:
475,192,107636,128,0,107824:0:0:0:0:
36,192,107636,128,0,107824:0:0:0:0:
182,192,107824,128,0,109699:0:0:0:0:
329,192,107824,128,2,109699:1:0:0:0:
256,192,108011,128,0,108105:0:0:0:0:
475,192,108199,1,8,1:0:0:45:
109,192,108199,128,0,108292:0:0:0:0:
256,192,108386,128,0,108480:0:0:0:0:
36,192,108574,1,2,1:0:0:0:
402,192,108574,128,0,108667:0:0:0:0:
256,192,108761,128,0,108855:0:0:0:0:
475,192,108949,1,8,1:0:0:45:
109,192,108949,128,0,109042:0:0:0:0:
256,192,109136,128,0,109230:0:0:0:0:
36,192,109324,1,2,1:0:0:0:
402,192,109324,128,0,109417:0:0:0:0:
256,192,109511,128,0,109605:0:0:0:0:
475,192,109699,1,8,1:0:0:45:
109,192,109699,128,0,109792:0:0:0:0:
256,192,109886,128,0,109980:0:0:0:0:
329,192,110074,128,0,110542:0:0:0:0:
182,192,110074,128,0,110542:0:0:0:0:
475,192,110355,128,0,110730:0:0:0:0:
36,192,110355,128,0,110730:0:0:0:0:
329,192,110636,128,0,110824:0:0:0:0:
182,192,110636,128,0,110824:0:0:0:0:
475,192,110824,128,0,113730:0:0:0:0:
36,192,110824,128,0,113730:0:0:0:0:
256,192,110824,1,2,1:0:0:0:
182,192,111011,1,0,0:0:0:0:
402,192,111199,1,8,1:0:0:45:
109,192,111199,1,0,0:0:0:0:
256,192,111386,128,0,111480:0:0:0:0:
182,192,111574,1,2,1:0:0:0:
329,192,111761,128,0,111855:0:0:0:0:
256,192,111949,1,8,1:0:0:45:
402,192,112136,128,0,112230:0:0:0:0:
329,192,112324,1,2,1:0:0:0:
182,192,112511,1,0,0:0:0:0:
109,192,112699,128,0,113730:0:0:0:0:
402,192,112699,1,8,1:0:0:45:
256,192,112886,1,0,0:0:0:0:
329,192,113074,1,2,1:0:0:0:
182,192,113074,128,0,113730:0:0:0:0:
402,192,113449,1,8,1:0:0:45:
256,192,113449,128,0,113730:0:0:0:0:
256,192,113824,1,0,0:0:0:0:
475,192,113824,1,0,0:0:0:0:
182,192,113824,1,0,0:0:0:0:
109,192,113824,1,0,0:0:0:0:
36,192,113824,1,0,0:0:0:0:
329,192,114011,128,0,114105:0:0:0:0:
109,192,114199,128,0,114292:0:0:0:0:
36,192,114199,128,0,114292:0:0:0:0:
402,192,114199,128,8,114292:1:0:0:45:
182,192,114386,1,0,0:0:0:0:
329,192,114386,1,0,0:0:0:0:
109,192,114480,1,0,0:0:0:0:
36,192,114480,1,0,0:0:0:0:
402,192,114480,1,0,0:0:0:0:
256,192,114574,1,0,0:0:0:0:
182,192,114574,1,2,1:0:0:0:
329,192,114574,1,0,0:0:0:0:
475,192,114761,128,0,114855:0:0:0:0:
329,192,114949,128,8,115042:1:0:0:45:
182,192,114949,128,0,115042:0:0:0:0:
36,192,114949,128,0,115042:0:0:0:0:
402,192,115136,1,0,0:0:0:0:
256,192,115136,1,0,0:0:0:0:
182,192,115230,1,0,0:0:0:0:
36,192,115230,1,0,0:0:0:0:
329,192,115230,1,0,0:0:0:0:
109,192,115324,128,2,115417:1:0:0:0:
256,192,115324,128,0,115417:0:0:0:0:
475,192,115511,128,0,115605:0:0:0:0:
182,192,115699,128,0,115792:0:0:0:0:
329,192,115699,128,0,115792:0:0:0:0:
402,192,115699,128,8,115792:1:0:0:45:
256,192,115886,128,0,115980:0:0:0:0:
475,192,116074,128,0,116167:0:0:0:0:
109,192,116074,128,2,116167:1:0:0:0:
329,192,116074,1,0,0:0:0:0:
182,192,116261,128,0,116355:0:0:0:0:
256,192,116449,1,8,1:0:0:45:
36,192,116449,1,0,0:0:0:0:
109,192,116542,1,0,0:0:0:0:
329,192,116542,1,0,0:0:0:0:
182,192,116636,1,0,0:0:0:0:
402,192,116636,1,0,0:0:0:0:
256,192,116730,1,0,0:0:0:0:
475,192,116730,1,0,0:0:0:0:
36,192,116824,1,4,0:0:0:0:
109,192,116824,1,4,0:0:0:0:
182,192,116824,1,0,0:0:0:0:
329,192,116824,1,0,0:0:0:0:
402,192,116824,1,0,0:0:0:0:
256,192,117011,128,0,117105:0:0:0:0:
182,192,117199,128,0,117292:0:0:0:0:
36,192,117199,128,0,117292:0:0:0:0:
475,192,117199,128,8,117292:1:0:0:45:
329,192,117386,1,0,0:0:0:0:
109,192,117386,128,0,117480:0:0:0:0:
256,192,117574,128,2,117667:1:0:0:0:
402,192,117574,128,0,117667:0:0:0:0:
36,192,117574,1,0,0:0:0:0:
182,192,117761,1,0,0:0:0:0:
475,192,117761,128,0,117855:0:0:0:0:
109,192,117949,128,0,118042:0:0:0:0:
256,192,117949,128,0,118042:0:0:0:0:
329,192,117949,128,8,118042:1:0:0:45:
402,192,118136,128,0,118230:0:0:0:0:
36,192,118324,128,2,118417:1:0:0:0:
182,192,118324,1,0,0:0:0:0:
329,192,118324,128,0,118417:0:0:0:0:
109,192,118511,1,0,0:0:0:0:
256,192,118511,128,0,118605:0:0:0:0:
182,192,118699,128,0,118792:0:0:0:0:
329,192,118699,128,8,118792:1:0:0:45:
475,192,118699,128,0,118792:0:0:0:0:
402,192,118886,1,0,0:0:0:0:
109,192,118886,128,0,118980:0:0:0:0:
182,192,119074,1,0,0:0:0:0:
329,192,119074,128,0,119167:0:0:0:0:
36,192,119074,128,2,119167:1:0:0:0:
109,192,119261,1,0,0:0:0:0:
256,192,119261,128,0,119355:0:0:0:0:
182,192,119449,128,0,119542:0:0:0:0:
329,192,119449,128,0,119542:0:0:0:0:
475,192,119449,128,8,119542:1:0:0:45:
402,192,119636,128,0,119730:0:0:0:0:
109,192,119636,1,0,0:0:0:0:
256,192,119824,128,0,120386:0:0:0:0:
36,192,119824,1,2,1:0:0:0:
182,192,119824,1,0,0:0:0:0:
402,192,120199,1,8,1:0:0:45:
109,192,120199,1,0,0:0:0:0:
182,192,120386,128,0,120761:0:0:0:0:
329,192,120386,128,0,120761:0:0:0:0:
36,192,120574,1,2,1:0:0:0:
402,192,120761,128,0,121136:0:0:0:0:
109,192,120761,128,0,121136:0:0:0:0:
256,192,120949,1,8,1:0:0:45:
36,192,121136,128,0,122730:0:0:0:0:
475,192,121136,128,0,122730:0:0:0:0:
329,192,121136,1,0,0:0:0:0:
256,192,121324,1,2,1:0:0:0:
182,192,121324,1,0,0:0:0:0:
329,192,121511,1,0,0:0:0:0:
402,192,121699,1,8,1:0:0:45:
256,192,121699,1,0,0:0:0:0:
109,192,121886,1,0,0:0:0:0:
182,192,122074,128,0,122730:0:0:0:0:
256,192,122261,128,0,122730:0:0:0:0:
329,192,122449,128,0,122730:0:0:0:0:
36,192,122824,128,0,125824:0:0:0:0:
329,192,122824,1,4,0:0:0:0:
475,192,122824,1,0,0:0:0:0:
182,192,122824,1,2,1:0:0:0:
256,192,122824,1,0,0:0:0:0:
402,192,123011,128,0,123105:0:0:0:0:
329,192,123199,128,0,123292:0:0:0:0:
256,192,123199,128,8,123292:1:0:0:45:
109,192,123199,128,0,123292:0:0:0:0:
182,192,123386,128,0,123480:0:0:0:0:
109,192,123574,1,2,1:0:0:0:
402,192,123574,128,0,123667:0:0:0:0:
475,192,123574,128,0,123667:0:0:0:0:
329,192,123761,128,0,123855:0:0:0:0:
402,192,123949,128,8,124042:1:0:0:45:
182,192,123949,128,0,124042:0:0:0:0:
109,192,123949,128,0,124042:0:0:0:0:
475,192,124136,128,0,125824:0:0:0:0:
256,192,124136,128,0,124230:0:0:0:0:
329,192,124324,128,0,124417:0:0:0:0:
109,192,124324,128,2,124417:1:0:0:0:
256,192,124511,128,0,124605:0:0:0:0:
182,192,124699,128,0,124792:0:0:0:0:
402,192,124699,128,8,124792:1:0:0:45:
329,192,124886,128,0,124980:0:0:0:0:
256,192,125074,128,0,125167:0:0:0:0:
109,192,125074,128,2,125167:1:0:0:0:
182,192,125261,128,0,125355:0:0:0:0:
256,192,125449,128,0,125542:0:0:0:0:
402,192,125449,128,8,125542:1:0:0:45:
109,192,125636,128,0,125730:0:0:0:0:
182,192,125824,5,0,0:0:0:0:
256,192,125824,1,0,0:0:0:0:
402,192,125824,1,0,0:0:0:0:
109,192,125917,1,0,0:0:0:0:
36,192,126011,128,0,127230:0:0:0:0:
329,192,126105,1,0,0:0:0:0:
256,192,126105,1,0,0:0:0:0:
402,192,126199,1,0,0:0:0:0:
475,192,126292,128,0,127230:0:0:0:0:
256,192,126386,1,0,0:0:0:0:
182,192,126480,1,0,0:0:0:0:
109,192,126574,128,0,127230:0:0:0:0:
256,192,126667,1,0,0:0:0:0:
329,192,126761,1,0,0:0:0:0:
402,192,126855,128,0,127230:0:0:0:0:
256,192,126949,1,0,0:0:0:0:
182,192,127042,128,0,127230:0:0:0:0:
329,192,127136,128,0,127230:0:0:0:0:
329,192,127324,128,0,127699:0:0:0:0:
182,192,127324,128,0,127699:0:0:0:0:
256,192,127324,128,0,127699:0:0:0:0:
109,192,127886,128,0,128074:0:0:0:0:
182,192,127886,128,0,128074:0:0:0:0:
329,192,127886,128,0,128074:0:0:0:0:
402,192,127886,128,0,128074:0:0:0:0:
109,192,128261,128,0,128542:0:0:0:0:
402,192,128261,128,0,128542:0:0:0:0:
475,192,128261,128,0,128542:0:0:0:0:
256,192,128261,128,0,128542:0:0:0:0:
36,192,128261,128,0,128542:0:0:0:0:
329,192,128636,128,0,128730:0:0:0:0:
256,192,128683,128,0,128777:0:0:0:0:
182,192,128730,128,0,128824:0:0:0:0:
109,192,128777,128,0,128870:0:0:0:0:
329,192,128824,1,0,0:0:0:0:
402,192,128824,1,0,0:0:0:0:
475,192,128824,1,4,0:0:0:0:
36,192,128824,128,4,128917:0:0:0:0:
182,192,129199,1,8,0:0:0:0:
109,192,129199,1,0,0:0:0:0:
329,192,129199,1,8,0:0:0:0:
402,192,129199,1,0,0:0:0:0:
182,192,129574,128,0,129949:0:0:0:0:
329,192,129667,128,0,129949:0:0:0:0:
109,192,129761,128,0,129949:0:0:0:0:
402,192,129855,128,0,129949:0:0:0:0:
36,192,129949,1,0,0:0:0:0:
475,192,129949,1,0,0:0:0:0:
256,192,130136,1,0,0:0:0:0:
182,192,130324,128,0,130699:0:0:0:0:
329,192,130417,128,0,130699:0:0:0:0:
36,192,130511,128,0,130699:0:0:0:0:
475,192,130605,128,0,130699:0:0:0:0:
109,192,130699,1,8,0:0:0:0:
402,192,130699,1,8,0:0:0:0:
329,192,131074,128,0,131449:0:0:0:0:
182,192,131167,128,0,131449:0:0:0:0:
402,192,131261,128,0,131449:0:0:0:0:
109,192,131355,128,0,131449:0:0:0:0:
475,192,131449,1,0,0:0:0:0:
36,192,131449,1,8,0:0:0:0:
256,192,131636,1,0,0:0:0:0:
402,192,131824,128,0,132011:0:0:0:0:
109,192,131824,128,0,132011:0:0:0:0:
36,192,132199,1,0,0:0:0:0:
475,192,132199,1,0,0:0:0:0:
329,192,132199,1,8,0:0:0:0:
182,192,132199,1,8,0:0:0:0:
402,192,132386,1,0,0:0:0:0:
109,192,132480,1,0,0:0:0:0:
329,192,132574,128,0,132949:0:0:0:0:
182,192,132667,128,0,132949:0:0:0:0:
402,192,132761,128,0,132949:0:0:0:0:
109,192,132855,128,0,132949:0:0:0:0:
475,192,132949,1,8,0:0:0:0:
36,192,132949,1,0,0:0:0:0:
256,192,133136,1,0,0:0:0:0:
402,192,133324,1,0,0:0:0:0:
109,192,133417,1,0,0:0:0:0:
329,192,133511,1,0,0:0:0:0:
182,192,133605,1,0,0:0:0:0:
109,192,133699,128,8,133980:0:0:0:0:
36,192,133699,128,0,134167:0:0:0:0:
402,192,133699,128,8,133886:0:0:0:0:
475,192,133699,128,0,134074:0:0:0:0:
402,192,134074,1,0,0:0:0:0:
109,192,134167,1,0,0:0:0:0:
475,192,134261,1,0,0:0:0:0:
36,192,134355,1,0,0:0:0:0:
329,192,134449,128,8,134730:0:0:0:0:
109,192,134449,128,0,134777:0:0:0:0:
182,192,134449,128,8,134730:0:0:0:0:
402,192,134449,128,0,134777:0:0:0:0:
256,192,134449,128,0,134683:0:0:0:0:
36,192,134824,1,4,0:0:0:0:
475,192,134824,1,4,0:0:0:0:
