osu file format v14

[General]
AudioFilename: Mami Kawada - All In Good Time.mp3
AudioLeadIn: 0
PreviewTime: 136400
Countdown: 0
SampleSet: Soft
StackLeniency: 0.7
Mode: 3
LetterboxInBreaks: 0
SpecialStyle: 0
WidescreenStoryboard: 1
SamplesMatchPlaybackRate: 1

[Editor]
Bookmarks: 25342,49957,74573,86880,111496,136111,160727
DistanceSpacing: 1.1
BeatDivisor: 4
GridSize: 8
TimelineZoom: 1.2

[Metadata]
Title:Long Note Practice Pack
TitleUnicode:Long Note Practice Pack
Artist:Raika
ArtistUnicode:Raika
Creator:LordRaika
Version:Level(2)4K
Source:
Tags:LN inverse shield ~~ !! @@ ## $$ ^^ && ** Mami Kawada Portamento All In Good Time Silent Siren Yumeoi ユメオイ ELISA Shining Wind Hinatsu Unravel (remix) Wings of Courage -Sora o Koete- ice Theme of Tomoe Mami Zedd ft. Matthew Koma Spectrum (Razihel Remix) Manami Watanabe Toki wo Kizamu Uta Amber Wishes
BeatmapID:811892
BeatmapSetID:329814

[Difficulty]
HPDrainRate:8
CircleSize:4
OverallDifficulty:7
ApproachRate:5
SliderMultiplier:1
SliderTickRate:1

[Events]
//Background and Video events
0,0,"Mami Kawada - All In Good Time.jpg",0,0
//Break Periods
//Storyboard Layer 0 (Background)
//Storyboard Layer 1 (Fail)
//Storyboard Layer 2 (Pass)
//Storyboard Layer 3 (Foreground)
Sprite,Foreground,Centre,"Old Folder (998)\2.png",470,240 V,0,-15400,-15300,0.14,0.14,0.14,0.75 M,0,-15400,0,470,240 V,2,-15200,-14750,0.14,0.75,0.75,0.75 V,2,-13250,-12800,0.75,0.75,0.14,0.75 V,2,-12700,-12600,0.14,0.75,0.14,0.14 F,0,-12600,-12250,1,0 R,0,-12600,-12250,12.5665,0
//Storyboard Sound Samples

[TimingPoints]
727,384.615384615385,4,2,99,12,1,0
49957,-100,4,2,99,12,0,1
74573,-100,4,2,99,12,0,0
136111,-100,4,2,99,12,0,1
160727,-100,4,2,99,12,0,0

[HitObjects]
64,192,727,128,0,1496:0:0:0:0:
448,192,727,128,2,1496:0:0:0:40:
192,192,1111,128,0,1496:0:0:0:0:
329,192,1496,1,8,0:0:0:65:
182,192,1880,128,0,2457:0:0:0:0:
36,192,1880,128,0,2457:0:0:0:0:
475,192,1880,128,0,2457:0:0:0:0:
475,192,2650,1,2,0:0:0:40:
182,192,2650,1,0,0:0:0:0:
36,192,2650,1,0,0:0:0:0:
329,192,3034,1,8,0:0:0:65:
192,192,3034,1,0,0:0:0:0:
109,192,3227,128,0,3419:0:0:0:0:
402,192,3227,128,0,3419:0:0:0:0:
402,192,3611,1,2,0:0:0:40:
109,192,3611,1,0,0:0:0:0:
109,192,3803,128,0,4188:0:0:0:0:
402,192,3803,128,2,4188:0:0:0:40:
192,192,4188,128,0,4573:0:0:0:0:
320,192,4188,128,0,4573:0:0:0:0:
448,192,4573,1,8,0:0:0:65:
64,192,4573,1,0,0:0:0:0:
109,192,4957,128,0,5534:0:0:0:0:
402,192,4957,128,2,5534:0:0:0:40:
109,192,5727,128,0,6688:0:0:0:0:
402,192,5727,128,2,6111:0:0:0:40:
182,192,6111,128,8,6688:0:0:0:65:
256,192,6303,128,2,6688:0:0:0:40:
448,192,6496,128,0,6688:0:0:0:0:
109,192,6880,128,0,7650:0:0:0:0:
448,192,6880,128,2,7650:0:0:0:40:
320,192,7265,128,0,7650:0:0:0:0:
192,192,7650,1,8,0:0:0:65:
64,192,8034,128,0,8611:0:0:0:0:
320,192,8034,128,0,8611:0:0:0:0:
475,192,8034,128,2,8611:0:0:0:40:
475,192,8803,1,2,0:0:0:40:
320,192,8803,1,0,0:0:0:0:
36,192,8803,1,0,0:0:0:0:
192,192,9188,1,8,0:0:0:65:
256,192,9188,1,0,0:0:0:0:
182,192,9380,128,0,9957:0:0:0:0:
320,192,9380,1,0,0:0:0:0:
448,192,9765,1,2,0:0:0:40:
109,192,9957,128,0,10342:0:0:0:0:
448,192,9957,128,2,10342:0:0:0:40:
320,192,10342,1,0,0:0:0:0:
182,192,10342,128,0,10727:0:0:0:0:
256,192,10727,128,8,11111:0:0:0:65:
64,192,10727,1,0,0:0:0:0:
64,192,11111,128,0,11688:0:0:0:0:
475,192,11111,128,2,11688:0:0:0:40:
36,192,11880,128,0,12073:0:0:0:0:
448,192,11880,128,2,12073:0:0:0:40:
36,192,12265,128,8,12842:0:0:0:65:
448,192,12265,128,0,12842:0:0:0:0:
192,192,12457,128,2,12842:0:0:0:40:
320,192,12650,128,0,12842:0:0:0:0:
402,192,13034,1,4,0:0:0:20:
109,192,13034,1,4,0:0:0:20:
182,192,13034,1,0,0:0:0:0:
329,192,13034,1,0,0:0:0:0:
256,192,13419,1,0,0:0:0:0:
402,192,13803,1,0,0:0:0:0:
192,192,13803,1,8,0:0:0:65:
192,192,14188,128,0,14765:0:0:0:0:
109,192,14188,128,0,14765:0:0:0:0:
475,192,14188,128,0,14765:0:0:0:0:
192,192,14957,1,0,0:0:0:0:
109,192,14957,1,0,0:0:0:0:
475,192,14957,1,2,0:0:0:40:
448,192,15342,1,0,0:0:0:0:
64,192,15342,1,8,0:0:0:65:
192,192,15534,128,0,15727:0:0:0:0:
320,192,15534,128,0,15727:0:0:0:0:
320,192,15919,1,2,0:0:0:40:
192,192,15919,1,0,0:0:0:0:
320,192,16111,128,2,16496:0:0:0:40:
192,192,16111,128,0,16496:0:0:0:0:
64,192,16496,128,0,16880:0:0:0:0:
448,192,16496,128,0,16880:0:0:0:0:
320,192,16880,1,8,0:0:0:65:
192,192,16880,1,0,0:0:0:0:
448,192,17265,128,2,17842:0:0:0:40:
64,192,17265,128,0,17842:0:0:0:0:
448,192,18034,128,2,18611:0:0:0:40:
182,192,18034,128,0,18419:0:0:0:0:
109,192,18419,128,8,18996:0:0:0:65:
320,192,18611,128,2,18803:0:0:0:40:
192,192,18803,128,0,18996:0:0:0:0:
109,192,19188,1,0,0:0:0:0:
192,192,19188,128,2,19957:0:0:0:40:
320,192,19188,1,0,0:0:0:0:
448,192,19573,128,0,19957:0:0:0:0:
320,192,19957,1,8,0:0:0:65:
64,192,19957,1,0,0:0:0:0:
256,192,20342,128,0,20919:0:0:0:0:
36,192,20342,128,0,20919:0:0:0:0:
475,192,20342,128,2,20919:0:0:0:40:
256,192,21111,1,0,0:0:0:0:
36,192,21111,1,0,0:0:0:0:
475,192,21111,1,2,0:0:0:40:
109,192,21496,1,8,0:0:0:65:
192,192,21496,1,0,0:0:0:0:
448,192,21688,128,0,22265:0:0:0:0:
320,192,21688,128,0,22265:0:0:0:0:
64,192,22073,1,2,0:0:0:40:
64,192,22265,128,2,24669:0:0:0:40:
182,192,22650,128,0,24477:0:0:0:0:
320,192,23034,128,8,24477:0:0:0:65:
448,192,23419,128,2,24669:0:0:0:40:
182,192,24573,128,8,24861:0:0:0:65:
329,192,24573,128,0,24861:0:0:0:0:
64,192,24765,128,0,25053:0:0:0:0:
475,192,24765,128,2,25053:0:0:0:40:
182,192,24957,128,0,25150:0:0:0:0:
329,192,24957,128,0,25150:0:0:0:0:
36,192,25150,1,0,0:0:0:0:
448,192,25150,1,0,0:0:0:0:
402,192,25342,5,4,0:0:0:20:
36,192,25342,1,4,0:0:0:20:
329,192,25342,1,0,0:0:0:0:
182,192,25342,1,0,0:0:0:0:
192,192,25727,128,0,26111:0:0:0:0:
109,192,26111,1,0,0:0:0:0:
329,192,26111,1,0,0:0:0:0:
475,192,26111,1,0,0:0:0:0:
36,192,26496,1,0,0:0:0:0:
320,192,26496,1,0,0:0:0:0:
64,192,26688,128,0,28419:0:0:0:0:
320,192,26688,1,0,0:0:0:0:
192,192,27265,128,0,27650:0:0:0:0:
329,192,27650,128,0,28034:0:0:0:0:
402,192,28034,128,0,28419:0:0:0:0:
320,192,28419,128,0,28996:0:0:0:0:
402,192,28996,128,0,29380:0:0:0:0:
109,192,28996,1,0,0:0:0:0:
182,192,29188,1,0,0:0:0:0:
320,192,29573,128,0,30534:0:0:0:0:
402,192,29573,128,0,30534:0:0:0:0:
109,192,29573,1,0,0:0:0:0:
109,192,29765,1,0,0:0:0:0:
182,192,29957,128,0,30534:0:0:0:0:
109,192,30534,128,0,30919:0:0:0:0:
320,192,30727,128,0,31303:0:0:0:0:
448,192,30727,128,4,31303:0:0:0:20:
182,192,31111,128,0,31303:0:0:0:0:
109,192,31111,128,0,31303:0:0:0:0:
36,192,31496,5,4,0:0:0:20:
475,192,31496,1,4,0:0:0:20:
329,192,31496,1,0,0:0:0:0:
182,192,31496,1,0,0:0:0:0:
256,192,31880,128,0,32265:0:0:0:0:
109,192,32265,1,0,0:0:0:0:
182,192,32265,1,0,0:0:0:0:
475,192,32265,1,0,0:0:0:0:
36,192,32650,1,0,0:0:0:0:
448,192,32650,1,0,0:0:0:0:
64,192,32842,128,0,33803:0:0:0:0:
402,192,32842,128,0,33419:0:0:0:0:
329,192,33419,128,0,34188:0:0:0:0:
182,192,33803,128,0,34188:0:0:0:0:
402,192,34188,128,0,34573:0:0:0:0:
64,192,34573,128,0,36015:0:0:0:0:
192,192,34573,128,0,35630:0:0:0:0:
320,192,35150,128,0,35630:0:0:0:0:
448,192,35150,128,0,36592:0:0:0:0:
182,192,35727,128,0,37169:0:0:0:0:
320,192,35727,128,0,37169:0:0:0:0:
64,192,36111,128,0,37457:0:0:0:0:
402,192,36688,128,0,37457:0:0:0:0:
329,192,37265,128,0,37457:0:0:0:0:
182,192,37265,128,0,37457:0:0:0:0:
475,192,37650,5,4,0:0:0:20:
182,192,37650,1,0,0:0:0:0:
329,192,37650,1,0,0:0:0:0:
36,192,37650,1,4,0:0:0:20:
448,192,38034,128,0,38419:0:0:0:0:
36,192,38419,1,0,0:0:0:0:
320,192,38419,1,0,0:0:0:0:
182,192,38419,1,0,0:0:0:0:
109,192,38803,1,0,0:0:0:0:
329,192,38803,1,0,0:0:0:0:
329,192,38996,128,0,39573:0:0:0:0:
109,192,38996,128,0,39573:0:0:0:0:
402,192,39573,128,0,40342:0:0:0:0:
182,192,39573,1,0,0:0:0:0:
329,192,39957,128,0,40342:0:0:0:0:
192,192,40342,128,0,41303:0:0:0:0:
64,192,40727,128,0,41303:0:0:0:0:
402,192,41303,128,0,42842:0:0:0:0:
329,192,41303,128,0,42553:0:0:0:0:
192,192,41880,128,0,42553:0:0:0:0:
64,192,41880,128,0,42842:0:0:0:0:
192,192,42650,128,0,42842:0:0:0:0:
329,192,42650,128,0,42842:0:0:0:0:
320,192,43034,128,0,43707:0:0:0:0:
192,192,43034,128,0,43707:0:0:0:0:
36,192,43419,128,0,43707:0:0:0:0:
475,192,43419,128,0,43707:0:0:0:0:
182,192,43803,128,0,44573:0:0:0:0:
64,192,43803,128,4,44573:0:0:0:20:
448,192,43803,128,0,44573:0:0:0:0:
320,192,43803,128,4,44573:0:0:0:20:
182,192,44957,1,0,0:0:0:0:
329,192,44957,1,0,0:0:0:0:
448,192,45150,128,0,46111:0:0:0:0:
320,192,45150,128,0,46111:0:0:0:0:
192,192,45150,128,0,46111:0:0:0:0:
64,192,45150,128,0,46111:0:0:0:0:
256,192,46303,128,0,46496:0:0:0:0:
109,192,46496,128,0,46688:0:0:0:0:
402,192,46688,128,0,46880:0:0:0:0:
256,192,46880,128,0,49092:0:0:0:0:
192,192,47265,128,0,48707:0:0:0:0:
448,192,47650,128,0,48130:0:0:0:0:
64,192,48034,128,0,49765:0:0:0:0:
448,192,48227,128,0,49765:0:0:0:0:
182,192,48803,128,0,49765:0:0:0:0:
320,192,49188,128,0,49765:0:0:0:0:
402,192,49957,5,4,0:0:0:20:
109,192,49957,1,4,0:0:0:20:
182,192,49957,1,0,0:0:0:0:
329,192,49957,1,0,0:0:0:0:
36,192,50342,1,0,0:0:0:0:
329,192,50342,1,0,0:0:0:0:
192,192,50534,128,0,52265:0:0:0:0:
448,192,50534,1,0,0:0:0:0:
320,192,50727,1,0,0:0:0:0:
64,192,51111,128,0,52265:0:0:0:0:
475,192,51111,1,0,0:0:0:0:
329,192,51303,1,0,0:0:0:0:
329,192,51688,128,0,52265:0:0:0:0:
475,192,51880,128,0,52265:0:0:0:0:
182,192,52650,128,0,53034:0:0:0:0:
448,192,52650,128,0,53034:0:0:0:0:
320,192,53034,128,0,53419:0:0:0:0:
64,192,53034,128,0,53419:0:0:0:0:
448,192,53419,128,0,54188:0:0:0:0:
320,192,53803,128,0,54188:0:0:0:0:
192,192,54188,128,0,54765:0:0:0:0:
109,192,54188,128,0,54765:0:0:0:0:
109,192,54957,128,0,56400:0:0:0:0:
448,192,54957,128,0,56400:0:0:0:0:
182,192,55342,128,0,57169:0:0:0:0:
329,192,55727,128,0,56784:0:0:0:0:
448,192,56496,128,0,58227:0:0:0:0:
64,192,56496,128,0,58227:0:0:0:0:
320,192,56880,128,0,58227:0:0:0:0:
192,192,57265,128,0,58227:0:0:0:0:
109,192,58419,1,0,0:0:0:0:
256,192,58419,1,0,0:0:0:0:
402,192,58419,1,0,0:0:0:0:
192,192,58803,1,0,0:0:0:0:
320,192,58803,128,0,59188:0:0:0:0:
64,192,58996,128,0,59573:0:0:0:0:
448,192,59188,128,0,59765:0:0:0:0:
192,192,59573,128,0,59765:0:0:0:0:
320,192,59765,128,0,60150:0:0:0:0:
192,192,60150,128,0,61111:0:0:0:0:
475,192,60342,128,0,61496:0:0:0:0:
64,192,61111,128,0,61688:0:0:0:0:
256,192,61496,128,0,62073:0:0:0:0:
192,192,61688,128,0,62073:0:0:0:0:
448,192,62073,1,0,0:0:0:0:
64,192,62073,1,0,0:0:0:0:
192,192,62265,5,4,0:0:0:20:
329,192,62265,1,4,0:0:0:20:
448,192,62650,1,0,0:0:0:0:
64,192,62842,128,0,63900:0:0:0:0:
320,192,63034,128,0,64092:0:0:0:0:
192,192,63419,128,0,64573:0:0:0:0:
402,192,63611,128,0,64573:0:0:0:0:
64,192,63996,128,0,64573:0:0:0:0:
320,192,64188,128,0,64573:0:0:0:0:
36,192,64957,128,0,67073:0:0:0:0:
448,192,64957,128,0,65342:0:0:0:0:
320,192,65342,128,0,65727:0:0:0:0:
192,192,65727,128,0,66111:0:0:0:0:
320,192,66111,128,0,67073:0:0:0:0:
448,192,66496,128,0,67073:0:0:0:0:
182,192,67265,128,0,69477:0:0:0:0:
320,192,67650,128,0,69477:0:0:0:0:
448,192,68034,128,0,69092:0:0:0:0:
109,192,68803,128,0,69477:0:0:0:0:
448,192,69188,128,0,69477:0:0:0:0:
182,192,69573,128,0,71111:0:0:0:0:
109,192,69573,128,0,71111:0:0:0:0:
329,192,69573,128,0,71111:0:0:0:0:
402,192,69573,128,0,71111:0:0:0:0:
182,192,71303,1,8,0:0:0:0:
256,192,71303,1,8,0:0:0:0:
36,192,71496,1,0,0:0:0:0:
475,192,71496,1,0,0:0:0:0:
192,192,71880,128,0,72746:0:0:0:0:
36,192,71880,128,0,73323:0:0:0:0:
320,192,72073,128,0,72553:0:0:0:0:
448,192,72265,128,0,74284:0:0:0:0:
329,192,72650,128,0,74092:0:0:0:0:
182,192,72842,128,0,73707:0:0:0:0:
36,192,73419,128,0,74380:0:0:0:0:
182,192,73803,128,0,74380:0:0:0:0:
320,192,74188,128,0,74380:0:0:0:0:
448,192,74380,1,0,0:0:0:0:
475,192,74573,5,4,0:0:0:20:
192,192,74573,1,0,0:0:0:0:
320,192,74573,1,0,0:0:0:0:
36,192,74573,1,4,0:0:0:20:
182,192,74957,128,0,75438:0:0:0:0:
256,192,75342,128,0,75823:0:0:0:0:
448,192,75727,128,0,76303:0:0:0:0:
256,192,76400,128,0,77361:0:0:0:0:
448,192,76496,128,0,77457:0:0:0:0:
402,192,77650,128,0,77842:0:0:0:0:
329,192,77746,128,0,78130:0:0:0:0:
192,192,78034,128,0,78515:0:0:0:0:
64,192,78419,128,0,78900:0:0:0:0:
192,192,78803,128,0,79669:0:0:0:0:
36,192,79573,128,0,79957:0:0:0:0:
256,192,79957,128,0,80150:0:0:0:0:
182,192,80053,128,0,80246:0:0:0:0:
109,192,80150,128,0,80342:0:0:0:0:
329,192,80342,128,0,80823:0:0:0:0:
109,192,80727,1,4,0:0:0:0:
182,192,80727,1,4,0:0:0:0:
448,192,80727,128,0,81207:0:0:0:0:
256,192,81111,128,0,81592:0:0:0:0:
192,192,81496,128,0,81977:0:0:0:0:
320,192,81880,128,0,82746:0:0:0:0:
448,192,82650,128,0,83227:0:0:0:0:
320,192,83227,1,0,0:0:0:0:
448,192,83419,1,0,0:0:0:0:
320,192,83611,1,0,0:0:0:0:
36,192,83803,128,0,83996:0:0:0:0:
192,192,83900,128,0,84188:0:0:0:0:
320,192,84188,128,0,84380:0:0:0:0:
192,192,84284,128,0,84573:0:0:0:0:
320,192,84573,128,0,84765:0:0:0:0:
448,192,84669,128,0,85150:0:0:0:0:
320,192,84957,128,0,85150:0:0:0:0:
192,192,85150,128,0,85919:0:0:0:0:
64,192,85150,128,0,85919:0:0:0:0:
448,192,85727,128,0,86111:0:0:0:0:
320,192,85727,128,0,86111:0:0:0:0:
192,192,86111,128,0,86496:0:0:0:0:
64,192,86111,128,0,86496:0:0:0:0:
320,192,86303,1,0,0:0:0:0:
448,192,86303,1,0,0:0:0:0:
329,192,86496,128,0,86688:0:0:0:0:
448,192,86496,128,0,86688:0:0:0:0:
64,192,86688,128,0,86880:0:0:0:0:
182,192,86688,128,0,86880:0:0:0:0:
320,192,86880,1,0,0:0:0:0:
448,192,86880,128,0,89092:0:0:0:0:
192,192,87073,128,0,87265:0:0:0:0:
109,192,87265,128,0,87457:0:0:0:0:
329,192,87650,128,0,87842:0:0:0:0:
182,192,87842,128,0,88034:0:0:0:0:
64,192,88034,128,0,88227:0:0:0:0:
256,192,88227,128,0,88419:0:0:0:0:
109,192,88419,128,0,88611:0:0:0:0:
329,192,88611,128,0,88803:0:0:0:0:
192,192,88803,128,0,88996:0:0:0:0:
448,192,89188,128,0,89477:0:0:0:0:
64,192,89188,128,0,89477:0:0:0:0:
320,192,89380,128,0,89669:0:0:0:0:
192,192,89380,128,0,89669:0:0:0:0:
448,192,89573,128,0,89861:0:0:0:0:
64,192,89573,128,0,89861:0:0:0:0:
320,192,89765,128,0,89957:0:0:0:0:
192,192,89765,128,0,89957:0:0:0:0:
448,192,89957,128,0,90150:0:0:0:0:
64,192,89957,128,0,90150:0:0:0:0:
320,192,90150,128,0,90342:0:0:0:0:
192,192,90150,128,0,90342:0:0:0:0:
64,192,90342,128,0,92073:0:0:0:0:
448,192,90342,128,0,90534:0:0:0:0:
329,192,90919,128,0,91111:0:0:0:0:
448,192,91303,128,0,91496:0:0:0:0:
320,192,91688,128,0,91880:0:0:0:0:
182,192,91880,128,0,92073:0:0:0:0:
448,192,92073,128,0,92265:0:0:0:0:
320,192,92265,128,0,92457:0:0:0:0:
64,192,92457,128,0,92650:0:0:0:0:
475,192,92650,128,0,92842:0:0:0:0:
192,192,93034,1,4,0:0:0:0:
475,192,93034,128,0,93227:0:0:0:0:
36,192,93034,1,0,0:0:0:0:
448,192,93419,128,0,96111:0:0:0:0:
182,192,93419,128,0,93611:0:0:0:0:
64,192,93803,128,0,93996:0:0:0:0:
320,192,93996,128,0,94188:0:0:0:0:
64,192,94188,128,0,94380:0:0:0:0:
320,192,94573,128,0,94765:0:0:0:0:
192,192,94765,128,0,94957:0:0:0:0:
64,192,94957,128,0,95150:0:0:0:0:
320,192,95342,128,0,95534:0:0:0:0:
64,192,95534,128,0,95727:0:0:0:0:
329,192,95727,128,0,95919:0:0:0:0:
64,192,95919,128,0,96111:0:0:0:0:
320,192,96111,128,0,96303:0:0:0:0:
192,192,96303,128,0,96496:0:0:0:0:
36,192,96496,128,0,96784:0:0:0:0:
320,192,96880,1,4,0:0:0:0:
448,192,96880,1,4,0:0:0:0:
36,192,96880,128,0,97169:0:0:0:0:
36,192,97265,128,0,97553:0:0:0:0:
36,192,97650,128,0,98034:0:0:0:0:
192,192,98034,128,0,98227:0:0:0:0:
64,192,98227,128,0,98419:0:0:0:0:
192,192,98419,128,0,98803:0:0:0:0:
448,192,98419,1,0,0:0:0:0:
64,192,98803,128,0,99188:0:0:0:0:
320,192,98803,1,0,0:0:0:0:
448,192,99188,1,0,0:0:0:0:
192,192,99380,128,0,101207:0:0:0:0:
36,192,99380,128,0,101207:0:0:0:0:
320,192,99573,1,0,0:0:0:0:
448,192,99957,1,0,0:0:0:0:
320,192,100342,1,0,0:0:0:0:
448,192,100727,128,0,101207:0:0:0:0:
320,192,100919,128,0,101207:0:0:0:0:
320,192,101303,128,0,101880:0:0:0:0:
448,192,101496,128,0,101880:0:0:0:0:
192,192,101880,128,0,102073:0:0:0:0:
64,192,101880,128,0,102169:0:0:0:0:
192,192,102265,128,0,102650:0:0:0:0:
320,192,102457,128,0,102650:0:0:0:0:
320,192,102842,128,0,104765:0:0:0:0:
109,192,102842,128,0,103227:0:0:0:0:
448,192,102842,128,0,104957:0:0:0:0:
36,192,103419,128,0,103611:0:0:0:0:
64,192,103803,128,0,105727:0:0:0:0:
192,192,104188,128,0,104765:0:0:0:0:
192,192,104957,128,0,105727:0:0:0:0:
329,192,104957,1,0,0:0:0:0:
320,192,105342,128,0,105727:0:0:0:0:
475,192,105342,1,0,0:0:0:0:
448,192,105727,1,0,0:0:0:0:
329,192,105919,128,0,107746:0:0:0:0:
109,192,105919,128,0,107169:0:0:0:0:
192,192,106303,128,0,107938:0:0:0:0:
448,192,106496,128,0,107553:0:0:0:0:
64,192,107265,128,0,108130:0:0:0:0:
448,192,107650,128,0,108419:0:0:0:0:
320,192,107842,128,0,108419:0:0:0:0:
192,192,108034,128,0,108419:0:0:0:0:
36,192,108227,128,0,108419:0:0:0:0:
182,192,108803,128,0,108996:0:0:0:0:
36,192,108996,128,0,109188:0:0:0:0:
182,192,109188,128,0,109380:0:0:0:0:
36,192,109380,128,0,110053:0:0:0:0:
182,192,109573,128,0,110246:0:0:0:0:
329,192,109765,128,0,110438:0:0:0:0:
475,192,109957,128,0,110630:0:0:0:0:
36,192,110150,128,0,111303:0:0:0:0:
182,192,110342,128,0,110823:0:0:0:0:
329,192,110534,128,0,111015:0:0:0:0:
475,192,110727,128,0,111207:0:0:0:0:
182,192,110919,128,0,111303:0:0:0:0:
329,192,111111,128,0,111303:0:0:0:0:
475,192,111303,1,0,0:0:0:0:
402,192,111496,128,0,111592:0:0:0:0:
109,192,111496,128,0,111592:0:0:0:0:
182,192,112073,128,0,112169:0:0:0:0:
329,192,112650,128,0,112746:0:0:0:0:
36,192,113419,128,0,113515:0:0:0:0:
192,192,114188,128,0,114284:0:0:0:0:
448,192,114573,128,0,114669:0:0:0:0:
36,192,114573,128,0,115053:0:0:0:0:
320,192,115150,128,0,115246:0:0:0:0:
475,192,115342,128,0,115438:0:0:0:0:
320,192,115727,128,0,115823:0:0:0:0:
192,192,115919,128,0,116400:0:0:0:0:
475,192,116496,128,0,116592:0:0:0:0:
36,192,116880,128,0,117553:0:0:0:0:
182,192,117073,128,0,117553:0:0:0:0:
329,192,117265,128,0,117553:0:0:0:0:
109,192,117650,128,0,118323:0:0:0:0:
320,192,118034,128,0,118130:0:0:0:0:
475,192,118227,128,0,118323:0:0:0:0:
320,192,118419,128,0,118515:0:0:0:0:
475,192,118803,128,0,118900:0:0:0:0:
329,192,118996,128,0,119092:0:0:0:0:
320,192,119573,128,0,119669:0:0:0:0:
192,192,119957,128,0,120053:0:0:0:0:
64,192,120342,128,0,120438:0:0:0:0:
64,192,120727,128,0,120823:0:0:0:0:
64,192,120919,1,0,0:0:0:0:
329,192,121303,128,0,121400:0:0:0:0:
329,192,121880,128,0,121977:0:0:0:0:
192,192,122073,128,0,122169:0:0:0:0:
329,192,122457,128,0,122553:0:0:0:0:
192,192,123034,128,0,123130:0:0:0:0:
329,192,123227,128,0,123707:0:0:0:0:
36,192,123419,1,4,0:0:0:0:
36,192,123803,128,0,126688:0:0:0:0:
402,192,123803,128,0,123900:0:0:0:0:
329,192,124188,1,0,0:0:0:0:
475,192,124380,128,0,124477:0:0:0:0:
192,192,124573,1,0,0:0:0:0:
402,192,124957,128,0,125053:0:0:0:0:
329,192,125150,1,0,0:0:0:0:
329,192,125342,1,0,0:0:0:0:
475,192,125727,128,0,125823:0:0:0:0:
192,192,126111,1,0,0:0:0:0:
402,192,126496,128,0,126592:0:0:0:0:
109,192,126880,128,0,129573:0:0:0:0:
192,192,126880,128,0,129573:0:0:0:0:
475,192,126880,128,0,126977:0:0:0:0:
329,192,127265,1,0,0:0:0:0:
448,192,127650,1,0,0:0:0:0:
475,192,128034,128,0,128130:0:0:0:0:
320,192,128227,128,0,128323:0:0:0:0:
475,192,128803,128,0,128900:0:0:0:0:
320,192,129188,128,0,129284:0:0:0:0:
402,192,129380,128,0,129477:0:0:0:0:
320,192,129573,128,0,129669:0:0:0:0:
320,192,129957,128,0,132842:0:0:0:0:
192,192,129957,128,0,132842:0:0:0:0:
36,192,129957,128,0,132842:0:0:0:0:
475,192,130342,128,0,130438:0:0:0:0:
448,192,130727,1,0,0:0:0:0:
448,192,131111,128,0,131207:0:0:0:0:
402,192,131880,128,0,131977:0:0:0:0:
448,192,132265,1,0,0:0:0:0:
402,192,132650,128,0,132746:0:0:0:0:
36,192,133034,5,4,0:0:0:20:
475,192,133034,1,4,0:0:0:20:
192,192,133034,1,0,0:0:0:0:
320,192,133034,1,0,0:0:0:0:
192,192,133419,1,0,0:0:0:0:
320,192,133611,128,0,135246:0:0:0:0:
64,192,133803,128,0,134669:0:0:0:0:
448,192,134188,128,0,134861:0:0:0:0:
192,192,134380,128,0,135053:0:0:0:0:
109,192,134765,128,0,135438:0:0:0:0:
402,192,134957,128,0,135630:0:0:0:0:
192,192,135150,1,0,0:0:0:0:
329,192,135342,1,0,0:0:0:0:
64,192,135534,1,0,0:0:0:0:
448,192,135727,1,0,0:0:0:0:
192,192,135919,1,0,0:0:0:0:
402,192,136111,1,4,0:0:0:20:
109,192,136111,1,4,0:0:0:20:
320,192,136111,1,0,0:0:0:0:
192,192,136496,1,0,0:0:0:0:
475,192,136688,1,0,0:0:0:0:
448,192,136880,128,0,138419:0:0:0:0:
320,192,137265,1,0,0:0:0:0:
320,192,137457,128,0,138419:0:0:0:0:
192,192,137842,1,0,0:0:0:0:
192,192,138034,128,0,138419:0:0:0:0:
64,192,138419,1,0,0:0:0:0:
329,192,138803,128,0,139188:0:0:0:0:
475,192,138803,128,0,139188:0:0:0:0:
36,192,139188,128,0,139957:0:0:0:0:
182,192,139188,128,0,139573:0:0:0:0:
448,192,139573,128,0,141111:0:0:0:0:
320,192,139957,128,0,141111:0:0:0:0:
192,192,140342,128,0,141111:0:0:0:0:
64,192,141111,128,0,144380:0:0:0:0:
182,192,141496,128,0,143323:0:0:0:0:
320,192,141880,128,0,142938:0:0:0:0:
448,192,141880,128,0,142553:0:0:0:0:
402,192,142650,128,0,144380:0:0:0:0:
256,192,143034,128,0,144380:0:0:0:0:
192,192,143419,128,0,144380:0:0:0:0:
402,192,144573,1,0,0:0:0:0:
256,192,144573,1,0,0:0:0:0:
192,192,144573,1,0,0:0:0:0:
192,192,144957,128,0,147553:0:0:0:0:
448,192,145150,1,0,0:0:0:0:
448,192,145342,128,0,148323:0:0:0:0:
64,192,145727,1,0,0:0:0:0:
36,192,145919,128,0,147169:0:0:0:0:
320,192,146303,1,0,0:0:0:0:
320,192,146496,128,0,147746:0:0:0:0:
64,192,147265,128,0,148323:0:0:0:0:
192,192,147650,128,0,148323:0:0:0:0:
320,192,147842,128,0,148323:0:0:0:0:
64,192,148419,1,0,0:0:0:0:
192,192,148419,1,0,0:0:0:0:
320,192,148419,1,0,0:0:0:0:
448,192,148419,1,0,0:0:0:0:
192,192,148803,1,0,0:0:0:0:
64,192,148996,1,0,0:0:0:0:
64,192,149188,128,0,150630:0:0:0:0:
448,192,149573,1,0,0:0:0:0:
448,192,149765,128,0,150630:0:0:0:0:
192,192,150150,128,0,150630:0:0:0:0:
320,192,150342,128,0,150630:0:0:0:0:
448,192,150727,1,0,0:0:0:0:
320,192,150727,1,0,0:0:0:0:
192,192,150727,1,0,0:0:0:0:
64,192,150727,1,0,0:0:0:0:
320,192,151111,128,0,151496:0:0:0:0:
64,192,151111,128,0,151880:0:0:0:0:
448,192,151496,128,0,152265:0:0:0:0:
192,192,151880,128,0,152650:0:0:0:0:
320,192,152265,128,0,153034:0:0:0:0:
64,192,152650,128,0,153034:0:0:0:0:
448,192,153034,1,0,0:0:0:0:
192,192,153419,128,0,154861:0:0:0:0:
320,192,153803,128,0,155246:0:0:0:0:
448,192,154188,128,0,155630:0:0:0:0:
64,192,154188,128,0,155630:0:0:0:0:
192,192,154957,128,0,155630:0:0:0:0:
320,192,155342,128,0,155630:0:0:0:0:
64,192,155727,128,0,157553:0:0:0:0:
448,192,155727,128,0,157553:0:0:0:0:
192,192,155727,128,0,157553:0:0:0:0:
320,192,155727,128,0,157553:0:0:0:0:
64,192,157650,1,0,0:0:0:0:
192,192,157650,1,0,0:0:0:0:
320,192,157650,1,0,0:0:0:0:
448,192,157650,1,0,0:0:0:0:
448,192,158034,128,0,158707:0:0:0:0:
320,192,158227,128,0,158900:0:0:0:0:
192,192,158419,128,0,159861:0:0:0:0:
64,192,158419,128,0,159477:0:0:0:0:
448,192,158803,128,0,160438:0:0:0:0:
320,192,158996,128,0,160246:0:0:0:0:
64,192,159573,128,0,160534:0:0:0:0:
192,192,159957,128,0,160534:0:0:0:0:
320,192,160342,128,0,160534:0:0:0:0:
448,192,160534,1,0,0:0:0:0:
192,192,160727,1,0,0:0:0:0:
64,192,160727,128,0,163419:0:0:0:0:
320,192,160727,128,0,163419:0:0:0:0:
448,192,161496,1,8,0:0:0:65:
192,192,161880,1,2,0:0:0:40:
192,192,162073,1,2,0:0:0:40:
192,192,162650,1,2,0:0:0:40:
448,192,163034,1,8,0:0:0:65:
448,192,163419,128,0,163803:0:0:0:0:
320,192,163803,128,0,165342:0:0:0:0:
64,192,163803,128,0,165342:0:0:0:0:
448,192,164573,1,8,0:0:0:65:
192,192,164957,1,2,0:0:0:40:
192,192,165150,1,2,0:0:0:40:
448,192,165342,128,0,166496:0:0:0:0:
192,192,165727,1,2,0:0:0:40:
64,192,166111,1,8,0:0:0:65:
320,192,166496,128,0,166880:0:0:0:0:
64,192,166880,128,0,169573:0:0:0:0:
448,192,166880,128,0,167457:0:0:0:0:
320,192,167457,128,0,168034:0:0:0:0:
192,192,167650,1,8,0:0:0:65:
192,192,168034,1,2,0:0:0:40:
448,192,168034,128,0,169573:0:0:0:0:
192,192,168227,1,2,0:0:0:40:
320,192,168803,1,2,0:0:0:40:
192,192,169188,1,8,0:0:0:65:
320,192,169573,128,0,169957:0:0:0:0:
192,192,169957,128,0,171111:0:0:0:0:
448,192,169957,1,2,0:0:0:40:
448,192,170150,1,2,0:0:0:40:
448,192,170534,1,2,0:0:0:40:
320,192,170727,1,8,0:0:0:65:
64,192,171111,128,0,171880:0:0:0:0:
448,192,171303,1,2,0:0:0:40:
448,192,171880,1,2,0:0:0:40:
192,192,171880,128,0,172265:0:0:0:0:
64,192,172265,1,8,0:0:0:65:
320,192,172265,128,0,172650:0:0:0:0:
448,192,172650,128,0,173034:0:0:0:0:
192,192,172650,1,0,0:0:0:0:
320,192,173034,128,0,175727:0:0:0:0:
64,192,173034,128,0,175727:0:0:0:0:
448,192,173803,1,8,0:0:0:65:
192,192,174188,1,2,0:0:0:40:
192,192,174380,1,2,0:0:0:40:
192,192,174957,1,2,0:0:0:40:
448,192,175342,1,8,0:0:0:65:
192,192,175727,128,0,176111:0:0:0:0:
320,192,176111,128,0,178996:0:0:0:0:
64,192,176111,128,0,178996:0:0:0:0:
448,192,176880,1,8,0:0:0:65:
192,192,177265,1,2,0:0:0:40:
192,192,177457,1,2,0:0:0:40:
448,192,177650,128,0,178996:0:0:0:0:
192,192,178034,1,2,0:0:0:40:
192,192,178419,1,8,0:0:0:65:
320,192,179188,128,0,181496:0:0:0:0:
448,192,179188,128,0,181496:0:0:0:0:
64,192,179188,128,0,181496:0:0:0:0:
192,192,179957,1,8,0:0:0:65:
192,192,180342,1,2,0:0:0:40:
192,192,180534,1,2,0:0:0:40:
192,192,181111,1,2,0:0:0:40:
192,192,181496,1,8,0:0:0:65:
64,192,181880,1,0,0:0:0:0:
320,192,182073,1,0,0:0:0:0:
192,192,182265,1,0,0:0:0:0:
64,192,182265,1,4,0:0:0:0:
448,192,182265,1,0,0:0:0:0:
320,192,182650,128,0,182746:0:0:0:0:
448,192,183034,128,0,183130:0:0:0:0:
320,192,183419,128,0,183515:0:0:0:0:
448,192,183611,128,0,183707:0:0:0:0:
320,192,183996,128,0,184092:0:0:0:0:
448,192,184188,128,0,184284:0:0:0:0:
448,192,184380,128,0,184477:0:0:0:0:
448,192,184573,1,0,0:0:0:0:
192,192,184573,1,0,0:0:0:0:
64,192,184573,1,0,0:0:0:0:
320,192,184957,1,0,0:0:0:0:
192,192,185150,1,0,0:0:0:0:
320,192,185342,1,0,0:0:0:0:
320,192,185534,128,0,186111:0:0:0:0:
448,192,186111,128,0,186207:0:0:0:0:
64,192,186111,128,0,186207:0:0:0:0:
64,192,186303,128,0,186400:0:0:0:0:
448,192,186303,128,0,186400:0:0:0:0:
192,192,186496,128,0,187073:0:0:0:0:
320,192,186688,128,0,187073:0:0:0:0:
448,192,186688,128,0,187073:0:0:0:0:
64,192,187073,1,0,0:0:0:0:
320,192,187265,128,0,187361:0:0:0:0:
448,192,187265,128,0,187361:0:0:0:0:
448,192,187457,128,0,187553:0:0:0:0:
320,192,187457,128,0,187553:0:0:0:0:
64,192,187650,128,0,188419:0:0:0:0:
192,192,187842,128,0,188419:0:0:0:0:
320,192,188034,128,0,188419:0:0:0:0:
448,192,188419,128,0,188996:0:0:0:0:
320,192,188611,128,0,188996:0:0:0:0:
192,192,188996,1,0,0:0:0:0:
64,192,189188,128,0,189284:0:0:0:0:
448,192,189188,128,0,189284:0:0:0:0:
448,192,189380,128,0,189477:0:0:0:0:
64,192,189380,128,0,189477:0:0:0:0:
192,192,189573,128,0,190150:0:0:0:0:
320,192,189765,128,0,190150:0:0:0:0:
64,192,190150,1,0,0:0:0:0:
448,192,190342,128,0,190630:0:0:0:0:
320,192,190342,128,0,190630:0:0:0:0:
64,192,190534,128,0,190823:0:0:0:0:
192,192,190534,128,0,190823:0:0:0:0:
448,192,190727,128,0,191015:0:0:0:0:
320,192,190727,128,0,191015:0:0:0:0:
64,192,190919,128,0,191111:0:0:0:0:
192,192,190919,128,0,191111:0:0:0:0:
320,192,191111,128,0,191496:0:0:0:0:
448,192,191111,128,0,191496:0:0:0:0:
192,192,191496,1,0,0:0:0:0:
64,192,191496,1,0,0:0:0:0:
448,192,191688,128,0,192073:0:0:0:0:
320,192,191688,128,0,192073:0:0:0:0:
192,192,192073,1,0,0:0:0:0:
320,192,192265,128,0,192361:0:0:0:0:
448,192,192265,128,0,192361:0:0:0:0:
448,192,192457,128,0,192553:0:0:0:0:
320,192,192457,128,0,192553:0:0:0:0:
64,192,192650,128,0,193227:0:0:0:0:
192,192,192842,128,0,193227:0:0:0:0:
320,192,193227,1,0,0:0:0:0:
192,192,193419,128,0,193515:0:0:0:0:
64,192,193419,128,0,193515:0:0:0:0:
64,192,193611,128,0,193707:0:0:0:0:
192,192,193611,128,0,193707:0:0:0:0:
448,192,193803,128,0,194573:0:0:0:0:
320,192,193996,128,0,194573:0:0:0:0:
192,192,194188,128,0,194573:0:0:0:0:
64,192,194573,1,0,0:0:0:0:
64,192,194765,128,0,194957:0:0:0:0:
320,192,194957,128,0,195150:0:0:0:0:
64,192,195150,128,0,195342:0:0:0:0:
192,192,195342,128,0,195438:0:0:0:0:
448,192,195342,128,0,195438:0:0:0:0:
192,192,195534,128,0,195630:0:0:0:0:
448,192,195534,128,0,195630:0:0:0:0:
320,192,195727,128,0,196303:0:0:0:0:
64,192,195919,128,0,196303:0:0:0:0:
192,192,196303,1,0,0:0:0:0:
64,192,196496,128,0,196784:0:0:0:0:
448,192,196496,128,0,196784:0:0:0:0:
192,192,196688,128,0,196977:0:0:0:0:
320,192,196688,128,0,196977:0:0:0:0:
64,192,196880,128,0,197169:0:0:0:0:
448,192,196880,128,0,197169:0:0:0:0:
192,192,197073,128,0,197553:0:0:0:0:
320,192,197073,128,0,197553:0:0:0:0:
64,192,197265,128,0,197553:0:0:0:0:
448,192,197265,128,0,197553:0:0:0:0:
64,192,197650,1,0,0:0:0:0:
192,192,197650,1,0,0:0:0:0:
320,192,197650,1,0,0:0:0:0:
448,192,197650,1,0,0:0:0:0:
