osu file format v14

[General]
AudioFilename: Ice - Amber Wishes.mp3
AudioLeadIn: 0
PreviewTime: 70081
Countdown: 0
SampleSet: Soft
StackLeniency: 0.7
Mode: 3
LetterboxInBreaks: 0
SpecialStyle: 0
WidescreenStoryboard: 1
SamplesMatchPlaybackRate: 1

[Editor]
Bookmarks: 6158,16004,25542,30773,50465,71388,93542,103388,113235
DistanceSpacing: 1.1
BeatDivisor: 4
GridSize: 8
TimelineZoom: 2.1

[Metadata]
Title:Long Note Practice Pack
TitleUnicode:Long Note Practice Pack
Artist:Raika
ArtistUnicode:Raika
Creator:LordRaika
Version:Level(0)4K
Source:
Tags:LN inverse shield ~~ !! @@ ## $$ ^^ && ** Mami Kawada Portamento All In Good Time Silent Siren Yumeoi ユメオイ ELISA Shining Wind Hinatsu Unravel (remix) Wings of Courage -Sora o Koete- ice Theme of Tomoe Mami Zedd ft. Matthew Koma Spectrum (Razihel Remix) Manami Watanabe Toki wo Kizamu Uta Amber Wishes
BeatmapID:816621
BeatmapSetID:329814

[Difficulty]
HPDrainRate:7.7
CircleSize:4
OverallDifficulty:7
ApproachRate:5
SliderMultiplier:1
SliderTickRate:1

[Events]
//Background and Video events
0,0,"Ice - Amber Wishes.jpg",0,0
//Break Periods
//Storyboard Layer 0 (Background)
//Storyboard Layer 1 (Fail)
//Storyboard Layer 2 (Pass)
//Storyboard Layer 3 (Foreground)
Sprite,Foreground,Centre,"Old Folder (998)\10.png",470,240 V,0,-15400,-15300,0.14,0.14,0.14,0.75 M,0,-15400,0,470,240 V,2,-15200,-14750,0.14,0.75,0.75,0.75 V,2,-13250,-12800,0.75,0.75,0.14,0.75 V,2,-12700,-12600,0.14,0.75,0.14,0.14 F,0,-12600,-12250,1,0 R,0,-12600,-12250,12.5665,0
//Storyboard Sound Samples

[TimingPoints]
1235,307.692307692308,4,2,99,5,1,0
4927,-100,4,2,99,12,0,0
71388,-100,4,2,99,12,0,1
71465,-100,4,2,99,12,0,0
93542,-100,4,2,99,12,0,1
123081,-100,4,2,99,12,0,0

[HitObjects]
192,192,1235,5,0,0:0:0:0:
329,192,1311,1,0,0:0:0:0:
475,192,1311,1,0,0:0:0:0:
109,192,1388,1,0,0:0:0:0:
329,192,1465,1,0,0:0:0:0:
475,192,1465,1,0,0:0:0:0:
182,192,1542,1,0,0:0:0:0:
329,192,1619,1,0,0:0:0:0:
475,192,1619,1,0,0:0:0:0:
109,192,1696,1,0,0:0:0:0:
329,192,1773,1,0,0:0:0:0:
475,192,1773,1,0,0:0:0:0:
192,192,1850,1,0,0:0:0:0:
329,192,1927,1,0,0:0:0:0:
475,192,1927,1,0,0:0:0:0:
109,192,2004,1,0,0:0:0:0:
475,192,2081,1,0,0:0:0:0:
329,192,2081,1,0,0:0:0:0:
182,192,2158,1,0,0:0:0:0:
475,192,2235,1,0,0:0:0:0:
329,192,2235,1,0,0:0:0:0:
109,192,2311,1,0,0:0:0:0:
475,192,2388,1,0,0:0:0:0:
329,192,2388,1,0,0:0:0:0:
192,192,2465,1,0,0:0:0:0:
475,192,2542,1,0,0:0:0:0:
329,192,2542,1,0,0:0:0:0:
109,192,2619,1,0,0:0:0:0:
329,192,2696,1,0,0:0:0:0:
475,192,2696,1,0,0:0:0:0:
182,192,2773,1,0,0:0:0:0:
329,192,2850,1,0,0:0:0:0:
475,192,2850,1,0,0:0:0:0:
109,192,2927,1,0,0:0:0:0:
329,192,3004,1,0,0:0:0:0:
475,192,3004,1,0,0:0:0:0:
192,192,3081,1,0,0:0:0:0:
329,192,3158,1,0,0:0:0:0:
475,192,3158,1,0,0:0:0:0:
109,192,3235,1,0,0:0:0:0:
329,192,3311,1,0,0:0:0:0:
475,192,3311,1,0,0:0:0:0:
182,192,3388,1,0,0:0:0:0:
475,192,3465,1,0,0:0:0:0:
329,192,3465,1,0,0:0:0:0:
109,192,3542,1,0,0:0:0:0:
475,192,3619,1,0,0:0:0:0:
329,192,3619,1,0,0:0:0:0:
192,192,3696,1,0,0:0:0:0:
475,192,3773,1,0,0:0:0:0:
329,192,3773,1,0,0:0:0:0:
109,192,3850,1,0,0:0:0:0:
475,192,3927,1,0,0:0:0:0:
329,192,3927,1,0,0:0:0:0:
182,192,4004,1,0,0:0:0:0:
475,192,4081,1,0,0:0:0:0:
329,192,4081,1,0,0:0:0:0:
109,192,4158,1,0,0:0:0:0:
329,192,4235,1,0,0:0:0:0:
475,192,4235,1,0,0:0:0:0:
192,192,4311,1,0,0:0:0:0:
475,192,4388,1,0,0:0:0:0:
329,192,4388,1,0,0:0:0:0:
109,192,4465,1,0,0:0:0:0:
475,192,4542,1,0,0:0:0:0:
329,192,4542,1,0,0:0:0:0:
182,192,4619,1,0,0:0:0:0:
475,192,4696,1,0,0:0:0:0:
329,192,4696,1,0,0:0:0:0:
109,192,4773,1,0,0:0:0:0:
475,192,4850,1,0,0:0:0:0:
329,192,4850,1,0,0:0:0:0:
192,192,4927,128,0,5158:0:0:0:0:
64,192,5004,128,0,5235:0:0:0:0:
448,192,5081,128,0,5465:0:0:0:0:
320,192,5158,128,0,5388:0:0:0:0:
192,192,5235,128,0,5311:0:0:0:0:
64,192,5311,128,0,5696:0:0:0:0:
192,192,5388,128,0,5619:0:0:0:0:
320,192,5465,128,0,5542:0:0:0:0:
448,192,5542,128,0,5773:0:0:0:0:
320,192,5619,128,0,5850:0:0:0:0:
192,192,5696,128,0,5927:0:0:0:0:
64,192,5773,128,0,6004:0:0:0:0:
448,192,5850,128,0,5965:0:0:0:0:
320,192,5927,128,0,6042:0:0:0:0:
192,192,6004,128,0,6119:0:0:0:0:
64,192,6081,128,0,6196:0:0:0:0:
329,192,6158,128,0,6465:0:0:0:0:
475,192,6158,128,0,6465:0:0:0:0:
182,192,6311,1,0,0:0:0:0:
109,192,6465,1,0,0:0:0:0:
329,192,6619,128,0,6850:0:0:0:0:
475,192,6619,128,0,6850:0:0:0:0:
192,192,6619,1,0,0:0:0:0:
109,192,6773,1,0,0:0:0:0:
192,192,6927,128,0,7158:0:0:0:0:
36,192,6927,128,0,7158:0:0:0:0:
329,192,6927,1,0,0:0:0:0:
402,192,7081,1,0,0:0:0:0:
329,192,7235,128,0,7619:0:0:0:0:
475,192,7235,128,0,7927:0:0:0:0:
182,192,7388,1,0,0:0:0:0:
36,192,7542,128,0,7696:0:0:0:0:
182,192,7619,128,0,7773:0:0:0:0:
320,192,7696,128,0,7850:0:0:0:0:
64,192,7773,128,0,8158:0:0:0:0:
192,192,7850,128,0,8081:0:0:0:0:
320,192,7927,128,0,8004:0:0:0:0:
402,192,8004,128,0,8235:0:0:0:0:
320,192,8081,128,0,8311:0:0:0:0:
192,192,8158,128,0,8388:0:0:0:0:
64,192,8235,128,0,8465:0:0:0:0:
402,192,8311,128,0,8427:0:0:0:0:
256,192,8388,128,0,8504:0:0:0:0:
182,192,8465,128,0,8581:0:0:0:0:
109,192,8542,128,0,8658:0:0:0:0:
329,192,8619,128,0,8850:0:0:0:0:
475,192,8619,128,0,8850:0:0:0:0:
182,192,8773,1,0,0:0:0:0:
36,192,8927,1,0,0:0:0:0:
182,192,9081,128,0,9235:0:0:0:0:
256,192,9081,128,0,9235:0:0:0:0:
402,192,9081,1,0,0:0:0:0:
36,192,9235,1,0,0:0:0:0:
320,192,9388,128,0,9542:0:0:0:0:
475,192,9388,128,0,9542:0:0:0:0:
192,192,9388,1,0,0:0:0:0:
182,192,9696,128,0,9850:0:0:0:0:
36,192,9696,128,0,9850:0:0:0:0:
320,192,9696,1,0,0:0:0:0:
475,192,9850,1,0,0:0:0:0:
109,192,10004,128,0,10388:0:0:0:0:
182,192,10004,128,0,10465:0:0:0:0:
256,192,10004,128,0,10542:0:0:0:0:
402,192,10004,128,0,10619:0:0:0:0:
64,192,10465,128,0,10696:0:0:0:0:
192,192,10542,128,0,10773:0:0:0:0:
320,192,10619,128,0,10850:0:0:0:0:
448,192,10696,128,0,10927:0:0:0:0:
64,192,10773,128,0,10927:0:0:0:0:
192,192,10850,128,0,10927:0:0:0:0:
320,192,10927,1,0,0:0:0:0:
64,192,11081,128,0,11235:0:0:0:0:
192,192,11081,128,0,11158:0:0:0:0:
448,192,11081,128,0,11311:0:0:0:0:
320,192,11158,128,0,11388:0:0:0:0:
192,192,11235,128,0,11465:0:0:0:0:
64,192,11311,128,0,11542:0:0:0:0:
448,192,11388,128,0,11619:0:0:0:0:
320,192,11465,128,0,11696:0:0:0:0:
192,192,11542,128,0,11773:0:0:0:0:
64,192,11619,128,0,11850:0:0:0:0:
448,192,11696,128,0,11927:0:0:0:0:
320,192,11773,128,0,12004:0:0:0:0:
192,192,11850,128,0,12081:0:0:0:0:
64,192,11927,128,0,12158:0:0:0:0:
448,192,12004,128,0,12158:0:0:0:0:
320,192,12081,128,0,12158:0:0:0:0:
192,192,12158,1,0,0:0:0:0:
64,192,12311,128,0,12542:0:0:0:0:
320,192,12311,128,0,12388:0:0:0:0:
448,192,12311,128,0,12465:0:0:0:0:
192,192,12388,128,0,12619:0:0:0:0:
320,192,12465,128,0,12696:0:0:0:0:
448,192,12542,128,0,12773:0:0:0:0:
64,192,12619,128,0,12850:0:0:0:0:
192,192,12696,128,0,12927:0:0:0:0:
320,192,12773,128,0,13004:0:0:0:0:
448,192,12850,128,0,13081:0:0:0:0:
64,192,12927,128,0,13158:0:0:0:0:
192,192,13004,128,0,13235:0:0:0:0:
320,192,13081,128,0,13311:0:0:0:0:
448,192,13158,128,0,13388:0:0:0:0:
64,192,13235,128,0,13388:0:0:0:0:
192,192,13311,128,0,13388:0:0:0:0:
320,192,13388,1,0,0:0:0:0:
329,192,13542,128,0,13927:0:0:0:0:
475,192,13542,128,0,13927:0:0:0:0:
182,192,13542,128,0,13927:0:0:0:0:
36,192,13542,128,0,13927:0:0:0:0:
182,192,14004,128,0,14235:0:0:0:0:
36,192,14004,128,0,14235:0:0:0:0:
329,192,14004,128,0,14235:0:0:0:0:
475,192,14004,128,0,14235:0:0:0:0:
182,192,14311,128,0,14465:0:0:0:0:
329,192,14311,128,0,14465:0:0:0:0:
36,192,14465,1,0,0:0:0:0:
475,192,14465,1,0,0:0:0:0:
109,192,14619,128,0,15235:0:0:0:0:
182,192,14619,128,0,14850:0:0:0:0:
329,192,14619,128,0,14773:0:0:0:0:
402,192,14619,128,0,15004:0:0:0:0:
320,192,14850,128,0,15081:0:0:0:0:
192,192,14927,128,0,15158:0:0:0:0:
448,192,15081,128,0,15311:0:0:0:0:
320,192,15158,128,0,15388:0:0:0:0:
192,192,15235,128,0,15465:0:0:0:0:
64,192,15311,128,0,15542:0:0:0:0:
448,192,15388,128,0,15504:0:0:0:0:
256,192,15465,128,0,15581:0:0:0:0:
182,192,15542,128,0,15658:0:0:0:0:
109,192,15619,128,0,15735:0:0:0:0:
448,192,15696,1,2,1:0:0:45:
320,192,15735,1,2,1:0:0:45:
192,192,15773,1,2,1:0:0:45:
64,192,15811,1,2,1:0:0:45:
448,192,15850,1,2,1:0:0:45:
320,192,15888,1,2,1:0:0:45:
192,192,15927,1,2,1:0:0:45:
64,192,15965,1,2,1:0:0:45:
448,192,16004,128,0,16235:0:0:0:0:
320,192,16004,128,0,16235:0:0:0:0:
64,192,16158,1,0,0:0:0:0:
192,192,16311,1,0,0:0:0:0:
109,192,16465,128,0,16696:0:0:0:0:
320,192,16465,128,0,16696:0:0:0:0:
475,192,16773,128,0,17004:0:0:0:0:
192,192,16773,128,0,17004:0:0:0:0:
320,192,17081,128,0,17388:0:0:0:0:
64,192,17081,128,0,17542:0:0:0:0:
402,192,17388,128,0,17619:0:0:0:0:
329,192,17465,128,0,17696:0:0:0:0:
182,192,17542,128,0,17773:0:0:0:0:
64,192,17619,128,0,17850:0:0:0:0:
448,192,17696,128,0,18388:0:0:0:0:
329,192,17773,128,0,17927:0:0:0:0:
182,192,17850,128,0,18004:0:0:0:0:
109,192,17927,128,0,18081:0:0:0:0:
329,192,18004,128,0,18158:0:0:0:0:
182,192,18081,128,0,18235:0:0:0:0:
109,192,18158,128,0,18311:0:0:0:0:
320,192,18235,128,0,18388:0:0:0:0:
192,192,18311,128,0,18465:0:0:0:0:
64,192,18388,128,0,18542:0:0:0:0:
448,192,18465,128,0,18773:0:0:0:0:
320,192,18465,128,0,18773:0:0:0:0:
192,192,18773,1,0,0:0:0:0:
256,192,18927,128,0,19158:0:0:0:0:
64,192,18927,128,0,19158:0:0:0:0:
402,192,18927,1,0,0:0:0:0:
182,192,19235,128,0,19465:0:0:0:0:
329,192,19235,128,0,19465:0:0:0:0:
475,192,19235,1,0,0:0:0:0:
256,192,19542,128,0,19773:0:0:0:0:
402,192,19542,128,0,19773:0:0:0:0:
36,192,19542,1,0,0:0:0:0:
329,192,19850,1,0,0:0:0:0:
475,192,19850,1,0,0:0:0:0:
182,192,19850,1,0,0:0:0:0:
36,192,19850,1,0,0:0:0:0:
182,192,20004,128,0,20311:0:0:0:0:
36,192,20004,128,0,20235:0:0:0:0:
329,192,20004,128,0,20388:0:0:0:0:
475,192,20004,128,0,20465:0:0:0:0:
36,192,20311,128,0,20696:0:0:0:0:
182,192,20388,128,0,20619:0:0:0:0:
329,192,20465,128,0,20542:0:0:0:0:
475,192,20542,128,0,20696:0:0:0:0:
329,192,20619,128,0,20773:0:0:0:0:
182,192,20696,128,0,20850:0:0:0:0:
36,192,20773,128,0,20927:0:0:0:0:
448,192,20927,128,0,21158:0:0:0:0:
320,192,21004,128,0,21235:0:0:0:0:
192,192,21081,128,0,21311:0:0:0:0:
64,192,21158,128,0,21388:0:0:0:0:
448,192,21235,128,0,21619:0:0:0:0:
320,192,21311,128,0,21542:0:0:0:0:
192,192,21388,128,0,21465:0:0:0:0:
64,192,21465,128,0,21696:0:0:0:0:
192,192,21542,128,0,21773:0:0:0:0:
320,192,21619,128,0,21850:0:0:0:0:
448,192,21696,128,0,21927:0:0:0:0:
64,192,21773,128,0,22004:0:0:0:0:
192,192,21850,128,0,22004:0:0:0:0:
320,192,21927,128,0,22004:0:0:0:0:
448,192,22004,1,0,0:0:0:0:
64,192,22158,128,0,22311:0:0:0:0:
448,192,22158,128,0,22388:0:0:0:0:
192,192,22158,128,0,22235:0:0:0:0:
320,192,22235,128,0,22465:0:0:0:0:
192,192,22311,128,0,22542:0:0:0:0:
64,192,22388,128,0,22619:0:0:0:0:
448,192,22465,128,0,22696:0:0:0:0:
320,192,22542,128,0,22773:0:0:0:0:
192,192,22619,128,0,22850:0:0:0:0:
64,192,22696,128,0,22927:0:0:0:0:
448,192,22773,128,0,23004:0:0:0:0:
320,192,22850,128,0,23081:0:0:0:0:
192,192,22927,128,0,23158:0:0:0:0:
64,192,23004,128,0,23235:0:0:0:0:
448,192,23081,128,0,23235:0:0:0:0:
320,192,23158,128,0,23235:0:0:0:0:
192,192,23235,1,0,0:0:0:0:
448,192,23388,128,0,23773:0:0:0:0:
64,192,23388,128,0,23542:0:0:0:0:
320,192,23465,128,0,23696:0:0:0:0:
192,192,23542,128,0,23619:0:0:0:0:
64,192,23619,128,0,23850:0:0:0:0:
192,192,23696,128,0,23927:0:0:0:0:
320,192,23773,128,0,24004:0:0:0:0:
448,192,23850,128,0,24081:0:0:0:0:
64,192,23927,128,0,24158:0:0:0:0:
192,192,24004,128,0,24235:0:0:0:0:
320,192,24081,128,0,24311:0:0:0:0:
448,192,24158,128,0,24388:0:0:0:0:
109,192,24235,128,0,24388:0:0:0:0:
182,192,24311,128,0,24465:0:0:0:0:
329,192,24388,128,0,24542:0:0:0:0:
475,192,24465,128,0,24619:0:0:0:0:
36,192,24619,1,0,0:0:0:0:
182,192,24619,1,0,0:0:0:0:
402,192,24773,1,0,0:0:0:0:
192,192,24773,1,0,0:0:0:0:
256,192,24773,1,0,0:0:0:0:
402,192,24927,1,0,0:0:0:0:
192,192,24927,1,0,0:0:0:0:
256,192,24927,1,0,0:0:0:0:
192,192,25081,1,0,0:0:0:0:
402,192,25081,1,0,0:0:0:0:
256,192,25081,1,0,0:0:0:0:
64,192,25235,1,0,0:0:0:0:
448,192,25311,1,0,0:0:0:0:
192,192,25388,1,0,0:0:0:0:
320,192,25388,1,0,0:0:0:0:
64,192,25465,1,0,0:0:0:0:
448,192,25542,1,2,1:0:0:45:
320,192,25581,1,2,1:0:0:45:
192,192,25619,1,2,1:0:0:45:
64,192,25658,1,2,1:0:0:45:
448,192,25696,1,2,1:0:0:45:
320,192,25735,1,2,1:0:0:45:
192,192,25773,1,2,1:0:0:45:
64,192,25811,1,2,1:0:0:45:
320,192,25850,128,0,25927:0:0:0:0:
448,192,25850,128,0,25927:0:0:0:0:
192,192,26004,1,0,0:0:0:0:
109,192,26158,1,0,0:0:0:0:
320,192,26158,1,0,0:0:0:0:
475,192,26158,1,0,0:0:0:0:
36,192,26311,128,0,26388:0:0:0:0:
182,192,26311,128,0,26388:0:0:0:0:
329,192,26465,1,0,0:0:0:0:
475,192,26465,1,0,0:0:0:0:
36,192,26619,128,0,26696:0:0:0:0:
182,192,26619,128,0,26696:0:0:0:0:
448,192,26696,1,0,0:0:0:0:
320,192,26773,1,0,0:0:0:0:
182,192,26850,1,0,0:0:0:0:
109,192,26927,128,0,27004:0:0:0:0:
320,192,26927,128,0,27004:0:0:0:0:
402,192,27081,1,0,0:0:0:0:
182,192,27158,1,0,0:0:0:0:
329,192,27235,1,0,0:0:0:0:
448,192,27311,1,0,0:0:0:0:
192,192,27388,1,0,0:0:0:0:
320,192,27388,1,0,0:0:0:0:
64,192,27465,1,0,0:0:0:0:
192,192,27542,1,0,0:0:0:0:
320,192,27619,1,0,0:0:0:0:
448,192,27696,1,0,0:0:0:0:
36,192,27696,1,0,0:0:0:0:
192,192,27773,1,0,0:0:0:0:
329,192,27850,128,0,27927:0:0:0:0:
475,192,27850,128,0,27927:0:0:0:0:
182,192,28004,128,0,28081:0:0:0:0:
36,192,28004,128,0,28081:0:0:0:0:
329,192,28158,128,0,28235:0:0:0:0:
475,192,28158,128,0,28235:0:0:0:0:
256,192,28311,1,0,0:0:0:0:
182,192,28311,1,0,0:0:0:0:
36,192,28311,1,0,0:0:0:0:
475,192,28388,1,0,0:0:0:0:
329,192,28465,1,0,0:0:0:0:
192,192,28542,1,0,0:0:0:0:
109,192,28619,1,0,0:0:0:0:
402,192,28619,1,0,0:0:0:0:
329,192,28696,1,0,0:0:0:0:
36,192,28773,128,0,28850:0:0:0:0:
182,192,28773,128,0,28850:0:0:0:0:
402,192,28850,1,0,0:0:0:0:
329,192,28927,1,0,0:0:0:0:
475,192,29004,1,0,0:0:0:0:
182,192,29081,128,0,29158:0:0:0:0:
36,192,29081,128,0,29158:0:0:0:0:
256,192,29158,1,0,0:0:0:0:
475,192,29235,1,0,0:0:0:0:
182,192,29311,5,0,0:0:0:0:
448,192,29388,128,0,29465:0:0:0:0:
256,192,29388,128,0,29465:0:0:0:0:
64,192,29542,128,0,29773:0:0:0:0:
192,192,29619,128,0,29850:0:0:0:0:
320,192,29696,128,0,29927:0:0:0:0:
448,192,29773,128,0,30004:0:0:0:0:
64,192,29850,128,0,30081:0:0:0:0:
192,192,29927,128,0,30158:0:0:0:0:
320,192,30004,128,0,30235:0:0:0:0:
448,192,30081,128,0,30311:0:0:0:0:
64,192,30158,1,0,0:0:0:0:
192,192,30235,1,0,0:0:0:0:
320,192,30311,1,0,0:0:0:0:
448,192,30388,1,0,0:0:0:0:
64,192,30465,1,2,1:0:0:45:
192,192,30504,1,2,1:0:0:45:
329,192,30542,1,2,1:0:0:45:
448,192,30581,1,2,1:0:0:45:
64,192,30619,1,2,1:0:0:45:
192,192,30658,1,2,1:0:0:45:
320,192,30696,1,2,1:0:0:45:
448,192,30735,1,2,1:0:0:45:
64,192,30773,128,0,30850:0:0:0:0:
192,192,30773,128,0,30850:0:0:0:0:
256,192,30850,1,0,0:0:0:0:
448,192,30927,1,0,0:0:0:0:
256,192,31081,1,0,0:0:0:0:
36,192,31081,1,0,0:0:0:0:
36,192,31235,128,0,31311:0:0:0:0:
182,192,31235,128,0,31311:0:0:0:0:
475,192,31235,1,0,0:0:0:0:
329,192,31388,1,0,0:0:0:0:
64,192,31465,1,0,0:0:0:0:
320,192,31542,128,0,31619:0:0:0:0:
402,192,31542,128,0,31619:0:0:0:0:
320,192,31696,1,0,0:0:0:0:
192,192,31696,1,0,0:0:0:0:
182,192,31850,128,0,31927:0:0:0:0:
109,192,31850,128,0,31927:0:0:0:0:
402,192,31927,1,0,0:0:0:0:
256,192,32004,1,0,0:0:0:0:
192,192,32081,1,0,0:0:0:0:
109,192,32158,1,0,0:0:0:0:
402,192,32158,1,0,0:0:0:0:
256,192,32235,1,0,0:0:0:0:
64,192,32311,128,0,32696:0:0:0:0:
192,192,32388,128,0,32619:0:0:0:0:
320,192,32465,128,0,32542:0:0:0:0:
448,192,32542,1,0,0:0:0:0:
320,192,32619,1,0,0:0:0:0:
192,192,32696,1,0,0:0:0:0:
475,192,32773,1,0,0:0:0:0:
36,192,32773,1,0,0:0:0:0:
329,192,32850,1,0,0:0:0:0:
192,192,32927,1,0,0:0:0:0:
109,192,32927,1,0,0:0:0:0:
329,192,33081,1,0,0:0:0:0:
192,192,33235,128,0,33311:0:0:0:0:
109,192,33235,128,0,33311:0:0:0:0:
448,192,33235,1,0,0:0:0:0:
329,192,33388,1,0,0:0:0:0:
182,192,33465,1,0,0:0:0:0:
448,192,33542,1,0,0:0:0:0:
109,192,33542,1,0,0:0:0:0:
329,192,33696,128,0,33773:0:0:0:0:
182,192,33696,128,0,33773:0:0:0:0:
475,192,33850,1,0,0:0:0:0:
36,192,33850,1,0,0:0:0:0:
182,192,33927,1,0,0:0:0:0:
329,192,34004,128,0,34081:0:0:0:0:
475,192,34004,128,0,34081:0:0:0:0:
182,192,34158,1,0,0:0:0:0:
64,192,34158,1,0,0:0:0:0:
320,192,34235,1,0,0:0:0:0:
448,192,34311,128,0,34619:0:0:0:0:
320,192,34388,128,0,34542:0:0:0:0:
64,192,34465,128,0,34696:0:0:0:0:
192,192,34542,128,0,34773:0:0:0:0:
320,192,34619,128,0,34850:0:0:0:0:
448,192,34696,128,0,34927:0:0:0:0:
64,192,34773,128,0,35004:0:0:0:0:
192,192,34850,128,0,35081:0:0:0:0:
320,192,34927,128,0,35158:0:0:0:0:
448,192,35004,128,0,35235:0:0:0:0:
109,192,35081,1,0,0:0:0:0:
182,192,35158,1,0,0:0:0:0:
329,192,35235,1,0,0:0:0:0:
402,192,35311,1,0,0:0:0:0:
36,192,35388,1,0,0:0:0:0:
192,192,35388,1,0,0:0:0:0:
320,192,35542,1,0,0:0:0:0:
36,192,35619,1,0,0:0:0:0:
329,192,35696,128,0,35773:0:0:0:0:
402,192,35696,128,0,35773:0:0:0:0:
36,192,35850,1,0,0:0:0:0:
192,192,35850,1,0,0:0:0:0:
320,192,36004,1,0,0:0:0:0:
475,192,36004,1,0,0:0:0:0:
182,192,36158,128,0,36235:0:0:0:0:
109,192,36158,128,0,36235:0:0:0:0:
320,192,36235,1,0,0:0:0:0:
448,192,36311,1,0,0:0:0:0:
109,192,36388,1,0,0:0:0:0:
182,192,36465,128,0,36542:0:0:0:0:
329,192,36465,128,0,36542:0:0:0:0:
109,192,36619,1,0,0:0:0:0:
475,192,36619,1,0,0:0:0:0:
329,192,36773,128,0,36850:0:0:0:0:
402,192,36773,128,0,36850:0:0:0:0:
182,192,36927,1,0,0:0:0:0:
64,192,36927,1,0,0:0:0:0:
329,192,37081,128,0,37158:0:0:0:0:
475,192,37081,128,0,37158:0:0:0:0:
329,192,37235,1,0,0:0:0:0:
402,192,37235,1,0,0:0:0:0:
64,192,37388,1,0,0:0:0:0:
448,192,37465,1,0,0:0:0:0:
182,192,37542,128,0,37619:0:0:0:0:
256,192,37542,128,0,37619:0:0:0:0:
475,192,37696,1,0,0:0:0:0:
320,192,37773,1,0,0:0:0:0:
109,192,37850,1,0,0:0:0:0:
192,192,37850,1,0,0:0:0:0:
329,192,37927,1,0,0:0:0:0:
475,192,37927,1,0,0:0:0:0:
36,192,38004,1,0,0:0:0:0:
182,192,38004,1,0,0:0:0:0:
329,192,38081,1,0,0:0:0:0:
475,192,38081,1,0,0:0:0:0:
36,192,38158,128,0,38235:0:0:0:0:
182,192,38158,128,0,38235:0:0:0:0:
402,192,38311,128,0,38388:0:0:0:0:
329,192,38388,128,0,38465:0:0:0:0:
192,192,38465,128,0,38542:0:0:0:0:
64,192,38542,1,0,0:0:0:0:
320,192,38619,1,0,0:0:0:0:
448,192,38619,128,0,38696:0:0:0:0:
192,192,38773,128,0,38850:0:0:0:0:
36,192,38773,1,0,0:0:0:0:
320,192,38850,1,0,0:0:0:0:
36,192,38927,128,0,39004:0:0:0:0:
448,192,38927,1,0,0:0:0:0:
182,192,39004,1,0,0:0:0:0:
475,192,39081,128,0,39158:0:0:0:0:
256,192,39081,1,0,0:0:0:0:
109,192,39158,1,0,0:0:0:0:
182,192,39235,128,0,39311:0:0:0:0:
329,192,39235,1,0,0:0:0:0:
448,192,39388,1,0,0:0:0:0:
36,192,39388,1,0,0:0:0:0:
320,192,39542,1,0,0:0:0:0:
448,192,39696,128,0,39773:0:0:0:0:
192,192,39696,128,0,39773:0:0:0:0:
192,192,39850,128,0,39927:0:0:0:0:
448,192,39850,128,0,39927:0:0:0:0:
64,192,40004,1,0,0:0:0:0:
320,192,40004,1,0,0:0:0:0:
320,192,40158,1,0,0:0:0:0:
64,192,40158,1,0,0:0:0:0:
448,192,40311,1,0,0:0:0:0:
320,192,40388,1,0,0:0:0:0:
64,192,40465,1,0,0:0:0:0:
192,192,40542,1,0,0:0:0:0:
448,192,40619,128,0,40696:0:0:0:0:
320,192,40619,128,0,40696:0:0:0:0:
192,192,40773,1,0,0:0:0:0:
320,192,40927,1,0,0:0:0:0:
182,192,41081,128,0,41158:0:0:0:0:
109,192,41081,128,0,41158:0:0:0:0:
448,192,41081,1,0,0:0:0:0:
320,192,41235,1,0,0:0:0:0:
320,192,41388,128,0,41465:0:0:0:0:
402,192,41388,128,0,41465:0:0:0:0:
109,192,41388,1,0,0:0:0:0:
182,192,41542,1,0,0:0:0:0:
320,192,41696,1,0,0:0:0:0:
182,192,41696,128,0,41773:0:0:0:0:
109,192,41696,128,0,41773:0:0:0:0:
448,192,41850,1,0,0:0:0:0:
320,192,41927,1,0,0:0:0:0:
182,192,42004,1,0,0:0:0:0:
64,192,42004,1,0,0:0:0:0:
320,192,42158,1,0,0:0:0:0:
64,192,42235,1,0,0:0:0:0:
192,192,42311,1,0,0:0:0:0:
448,192,42388,1,0,0:0:0:0:
109,192,42465,128,0,42542:0:0:0:0:
320,192,42465,128,0,42542:0:0:0:0:
448,192,42619,1,0,0:0:0:0:
320,192,42773,128,0,42850:0:0:0:0:
448,192,42773,128,0,42850:0:0:0:0:
192,192,42927,1,0,0:0:0:0:
402,192,43081,1,0,0:0:0:0:
109,192,43081,128,0,43158:0:0:0:0:
192,192,43081,128,0,43158:0:0:0:0:
256,192,43235,1,0,0:0:0:0:
475,192,43388,1,0,0:0:0:0:
109,192,43388,1,0,0:0:0:0:
329,192,43542,128,0,43619:0:0:0:0:
182,192,43542,128,0,43619:0:0:0:0:
475,192,43696,1,0,0:0:0:0:
36,192,43696,1,0,0:0:0:0:
182,192,43773,1,0,0:0:0:0:
402,192,43850,128,0,43927:0:0:0:0:
329,192,43850,128,0,43927:0:0:0:0:
182,192,44004,1,0,0:0:0:0:
64,192,44004,1,0,0:0:0:0:
320,192,44158,128,0,44388:0:0:0:0:
448,192,44158,128,0,44465:0:0:0:0:
64,192,44311,128,0,44619:0:0:0:0:
192,192,44388,128,0,44542:0:0:0:0:
320,192,44465,128,0,44696:0:0:0:0:
448,192,44542,128,0,44773:0:0:0:0:
192,192,44619,128,0,44927:0:0:0:0:
64,192,44696,128,0,44850:0:0:0:0:
320,192,44773,128,0,45004:0:0:0:0:
448,192,44850,128,0,45081:0:0:0:0:
64,192,44927,1,0,0:0:0:0:
192,192,45004,1,0,0:0:0:0:
320,192,45081,1,0,0:0:0:0:
448,192,45158,1,0,0:0:0:0:
192,192,45235,1,0,0:0:0:0:
64,192,45235,1,0,0:0:0:0:
448,192,45311,1,0,0:0:0:0:
320,192,45311,1,0,0:0:0:0:
64,192,45388,1,0,0:0:0:0:
192,192,45388,1,0,0:0:0:0:
320,192,45465,1,0,0:0:0:0:
448,192,45465,1,0,0:0:0:0:
64,192,45542,128,0,45619:0:0:0:0:
192,192,45542,128,0,45619:0:0:0:0:
448,192,45696,1,0,0:0:0:0:
320,192,45773,1,0,0:0:0:0:
192,192,45850,1,0,0:0:0:0:
64,192,45927,1,0,0:0:0:0:
256,192,46004,128,0,46081:0:0:0:0:
448,192,46004,128,0,46081:0:0:0:0:
192,192,46081,1,0,0:0:0:0:
64,192,46158,1,0,0:0:0:0:
448,192,46235,1,0,0:0:0:0:
329,192,46311,128,0,46388:0:0:0:0:
182,192,46311,128,0,46388:0:0:0:0:
64,192,46388,1,0,0:0:0:0:
448,192,46465,1,0,0:0:0:0:
182,192,46542,1,0,0:0:0:0:
402,192,46619,128,0,46696:0:0:0:0:
329,192,46619,128,0,46696:0:0:0:0:
64,192,46696,1,0,0:0:0:0:
182,192,46773,1,0,0:0:0:0:
320,192,46850,1,0,0:0:0:0:
192,192,46927,128,0,47004:0:0:0:0:
64,192,46927,128,0,47004:0:0:0:0:
192,192,47081,1,0,0:0:0:0:
64,192,47081,1,0,0:0:0:0:
448,192,47158,1,0,0:0:0:0:
320,192,47235,1,0,0:0:0:0:
192,192,47235,1,0,0:0:0:0:
64,192,47311,1,0,0:0:0:0:
448,192,47388,1,0,0:0:0:0:
320,192,47388,1,0,0:0:0:0:
192,192,47465,1,0,0:0:0:0:
448,192,47542,1,0,0:0:0:0:
64,192,47542,1,0,0:0:0:0:
192,192,47696,128,0,47773:0:0:0:0:
320,192,47696,128,0,47773:0:0:0:0:
192,192,47850,128,0,47927:0:0:0:0:
320,192,47850,128,0,47927:0:0:0:0:
448,192,48004,128,0,48081:0:0:0:0:
64,192,48004,128,0,48081:0:0:0:0:
192,192,48158,1,0,0:0:0:0:
320,192,48235,1,0,0:0:0:0:
402,192,48311,1,0,0:0:0:0:
64,192,48311,1,0,0:0:0:0:
329,192,48465,1,0,0:0:0:0:
192,192,48465,1,0,0:0:0:0:
64,192,48542,128,0,48619:0:0:0:0:
448,192,48542,128,0,48619:0:0:0:0:
36,192,48773,1,0,0:0:0:0:
448,192,48773,1,0,0:0:0:0:
192,192,48850,128,0,48927:0:0:0:0:
320,192,48850,128,0,48927:0:0:0:0:
109,192,49004,1,0,0:0:0:0:
256,192,49081,128,0,49158:0:0:0:0:
402,192,49081,128,0,49158:0:0:0:0:
192,192,49235,1,0,0:0:0:0:
109,192,49235,1,0,0:0:0:0:
182,192,49388,128,0,49465:0:0:0:0:
329,192,49388,128,0,49465:0:0:0:0:
475,192,49542,128,0,49619:0:0:0:0:
36,192,49542,128,0,49619:0:0:0:0:
329,192,49696,1,0,0:0:0:0:
192,192,49696,1,0,0:0:0:0:
64,192,49850,1,0,0:0:0:0:
182,192,49850,1,0,0:0:0:0:
329,192,49927,1,0,0:0:0:0:
448,192,49927,1,0,0:0:0:0:
64,192,50004,1,0,0:0:0:0:
182,192,50004,1,0,0:0:0:0:
329,192,50081,1,0,0:0:0:0:
448,192,50081,1,0,0:0:0:0:
36,192,50158,1,0,0:0:0:0:
192,192,50158,1,2,1:0:0:45:
448,192,50196,1,2,1:0:0:45:
320,192,50235,1,2,1:0:0:45:
192,192,50273,1,2,1:0:0:45:
64,192,50311,1,2,1:0:0:45:
448,192,50350,1,2,1:0:0:45:
320,192,50388,1,2,1:0:0:45:
192,192,50427,1,2,1:0:0:45:
64,192,50465,128,2,51465:1:0:0:45:
320,192,50696,128,0,51311:0:0:0:0:
192,192,50927,128,0,51158:0:0:0:0:
448,192,51081,128,0,51619:0:0:0:0:
182,192,51235,128,0,51465:0:0:0:0:
329,192,51388,128,0,51850:0:0:0:0:
64,192,51542,128,0,52081:0:0:0:0:
192,192,51542,128,0,52542:0:0:0:0:
402,192,51696,128,0,52235:0:0:0:0:
320,192,51927,128,0,52619:0:0:0:0:
109,192,52158,128,0,52542:0:0:0:0:
448,192,52311,128,0,52619:0:0:0:0:
36,192,52619,1,0,0:0:0:0:
182,192,52619,1,0,0:0:0:0:
329,192,52696,1,0,0:0:0:0:
475,192,52696,1,0,0:0:0:0:
182,192,52773,1,0,0:0:0:0:
36,192,52773,1,0,0:0:0:0:
109,192,52927,128,0,53311:0:0:0:0:
329,192,52927,128,0,53465:0:0:0:0:
448,192,52927,128,0,53696:0:0:0:0:
192,192,53158,128,0,53927:0:0:0:0:
64,192,53388,128,0,53927:0:0:0:0:
320,192,53542,128,0,54081:0:0:0:0:
448,192,53773,128,0,55158:0:0:0:0:
182,192,54004,128,0,54696:0:0:0:0:
109,192,54004,128,0,54696:0:0:0:0:
329,192,54158,128,0,55158:0:0:0:0:
182,192,54773,128,0,55004:0:0:0:0:
109,192,54773,128,0,55004:0:0:0:0:
182,192,55081,1,0,0:0:0:0:
109,192,55081,1,0,0:0:0:0:
329,192,55235,1,0,0:0:0:0:
402,192,55235,1,0,0:0:0:0:
475,192,55388,128,0,55542:0:0:0:0:
182,192,55388,128,0,56542:0:0:0:0:
64,192,55388,128,0,56235:0:0:0:0:
448,192,55619,128,0,55927:0:0:0:0:
329,192,55850,128,0,56081:0:0:0:0:
402,192,56004,128,0,56388:0:0:0:0:
329,192,56158,128,0,56388:0:0:0:0:
64,192,56311,128,0,56388:0:0:0:0:
329,192,56465,128,0,57158:0:0:0:0:
448,192,56465,128,0,57773:0:0:0:0:
64,192,56465,128,0,56773:0:0:0:0:
192,192,56619,128,0,56773:0:0:0:0:
109,192,56850,128,0,57619:0:0:0:0:
192,192,56850,128,0,57004:0:0:0:0:
182,192,57081,128,0,57311:0:0:0:0:
329,192,57235,128,0,57465:0:0:0:0:
182,192,57388,128,0,58004:0:0:0:0:
320,192,57542,128,0,57773:0:0:0:0:
64,192,57696,128,0,58235:0:0:0:0:
329,192,57850,128,0,58850:0:0:0:0:
448,192,57850,128,0,58388:0:0:0:0:
192,192,58081,128,0,58850:0:0:0:0:
64,192,58311,128,0,58850:0:0:0:0:
448,192,58465,128,0,58696:0:0:0:0:
475,192,58773,128,0,58850:0:0:0:0:
182,192,58927,1,0,0:0:0:0:
475,192,58927,1,0,0:0:0:0:
36,192,58927,1,0,0:0:0:0:
329,192,58927,1,0,0:0:0:0:
192,192,59081,1,0,0:0:0:0:
109,192,59081,1,0,0:0:0:0:
448,192,59158,1,0,0:0:0:0:
192,192,59235,1,0,0:0:0:0:
320,192,59235,1,0,0:0:0:0:
64,192,59311,1,0,0:0:0:0:
320,192,59388,1,0,0:0:0:0:
475,192,59388,1,0,0:0:0:0:
192,192,59465,1,0,0:0:0:0:
320,192,59542,1,0,0:0:0:0:
64,192,59542,1,0,0:0:0:0:
192,192,59619,1,0,0:0:0:0:
448,192,59696,1,2,1:0:0:45:
320,192,59735,1,2,1:0:0:45:
64,192,59773,1,2,1:0:0:45:
192,192,59811,1,2,1:0:0:45:
448,192,59850,1,2,1:0:0:45:
320,192,59888,1,2,1:0:0:45:
64,192,59927,1,2,1:0:0:45:
192,192,59965,1,2,1:0:0:45:
448,192,60004,1,2,1:0:0:45:
320,192,60042,1,2,1:0:0:45:
64,192,60081,1,2,1:0:0:45:
192,192,60119,1,2,1:0:0:45:
448,192,60158,1,2,1:0:0:45:
320,192,60196,1,2,1:0:0:45:
64,192,60235,1,2,1:0:0:45:
192,192,60273,1,2,1:0:0:45:
475,192,60311,128,0,60465:0:0:0:0:
329,192,60311,128,0,60465:0:0:0:0:
329,192,60542,128,0,61158:0:0:0:0:
402,192,60542,128,0,61465:0:0:0:0:
36,192,60773,128,0,61004:0:0:0:0:
182,192,60927,128,0,61311:0:0:0:0:
36,192,61081,128,0,61311:0:0:0:0:
329,192,61235,128,0,61696:0:0:0:0:
36,192,61388,128,0,61927:0:0:0:0:
182,192,61388,128,0,62081:0:0:0:0:
448,192,61542,128,0,62388:0:0:0:0:
320,192,61773,128,0,62388:0:0:0:0:
64,192,62004,128,0,62465:0:0:0:0:
192,192,62158,128,0,62465:0:0:0:0:
448,192,62465,1,0,0:0:0:0:
320,192,62465,1,0,0:0:0:0:
192,192,62542,1,0,0:0:0:0:
64,192,62542,1,0,0:0:0:0:
320,192,62619,1,0,0:0:0:0:
448,192,62619,1,0,0:0:0:0:
192,192,62773,128,0,63311:0:0:0:0:
64,192,62773,128,0,63773:0:0:0:0:
320,192,63004,128,0,63773:0:0:0:0:
448,192,63235,128,0,63542:0:0:0:0:
192,192,63388,128,0,63773:0:0:0:0:
448,192,63619,128,0,63927:0:0:0:0:
182,192,63850,128,0,64542:0:0:0:0:
109,192,63850,128,0,64542:0:0:0:0:
320,192,63850,128,0,65004:0:0:0:0:
448,192,64004,128,0,65004:0:0:0:0:
182,192,64619,128,0,64850:0:0:0:0:
36,192,64619,128,0,64850:0:0:0:0:
182,192,64927,1,0,0:0:0:0:
36,192,64927,1,0,0:0:0:0:
402,192,65081,1,0,0:0:0:0:
329,192,65081,1,0,0:0:0:0:
475,192,65235,128,0,65311:0:0:0:0:
192,192,65235,1,0,0:0:0:0:
64,192,65311,1,0,0:0:0:0:
320,192,65388,1,0,0:0:0:0:
475,192,65465,128,0,65542:0:0:0:0:
182,192,65465,1,0,0:0:0:0:
36,192,65542,1,0,0:0:0:0:
192,192,65619,1,0,0:0:0:0:
109,192,65696,128,0,65773:0:0:0:0:
320,192,65696,1,0,0:0:0:0:
182,192,65850,128,0,65927:0:0:0:0:
475,192,65850,1,0,0:0:0:0:
109,192,66004,128,0,66081:0:0:0:0:
320,192,66004,1,0,0:0:0:0:
329,192,66158,128,0,66235:0:0:0:0:
192,192,66158,1,0,0:0:0:0:
192,192,66311,1,0,0:0:0:0:
329,192,66311,128,0,66388:0:0:0:0:
36,192,66465,1,0,0:0:0:0:
402,192,66465,128,0,66542:0:0:0:0:
192,192,66542,1,0,0:0:0:0:
329,192,66619,1,0,0:0:0:0:
402,192,66696,128,0,66773:0:0:0:0:
36,192,66696,1,0,0:0:0:0:
182,192,66773,1,0,0:0:0:0:
329,192,66850,1,0,0:0:0:0:
192,192,66927,128,0,67004:0:0:0:0:
109,192,66927,1,0,0:0:0:0:
320,192,67081,128,0,67158:0:0:0:0:
448,192,67081,1,0,0:0:0:0:
192,192,67235,128,0,67311:0:0:0:0:
109,192,67235,1,0,0:0:0:0:
448,192,67388,128,0,67465:0:0:0:0:
64,192,67388,1,0,0:0:0:0:
320,192,67542,128,0,67619:0:0:0:0:
192,192,67542,1,0,0:0:0:0:
64,192,67696,128,0,67773:0:0:0:0:
448,192,67696,1,0,0:0:0:0:
192,192,67696,1,0,0:0:0:0:
320,192,67773,1,0,0:0:0:0:
192,192,67850,1,0,0:0:0:0:
448,192,67927,128,0,68004:0:0:0:0:
320,192,68004,1,0,0:0:0:0:
64,192,68004,1,0,0:0:0:0:
192,192,68081,1,0,0:0:0:0:
448,192,68158,1,0,0:0:0:0:
320,192,68158,128,0,68235:0:0:0:0:
64,192,68235,1,0,0:0:0:0:
192,192,68311,128,0,68388:0:0:0:0:
448,192,68311,1,0,0:0:0:0:
320,192,68388,1,0,0:0:0:0:
64,192,68465,1,0,0:0:0:0:
192,192,68542,1,0,0:0:0:0:
448,192,68619,128,0,68696:0:0:0:0:
320,192,68619,1,0,0:0:0:0:
192,192,68696,1,0,0:0:0:0:
64,192,68696,1,0,0:0:0:0:
448,192,68773,1,0,0:0:0:0:
320,192,68773,1,0,0:0:0:0:
192,192,68850,1,0,0:0:0:0:
64,192,68850,1,0,0:0:0:0:
475,192,68927,128,2,69004:1:0:0:0:
256,192,68965,128,2,69042:1:0:0:0:
182,192,69004,128,2,69081:1:0:0:0:
109,192,69042,128,2,69119:1:0:0:0:
64,192,69235,128,2,69311:1:0:0:0:
192,192,69273,128,2,69350:1:0:0:0:
320,192,69311,128,2,69388:1:0:0:0:
448,192,69350,128,2,69427:1:0:0:0:
475,192,69542,128,2,69619:1:0:0:0:
256,192,69581,128,2,69658:1:0:0:0:
182,192,69619,128,2,69696:1:0:0:0:
109,192,69658,128,2,69735:1:0:0:0:
64,192,69850,128,2,69927:1:0:0:0:
192,192,69888,128,2,69965:1:0:0:0:
320,192,69927,128,2,70004:1:0:0:0:
448,192,69965,128,2,70042:1:0:0:0:
329,192,70235,128,0,70465:0:0:0:0:
182,192,70311,128,0,70542:0:0:0:0:
109,192,70388,128,0,70619:0:0:0:0:
402,192,70465,128,0,70696:0:0:0:0:
329,192,70542,128,0,70850:0:0:0:0:
182,192,70619,128,0,70927:0:0:0:0:
64,192,70696,128,0,71004:0:0:0:0:
475,192,70773,128,0,71004:0:0:0:0:
320,192,70927,128,0,71081:0:0:0:0:
192,192,71004,128,0,71081:0:0:0:0:
36,192,71081,1,0,0:0:0:0:
448,192,71081,1,0,0:0:0:0:
182,192,71388,128,0,71465:0:0:0:0:
448,192,71388,128,0,71465:0:0:0:0:
36,192,71388,1,0,0:0:0:0:
256,192,71542,1,0,0:0:0:0:
182,192,71619,1,0,0:0:0:0:
448,192,71696,1,0,0:0:0:0:
109,192,71696,1,0,0:0:0:0:
256,192,71773,1,0,0:0:0:0:
402,192,71850,128,0,71927:0:0:0:0:
182,192,71850,128,0,71927:0:0:0:0:
256,192,72004,1,0,0:0:0:0:
36,192,72004,1,0,0:0:0:0:
475,192,72081,1,0,0:0:0:0:
109,192,72158,128,0,72235:0:0:0:0:
329,192,72158,128,0,72235:0:0:0:0:
192,192,72311,1,0,0:0:0:0:
402,192,72311,1,0,0:0:0:0:
109,192,72388,1,0,0:0:0:0:
182,192,72465,128,0,72542:0:0:0:0:
402,192,72465,128,0,72542:0:0:0:0:
109,192,72619,1,0,0:0:0:0:
320,192,72619,1,0,0:0:0:0:
192,192,72773,128,0,72927:0:0:0:0:
64,192,72850,128,0,73004:0:0:0:0:
320,192,72850,128,0,73004:0:0:0:0:
448,192,72927,128,0,73081:0:0:0:0:
192,192,73004,128,0,73158:0:0:0:0:
109,192,73081,128,0,73388:0:0:0:0:
320,192,73081,128,0,73235:0:0:0:0:
448,192,73158,128,0,73311:0:0:0:0:
192,192,73235,128,0,73465:0:0:0:0:
329,192,73311,128,0,73542:0:0:0:0:
448,192,73388,128,0,73773:0:0:0:0:
64,192,73465,128,0,73619:0:0:0:0:
192,192,73542,128,0,73696:0:0:0:0:
320,192,73619,128,0,73773:0:0:0:0:
64,192,73696,1,0,0:0:0:0:
192,192,73773,1,0,0:0:0:0:
448,192,73850,128,0,73927:0:0:0:0:
320,192,73850,128,0,73927:0:0:0:0:
64,192,74004,1,0,0:0:0:0:
182,192,74081,1,0,0:0:0:0:
320,192,74158,1,0,0:0:0:0:
448,192,74235,1,0,0:0:0:0:
64,192,74311,128,0,74388:0:0:0:0:
182,192,74311,128,0,74388:0:0:0:0:
475,192,74465,1,0,0:0:0:0:
256,192,74465,1,0,0:0:0:0:
64,192,74542,1,0,0:0:0:0:
256,192,74619,128,0,74696:0:0:0:0:
192,192,74619,128,0,74696:0:0:0:0:
64,192,74773,1,0,0:0:0:0:
475,192,74773,1,0,0:0:0:0:
192,192,74850,1,0,0:0:0:0:
320,192,74927,128,0,75004:0:0:0:0:
402,192,74927,128,0,75004:0:0:0:0:
192,192,75081,1,0,0:0:0:0:
36,192,75081,1,0,0:0:0:0:
448,192,75235,1,0,0:0:0:0:
320,192,75235,1,0,0:0:0:0:
448,192,75388,128,0,75619:0:0:0:0:
320,192,75388,128,0,75696:0:0:0:0:
64,192,75388,1,0,0:0:0:0:
192,192,75542,1,0,0:0:0:0:
448,192,75696,128,0,75927:0:0:0:0:
64,192,75696,1,0,0:0:0:0:
320,192,75773,128,0,76004:0:0:0:0:
192,192,75850,128,0,76081:0:0:0:0:
64,192,75927,128,0,76158:0:0:0:0:
402,192,76004,1,0,0:0:0:0:
329,192,76081,1,0,0:0:0:0:
182,192,76158,1,0,0:0:0:0:
109,192,76235,1,0,0:0:0:0:
256,192,76311,128,0,76542:0:0:0:0:
475,192,76311,128,0,76465:0:0:0:0:
182,192,76388,1,0,0:0:0:0:
109,192,76465,128,0,76696:0:0:0:0:
448,192,76542,1,0,0:0:0:0:
320,192,76619,1,0,0:0:0:0:
182,192,76696,128,0,77004:0:0:0:0:
402,192,76773,1,0,0:0:0:0:
329,192,76850,1,0,0:0:0:0:
448,192,76927,128,0,77158:0:0:0:0:
64,192,77004,1,0,0:0:0:0:
192,192,77081,1,0,0:0:0:0:
320,192,77158,128,0,77388:0:0:0:0:
64,192,77235,1,0,0:0:0:0:
192,192,77311,1,0,0:0:0:0:
448,192,77388,1,0,0:0:0:0:
320,192,77465,1,0,0:0:0:0:
182,192,77542,128,0,77696:0:0:0:0:
64,192,77542,128,0,77850:0:0:0:0:
320,192,77619,1,0,0:0:0:0:
448,192,77696,128,0,77850:0:0:0:0:
192,192,77773,1,0,0:0:0:0:
329,192,77850,128,0,78004:0:0:0:0:
64,192,77927,1,0,0:0:0:0:
182,192,78004,128,0,78158:0:0:0:0:
448,192,78081,1,0,0:0:0:0:
64,192,78158,1,0,0:0:0:0:
320,192,78235,1,0,0:0:0:0:
448,192,78311,1,0,0:0:0:0:
192,192,78388,1,0,0:0:0:0:
64,192,78465,128,0,78619:0:0:0:0:
448,192,78542,1,0,0:0:0:0:
320,192,78619,1,0,0:0:0:0:
192,192,78696,1,0,0:0:0:0:
329,192,78773,128,0,78850:0:0:0:0:
475,192,78773,128,0,78850:0:0:0:0:
109,192,78773,1,0,0:0:0:0:
192,192,78927,1,0,0:0:0:0:
64,192,79081,1,0,0:0:0:0:
448,192,79081,1,0,0:0:0:0:
192,192,79235,128,0,79311:0:0:0:0:
256,192,79235,128,0,79311:0:0:0:0:
448,192,79388,1,0,0:0:0:0:
36,192,79388,1,0,0:0:0:0:
36,192,79542,128,0,79619:0:0:0:0:
182,192,79542,128,0,79619:0:0:0:0:
256,192,79696,128,0,79773:0:0:0:0:
402,192,79696,128,0,79773:0:0:0:0:
182,192,79850,128,0,80158:0:0:0:0:
36,192,79850,128,0,80465:0:0:0:0:
448,192,80081,128,0,80235:0:0:0:0:
320,192,80158,128,0,80311:0:0:0:0:
192,192,80235,128,0,80388:0:0:0:0:
448,192,80311,128,0,80542:0:0:0:0:
320,192,80388,128,0,80619:0:0:0:0:
192,192,80465,128,0,80696:0:0:0:0:
64,192,80542,128,0,80773:0:0:0:0:
448,192,80619,1,0,0:0:0:0:
320,192,80696,1,0,0:0:0:0:
192,192,80773,1,0,0:0:0:0:
64,192,80850,1,0,0:0:0:0:
448,192,80927,1,2,1:0:0:45:
320,192,80965,1,2,1:0:0:45:
192,192,81004,1,2,1:0:0:45:
64,192,81042,1,2,1:0:0:45:
448,192,81081,1,2,1:0:0:45:
320,192,81119,1,2,1:0:0:45:
192,192,81158,1,2,1:0:0:45:
64,192,81196,1,2,1:0:0:45:
448,192,81235,128,0,81311:0:0:0:0:
320,192,81235,128,0,81311:0:0:0:0:
109,192,81388,1,0,0:0:0:0:
182,192,81465,1,0,0:0:0:0:
402,192,81542,1,0,0:0:0:0:
329,192,81619,1,0,0:0:0:0:
109,192,81696,128,0,81773:0:0:0:0:
182,192,81696,128,0,81773:0:0:0:0:
448,192,81850,1,0,0:0:0:0:
64,192,81927,1,0,0:0:0:0:
182,192,82004,128,0,82081:0:0:0:0:
256,192,82004,128,0,82081:0:0:0:0:
36,192,82158,1,0,0:0:0:0:
192,192,82235,1,0,0:0:0:0:
448,192,82311,128,0,82773:0:0:0:0:
329,192,82311,128,0,82696:0:0:0:0:
64,192,82619,128,0,82927:0:0:0:0:
192,192,82696,128,0,82850:0:0:0:0:
320,192,82773,128,0,83004:0:0:0:0:
448,192,82850,128,0,83081:0:0:0:0:
192,192,82927,128,0,83235:0:0:0:0:
64,192,83004,128,0,83158:0:0:0:0:
320,192,83081,128,0,83311:0:0:0:0:
448,192,83158,128,0,83388:0:0:0:0:
64,192,83235,128,0,83465:0:0:0:0:
192,192,83311,128,0,83542:0:0:0:0:
320,192,83388,128,0,83619:0:0:0:0:
448,192,83465,128,0,83619:0:0:0:0:
64,192,83542,1,0,0:0:0:0:
192,192,83619,1,0,0:0:0:0:
329,192,83696,128,0,83773:0:0:0:0:
475,192,83696,128,0,83773:0:0:0:0:
109,192,83850,1,0,0:0:0:0:
320,192,84004,1,0,0:0:0:0:
402,192,84004,1,0,0:0:0:0:
182,192,84158,128,0,84235:0:0:0:0:
109,192,84158,128,0,84235:0:0:0:0:
475,192,84311,1,0,0:0:0:0:
182,192,84465,128,0,84542:0:0:0:0:
256,192,84465,128,0,84542:0:0:0:0:
109,192,84619,1,0,0:0:0:0:
320,192,84773,128,0,84850:0:0:0:0:
475,192,84773,128,0,84850:0:0:0:0:
182,192,84927,1,0,0:0:0:0:
64,192,85081,1,0,0:0:0:0:
320,192,85081,1,0,0:0:0:0:
448,192,85081,1,0,0:0:0:0:
192,192,85081,1,0,0:0:0:0:
64,192,85235,128,0,85850:0:0:0:0:
192,192,85235,128,0,85619:0:0:0:0:
320,192,85235,128,0,85542:0:0:0:0:
448,192,85235,128,0,85465:0:0:0:0:
448,192,85542,1,0,0:0:0:0:
320,192,85619,1,0,0:0:0:0:
192,192,85696,1,0,0:0:0:0:
320,192,85773,1,0,0:0:0:0:
192,192,85850,1,0,0:0:0:0:
64,192,85927,1,0,0:0:0:0:
320,192,86158,128,0,86235:0:0:0:0:
64,192,86158,128,0,86388:0:0:0:0:
448,192,86158,128,0,86311:0:0:0:0:
192,192,86235,128,0,86465:0:0:0:0:
320,192,86311,128,0,86542:0:0:0:0:
448,192,86388,128,0,86619:0:0:0:0:
64,192,86465,128,0,86696:0:0:0:0:
192,192,86542,128,0,86773:0:0:0:0:
320,192,86619,128,0,86850:0:0:0:0:
448,192,86696,128,0,86927:0:0:0:0:
64,192,86773,128,0,87004:0:0:0:0:
192,192,86850,128,0,87081:0:0:0:0:
320,192,86927,128,0,87158:0:0:0:0:
448,192,87004,128,0,87235:0:0:0:0:
64,192,87081,128,0,87235:0:0:0:0:
192,192,87158,128,0,87235:0:0:0:0:
320,192,87235,1,0,0:0:0:0:
64,192,87388,128,0,87542:0:0:0:0:
448,192,87388,128,0,87619:0:0:0:0:
192,192,87388,128,0,87465:0:0:0:0:
320,192,87465,128,0,87696:0:0:0:0:
192,192,87542,128,0,87773:0:0:0:0:
64,192,87619,128,0,87850:0:0:0:0:
448,192,87696,128,0,87927:0:0:0:0:
320,192,87773,128,0,88004:0:0:0:0:
192,192,87850,128,0,88081:0:0:0:0:
64,192,87927,128,0,88158:0:0:0:0:
448,192,88004,128,0,88235:0:0:0:0:
320,192,88081,128,0,88311:0:0:0:0:
192,192,88158,128,0,88388:0:0:0:0:
64,192,88235,128,0,88465:0:0:0:0:
448,192,88311,128,0,88465:0:0:0:0:
320,192,88388,128,0,88465:0:0:0:0:
192,192,88465,1,0,0:0:0:0:
320,192,88619,128,0,88696:0:0:0:0:
64,192,88619,128,0,88850:0:0:0:0:
448,192,88619,128,0,88773:0:0:0:0:
192,192,88696,128,0,88927:0:0:0:0:
320,192,88773,128,0,89004:0:0:0:0:
448,192,88850,128,0,89081:0:0:0:0:
64,192,88927,128,0,89158:0:0:0:0:
192,192,89004,128,0,89235:0:0:0:0:
320,192,89081,128,0,89311:0:0:0:0:
448,192,89158,128,0,89388:0:0:0:0:
64,192,89235,128,0,89465:0:0:0:0:
192,192,89311,128,0,89542:0:0:0:0:
320,192,89388,128,0,89619:0:0:0:0:
448,192,89465,128,0,89696:0:0:0:0:
64,192,89542,128,0,89696:0:0:0:0:
192,192,89619,128,0,89696:0:0:0:0:
320,192,89696,1,0,0:0:0:0:
192,192,89850,1,0,0:0:0:0:
109,192,89850,1,0,0:0:0:0:
402,192,89850,1,0,0:0:0:0:
320,192,89927,1,0,0:0:0:0:
192,192,90004,1,0,0:0:0:0:
64,192,90081,1,0,0:0:0:0:
192,192,90158,1,0,0:0:0:0:
320,192,90158,1,0,0:0:0:0:
448,192,90235,1,0,0:0:0:0:
320,192,90311,1,0,0:0:0:0:
109,192,90388,1,0,0:0:0:0:
182,192,90465,1,0,0:0:0:0:
448,192,90465,1,0,0:0:0:0:
320,192,90542,1,0,0:0:0:0:
192,192,90619,1,0,0:0:0:0:
64,192,90696,1,0,0:0:0:0:
448,192,90773,1,2,1:0:0:45:
320,192,90811,1,2,1:0:0:45:
192,192,90850,1,2,1:0:0:45:
64,192,90888,1,2,1:0:0:45:
448,192,90927,1,2,1:0:0:45:
320,192,90965,1,2,1:0:0:45:
192,192,91004,1,2,1:0:0:45:
64,192,91042,1,2,1:0:0:45:
448,192,91081,128,0,91158:0:0:0:0:
320,192,91081,1,0,0:0:0:0:
192,192,91158,128,0,91235:0:0:0:0:
64,192,91235,128,0,91311:0:0:0:0:
402,192,91311,128,0,91388:0:0:0:0:
320,192,91388,128,0,91465:0:0:0:0:
192,192,91388,1,0,0:0:0:0:
64,192,91465,128,0,91542:0:0:0:0:
448,192,91542,128,0,91619:0:0:0:0:
192,192,91619,128,0,91696:0:0:0:0:
64,192,91696,128,0,91773:0:0:0:0:
256,192,91696,1,0,0:0:0:0:
402,192,91773,128,0,91850:0:0:0:0:
256,192,91850,128,0,91927:0:0:0:0:
192,192,91927,128,0,92004:0:0:0:0:
448,192,92004,128,0,92081:0:0:0:0:
64,192,92004,1,0,0:0:0:0:
320,192,92081,128,0,92158:0:0:0:0:
182,192,92158,128,0,92235:0:0:0:0:
64,192,92235,128,0,92311:0:0:0:0:
329,192,92311,128,0,92388:0:0:0:0:
448,192,92311,1,0,0:0:0:0:
64,192,92388,128,0,92465:0:0:0:0:
182,192,92388,1,0,0:0:0:0:
448,192,92465,128,0,92542:0:0:0:0:
256,192,92465,1,0,0:0:0:0:
192,192,92542,128,0,92619:0:0:0:0:
64,192,92542,1,0,0:0:0:0:
320,192,92619,128,0,92696:0:0:0:0:
402,192,92619,1,0,0:0:0:0:
64,192,92696,128,0,92773:0:0:0:0:
192,192,92696,1,0,0:0:0:0:
448,192,92773,128,0,92850:0:0:0:0:
320,192,92773,1,0,0:0:0:0:
182,192,92850,1,0,0:0:0:0:
64,192,92850,1,0,0:0:0:0:
448,192,92927,1,2,1:0:0:45:
320,192,92965,1,2,1:0:0:45:
192,192,93004,1,2,1:0:0:45:
64,192,93042,1,2,1:0:0:45:
448,192,93081,1,2,1:0:0:45:
320,192,93119,1,2,1:0:0:45:
192,192,93158,1,2,1:0:0:45:
64,192,93196,1,2,1:0:0:45:
320,192,93235,1,0,0:0:0:0:
448,192,93235,1,0,0:0:0:0:
448,192,93542,128,0,93619:0:0:0:0:
36,192,93542,1,0,0:0:0:0:
182,192,93542,1,0,0:0:0:0:
329,192,93619,1,0,0:0:0:0:
192,192,93696,1,0,0:0:0:0:
64,192,93773,1,0,0:0:0:0:
182,192,93850,1,0,0:0:0:0:
402,192,93850,1,0,0:0:0:0:
256,192,93927,1,0,0:0:0:0:
36,192,94004,128,0,94081:0:0:0:0:
192,192,94081,1,0,0:0:0:0:
256,192,94158,1,0,0:0:0:0:
448,192,94158,1,0,0:0:0:0:
64,192,94235,1,0,0:0:0:0:
320,192,94311,128,0,94388:0:0:0:0:
192,192,94388,1,0,0:0:0:0:
64,192,94465,1,0,0:0:0:0:
448,192,94465,1,0,0:0:0:0:
192,192,94542,1,0,0:0:0:0:
64,192,94619,128,0,94696:0:0:0:0:
320,192,94696,1,0,0:0:0:0:
448,192,94773,1,0,0:0:0:0:
192,192,94773,1,0,0:0:0:0:
64,192,94850,1,0,0:0:0:0:
320,192,94927,128,0,95158:0:0:0:0:
448,192,95004,128,0,95235:0:0:0:0:
192,192,95081,128,0,95235:0:0:0:0:
64,192,95158,128,0,95311:0:0:0:0:
320,192,95235,128,0,95465:0:0:0:0:
448,192,95311,128,0,95388:0:0:0:0:
192,192,95311,128,0,95542:0:0:0:0:
64,192,95388,128,0,95619:0:0:0:0:
448,192,95465,128,0,95696:0:0:0:0:
320,192,95542,128,0,95773:0:0:0:0:
192,192,95619,128,0,95850:0:0:0:0:
64,192,95696,128,0,95927:0:0:0:0:
448,192,95773,1,0,0:0:0:0:
320,192,95850,1,0,0:0:0:0:
192,192,95927,1,0,0:0:0:0:
448,192,96004,128,0,96081:0:0:0:0:
64,192,96004,1,0,0:0:0:0:
320,192,96158,1,0,0:0:0:0:
192,192,96235,1,0,0:0:0:0:
64,192,96311,1,0,0:0:0:0:
475,192,96311,1,0,0:0:0:0:
329,192,96388,1,0,0:0:0:0:
192,192,96465,128,0,96542:0:0:0:0:
64,192,96542,1,0,0:0:0:0:
448,192,96619,1,0,0:0:0:0:
320,192,96619,1,0,0:0:0:0:
192,192,96696,1,0,0:0:0:0:
320,192,96773,128,0,96850:0:0:0:0:
64,192,96850,1,0,0:0:0:0:
182,192,96927,1,0,0:0:0:0:
475,192,96927,1,0,0:0:0:0:
329,192,97004,1,0,0:0:0:0:
64,192,97081,128,0,97158:0:0:0:0:
448,192,97158,1,0,0:0:0:0:
182,192,97235,1,0,0:0:0:0:
329,192,97235,1,0,0:0:0:0:
36,192,97311,1,0,0:0:0:0:
448,192,97388,128,0,97465:0:0:0:0:
320,192,97388,128,0,97465:0:0:0:0:
402,192,97542,128,0,97927:0:0:0:0:
320,192,97542,128,0,97850:0:0:0:0:
192,192,97542,1,0,0:0:0:0:
64,192,97696,1,0,0:0:0:0:
192,192,97850,128,0,98081:0:0:0:0:
320,192,97927,128,0,98158:0:0:0:0:
448,192,98004,128,0,98235:0:0:0:0:
64,192,98081,1,0,0:0:0:0:
192,192,98158,1,0,0:0:0:0:
320,192,98235,1,0,0:0:0:0:
448,192,98311,1,0,0:0:0:0:
64,192,98465,128,0,98619:0:0:0:0:
448,192,98465,128,0,98696:0:0:0:0:
320,192,98542,128,0,98773:0:0:0:0:
192,192,98619,128,0,98850:0:0:0:0:
64,192,98696,128,0,98927:0:0:0:0:
448,192,98773,128,0,99004:0:0:0:0:
320,192,98850,128,0,99081:0:0:0:0:
192,192,98927,128,0,99158:0:0:0:0:
64,192,99004,128,0,99235:0:0:0:0:
448,192,99081,128,0,99311:0:0:0:0:
320,192,99158,128,0,99388:0:0:0:0:
192,192,99235,128,0,99465:0:0:0:0:
64,192,99311,128,0,99542:0:0:0:0:
448,192,99388,1,0,0:0:0:0:
320,192,99465,1,0,0:0:0:0:
192,192,99542,1,0,0:0:0:0:
320,192,99619,1,0,0:0:0:0:
448,192,99696,128,0,99850:0:0:0:0:
64,192,99696,128,0,99927:0:0:0:0:
192,192,99773,128,0,100004:0:0:0:0:
320,192,99850,128,0,100081:0:0:0:0:
448,192,99927,128,0,100158:0:0:0:0:
64,192,100004,128,0,100235:0:0:0:0:
192,192,100081,128,0,100311:0:0:0:0:
320,192,100158,128,0,100388:0:0:0:0:
448,192,100235,128,0,100465:0:0:0:0:
64,192,100311,128,0,100542:0:0:0:0:
192,192,100388,128,0,100619:0:0:0:0:
320,192,100465,128,0,100696:0:0:0:0:
448,192,100542,128,0,100773:0:0:0:0:
64,192,100619,1,0,0:0:0:0:
192,192,100696,1,0,0:0:0:0:
320,192,100773,1,0,0:0:0:0:
192,192,100850,1,0,0:0:0:0:
109,192,100927,1,0,0:0:0:0:
402,192,100927,1,0,0:0:0:0:
329,192,101004,1,0,0:0:0:0:
192,192,101081,128,0,101196:0:0:0:0:
64,192,101158,128,0,101273:0:0:0:0:
320,192,101235,128,0,101350:0:0:0:0:
448,192,101311,128,0,101427:0:0:0:0:
192,192,101388,1,0,0:0:0:0:
64,192,101465,1,0,0:0:0:0:
320,192,101542,1,0,0:0:0:0:
192,192,101619,1,0,0:0:0:0:
475,192,101696,128,0,101773:0:0:0:0:
64,192,101696,1,0,0:0:0:0:
320,192,101850,1,0,0:0:0:0:
182,192,101850,128,0,101927:0:0:0:0:
64,192,102004,1,0,0:0:0:0:
448,192,102004,128,0,102081:0:0:0:0:
320,192,102158,1,0,0:0:0:0:
192,192,102158,1,0,0:0:0:0:
64,192,102235,1,0,0:0:0:0:
448,192,102311,128,0,102542:0:0:0:0:
320,192,102388,128,0,102619:0:0:0:0:
64,192,102465,128,0,102696:0:0:0:0:
192,192,102542,128,0,102773:0:0:0:0:
448,192,102619,128,0,102850:0:0:0:0:
320,192,102696,128,0,102927:0:0:0:0:
64,192,102773,1,0,0:0:0:0:
192,192,102850,1,0,0:0:0:0:
448,192,102927,1,0,0:0:0:0:
320,192,103004,1,0,0:0:0:0:
64,192,103081,1,2,1:0:0:45:
192,192,103119,1,2,1:0:0:45:
448,192,103158,1,2,1:0:0:45:
320,192,103196,1,2,1:0:0:45:
64,192,103235,1,2,1:0:0:45:
192,192,103273,1,2,1:0:0:45:
448,192,103311,1,2,1:0:0:45:
320,192,103350,1,2,1:0:0:45:
182,192,103388,1,0,0:0:0:0:
109,192,103388,128,0,103465:0:0:0:0:
402,192,103542,1,0,0:0:0:0:
320,192,103542,1,0,0:0:0:0:
192,192,103619,1,0,0:0:0:0:
109,192,103696,1,0,0:0:0:0:
192,192,103773,1,0,0:0:0:0:
329,192,103850,128,0,103927:0:0:0:0:
402,192,103850,128,0,103927:0:0:0:0:
192,192,104004,1,0,0:0:0:0:
36,192,104004,1,0,0:0:0:0:
256,192,104158,128,0,104235:0:0:0:0:
182,192,104158,128,0,104235:0:0:0:0:
64,192,104311,128,0,104542:0:0:0:0:
192,192,104388,128,0,104619:0:0:0:0:
320,192,104465,128,0,104696:0:0:0:0:
448,192,104542,128,0,104773:0:0:0:0:
64,192,104619,128,0,104850:0:0:0:0:
192,192,104696,128,0,104927:0:0:0:0:
320,192,104773,128,0,105004:0:0:0:0:
448,192,104850,128,0,105081:0:0:0:0:
64,192,104927,128,0,105311:0:0:0:0:
192,192,105004,128,0,105235:0:0:0:0:
320,192,105081,128,0,105158:0:0:0:0:
448,192,105158,128,0,105388:0:0:0:0:
320,192,105235,128,0,105465:0:0:0:0:
192,192,105311,128,0,105542:0:0:0:0:
64,192,105388,128,0,105619:0:0:0:0:
448,192,105465,128,0,105850:0:0:0:0:
320,192,105542,128,0,105773:0:0:0:0:
192,192,105619,128,0,105696:0:0:0:0:
64,192,105696,128,0,105927:0:0:0:0:
192,192,105773,128,0,106004:0:0:0:0:
320,192,105850,128,0,106081:0:0:0:0:
448,192,105927,128,0,106158:0:0:0:0:
64,192,106004,128,0,106235:0:0:0:0:
192,192,106081,128,0,106311:0:0:0:0:
320,192,106158,128,0,106388:0:0:0:0:
448,192,106235,128,0,106465:0:0:0:0:
64,192,106311,128,0,106696:0:0:0:0:
192,192,106388,128,0,106619:0:0:0:0:
320,192,106465,128,0,106542:0:0:0:0:
448,192,106542,128,0,106927:0:0:0:0:
320,192,106619,128,0,106850:0:0:0:0:
192,192,106696,128,0,106773:0:0:0:0:
64,192,106773,128,0,107158:0:0:0:0:
192,192,106850,128,0,107081:0:0:0:0:
320,192,106927,128,0,107004:0:0:0:0:
448,192,107004,128,0,107388:0:0:0:0:
320,192,107081,128,0,107311:0:0:0:0:
192,192,107158,128,0,107235:0:0:0:0:
64,192,107235,128,0,107619:0:0:0:0:
192,192,107311,128,0,107542:0:0:0:0:
320,192,107388,128,0,107465:0:0:0:0:
448,192,107465,128,0,107696:0:0:0:0:
320,192,107542,128,0,107773:0:0:0:0:
192,192,107619,128,0,107850:0:0:0:0:
64,192,107696,128,0,107927:0:0:0:0:
448,192,107773,128,0,108004:0:0:0:0:
320,192,107850,128,0,108081:0:0:0:0:
192,192,107927,128,0,108158:0:0:0:0:
64,192,108004,128,0,108158:0:0:0:0:
448,192,108081,128,0,108158:0:0:0:0:
320,192,108158,1,0,0:0:0:0:
64,192,108311,128,0,108465:0:0:0:0:
448,192,108311,128,0,108542:0:0:0:0:
192,192,108311,128,0,108388:0:0:0:0:
320,192,108388,128,0,108619:0:0:0:0:
192,192,108465,128,0,108696:0:0:0:0:
64,192,108542,128,0,108773:0:0:0:0:
448,192,108619,128,0,108850:0:0:0:0:
320,192,108696,128,0,108927:0:0:0:0:
192,192,108773,128,0,109004:0:0:0:0:
64,192,108850,128,0,109081:0:0:0:0:
448,192,108927,128,0,109158:0:0:0:0:
320,192,109004,128,0,109235:0:0:0:0:
192,192,109081,128,0,109311:0:0:0:0:
64,192,109158,128,0,109388:0:0:0:0:
448,192,109235,128,0,109388:0:0:0:0:
320,192,109311,128,0,109388:0:0:0:0:
192,192,109388,1,0,0:0:0:0:
448,192,109542,128,0,109696:0:0:0:0:
64,192,109542,128,0,109773:0:0:0:0:
320,192,109542,128,0,109619:0:0:0:0:
192,192,109619,128,0,109850:0:0:0:0:
320,192,109696,128,0,109927:0:0:0:0:
448,192,109773,128,0,110004:0:0:0:0:
64,192,109850,128,0,110081:0:0:0:0:
192,192,109927,128,0,110158:0:0:0:0:
320,192,110004,128,0,110235:0:0:0:0:
448,192,110081,128,0,110311:0:0:0:0:
64,192,110158,128,0,110388:0:0:0:0:
192,192,110235,128,0,110465:0:0:0:0:
320,192,110311,128,0,110542:0:0:0:0:
448,192,110388,128,0,110619:0:0:0:0:
64,192,110465,128,0,110619:0:0:0:0:
192,192,110542,128,0,110619:0:0:0:0:
320,192,110619,1,0,0:0:0:0:
192,192,110773,128,0,110927:0:0:0:0:
64,192,110773,128,0,110850:0:0:0:0:
448,192,110773,128,0,111004:0:0:0:0:
320,192,110850,128,0,111081:0:0:0:0:
64,192,110927,128,0,111158:0:0:0:0:
192,192,111004,128,0,111235:0:0:0:0:
448,192,111081,128,0,111311:0:0:0:0:
320,192,111158,128,0,111388:0:0:0:0:
64,192,111235,128,0,111542:0:0:0:0:
192,192,111311,128,0,111465:0:0:0:0:
448,192,111388,128,0,111696:0:0:0:0:
320,192,111465,128,0,111619:0:0:0:0:
192,192,111542,128,0,111773:0:0:0:0:
64,192,111619,128,0,111850:0:0:0:0:
320,192,111696,128,0,111927:0:0:0:0:
448,192,111773,128,0,112004:0:0:0:0:
192,192,111850,128,0,112158:0:0:0:0:
64,192,111927,128,0,112081:0:0:0:0:
320,192,112004,128,0,112235:0:0:0:0:
448,192,112081,128,0,112311:0:0:0:0:
64,192,112158,128,0,112465:0:0:0:0:
192,192,112235,128,0,112388:0:0:0:0:
320,192,112311,128,0,112542:0:0:0:0:
448,192,112388,128,0,112619:0:0:0:0:
192,192,112465,128,0,112696:0:0:0:0:
64,192,112542,128,0,112773:0:0:0:0:
320,192,112619,1,0,0:0:0:0:
448,192,112696,1,0,0:0:0:0:
192,192,112773,1,0,0:0:0:0:
64,192,112850,1,0,0:0:0:0:
448,192,112927,1,2,1:0:0:45:
320,192,112965,1,2,1:0:0:45:
192,192,113004,1,2,1:0:0:45:
64,192,113042,1,2,1:0:0:45:
448,192,113081,1,2,1:0:0:45:
320,192,113119,1,2,1:0:0:45:
192,192,113158,1,2,1:0:0:45:
64,192,113196,1,2,1:0:0:45:
320,192,113235,1,0,0:0:0:0:
448,192,113235,1,0,0:0:0:0:
192,192,113311,1,0,0:0:0:0:
64,192,113388,1,0,0:0:0:0:
320,192,113465,1,0,0:0:0:0:
192,192,113542,1,0,0:0:0:0:
448,192,113619,128,0,113927:0:0:0:0:
320,192,113696,128,0,113850:0:0:0:0:
64,192,113773,128,0,114158:0:0:0:0:
192,192,113850,128,0,114081:0:0:0:0:
320,192,113927,128,0,114004:0:0:0:0:
448,192,114004,128,0,114388:0:0:0:0:
320,192,114081,128,0,114311:0:0:0:0:
192,192,114158,128,0,114235:0:0:0:0:
64,192,114235,128,0,114619:0:0:0:0:
192,192,114311,128,0,114542:0:0:0:0:
320,192,114388,128,0,114465:0:0:0:0:
448,192,114465,128,0,114850:0:0:0:0:
320,192,114542,128,0,114773:0:0:0:0:
192,192,114619,128,0,114696:0:0:0:0:
64,192,114696,128,0,115081:0:0:0:0:
192,192,114773,128,0,115004:0:0:0:0:
320,192,114850,128,0,114927:0:0:0:0:
448,192,114927,1,0,0:0:0:0:
320,192,115004,1,0,0:0:0:0:
192,192,115081,1,0,0:0:0:0:
64,192,115158,1,0,0:0:0:0:
320,192,115235,128,0,115311:0:0:0:0:
448,192,115235,128,0,115311:0:0:0:0:
192,192,115388,128,0,115465:0:0:0:0:
64,192,115388,128,0,115465:0:0:0:0:
320,192,115542,128,0,115619:0:0:0:0:
448,192,115542,128,0,115619:0:0:0:0:
64,192,115696,128,0,115927:0:0:0:0:
192,192,115696,128,0,115850:0:0:0:0:
320,192,115773,128,0,116004:0:0:0:0:
448,192,115850,128,0,116081:0:0:0:0:
192,192,115927,128,0,116158:0:0:0:0:
64,192,116004,128,0,116235:0:0:0:0:
320,192,116081,128,0,116388:0:0:0:0:
448,192,116158,128,0,116311:0:0:0:0:
192,192,116235,128,0,116465:0:0:0:0:
64,192,116311,128,0,116542:0:0:0:0:
448,192,116388,128,0,116619:0:0:0:0:
320,192,116465,128,0,116696:0:0:0:0:
192,192,116542,128,0,116850:0:0:0:0:
64,192,116619,128,0,116773:0:0:0:0:
448,192,116696,128,0,116927:0:0:0:0:
320,192,116773,128,0,117004:0:0:0:0:
64,192,116850,128,0,117081:0:0:0:0:
192,192,116927,128,0,117158:0:0:0:0:
448,192,117004,128,0,117235:0:0:0:0:
320,192,117081,128,0,117311:0:0:0:0:
64,192,117158,128,0,117465:0:0:0:0:
192,192,117235,128,0,117388:0:0:0:0:
448,192,117311,128,0,117696:0:0:0:0:
320,192,117388,128,0,117619:0:0:0:0:
192,192,117465,128,0,117542:0:0:0:0:
64,192,117542,1,0,0:0:0:0:
192,192,117619,1,0,0:0:0:0:
320,192,117696,1,0,0:0:0:0:
448,192,117773,1,0,0:0:0:0:
64,192,117850,1,2,1:0:0:45:
192,192,117888,1,2,1:0:0:45:
320,192,117927,1,2,1:0:0:45:
448,192,117965,1,2,1:0:0:45:
64,192,118004,1,2,1:0:0:45:
192,192,118042,1,2,1:0:0:45:
320,192,118081,1,2,1:0:0:45:
448,192,118119,1,2,1:0:0:45:
64,192,118158,128,0,118388:0:0:0:0:
192,192,118235,128,0,118465:0:0:0:0:
448,192,118311,128,0,118542:0:0:0:0:
320,192,118388,128,0,118619:0:0:0:0:
64,192,118465,128,0,118696:0:0:0:0:
192,192,118542,128,0,118773:0:0:0:0:
448,192,118619,128,0,118927:0:0:0:0:
320,192,118696,128,0,118850:0:0:0:0:
64,192,118773,128,0,119004:0:0:0:0:
192,192,118850,128,0,119081:0:0:0:0:
320,192,118927,128,0,119158:0:0:0:0:
448,192,119004,128,0,119235:0:0:0:0:
64,192,119081,128,0,119311:0:0:0:0:
192,192,119158,128,0,119388:0:0:0:0:
320,192,119235,128,0,119465:0:0:0:0:
448,192,119311,128,0,119542:0:0:0:0:
64,192,119388,128,0,119773:0:0:0:0:
192,192,119465,128,0,119696:0:0:0:0:
320,192,119542,128,0,119619:0:0:0:0:
448,192,119619,128,0,119850:0:0:0:0:
320,192,119696,128,0,119927:0:0:0:0:
192,192,119773,128,0,120004:0:0:0:0:
64,192,119850,128,0,120081:0:0:0:0:
448,192,119927,128,0,120158:0:0:0:0:
320,192,120004,128,0,120235:0:0:0:0:
192,192,120081,128,0,120311:0:0:0:0:
64,192,120158,128,0,120388:0:0:0:0:
448,192,120235,128,0,120465:0:0:0:0:
320,192,120311,128,0,120542:0:0:0:0:
192,192,120388,128,0,120696:0:0:0:0:
64,192,120465,128,0,120619:0:0:0:0:
448,192,120542,128,0,120773:0:0:0:0:
320,192,120619,128,0,120850:0:0:0:0:
64,192,120696,128,0,120927:0:0:0:0:
192,192,120773,128,0,121004:0:0:0:0:
448,192,120850,128,0,121158:0:0:0:0:
320,192,120927,128,0,121081:0:0:0:0:
64,192,121004,128,0,121235:0:0:0:0:
192,192,121081,128,0,121311:0:0:0:0:
320,192,121158,128,0,121388:0:0:0:0:
448,192,121235,128,0,121465:0:0:0:0:
64,192,121311,128,0,121542:0:0:0:0:
192,192,121388,128,0,121619:0:0:0:0:
320,192,121465,128,0,121696:0:0:0:0:
448,192,121542,128,0,121773:0:0:0:0:
64,192,121619,128,0,122004:0:0:0:0:
192,192,121696,128,0,121927:0:0:0:0:
320,192,121773,128,0,121850:0:0:0:0:
448,192,121850,128,0,122081:0:0:0:0:
320,192,121927,128,0,122158:0:0:0:0:
192,192,122004,128,0,122235:0:0:0:0:
64,192,122081,128,0,122311:0:0:0:0:
448,192,122158,1,0,0:0:0:0:
320,192,122235,1,0,0:0:0:0:
192,192,122311,1,0,0:0:0:0:
64,192,122388,1,0,0:0:0:0:
448,192,122465,1,2,1:0:0:45:
320,192,122504,1,2,1:0:0:45:
192,192,122542,1,2,1:0:0:45:
64,192,122581,1,2,1:0:0:45:
448,192,122619,1,2,1:0:0:45:
320,192,122658,1,2,1:0:0:45:
192,192,122696,1,2,1:0:0:45:
64,192,122735,1,2,1:0:0:45:
448,192,122773,1,2,1:0:0:45:
320,192,122811,1,2,1:0:0:45:
192,192,122850,1,2,1:0:0:45:
64,192,122888,1,2,1:0:0:45:
448,192,122927,1,2,1:0:0:45:
320,192,122965,1,2,1:0:0:45:
192,192,123004,1,2,1:0:0:45:
64,192,123042,1,2,1:0:0:45:
329,192,123081,1,0,0:0:0:0:
475,192,123081,1,0,0:0:0:0:
