osu file format v14

[General]
AudioFilename: audio.mp3
AudioLeadIn: 0
PreviewTime: 43270
Countdown: 0
SampleSet: Normal
StackLeniency: 0.7
Mode: 1
LetterboxInBreaks: 0
WidescreenStoryboard: 1

[Editor]
DistanceSpacing: 0.7
BeatDivisor: 4
GridSize: 32
TimelineZoom: 3.099999

[Metadata]
Title:Rasputin
TitleUnicode:Rasputin
Artist:Rahatt
ArtistUnicode:Rahatt
Creator:Lumenite-
Version:Oni
Source:
Tags:breakcore bootleg boney m electronic instrumental capu the law liku remix youman3 live set taikocracy incandescence english gypsycore
BeatmapID:3614154
BeatmapSetID:1731937

[Difficulty]
HPDrainRate:6
CircleSize:2
OverallDifficulty:6
ApproachRate:10
SliderMultiplier:1.4
SliderTickRate:1

[Events]
//Background and Video events
0,0,"MOSHED-2023-2-24-23-46-24.jpg",0,0
//Break Periods
//Storyboard Layer 0 (Background)
//Storyboard Layer 1 (Fail)
//Storyboard Layer 2 (Pass)
//Storyboard Layer 3 (Foreground)
//Storyboard Layer 4 (Overlay)
//Storyboard Sound Samples

[TimingPoints]
80,300,4,1,0,100,1,0
4430,-80,4,1,0,100,0,1
4730,-100,4,1,0,100,0,0
19280,-100,4,1,0,100,0,1
24080,-100,4,1,0,100,0,0
26480,-100,4,1,0,100,0,1
28880,-100,4,1,0,100,0,0
31280,-90.9090909090909,4,1,0,100,0,1
31580,-95.2380952380952,4,1,0,100,0,1
31880,-100,4,1,0,100,0,1
33680,-100,4,1,0,100,0,0
42830,-98.0392156862745,4,1,0,100,0,0
42980,-96.1538461538461,4,1,0,100,0,0
43130,-94.3396226415094,4,1,0,100,0,0
43280,-92.5925925925926,4,1,0,100,0,1
50480,-94.3396226415094,4,1,0,100,0,0
51680,-96.1538461538461,4,1,0,100,0,0
52430,-98.0392156862745,4,1,0,100,0,0
54080,-100,4,1,0,100,0,0
58880,-100,4,1,0,100,0,1
63680,-100,4,1,0,100,0,0
73280,-111.111111111111,4,1,0,100,0,0
77480,-108.695652173913,4,1,0,100,0,0
77630,-106.382978723404,4,1,0,100,0,0
77780,-104.166666666667,4,1,0,100,0,0
77930,-102.040816326531,4,1,0,100,0,0
78080,-99.9999999999999,4,1,0,100,0,0
81830,-98.0392156862745,4,1,0,100,0,0
82130,-96.1538461538461,4,1,0,100,0,0
82430,-94.3396226415094,4,1,0,100,0,0
82580,-92.5925925925926,4,1,0,100,0,0
82880,-125,4,1,0,100,0,0
85280,-92.5925925925926,4,1,0,100,0,1
93380,-96.1538461538461,4,1,0,100,0,1
93680,-100,4,1,0,100,0,0
103280,-90.9090909090909,4,1,0,100,0,1
112880,-100,4,1,0,100,0,0
120080,-100,4,1,0,100,0,1
122480,-100,4,1,0,100,0,0
124880,-100,4,1,0,100,0,1
127280,-100,4,1,0,100,0,0
137180,-90.9090909090909,4,1,0,100,0,1
147230,-90.9090909090909,4,1,0,100,0,0
147680,-90.9090909090909,4,1,0,100,0,1
165680,-90.9090909090909,4,1,0,100,0,0

[HitObjects]
256,192,80,5,0,0:0:0:0:
256,192,380,1,0,0:0:0:0:
256,192,680,1,0,0:0:0:0:
256,192,980,1,0,0:0:0:0:
256,192,1280,1,0,0:0:0:0:
256,192,1580,1,0,0:0:0:0:
256,192,1880,1,0,0:0:0:0:
256,192,2180,1,0,0:0:0:0:
256,192,2480,1,0,0:0:0:0:
256,192,2780,1,0,0:0:0:0:
256,192,3080,1,0,0:0:0:0:
256,192,3380,1,0,0:0:0:0:
256,192,3680,1,0,0:0:0:0:
256,192,3980,1,0,0:0:0:0:
256,192,4280,1,0,0:0:0:0:
256,192,4580,1,12,0:0:0:0:
256,192,4880,1,0,0:0:0:0:
256,192,5180,1,0,0:0:0:0:
256,192,5480,1,0,0:0:0:0:
256,192,5780,1,0,0:0:0:0:
256,192,6080,1,0,0:0:0:0:
256,192,6230,1,8,0:0:0:0:
256,192,6380,1,0,0:0:0:0:
256,192,6530,1,0,0:0:0:0:
256,192,6680,1,8,0:0:0:0:
256,192,6980,1,0,0:0:0:0:
256,192,7130,1,0,0:0:0:0:
256,192,7280,1,8,0:0:0:0:
256,192,7580,1,8,0:0:0:0:
256,192,7880,1,8,0:0:0:0:
256,192,8180,1,0,0:0:0:0:
256,192,8330,1,0,0:0:0:0:
256,192,8480,1,8,0:0:0:0:
256,192,8630,1,0,0:0:0:0:
256,192,8780,1,8,0:0:0:0:
256,192,8930,1,8,0:0:0:0:
256,192,9080,1,4,0:0:0:0:
256,192,9680,1,8,0:0:0:0:
256,192,9830,1,0,0:0:0:0:
256,192,9905,1,0,0:0:0:0:
256,192,9980,1,8,0:0:0:0:
256,192,10130,1,8,0:0:0:0:
256,192,10280,1,0,0:0:0:0:
256,192,10430,1,0,0:0:0:0:
256,192,10580,1,8,0:0:0:0:
256,192,10730,1,0,0:0:0:0:
256,192,10880,1,8,0:0:0:0:
256,192,10955,1,8,0:0:0:0:
256,192,11030,1,8,0:0:0:0:
256,192,11105,1,8,0:0:0:0:
256,192,11180,1,0,0:0:0:0:
256,192,11330,1,0,0:0:0:0:
256,192,11480,1,8,0:0:0:0:
256,192,11630,1,0,0:0:0:0:
256,192,11705,1,0,0:0:0:0:
256,192,11780,1,8,0:0:0:0:
256,192,12080,1,0,0:0:0:0:
256,192,12230,1,0,0:0:0:0:
256,192,12380,1,8,0:0:0:0:
256,192,12530,1,8,0:0:0:0:
256,192,12680,1,0,0:0:0:0:
256,192,12755,1,0,0:0:0:0:
256,192,12830,1,0,0:0:0:0:
256,192,12905,1,0,0:0:0:0:
256,192,12980,1,8,0:0:0:0:
256,192,13130,1,8,0:0:0:0:
256,192,13205,1,8,0:0:0:0:
256,192,13280,1,0,0:0:0:0:
256,192,13430,1,8,0:0:0:0:
256,192,13580,1,0,0:0:0:0:
256,192,13730,1,8,0:0:0:0:
256,192,13805,1,0,0:0:0:0:
256,192,13880,1,8,0:0:0:0:
256,192,14030,1,8,0:0:0:0:
256,192,14180,1,12,0:0:0:0:
256,192,14480,1,8,0:0:0:0:
256,192,14630,1,0,0:0:0:0:
256,192,14780,1,8,0:0:0:0:
256,192,14930,1,0,0:0:0:0:
256,192,15005,1,0,0:0:0:0:
256,192,15080,1,8,0:0:0:0:
256,192,15230,1,0,0:0:0:0:
256,192,15380,1,8,0:0:0:0:
256,192,15530,1,8,0:0:0:0:
256,192,15605,1,8,0:0:0:0:
256,192,15680,1,0,0:0:0:0:
256,192,15830,1,0,0:0:0:0:
256,192,15980,1,8,0:0:0:0:
256,192,16130,1,8,0:0:0:0:
256,192,16205,1,0,0:0:0:0:
256,192,16280,1,8,0:0:0:0:
256,192,16430,1,0,0:0:0:0:
256,192,16580,1,8,0:0:0:0:
256,192,16730,1,0,0:0:0:0:
256,192,16805,1,0,0:0:0:0:
256,192,16880,1,8,0:0:0:0:
256,192,17030,1,8,0:0:0:0:
256,192,17105,1,8,0:0:0:0:
256,192,17180,1,0,0:0:0:0:
256,192,17330,1,0,0:0:0:0:
256,192,17405,1,0,0:0:0:0:
256,192,17480,1,8,0:0:0:0:
256,192,17630,1,8,0:0:0:0:
256,192,17705,1,0,0:0:0:0:
256,192,17780,1,8,0:0:0:0:
256,192,17930,1,0,0:0:0:0:
256,192,18080,1,8,0:0:0:0:
256,192,18155,1,8,0:0:0:0:
256,192,18230,1,8,0:0:0:0:
256,192,18380,1,8,0:0:0:0:
256,192,18455,1,8,0:0:0:0:
256,192,18530,1,8,0:0:0:0:
256,192,18605,1,8,0:0:0:0:
256,192,18680,1,0,0:0:0:0:
256,192,18830,1,8,0:0:0:0:
256,192,18980,1,0,0:0:0:0:
256,192,19280,1,12,0:0:0:0:
256,192,19580,1,12,0:0:0:0:
256,192,19880,1,8,0:0:0:0:
256,192,20030,1,0,0:0:0:0:
256,192,20105,1,0,0:0:0:0:
256,192,20180,1,8,0:0:0:0:
256,192,20330,1,8,0:0:0:0:
256,192,20405,1,0,0:0:0:0:
256,192,20480,1,8,0:0:0:0:
256,192,20630,1,8,0:0:0:0:
256,192,20780,1,0,0:0:0:0:
256,192,20930,1,12,0:0:0:0:
256,192,21230,1,0,0:0:0:0:
256,192,21380,1,8,0:0:0:0:
256,192,21530,1,8,0:0:0:0:
256,192,21680,1,4,0:0:0:0:
256,192,21980,1,4,0:0:0:0:
256,192,22280,1,8,0:0:0:0:
256,192,22355,1,8,0:0:0:0:
256,192,22430,1,0,0:0:0:0:
256,192,22505,1,0,0:0:0:0:
256,192,22580,1,8,0:0:0:0:
256,192,22730,1,8,0:0:0:0:
256,192,22805,1,8,0:0:0:0:
256,192,22880,1,0,0:0:0:0:
256,192,23030,1,0,0:0:0:0:
256,192,23180,1,8,0:0:0:0:
256,192,23330,1,12,0:0:0:0:
256,192,23480,2,0,L|160:192,3,70
256,192,24080,1,0,0:0:0:0:
256,192,24230,1,0,0:0:0:0:
256,192,24305,1,0,0:0:0:0:
256,192,24380,1,8,0:0:0:0:
256,192,24530,1,0,0:0:0:0:
256,192,24680,1,8,0:0:0:0:
256,192,24980,1,8,0:0:0:0:
256,192,25130,1,8,0:0:0:0:
256,192,25280,1,0,0:0:0:0:
256,192,25430,1,8,0:0:0:0:
256,192,25505,1,8,0:0:0:0:
256,192,25580,1,0,0:0:0:0:
256,192,25730,1,8,0:0:0:0:
256,192,25880,1,0,0:0:0:0:
256,192,25955,1,0,0:0:0:0:
256,192,26030,1,0,0:0:0:0:
256,192,26105,1,0,0:0:0:0:
256,192,26180,1,8,0:0:0:0:
256,192,26330,1,0,0:0:0:0:
256,192,26480,1,12,0:0:0:0:
256,192,26630,1,8,0:0:0:0:
256,192,26705,1,8,0:0:0:0:
256,192,26780,1,8,0:0:0:0:
256,192,26930,1,0,0:0:0:0:
256,192,27080,1,8,0:0:0:0:
256,192,27380,1,8,0:0:0:0:
256,192,27530,1,0,0:0:0:0:
256,192,27680,1,8,0:0:0:0:
256,192,27830,1,8,0:0:0:0:
256,192,27905,1,8,0:0:0:0:
256,192,27980,1,0,0:0:0:0:
256,192,28130,1,8,0:0:0:0:
256,192,28280,1,0,0:0:0:0:
256,192,28580,1,12,0:0:0:0:
256,192,28880,1,0,0:0:0:0:
256,192,29030,1,0,0:0:0:0:
256,192,29105,1,0,0:0:0:0:
256,192,29180,1,8,0:0:0:0:
256,192,29330,1,0,0:0:0:0:
256,192,29480,1,8,0:0:0:0:
256,192,29780,1,8,0:0:0:0:
256,192,29930,1,0,0:0:0:0:
256,192,30080,1,8,0:0:0:0:
256,192,30230,1,8,0:0:0:0:
256,192,30305,1,8,0:0:0:0:
256,192,30380,1,0,0:0:0:0:
256,192,30530,1,8,0:0:0:0:
256,192,30680,1,0,0:0:0:0:
256,192,30755,1,0,0:0:0:0:
256,192,30830,1,8,0:0:0:0:
256,192,30905,1,0,0:0:0:0:
256,192,30980,1,8,0:0:0:0:
256,192,31130,1,0,0:0:0:0:
256,192,31280,1,12,0:0:0:0:
256,192,31580,1,12,0:0:0:0:
256,192,31880,1,12,0:0:0:0:
256,192,32030,1,0,0:0:0:0:
256,192,32180,1,8,0:0:0:0:
256,192,32255,1,8,0:0:0:0:
256,192,32330,1,8,0:0:0:0:
256,192,32480,1,8,0:0:0:0:
256,192,32630,1,0,0:0:0:0:
256,192,32705,1,0,0:0:0:0:
256,192,32780,1,8,0:0:0:0:
256,192,32930,1,0,0:0:0:0:
256,192,33080,1,8,0:0:0:0:
256,192,33380,1,8,0:0:0:0:
256,192,33530,1,8,0:0:0:0:
256,192,33680,1,4,0:0:0:0:
256,192,33980,1,8,0:0:0:0:
256,192,34130,1,0,0:0:0:0:
256,192,34280,1,8,0:0:0:0:
256,192,34355,1,0,0:0:0:0:
256,192,34505,1,0,0:0:0:0:
256,192,34580,1,8,0:0:0:0:
256,192,34730,1,0,0:0:0:0:
256,192,34880,1,8,0:0:0:0:
256,192,35030,1,8,0:0:0:0:
256,192,35105,1,0,0:0:0:0:
256,192,35180,1,8,0:0:0:0:
256,192,35330,1,0,0:0:0:0:
256,192,35480,1,8,0:0:0:0:
256,192,35630,1,8,0:0:0:0:
256,192,35705,1,8,0:0:0:0:
256,192,35780,1,8,0:0:0:0:
256,192,35930,1,8,0:0:0:0:
256,192,36080,1,4,0:0:0:0:
256,192,36380,1,4,0:0:0:0:
256,192,36680,1,0,0:0:0:0:
256,192,36755,1,8,0:0:0:0:
256,192,36905,1,0,0:0:0:0:
256,192,36980,1,8,0:0:0:0:
256,192,37130,1,0,0:0:0:0:
256,192,37280,1,8,0:0:0:0:
256,192,37430,1,8,0:0:0:0:
256,192,37505,1,8,0:0:0:0:
256,192,37580,1,8,0:0:0:0:
256,192,37730,1,8,0:0:0:0:
256,192,37880,1,8,0:0:0:0:
256,192,38030,1,8,0:0:0:0:
256,192,38105,1,8,0:0:0:0:
256,192,38180,1,8,0:0:0:0:
256,192,38330,1,8,0:0:0:0:
256,192,38480,1,0,0:0:0:0:
256,192,38780,1,8,0:0:0:0:
256,192,38855,1,0,0:0:0:0:
256,192,38930,1,0,0:0:0:0:
256,192,39005,1,0,0:0:0:0:
256,192,39080,1,8,0:0:0:0:
256,192,39230,1,0,0:0:0:0:
256,192,39380,1,8,0:0:0:0:
256,192,39530,1,8,0:0:0:0:
256,192,39680,1,0,0:0:0:0:
256,192,39830,1,0,0:0:0:0:
256,192,39905,1,0,0:0:0:0:
256,192,39980,1,8,0:0:0:0:
256,192,40130,1,0,0:0:0:0:
256,192,40280,1,8,0:0:0:0:
256,192,40580,1,0,0:0:0:0:
256,192,40880,1,8,0:0:0:0:
256,192,41030,1,0,0:0:0:0:
256,192,41105,1,0,0:0:0:0:
256,192,41180,1,8,0:0:0:0:
256,192,41330,1,0,0:0:0:0:
256,192,41480,1,8,0:0:0:0:
256,192,41555,1,8,0:0:0:0:
256,192,41630,1,8,0:0:0:0:
256,192,41705,1,8,0:0:0:0:
256,192,41780,1,0,0:0:0:0:
256,192,41930,1,8,0:0:0:0:
256,192,42080,1,0,0:0:0:0:
256,192,42180,1,0,0:0:0:0:
256,192,42280,1,0,0:0:0:0:
256,192,42380,1,8,0:0:0:0:
256,192,42480,1,8,0:0:0:0:
256,192,42580,1,8,0:0:0:0:
256,192,42680,1,0,0:0:0:0:
256,192,42830,1,8,0:0:0:0:
256,192,42980,1,0,0:0:0:0:
256,192,43130,1,8,0:0:0:0:
256,192,43280,1,12,0:0:0:0:
256,192,43580,1,12,0:0:0:0:
256,192,43880,1,8,0:0:0:0:
256,192,44030,1,0,0:0:0:0:
256,192,44105,1,0,0:0:0:0:
256,192,44180,1,8,0:0:0:0:
256,192,44330,1,0,0:0:0:0:
256,192,44480,1,8,0:0:0:0:
256,192,44555,1,8,0:0:0:0:
256,192,44630,1,8,0:0:0:0:
256,192,44705,1,8,0:0:0:0:
256,192,44780,1,0,0:0:0:0:
256,192,44930,1,8,0:0:0:0:
256,192,45080,1,0,0:0:0:0:
256,192,45155,1,8,0:0:0:0:
256,192,45305,1,0,0:0:0:0:
256,192,45380,1,8,0:0:0:0:
256,192,45680,1,8,0:0:0:0:
256,192,45830,1,0,0:0:0:0:
256,192,45905,1,8,0:0:0:0:
256,192,45980,1,0,0:0:0:0:
256,192,46130,1,0,0:0:0:0:
256,192,46280,1,12,0:0:0:0:
256,192,46580,1,12,0:0:0:0:
256,192,46880,1,4,0:0:0:0:
256,192,47030,1,0,0:0:0:0:
256,192,47180,1,8,0:0:0:0:
256,192,47330,1,0,0:0:0:0:
256,192,47405,1,0,0:0:0:0:
256,192,47480,1,8,0:0:0:0:
256,192,47630,1,0,0:0:0:0:
256,192,47780,1,8,0:0:0:0:
256,192,47855,1,8,0:0:0:0:
256,192,47930,1,8,0:0:0:0:
256,192,48005,1,8,0:0:0:0:
256,192,48080,1,4,0:0:0:0:
256,192,48230,1,8,0:0:0:0:
256,192,48380,1,4,0:0:0:0:
256,192,48530,1,8,0:0:0:0:
256,192,48680,1,12,0:0:0:0:
256,192,48830,1,12,0:0:0:0:
256,192,48980,1,4,0:0:0:0:
256,192,49280,1,8,0:0:0:0:
256,192,49355,1,8,0:0:0:0:
256,192,49430,1,0,0:0:0:0:
256,192,49580,1,8,0:0:0:0:
256,192,49655,1,8,0:0:0:0:
256,192,49730,1,0,0:0:0:0:
256,192,49805,1,0,0:0:0:0:
256,192,49880,1,8,0:0:0:0:
256,192,50030,1,0,0:0:0:0:
256,192,50180,1,12,0:0:0:0:
256,192,50480,1,0,0:0:0:0:
256,192,50630,1,0,0:0:0:0:
256,192,50780,1,8,0:0:0:0:
256,192,50930,1,0,0:0:0:0:
256,192,51005,1,0,0:0:0:0:
256,192,51080,1,8,0:0:0:0:
256,192,51230,1,0,0:0:0:0:
256,192,51380,1,8,0:0:0:0:
256,192,51680,1,8,0:0:0:0:
256,192,51830,1,8,0:0:0:0:
256,192,51980,1,0,0:0:0:0:
256,192,52130,1,8,0:0:0:0:
256,192,52430,1,0,0:0:0:0:
256,192,52580,1,8,0:0:0:0:
256,192,52730,1,8,0:0:0:0:
256,192,52805,1,8,0:0:0:0:
256,192,52880,1,0,0:0:0:0:
256,192,53030,1,0,0:0:0:0:
256,192,53180,1,8,0:0:0:0:
256,192,53330,1,0,0:0:0:0:
256,192,53405,1,0,0:0:0:0:
256,192,53480,1,8,0:0:0:0:
256,192,53630,1,0,0:0:0:0:
256,192,53780,1,12,0:0:0:0:
256,192,54080,1,8,0:0:0:0:
256,192,54230,1,0,0:0:0:0:
256,192,54380,1,8,0:0:0:0:
256,192,54680,1,8,0:0:0:0:
256,192,54755,1,8,0:0:0:0:
256,192,54830,1,0,0:0:0:0:
256,192,54905,1,0,0:0:0:0:
256,192,54980,1,8,0:0:0:0:
256,192,55130,1,8,0:0:0:0:
256,192,55205,1,0,0:0:0:0:
256,192,55280,1,8,0:0:0:0:
256,192,55430,1,0,0:0:0:0:
256,192,55580,1,8,0:0:0:0:
256,192,55730,1,0,0:0:0:0:
256,192,56030,1,8,0:0:0:0:
256,192,56180,1,0,0:0:0:0:
256,192,56255,1,0,0:0:0:0:
256,192,56330,1,0,0:0:0:0:
256,192,56405,1,0,0:0:0:0:
256,192,56480,1,8,0:0:0:0:
256,192,56780,1,8,0:0:0:0:
256,192,57080,1,0,0:0:0:0:
256,192,57155,1,8,0:0:0:0:
256,192,57230,1,0,0:0:0:0:
256,192,57305,1,0,0:0:0:0:
256,192,57380,1,8,0:0:0:0:
256,192,57530,1,8,0:0:0:0:
256,192,57605,1,8,0:0:0:0:
256,192,57680,1,0,0:0:0:0:
256,192,57830,1,0,0:0:0:0:
256,192,57980,1,8,0:0:0:0:
256,192,58130,1,8,0:0:0:0:
256,192,58430,1,8,0:0:0:0:
256,192,58580,1,0,0:0:0:0:
256,192,58730,1,8,0:0:0:0:
256,192,58880,1,4,0:0:0:0:
256,192,59180,1,8,0:0:0:0:
256,192,59330,1,0,0:0:0:0:
256,192,59480,1,8,0:0:0:0:
256,192,59630,1,8,0:0:0:0:
256,192,59930,1,8,0:0:0:0:
256,192,60080,1,0,0:0:0:0:
256,192,60230,1,0,0:0:0:0:
256,192,60305,1,0,0:0:0:0:
256,192,60380,1,8,0:0:0:0:
256,192,60530,1,0,0:0:0:0:
256,192,60680,1,8,0:0:0:0:
256,192,60980,1,8,0:0:0:0:
256,192,61130,1,8,0:0:0:0:
256,192,61280,1,0,0:0:0:0:
256,192,61430,1,8,0:0:0:0:
256,192,61505,1,8,0:0:0:0:
256,192,61580,1,8,0:0:0:0:
256,192,61730,1,0,0:0:0:0:
256,192,61880,1,8,0:0:0:0:
256,192,62030,1,8,0:0:0:0:
256,192,62105,1,0,0:0:0:0:
256,192,62180,1,8,0:0:0:0:
256,192,62330,1,0,0:0:0:0:
256,192,62480,1,8,0:0:0:0:
256,192,62630,1,8,0:0:0:0:
256,192,62705,1,0,0:0:0:0:
256,192,62780,1,0,0:0:0:0:
256,192,62930,1,8,0:0:0:0:
256,192,63080,1,0,0:0:0:0:
256,192,63380,1,12,0:0:0:0:
256,192,63680,1,4,0:0:0:0:
256,192,63830,1,0,0:0:0:0:
256,192,63905,1,0,0:0:0:0:
256,192,63980,1,8,0:0:0:0:
256,192,64130,1,8,0:0:0:0:
256,192,64280,1,0,0:0:0:0:
256,192,64580,1,8,0:0:0:0:
256,192,64730,1,0,0:0:0:0:
256,192,64880,1,8,0:0:0:0:
256,192,65030,1,8,0:0:0:0:
256,192,65105,1,8,0:0:0:0:
256,192,65180,1,0,0:0:0:0:
256,192,65330,1,8,0:0:0:0:
256,192,65480,1,0,0:0:0:0:
256,192,65780,1,0,0:0:0:0:
256,192,65930,1,8,0:0:0:0:
256,192,66080,1,0,0:0:0:0:
256,192,66230,1,8,0:0:0:0:
256,192,66305,1,8,0:0:0:0:
256,192,66380,1,0,0:0:0:0:
256,192,66530,1,8,0:0:0:0:
256,192,66680,1,0,0:0:0:0:
256,192,66830,1,8,0:0:0:0:
256,192,66905,1,8,0:0:0:0:
256,192,66980,1,0,0:0:0:0:
256,192,67130,1,8,0:0:0:0:
256,192,67280,1,0,0:0:0:0:
256,192,67430,1,8,0:0:0:0:
256,192,67505,1,8,0:0:0:0:
256,192,67580,1,0,0:0:0:0:
256,192,67730,1,8,0:0:0:0:
256,192,67880,1,0,0:0:0:0:
256,192,68180,1,12,0:0:0:0:
256,192,68480,1,0,0:0:0:0:
256,192,68630,1,8,0:0:0:0:
256,192,68705,1,0,0:0:0:0:
256,192,68780,1,8,0:0:0:0:
256,192,68930,1,0,0:0:0:0:
256,192,69080,1,8,0:0:0:0:
256,192,69380,1,8,0:0:0:0:
256,192,69530,1,8,0:0:0:0:
256,192,69680,1,0,0:0:0:0:
256,192,69830,1,0,0:0:0:0:
256,192,69905,1,0,0:0:0:0:
256,192,69980,1,8,0:0:0:0:
256,192,70130,1,0,0:0:0:0:
256,192,70280,1,8,0:0:0:0:
256,192,70580,1,0,0:0:0:0:
256,192,70730,1,8,0:0:0:0:
256,192,70880,1,0,0:0:0:0:
256,192,71030,1,8,0:0:0:0:
256,192,71105,1,8,0:0:0:0:
256,192,71180,1,0,0:0:0:0:
256,192,71330,1,8,0:0:0:0:
256,192,71480,1,0,0:0:0:0:
256,192,71630,1,8,0:0:0:0:
256,192,71705,1,8,0:0:0:0:
256,192,71780,1,0,0:0:0:0:
256,192,71930,1,8,0:0:0:0:
256,192,72080,1,0,0:0:0:0:
256,192,72155,1,0,0:0:0:0:
256,192,72230,1,0,0:0:0:0:
256,192,72305,1,0,0:0:0:0:
256,192,72380,1,8,0:0:0:0:
256,192,72530,1,0,0:0:0:0:
256,192,72680,1,8,0:0:0:0:
256,192,72980,1,12,0:0:0:0:
256,192,73280,1,0,0:0:0:0:
256,192,73580,1,0,0:0:0:0:
256,192,73880,1,12,0:0:0:0:
256,192,74180,1,0,0:0:0:0:
256,192,74480,1,8,0:0:0:0:
256,192,74630,1,0,0:0:0:0:
256,192,74780,1,8,0:0:0:0:
256,192,74930,1,0,0:0:0:0:
256,192,75080,1,12,0:0:0:0:
256,192,75380,1,0,0:0:0:0:
256,192,75680,1,8,0:0:0:0:
256,192,75980,1,0,0:0:0:0:
256,192,76280,1,12,0:0:0:0:
256,192,76580,1,0,0:0:0:0:
256,192,76730,1,0,0:0:0:0:
256,192,76880,1,8,0:0:0:0:
256,192,77180,1,0,0:0:0:0:
256,192,77330,1,0,0:0:0:0:
256,192,77480,1,12,0:0:0:0:
256,192,77630,1,0,0:0:0:0:
256,192,77780,1,8,0:0:0:0:
256,192,77930,1,0,0:0:0:0:
256,192,78080,1,12,0:0:0:0:
256,192,78380,1,8,0:0:0:0:
256,192,78680,1,8,0:0:0:0:
256,192,78830,1,0,0:0:0:0:
256,192,78980,1,8,0:0:0:0:
256,192,79130,1,0,0:0:0:0:
256,192,79280,1,12,0:0:0:0:
256,192,79580,1,8,0:0:0:0:
256,192,79730,1,0,0:0:0:0:
256,192,79805,1,0,0:0:0:0:
256,192,79880,1,8,0:0:0:0:
256,192,80030,1,0,0:0:0:0:
256,192,80180,1,8,0:0:0:0:
256,192,80330,1,0,0:0:0:0:
256,192,80480,1,8,0:0:0:0:
256,192,80630,1,0,0:0:0:0:
256,192,80705,1,0,0:0:0:0:
256,192,80780,1,8,0:0:0:0:
256,192,80930,1,0,0:0:0:0:
256,192,81080,1,8,0:0:0:0:
256,192,81155,1,8,0:0:0:0:
256,192,81230,1,8,0:0:0:0:
256,192,81305,1,8,0:0:0:0:
256,192,81380,1,0,0:0:0:0:
256,192,81530,1,8,0:0:0:0:
256,192,81680,1,0,0:0:0:0:
256,192,81830,1,8,0:0:0:0:
256,192,82130,1,8,0:0:0:0:
256,192,82430,1,0,0:0:0:0:
256,192,82580,1,12,0:0:0:0:
256,192,82880,1,4,0:0:0:0:
256,192,83180,1,0,0:0:0:0:
256,192,83480,1,12,0:0:0:0:
256,192,83780,1,8,0:0:0:0:
256,192,83930,1,0,0:0:0:0:
256,192,84080,1,8,0:0:0:0:
256,192,84230,1,8,0:0:0:0:
256,192,84380,1,0,0:0:0:0:
256,192,84680,1,12,0:0:0:0:
256,192,84980,1,8,0:0:0:0:
256,192,85280,1,4,0:0:0:0:
256,192,85430,1,0,0:0:0:0:
256,192,85505,1,0,0:0:0:0:
256,192,85580,1,8,0:0:0:0:
256,192,85655,1,8,0:0:0:0:
256,192,85730,1,0,0:0:0:0:
256,192,85880,1,12,0:0:0:0:
256,192,86030,1,0,0:0:0:0:
256,192,86180,1,12,0:0:0:0:
256,192,86330,1,0,0:0:0:0:
256,192,86480,1,8,0:0:0:0:
256,192,86555,1,8,0:0:0:0:
256,192,86630,1,0,0:0:0:0:
256,192,86780,1,8,0:0:0:0:
256,192,86855,1,8,0:0:0:0:
256,192,86930,1,0,0:0:0:0:
256,192,87080,1,8,0:0:0:0:
256,192,87230,1,8,0:0:0:0:
256,192,87380,1,0,0:0:0:0:
256,192,87680,1,8,0:0:0:0:
256,192,87830,1,0,0:0:0:0:
256,192,87905,1,0,0:0:0:0:
256,192,87980,1,8,0:0:0:0:
256,192,88130,1,0,0:0:0:0:
256,192,88205,1,0,0:0:0:0:
256,192,88280,1,8,0:0:0:0:
256,192,88430,1,0,0:0:0:0:
256,192,88580,1,8,0:0:0:0:
256,192,88730,1,8,0:0:0:0:
256,192,88880,1,4,0:0:0:0:
256,192,89180,1,8,0:0:0:0:
256,192,89330,1,4,0:0:0:0:
256,192,89480,1,8,0:0:0:0:
256,192,89630,1,0,0:0:0:0:
256,192,89780,1,12,0:0:0:0:
256,192,90080,1,0,0:0:0:0:
256,192,90230,1,8,0:0:0:0:
256,192,90305,1,8,0:0:0:0:
256,192,90380,1,0,0:0:0:0:
256,192,90530,1,8,0:0:0:0:
256,192,90680,1,4,0:0:0:0:
256,192,90830,1,8,0:0:0:0:
256,192,90980,1,4,0:0:0:0:
256,192,91130,1,8,0:0:0:0:
256,192,91280,1,12,0:0:0:0:
256,192,91580,1,0,0:0:0:0:
256,192,91730,1,12,0:0:0:0:
256,192,92030,1,8,0:0:0:0:
256,192,92180,1,0,0:0:0:0:
256,192,92330,1,8,0:0:0:0:
256,192,92480,1,0,0:0:0:0:
256,192,92555,1,8,0:0:0:0:
256,192,92705,1,8,0:0:0:0:
256,192,92780,1,0,0:0:0:0:
256,192,92855,1,0,0:0:0:0:
256,192,92930,1,8,0:0:0:0:
256,192,93080,1,8,0:0:0:0:
256,192,93380,1,12,0:0:0:0:
256,192,93680,1,4,0:0:0:0:
256,192,94280,1,0,0:0:0:0:
256,192,94580,1,8,0:0:0:0:
256,192,94880,1,0,0:0:0:0:
256,192,95480,1,8,0:0:0:0:
256,192,95780,1,0,0:0:0:0:
256,192,95930,1,0,0:0:0:0:
256,192,96080,1,8,0:0:0:0:
256,192,96380,1,0,0:0:0:0:
256,192,96680,1,8,0:0:0:0:
256,192,96980,1,0,0:0:0:0:
256,192,97280,1,8,0:0:0:0:
256,192,97880,1,0,0:0:0:0:
256,192,98180,1,8,0:0:0:0:
256,192,98330,1,0,0:0:0:0:
256,192,98480,1,8,0:0:0:0:
256,192,98630,1,0,0:0:0:0:
256,192,98705,1,0,0:0:0:0:
256,192,98780,1,8,0:0:0:0:
256,192,98930,1,0,0:0:0:0:
256,192,99080,1,8,0:0:0:0:
256,192,99230,1,8,0:0:0:0:
256,192,99305,1,0,0:0:0:0:
256,192,99380,1,8,0:0:0:0:
256,192,99530,1,0,0:0:0:0:
256,192,99680,1,8,0:0:0:0:
256,192,99830,1,8,0:0:0:0:
256,192,99905,1,8,0:0:0:0:
256,192,99980,1,0,0:0:0:0:
256,192,100130,1,8,0:0:0:0:
256,192,100280,1,0,0:0:0:0:
256,192,100430,1,8,0:0:0:0:
256,192,100505,1,0,0:0:0:0:
256,192,100580,1,8,0:0:0:0:
256,192,100730,1,0,0:0:0:0:
256,192,100880,1,8,0:0:0:0:
256,192,101030,1,0,0:0:0:0:
256,192,101105,1,0,0:0:0:0:
256,192,101180,1,8,0:0:0:0:
256,192,101330,1,8,0:0:0:0:
256,192,101405,1,0,0:0:0:0:
256,192,101480,1,8,0:0:0:0:
256,192,101630,1,8,0:0:0:0:
256,192,101705,1,8,0:0:0:0:
256,192,101780,1,0,0:0:0:0:
256,192,101930,1,8,0:0:0:0:
256,192,102080,1,0,0:0:0:0:
256,192,102155,1,0,0:0:0:0:
256,192,102230,1,0,0:0:0:0:
256,192,102305,1,0,0:0:0:0:
256,192,102380,1,8,0:0:0:0:
256,192,102530,1,8,0:0:0:0:
256,192,102680,1,4,0:0:0:0:
256,192,102830,1,4,0:0:0:0:
256,192,102980,1,12,0:0:0:0:
256,192,103280,1,12,0:0:0:0:
256,192,103580,1,12,0:0:0:0:
256,192,103880,1,0,0:0:0:0:
256,192,103955,1,8,0:0:0:0:
256,192,104030,1,8,0:0:0:0:
256,192,104105,1,0,0:0:0:0:
256,192,104180,1,8,0:0:0:0:
256,192,104330,1,8,0:0:0:0:
256,192,104405,1,0,0:0:0:0:
256,192,104480,1,8,0:0:0:0:
256,192,104630,1,8,0:0:0:0:
256,192,104780,1,0,0:0:0:0:
256,192,104930,1,12,0:0:0:0:
256,192,105230,1,8,0:0:0:0:
256,192,105380,1,0,0:0:0:0:
256,192,105530,1,8,0:0:0:0:
256,192,105680,1,4,0:0:0:0:
256,192,105980,1,4,0:0:0:0:
256,192,106280,1,0,0:0:0:0:
256,192,106355,1,0,0:0:0:0:
256,192,106430,1,8,0:0:0:0:
256,192,106505,1,0,0:0:0:0:
256,192,106580,1,8,0:0:0:0:
256,192,106730,1,8,0:0:0:0:
256,192,106805,1,8,0:0:0:0:
256,192,106880,1,0,0:0:0:0:
256,192,107030,1,0,0:0:0:0:
256,192,107180,1,8,0:0:0:0:
256,192,107330,1,12,0:0:0:0:
256,192,107630,1,8,0:0:0:0:
256,192,107780,1,0,0:0:0:0:
256,192,107930,1,8,0:0:0:0:
256,192,108080,1,4,0:0:0:0:
256,192,108380,1,4,0:0:0:0:
256,192,108680,1,0,0:0:0:0:
256,192,108755,1,8,0:0:0:0:
256,192,108830,1,8,0:0:0:0:
256,192,108905,1,0,0:0:0:0:
256,192,108980,1,8,0:0:0:0:
256,192,109130,1,8,0:0:0:0:
256,192,109205,1,0,0:0:0:0:
256,192,109280,1,8,0:0:0:0:
256,192,109430,1,0,0:0:0:0:
256,192,109580,1,8,0:0:0:0:
256,192,109730,1,12,0:0:0:0:
256,192,110030,1,8,0:0:0:0:
256,192,110180,1,0,0:0:0:0:
256,192,110330,1,0,0:0:0:0:
256,192,110480,1,12,0:0:0:0:
256,192,110780,1,12,0:0:0:0:
256,192,111080,1,0,0:0:0:0:
256,192,111155,1,0,0:0:0:0:
256,192,111230,1,8,0:0:0:0:
256,192,111305,1,0,0:0:0:0:
256,192,111380,1,8,0:0:0:0:
256,192,111530,1,8,0:0:0:0:
256,192,111605,1,8,0:0:0:0:
256,192,111680,1,0,0:0:0:0:
256,192,111830,1,0,0:0:0:0:
256,192,111980,1,8,0:0:0:0:
256,192,112130,1,12,0:0:0:0:
256,192,112430,1,0,0:0:0:0:
256,192,112580,1,8,0:0:0:0:
256,192,112880,1,4,0:0:0:0:
256,192,113030,1,8,0:0:0:0:
256,192,113105,1,8,0:0:0:0:
256,192,113180,1,8,0:0:0:0:
256,192,113330,1,0,0:0:0:0:
256,192,113480,1,8,0:0:0:0:
256,192,113555,1,0,0:0:0:0:
256,192,113630,1,8,0:0:0:0:
256,192,113780,1,0,0:0:0:0:
256,192,113930,1,8,0:0:0:0:
256,192,114080,1,0,0:0:0:0:
256,192,114230,1,0,0:0:0:0:
256,192,114380,1,8,0:0:0:0:
256,192,114530,1,8,0:0:0:0:
256,192,114680,1,0,0:0:0:0:
256,192,114830,1,0,0:0:0:0:
256,192,114905,1,0,0:0:0:0:
256,192,114980,1,8,0:0:0:0:
256,192,115055,1,0,0:0:0:0:
256,192,115130,1,8,0:0:0:0:
256,192,115430,1,0,0:0:0:0:
256,192,115505,1,0,0:0:0:0:
256,192,115580,1,8,0:0:0:0:
256,192,115730,1,0,0:0:0:0:
256,192,115880,1,8,0:0:0:0:
256,192,115955,1,8,0:0:0:0:
256,192,116030,1,0,0:0:0:0:
256,192,116180,1,8,0:0:0:0:
256,192,116330,1,0,0:0:0:0:
256,192,116480,1,8,0:0:0:0:
256,192,116555,1,8,0:0:0:0:
256,192,116630,1,8,0:0:0:0:
256,192,116780,1,0,0:0:0:0:
256,192,116930,1,8,0:0:0:0:
256,192,117080,1,0,0:0:0:0:
256,192,117380,1,12,0:0:0:0:
256,192,117680,1,4,0:0:0:0:
256,192,117830,1,0,0:0:0:0:
256,192,117905,1,0,0:0:0:0:
256,192,117980,1,8,0:0:0:0:
256,192,118130,1,0,0:0:0:0:
256,192,118280,1,8,0:0:0:0:
256,192,118355,1,0,0:0:0:0:
256,192,118430,1,8,0:0:0:0:
256,192,118505,1,8,0:0:0:0:
256,192,118580,1,0,0:0:0:0:
256,192,118730,1,8,0:0:0:0:
256,192,118880,1,0,0:0:0:0:
256,192,119030,1,0,0:0:0:0:
256,192,119105,1,0,0:0:0:0:
256,192,119180,1,8,0:0:0:0:
256,192,119330,1,0,0:0:0:0:
256,192,119480,1,8,0:0:0:0:
256,192,119780,1,8,0:0:0:0:
256,192,119930,1,8,0:0:0:0:
256,192,120080,1,0,0:0:0:0:
256,192,120230,1,8,0:0:0:0:
256,192,120380,1,8,0:0:0:0:
256,192,120530,1,0,0:0:0:0:
256,192,120680,1,8,0:0:0:0:
256,192,120830,1,8,0:0:0:0:
256,192,120905,1,8,0:0:0:0:
256,192,120980,1,0,0:0:0:0:
256,192,121130,1,8,0:0:0:0:
256,192,121280,1,0,0:0:0:0:
256,192,121430,1,8,0:0:0:0:
256,192,121505,1,0,0:0:0:0:
256,192,121580,1,8,0:0:0:0:
256,192,121730,1,0,0:0:0:0:
256,192,121880,1,8,0:0:0:0:
256,192,122030,1,8,0:0:0:0:
256,192,122180,1,0,0:0:0:0:
256,192,122330,1,8,0:0:0:0:
256,192,122480,1,0,0:0:0:0:
256,192,122630,1,8,0:0:0:0:
256,192,122705,1,0,0:0:0:0:
256,192,122780,1,8,0:0:0:0:
256,192,122930,1,0,0:0:0:0:
256,192,123080,1,8,0:0:0:0:
256,192,123155,1,8,0:0:0:0:
256,192,123230,1,8,0:0:0:0:
256,192,123305,1,8,0:0:0:0:
256,192,123380,1,0,0:0:0:0:
256,192,123530,1,8,0:0:0:0:
256,192,123680,1,0,0:0:0:0:
256,192,123830,1,0,0:0:0:0:
256,192,123905,1,0,0:0:0:0:
256,192,123980,1,8,0:0:0:0:
256,192,124130,1,0,0:0:0:0:
256,192,124280,1,8,0:0:0:0:
256,192,124580,1,8,0:0:0:0:
256,192,124730,1,8,0:0:0:0:
256,192,124880,1,0,0:0:0:0:
256,192,125030,1,12,0:0:0:0:
256,192,125180,1,12,0:0:0:0:
256,192,125330,1,0,0:0:0:0:
256,192,125405,1,0,0:0:0:0:
256,192,125480,1,8,0:0:0:0:
256,192,125630,1,0,0:0:0:0:
256,192,125780,1,8,0:0:0:0:
256,192,125930,1,8,0:0:0:0:
256,192,126080,1,0,0:0:0:0:
256,192,126230,1,8,0:0:0:0:
256,192,126530,1,8,0:0:0:0:
256,192,126830,1,12,0:0:0:0:
256,192,126980,1,12,0:0:0:0:
256,192,127280,1,8,0:0:0:0:
256,192,127355,1,8,0:0:0:0:
256,192,127430,1,0,0:0:0:0:
256,192,127580,1,8,0:0:0:0:
256,192,127730,1,0,0:0:0:0:
256,192,127805,1,0,0:0:0:0:
256,192,127880,1,8,0:0:0:0:
256,192,128030,1,0,0:0:0:0:
256,192,128180,1,8,0:0:0:0:
256,192,128330,1,8,0:0:0:0:
256,192,128405,1,8,0:0:0:0:
256,192,128480,1,0,0:0:0:0:
256,192,128630,1,0,0:0:0:0:
256,192,128705,1,0,0:0:0:0:
256,192,128780,1,8,0:0:0:0:
256,192,128930,1,0,0:0:0:0:
256,192,129080,1,8,0:0:0:0:
256,192,129230,1,8,0:0:0:0:
256,192,129305,1,0,0:0:0:0:
256,192,129380,1,8,0:0:0:0:
256,192,129680,1,8,0:0:0:0:
256,192,129755,1,8,0:0:0:0:
256,192,129830,1,8,0:0:0:0:
256,192,129905,1,8,0:0:0:0:
256,192,129980,1,0,0:0:0:0:
256,192,130130,1,8,0:0:0:0:
256,192,130280,1,0,0:0:0:0:
256,192,130430,1,0,0:0:0:0:
256,192,130505,1,0,0:0:0:0:
256,192,130580,1,8,0:0:0:0:
256,192,130730,1,0,0:0:0:0:
256,192,130880,1,8,0:0:0:0:
256,192,131030,1,8,0:0:0:0:
256,192,131105,1,0,0:0:0:0:
256,192,131180,1,8,0:0:0:0:
256,192,131330,1,8,0:0:0:0:
256,192,131405,1,8,0:0:0:0:
256,192,131480,1,0,0:0:0:0:
256,192,131630,1,8,0:0:0:0:
256,192,131780,1,0,0:0:0:0:
256,192,131855,1,0,0:0:0:0:
256,192,131930,1,0,0:0:0:0:
256,192,132005,1,0,0:0:0:0:
256,192,132080,1,8,0:0:0:0:
256,192,132230,1,0,0:0:0:0:
256,192,132380,1,8,0:0:0:0:
256,192,132530,1,0,0:0:0:0:
256,192,132680,1,0,0:0:0:0:
256,192,132980,1,8,0:0:0:0:
256,192,133130,1,0,0:0:0:0:
256,192,133280,1,8,0:0:0:0:
256,192,133430,1,8,0:0:0:0:
256,192,133505,1,0,0:0:0:0:
256,192,133580,1,8,0:0:0:0:
256,192,133730,1,0,0:0:0:0:
256,192,133880,1,8,0:0:0:0:
256,192,134030,1,8,0:0:0:0:
256,192,134180,1,0,0:0:0:0:
256,192,134330,1,8,0:0:0:0:
256,192,134480,1,0,0:0:0:0:
256,192,134555,1,0,0:0:0:0:
256,192,134630,1,8,0:0:0:0:
256,192,134705,1,8,0:0:0:0:
256,192,134780,1,0,0:0:0:0:
256,192,134930,1,8,0:0:0:0:
256,192,135080,1,0,0:0:0:0:
256,192,135230,1,0,0:0:0:0:
256,192,135305,1,0,0:0:0:0:
256,192,135380,1,8,0:0:0:0:
256,192,135530,1,0,0:0:0:0:
256,192,135680,1,8,0:0:0:0:
256,192,135830,1,0,0:0:0:0:
256,192,135905,1,8,0:0:0:0:
256,192,136055,1,0,0:0:0:0:
256,192,136130,1,8,0:0:0:0:
256,192,136280,1,0,0:0:0:0:
256,192,136430,1,8,0:0:0:0:
256,192,136580,1,0,0:0:0:0:
256,192,136730,1,8,0:0:0:0:
256,192,137180,1,12,0:0:0:0:
256,192,137330,1,8,0:0:0:0:
256,192,137405,1,0,0:0:0:0:
256,192,137480,1,8,0:0:0:0:
256,192,137630,1,0,0:0:0:0:
256,192,137780,1,8,0:0:0:0:
256,192,137930,1,0,0:0:0:0:
256,192,138080,1,8,0:0:0:0:
256,192,138230,1,0,0:0:0:0:
256,192,138305,1,8,0:0:0:0:
256,192,138455,1,0,0:0:0:0:
256,192,138530,1,8,0:0:0:0:
256,192,138680,1,0,0:0:0:0:
256,192,138830,1,8,0:0:0:0:
256,192,138980,1,0,0:0:0:0:
256,192,139280,1,8,0:0:0:0:
256,192,139355,1,8,0:0:0:0:
256,192,139430,1,0,0:0:0:0:
256,192,139580,1,8,0:0:0:0:
256,192,139730,1,0,0:0:0:0:
256,192,139880,1,12,0:0:0:0:
256,192,140030,1,8,0:0:0:0:
256,192,140105,1,0,0:0:0:0:
256,192,140180,1,8,0:0:0:0:
256,192,140330,1,0,0:0:0:0:
256,192,140480,1,8,0:0:0:0:
256,192,140555,1,8,0:0:0:0:
256,192,140630,1,0,0:0:0:0:
256,192,140780,1,8,0:0:0:0:
256,192,140855,1,0,0:0:0:0:
256,192,140930,1,0,0:0:0:0:
256,192,141080,1,0,0:0:0:0:
256,192,141230,1,8,0:0:0:0:
256,192,141380,1,0,0:0:0:0:
256,192,141455,1,0,0:0:0:0:
256,192,141530,1,0,0:0:0:0:
256,192,141605,1,0,0:0:0:0:
256,192,141680,1,12,0:0:0:0:
256,192,141980,1,12,0:0:0:0:
256,192,142280,1,0,0:0:0:0:
256,192,142430,1,0,0:0:0:0:
256,192,142580,1,12,0:0:0:0:
256,192,142880,1,8,0:0:0:0:
256,192,142955,1,8,0:0:0:0:
256,192,143030,1,8,0:0:0:0:
256,192,143105,1,8,0:0:0:0:
256,192,143180,1,0,0:0:0:0:
256,192,143330,1,8,0:0:0:0:
256,192,143480,1,0,0:0:0:0:
256,192,143555,1,0,0:0:0:0:
256,192,143630,1,0,0:0:0:0:
256,192,143780,1,12,0:0:0:0:
256,192,144080,1,4,0:0:0:0:
256,192,144230,1,0,0:0:0:0:
256,192,144380,1,12,0:0:0:0:
256,192,144530,1,12,0:0:0:0:
256,192,144680,1,4,0:0:0:0:
256,192,144980,1,4,0:0:0:0:
256,192,145280,1,8,0:0:0:0:
256,192,145355,1,8,0:0:0:0:
256,192,145430,1,0,0:0:0:0:
256,192,145505,1,0,0:0:0:0:
256,192,145580,1,8,0:0:0:0:
256,192,145730,1,0,0:0:0:0:
256,192,145805,1,8,0:0:0:0:
256,192,145955,1,0,0:0:0:0:
256,192,146030,1,8,0:0:0:0:
256,192,146180,1,12,0:0:0:0:
256,192,146330,1,8,0:0:0:0:
256,192,146480,1,0,0:0:0:0:
256,192,146630,1,0,0:0:0:0:
256,192,146780,1,8,0:0:0:0:
256,192,146930,1,0,0:0:0:0:
256,192,147005,1,0,0:0:0:0:
256,192,147080,1,8,0:0:0:0:
256,192,147230,1,8,0:0:0:0:
256,192,147680,1,12,0:0:0:0:
256,192,147830,1,0,0:0:0:0:
256,192,147905,1,0,0:0:0:0:
256,192,147980,1,8,0:0:0:0:
256,192,148130,1,0,0:0:0:0:
256,192,148280,1,12,0:0:0:0:
256,192,148430,1,4,0:0:0:0:
256,192,148580,1,12,0:0:0:0:
256,192,148880,1,12,0:0:0:0:
256,192,149030,1,12,0:0:0:0:
256,192,149180,1,4,0:0:0:0:
256,192,149330,1,12,0:0:0:0:
256,192,149480,1,4,0:0:0:0:
256,192,149780,1,12,0:0:0:0:
256,192,150080,1,0,0:0:0:0:
256,192,150155,1,0,0:0:0:0:
256,192,150230,1,8,0:0:0:0:
256,192,150305,1,0,0:0:0:0:
256,192,150380,1,8,0:0:0:0:
256,192,150530,1,0,0:0:0:0:
256,192,150680,1,8,0:0:0:0:
256,192,150830,1,8,0:0:0:0:
256,192,150905,1,8,0:0:0:0:
256,192,150980,1,0,0:0:0:0:
256,192,151130,1,8,0:0:0:0:
256,192,151280,1,0,0:0:0:0:
256,192,151355,1,0,0:0:0:0:
256,192,151430,1,0,0:0:0:0:
256,192,151505,1,0,0:0:0:0:
256,192,151580,1,8,0:0:0:0:
256,192,151730,1,8,0:0:0:0:
256,192,152030,1,8,0:0:0:0:
256,192,152330,1,0,0:0:0:0:
256,192,152480,1,12,0:0:0:0:
256,192,152780,1,12,0:0:0:0:
256,192,153080,1,8,0:0:0:0:
256,192,153230,1,0,0:0:0:0:
256,192,153380,1,8,0:0:0:0:
256,192,153455,1,8,0:0:0:0:
256,192,153530,1,8,0:0:0:0:
256,192,153605,1,8,0:0:0:0:
256,192,153680,1,0,0:0:0:0:
256,192,153830,1,8,0:0:0:0:
256,192,153905,1,0,0:0:0:0:
256,192,154055,1,8,0:0:0:0:
256,192,154130,1,0,0:0:0:0:
256,192,154280,1,8,0:0:0:0:
256,192,154430,1,0,0:0:0:0:
256,192,154580,1,12,0:0:0:0:
256,192,154880,1,8,0:0:0:0:
256,192,154955,1,8,0:0:0:0:
256,192,155030,1,8,0:0:0:0:
256,192,155180,1,0,0:0:0:0:
256,192,155330,1,8,0:0:0:0:
256,192,155480,1,4,0:0:0:0:
256,192,155780,1,4,0:0:0:0:
256,192,156080,1,8,0:0:0:0:
256,192,156155,1,8,0:0:0:0:
256,192,156230,1,0,0:0:0:0:
256,192,156305,1,0,0:0:0:0:
256,192,156380,1,8,0:0:0:0:
256,192,156530,1,8,0:0:0:0:
256,192,156605,1,8,0:0:0:0:
256,192,156680,1,0,0:0:0:0:
256,192,156830,1,0,0:0:0:0:
256,192,156980,1,8,0:0:0:0:
256,192,157130,1,8,0:0:0:0:
256,192,157280,1,0,0:0:0:0:
256,192,157430,1,0,0:0:0:0:
256,192,157505,1,0,0:0:0:0:
256,192,157580,1,8,0:0:0:0:
256,192,157730,1,8,0:0:0:0:
256,192,157805,1,8,0:0:0:0:
256,192,157880,1,0,0:0:0:0:
256,192,157955,1,0,0:0:0:0:
256,192,158030,1,0,0:0:0:0:
256,192,158105,1,0,0:0:0:0:
256,192,158180,1,8,0:0:0:0:
256,192,158330,1,0,0:0:0:0:
256,192,158480,1,12,0:0:0:0:
256,192,158780,1,12,0:0:0:0:
256,192,159080,1,8,0:0:0:0:
256,192,159230,1,0,0:0:0:0:
256,192,159305,1,0,0:0:0:0:
256,192,159380,1,8,0:0:0:0:
256,192,159530,1,0,0:0:0:0:
256,192,159680,1,8,0:0:0:0:
256,192,159755,1,8,0:0:0:0:
256,192,159830,1,8,0:0:0:0:
256,192,159905,1,8,0:0:0:0:
256,192,159980,1,0,0:0:0:0:
256,192,160130,1,8,0:0:0:0:
256,192,160280,1,0,0:0:0:0:
256,192,160355,1,8,0:0:0:0:
256,192,160505,1,0,0:0:0:0:
256,192,160580,1,8,0:0:0:0:
256,192,160880,1,8,0:0:0:0:
256,192,160955,1,8,0:0:0:0:
256,192,161030,1,8,0:0:0:0:
256,192,161105,1,0,0:0:0:0:
256,192,161180,1,8,0:0:0:0:
256,192,161330,1,0,0:0:0:0:
256,192,161480,1,12,0:0:0:0:
256,192,161780,1,12,0:0:0:0:
256,192,161930,1,8,0:0:0:0:
256,192,162080,1,0,0:0:0:0:
256,192,162230,1,0,0:0:0:0:
256,192,162305,1,0,0:0:0:0:
256,192,162380,1,8,0:0:0:0:
256,192,162530,1,0,0:0:0:0:
256,192,162680,1,8,0:0:0:0:
256,192,162830,1,8,0:0:0:0:
256,192,162905,1,8,0:0:0:0:
256,192,162980,1,8,0:0:0:0:
256,192,163130,1,8,0:0:0:0:
256,192,163280,1,4,0:0:0:0:
256,192,163430,1,8,0:0:0:0:
256,192,163580,1,4,0:0:0:0:
256,192,163730,1,8,0:0:0:0:
256,192,163880,1,12,0:0:0:0:
256,192,164030,1,12,0:0:0:0:
256,192,164180,1,4,0:0:0:0:
256,192,164480,1,8,0:0:0:0:
256,192,164555,1,8,0:0:0:0:
256,192,164630,1,0,0:0:0:0:
256,192,164780,1,8,0:0:0:0:
256,192,164855,1,8,0:0:0:0:
256,192,164930,1,0,0:0:0:0:
256,192,165005,1,0,0:0:0:0:
256,192,165080,1,8,0:0:0:0:
256,192,165230,1,0,0:0:0:0:
256,192,165380,1,12,0:0:0:0:
256,192,165680,1,0,0:0:0:0:
256,192,165830,1,0,0:0:0:0:
256,192,165980,1,8,0:0:0:0:
256,192,166130,1,0,0:0:0:0:
256,192,166280,1,8,0:0:0:0:
256,192,166430,1,0,0:0:0:0:
256,192,166505,1,0,0:0:0:0:
256,192,166580,1,8,0:0:0:0:
256,192,166730,1,8,0:0:0:0:
256,192,166880,1,4,0:0:0:0:
256,192,167180,1,8,0:0:0:0:
256,192,167330,1,4,0:0:0:0:
256,192,167630,1,8,0:0:0:0:
256,192,167780,1,4,0:0:0:0:
256,192,167930,1,0,0:0:0:0:
256,192,168230,1,8,0:0:0:0:
256,192,168380,1,4,0:0:0:0:
256,192,168530,1,0,0:0:0:0:
256,192,168680,1,12,0:0:0:0:
256,192,168830,1,8,0:0:0:0:
256,192,168980,1,0,0:0:0:0:
