osu file format v14

[General]
AudioFilename: audio.mp3
AudioLeadIn: 0
PreviewTime: 43270
Countdown: 0
SampleSet: Normal
StackLeniency: 0.7
Mode: 1
LetterboxInBreaks: 0
WidescreenStoryboard: 1

[Editor]
Bookmarks: 80,9680,19280,31280,43280,54080,63680,73280,82880,93680,103280,112880,117680,127280,137180,147680,158480
DistanceSpacing: 0.7
BeatDivisor: 2
GridSize: 32
TimelineZoom: 1.6

[Metadata]
Title:Rasputin
TitleUnicode:Rasputin
Artist:Rahatt
ArtistUnicode:Rahatt
Creator:Lumenite-
Version:Futsuu
Source:
Tags:breakcore bootleg boney m electronic instrumental capu the law liku remix youman3 live set taikocracy incandescence english gypsycore
BeatmapID:3642454
BeatmapSetID:1731937

[Difficulty]
HPDrainRate:6.5
CircleSize:2
OverallDifficulty:3.8
ApproachRate:10
SliderMultiplier:1.3
SliderTickRate:1

[Events]
//Background and Video events
0,0,"MOSHED-2023-2-24-23-46-24.jpg",0,0
//Break Periods
2,63880,65630
2,68680,70430
2,117880,119630
2,122680,124430
//Storyboard Layer 0 (Background)
//Storyboard Layer 1 (Fail)
//Storyboard Layer 2 (Pass)
//Storyboard Layer 3 (Foreground)
//Storyboard Layer 4 (Overlay)
//Storyboard Sound Samples

[TimingPoints]
80,300,4,1,0,100,1,0
43280,-100,4,1,0,100,0,1
50480,-100,4,1,0,100,0,0
85280,-100,4,1,0,100,0,1
93680,-100,4,1,0,100,0,0
103280,-100,4,1,0,100,0,1
107780,-100,4,1,0,100,0,0
108080,-100,4,1,0,100,0,1
112130,-100,4,1,0,100,0,0
137180,-100,4,1,0,100,0,1
147230,-100,4,1,0,100,0,0
147680,-83.3333333333333,4,1,0,100,0,1
149855,-100,4,1,0,100,0,0
150080,-100,4,1,0,100,0,1
157880,-100,4,1,0,100,0,0
158480,-100,4,1,0,100,0,1
168980,-100,4,1,0,100,0,0

[HitObjects]
256,192,80,5,0,0:0:0:0:
256,192,680,1,0,0:0:0:0:
256,192,980,1,0,0:0:0:0:
256,192,1280,1,0,0:0:0:0:
256,192,1880,1,0,0:0:0:0:
256,192,2180,1,0,0:0:0:0:
256,192,2480,1,0,0:0:0:0:
256,192,3080,1,0,0:0:0:0:
256,192,3380,1,0,0:0:0:0:
256,192,3680,1,8,0:0:0:0:
256,192,3980,1,0,0:0:0:0:
256,192,4280,1,8,0:0:0:0:
256,192,4580,1,12,0:0:0:0:
256,192,4880,1,0,0:0:0:0:
256,192,5480,1,0,0:0:0:0:
256,192,6080,1,8,0:0:0:0:
256,192,6380,1,8,0:0:0:0:
256,192,6680,1,0,0:0:0:0:
256,192,6980,1,0,0:0:0:0:
256,192,7130,1,0,0:0:0:0:
256,192,7280,1,8,0:0:0:0:
256,192,7580,1,8,0:0:0:0:
256,192,7880,1,8,0:0:0:0:
256,192,8180,1,0,0:0:0:0:
256,192,8330,1,0,0:0:0:0:
256,192,8480,1,8,0:0:0:0:
256,192,8780,1,8,0:0:0:0:
256,192,8930,1,8,0:0:0:0:
256,192,9080,1,4,0:0:0:0:
256,192,9680,1,8,0:0:0:0:
256,192,9980,1,0,0:0:0:0:
256,192,10280,1,8,0:0:0:0:
256,192,10430,1,0,0:0:0:0:
256,192,10580,1,8,0:0:0:0:
256,192,10880,1,8,0:0:0:0:
256,192,11030,1,8,0:0:0:0:
256,192,11180,1,0,0:0:0:0:
256,192,11480,1,0,0:0:0:0:
256,192,11780,1,0,0:0:0:0:
256,192,12080,1,8,0:0:0:0:
256,192,12680,1,8,0:0:0:0:
256,192,12830,1,8,0:0:0:0:
256,192,12980,1,0,0:0:0:0:
256,192,13280,1,8,0:0:0:0:
256,192,13580,1,8,0:0:0:0:
256,192,13880,1,0,0:0:0:0:
256,192,14030,1,0,0:0:0:0:
256,192,14180,1,8,0:0:0:0:
256,192,14480,1,4,0:0:0:0:
256,192,14780,1,0,0:0:0:0:
256,192,15080,1,8,0:0:0:0:
256,192,15380,1,8,0:0:0:0:
256,192,15680,1,0,0:0:0:0:
256,192,15980,1,0,0:0:0:0:
256,192,16280,1,8,0:0:0:0:
256,192,16580,1,8,0:0:0:0:
256,192,16880,1,0,0:0:0:0:
256,192,17030,1,0,0:0:0:0:
256,192,17180,1,8,0:0:0:0:
256,192,17480,1,0,0:0:0:0:
256,192,17630,1,0,0:0:0:0:
256,192,17780,1,8,0:0:0:0:
256,192,18080,1,8,0:0:0:0:
256,192,18230,1,0,0:0:0:0:
256,192,18380,1,8,0:0:0:0:
256,192,18530,1,8,0:0:0:0:
256,192,18680,1,0,0:0:0:0:
256,192,19280,1,4,0:0:0:0:
256,192,19580,1,4,0:0:0:0:
256,192,19880,1,8,0:0:0:0:
256,192,20030,1,0,0:0:0:0:
256,192,20180,1,8,0:0:0:0:
256,192,20480,1,8,0:0:0:0:
256,192,20780,1,0,0:0:0:0:
256,192,20930,1,8,0:0:0:0:
256,192,21230,1,0,0:0:0:0:
256,192,21380,1,8,0:0:0:0:
256,192,21530,1,8,0:0:0:0:
256,192,21680,1,4,0:0:0:0:
256,192,21980,1,4,0:0:0:0:
256,192,22280,1,8,0:0:0:0:
256,192,22430,1,0,0:0:0:0:
256,192,22580,1,8,0:0:0:0:
256,192,22880,1,0,0:0:0:0:
256,192,23180,1,0,0:0:0:0:
256,192,23330,1,8,0:0:0:0:
256,192,24080,1,0,0:0:0:0:
256,192,24380,1,0,0:0:0:0:
256,192,24530,1,8,0:0:0:0:
256,192,24680,1,0,0:0:0:0:
256,192,24980,1,8,0:0:0:0:
256,192,25280,1,0,0:0:0:0:
256,192,25430,1,0,0:0:0:0:
256,192,25580,1,8,0:0:0:0:
256,192,25730,1,8,0:0:0:0:
256,192,25880,1,0,0:0:0:0:
256,192,26180,1,8,0:0:0:0:
256,192,26480,1,4,0:0:0:0:
256,192,27080,1,8,0:0:0:0:
256,192,27380,1,8,0:0:0:0:
256,192,27680,1,0,0:0:0:0:
256,192,27980,1,8,0:0:0:0:
256,192,28130,1,8,0:0:0:0:
256,192,28280,1,0,0:0:0:0:
256,192,28580,1,12,0:0:0:0:
256,192,28880,1,0,0:0:0:0:
256,192,29180,1,0,0:0:0:0:
256,192,29330,1,0,0:0:0:0:
256,192,29480,1,8,0:0:0:0:
256,192,29780,1,0,0:0:0:0:
256,192,30080,1,8,0:0:0:0:
256,192,30230,1,0,0:0:0:0:
256,192,30380,1,8,0:0:0:0:
256,192,30530,1,8,0:0:0:0:
256,192,30680,1,0,0:0:0:0:
256,192,30980,1,8,0:0:0:0:
256,192,31130,1,0,0:0:0:0:
256,192,31280,1,12,0:0:0:0:
256,192,31880,1,12,0:0:0:0:
256,192,32180,1,0,0:0:0:0:
256,192,32330,1,0,0:0:0:0:
256,192,32480,1,8,0:0:0:0:
256,192,32780,1,8,0:0:0:0:
256,192,33080,1,0,0:0:0:0:
256,192,33380,1,8,0:0:0:0:
256,192,33530,1,8,0:0:0:0:
256,192,33680,1,4,0:0:0:0:
256,192,34280,1,8,0:0:0:0:
256,192,34430,1,0,0:0:0:0:
256,192,34580,1,8,0:0:0:0:
256,192,34880,1,8,0:0:0:0:
256,192,35180,1,8,0:0:0:0:
256,192,35330,1,8,0:0:0:0:
256,192,35480,1,0,0:0:0:0:
256,192,35780,1,8,0:0:0:0:
256,192,36080,1,4,0:0:0:0:
256,192,36380,1,4,0:0:0:0:
256,192,36680,1,8,0:0:0:0:
256,192,36830,1,0,0:0:0:0:
256,192,36980,1,8,0:0:0:0:
256,192,37280,1,8,0:0:0:0:
256,192,37580,1,8,0:0:0:0:
256,192,37730,1,8,0:0:0:0:
256,192,37880,1,0,0:0:0:0:
256,192,38030,1,0,0:0:0:0:
256,192,38180,1,8,0:0:0:0:
256,192,38480,1,0,0:0:0:0:
256,192,39080,1,8,0:0:0:0:
256,192,39380,1,0,0:0:0:0:
256,192,39680,1,8,0:0:0:0:
256,192,39980,1,8,0:0:0:0:
256,192,40130,1,8,0:0:0:0:
256,192,40280,1,0,0:0:0:0:
256,192,40580,1,8,0:0:0:0:
256,192,40880,1,0,0:0:0:0:
256,192,41180,1,0,0:0:0:0:
256,192,41480,1,8,0:0:0:0:
256,192,42080,12,0,42980,0:0:0:0:
256,192,43280,5,12,0:0:0:0:
256,192,43580,1,12,0:0:0:0:
256,192,43880,1,0,0:0:0:0:
256,192,44030,1,0,0:0:0:0:
256,192,44180,1,8,0:0:0:0:
256,192,44480,1,8,0:0:0:0:
256,192,44630,1,0,0:0:0:0:
256,192,44780,1,8,0:0:0:0:
256,192,45080,1,0,0:0:0:0:
256,192,45380,1,12,0:0:0:0:
256,192,45980,1,8,0:0:0:0:
256,192,46130,1,8,0:0:0:0:
256,192,46280,1,4,0:0:0:0:
256,192,46580,1,4,0:0:0:0:
256,192,46880,1,8,0:0:0:0:
256,192,47180,1,0,0:0:0:0:
256,192,47330,1,8,0:0:0:0:
256,192,47630,1,0,0:0:0:0:
256,192,47780,1,8,0:0:0:0:
256,192,47930,1,8,0:0:0:0:
256,192,48080,1,4,0:0:0:0:
256,192,48380,1,4,0:0:0:0:
256,192,48680,1,12,0:0:0:0:
256,192,49280,1,8,0:0:0:0:
256,192,49580,1,8,0:0:0:0:
256,192,49730,1,8,0:0:0:0:
256,192,49880,1,0,0:0:0:0:
256,192,50180,1,12,0:0:0:0:
256,192,50480,1,0,0:0:0:0:
256,192,50630,1,0,0:0:0:0:
256,192,50780,1,8,0:0:0:0:
256,192,51230,1,0,0:0:0:0:
256,192,51380,1,8,0:0:0:0:
256,192,51680,1,0,0:0:0:0:
256,192,51980,1,8,0:0:0:0:
256,192,52130,1,0,0:0:0:0:
256,192,52430,1,0,0:0:0:0:
256,192,52580,1,8,0:0:0:0:
256,192,52880,1,0,0:0:0:0:
256,192,53180,1,8,0:0:0:0:
256,192,53330,1,8,0:0:0:0:
256,192,53480,1,0,0:0:0:0:
256,192,53780,1,12,0:0:0:0:
256,192,54080,1,0,0:0:0:0:
256,192,54230,1,0,0:0:0:0:
256,192,54380,1,8,0:0:0:0:
256,192,54680,1,8,0:0:0:0:
256,192,54830,1,0,0:0:0:0:
256,192,54980,1,8,0:0:0:0:
256,192,55280,1,8,0:0:0:0:
256,192,55580,1,0,0:0:0:0:
256,192,55730,1,8,0:0:0:0:
256,192,56180,1,8,0:0:0:0:
256,192,56330,1,8,0:0:0:0:
256,192,56480,1,0,0:0:0:0:
256,192,56780,1,0,0:0:0:0:
256,192,57080,1,8,0:0:0:0:
256,192,57230,1,0,0:0:0:0:
256,192,57380,1,8,0:0:0:0:
256,192,57680,1,0,0:0:0:0:
256,192,57980,1,0,0:0:0:0:
256,192,58130,1,8,0:0:0:0:
256,192,58880,1,4,0:0:0:0:
256,192,59180,1,8,0:0:0:0:
256,192,59330,1,0,0:0:0:0:
256,192,59480,1,8,0:0:0:0:
256,192,59630,1,8,0:0:0:0:
256,192,59930,1,0,0:0:0:0:
256,192,60080,1,8,0:0:0:0:
256,192,60380,1,8,0:0:0:0:
256,192,60530,1,8,0:0:0:0:
256,192,60680,1,0,0:0:0:0:
256,192,60980,1,0,0:0:0:0:
256,192,61280,1,8,0:0:0:0:
256,192,61880,1,8,0:0:0:0:
256,192,62180,1,0,0:0:0:0:
256,192,62330,1,0,0:0:0:0:
256,192,62480,1,8,0:0:0:0:
256,192,62780,1,8,0:0:0:0:
256,192,62930,1,8,0:0:0:0:
256,192,63080,1,0,0:0:0:0:
256,192,63380,1,12,0:0:0:0:
256,192,63680,1,4,0:0:0:0:
256,192,66080,5,0,0:0:0:0:
256,192,66230,1,0,0:0:0:0:
256,192,66380,1,8,0:0:0:0:
256,192,66680,1,0,0:0:0:0:
256,192,66830,1,0,0:0:0:0:
256,192,66980,1,8,0:0:0:0:
256,192,67280,1,0,0:0:0:0:
256,192,67580,1,8,0:0:0:0:
256,192,67730,1,8,0:0:0:0:
256,192,67880,1,0,0:0:0:0:
256,192,68180,1,12,0:0:0:0:
256,192,68480,1,0,0:0:0:0:
256,192,70880,5,0,0:0:0:0:
256,192,71030,1,0,0:0:0:0:
256,192,71180,1,8,0:0:0:0:
256,192,71480,1,0,0:0:0:0:
256,192,71630,1,0,0:0:0:0:
256,192,71780,1,8,0:0:0:0:
256,192,72080,1,8,0:0:0:0:
256,192,72380,1,8,0:0:0:0:
256,192,72530,1,0,0:0:0:0:
256,192,72680,1,8,0:0:0:0:
256,192,72980,1,12,0:0:0:0:
256,192,73280,1,0,0:0:0:0:
256,192,73580,1,0,0:0:0:0:
256,192,73880,1,12,0:0:0:0:
256,192,74480,1,8,0:0:0:0:
256,192,74780,1,0,0:0:0:0:
256,192,75080,1,12,0:0:0:0:
256,192,75680,1,0,0:0:0:0:
256,192,75980,1,0,0:0:0:0:
256,192,76280,1,12,0:0:0:0:
256,192,76880,1,8,0:0:0:0:
256,192,77180,1,0,0:0:0:0:
256,192,77480,1,12,0:0:0:0:
256,192,77780,1,0,0:0:0:0:
256,192,78080,1,8,0:0:0:0:
256,192,78380,1,8,0:0:0:0:
256,192,78680,1,0,0:0:0:0:
256,192,78830,1,0,0:0:0:0:
256,192,78980,1,8,0:0:0:0:
256,192,79280,1,12,0:0:0:0:
256,192,79730,1,8,0:0:0:0:
256,192,79880,1,0,0:0:0:0:
256,192,80180,1,8,0:0:0:0:
256,192,80480,1,0,0:0:0:0:
256,192,80780,1,0,0:0:0:0:
256,192,80930,1,0,0:0:0:0:
256,192,81080,1,8,0:0:0:0:
256,192,81380,1,8,0:0:0:0:
256,192,81680,1,0,0:0:0:0:
256,192,81830,1,8,0:0:0:0:
256,192,82130,1,8,0:0:0:0:
256,192,82430,1,0,0:0:0:0:
256,192,82580,1,8,0:0:0:0:
256,192,82880,1,4,0:0:0:0:
256,192,83480,1,12,0:0:0:0:
256,192,84080,1,0,0:0:0:0:
256,192,84380,1,0,0:0:0:0:
256,192,84680,1,12,0:0:0:0:
256,192,85280,1,0,0:0:0:0:
256,192,85430,1,0,0:0:0:0:
256,192,85580,1,8,0:0:0:0:
256,192,85880,1,12,0:0:0:0:
256,192,86180,1,12,0:0:0:0:
256,192,86480,1,0,0:0:0:0:
256,192,86780,1,0,0:0:0:0:
256,192,87080,1,0,0:0:0:0:
256,192,87230,1,8,0:0:0:0:
256,192,87380,1,0,0:0:0:0:
256,192,87530,1,0,0:0:0:0:
256,192,87680,1,8,0:0:0:0:
256,192,87980,1,8,0:0:0:0:
256,192,88280,1,8,0:0:0:0:
256,192,88430,1,8,0:0:0:0:
256,192,88580,1,8,0:0:0:0:
256,192,88880,1,4,0:0:0:0:
256,192,89330,1,4,0:0:0:0:
256,192,89780,1,12,0:0:0:0:
256,192,90380,1,8,0:0:0:0:
256,192,90530,1,8,0:0:0:0:
256,192,90680,1,0,0:0:0:0:
256,192,90980,1,8,0:0:0:0:
256,192,91280,1,4,0:0:0:0:
256,192,91730,1,4,0:0:0:0:
256,192,92180,1,8,0:0:0:0:
256,192,92480,1,0,0:0:0:0:
256,192,92780,1,8,0:0:0:0:
256,192,92930,1,8,0:0:0:0:
256,192,93080,1,0,0:0:0:0:
256,192,93380,1,12,0:0:0:0:
256,192,93680,1,4,0:0:0:0:
256,192,94280,1,0,0:0:0:0:
256,192,94580,1,8,0:0:0:0:
256,192,94880,1,0,0:0:0:0:
256,192,95480,1,8,0:0:0:0:
256,192,95780,1,0,0:0:0:0:
256,192,95930,1,0,0:0:0:0:
256,192,96080,1,8,0:0:0:0:
256,192,96380,1,0,0:0:0:0:
256,192,96680,1,8,0:0:0:0:
256,192,96980,1,0,0:0:0:0:
256,192,97280,1,8,0:0:0:0:
256,192,98480,1,8,0:0:0:0:
256,192,98780,1,0,0:0:0:0:
256,192,99080,1,8,0:0:0:0:
256,192,99230,1,8,0:0:0:0:
256,192,99380,1,0,0:0:0:0:
256,192,99680,1,8,0:0:0:0:
256,192,99980,1,0,0:0:0:0:
256,192,100280,1,8,0:0:0:0:
256,192,100430,1,8,0:0:0:0:
256,192,100580,1,0,0:0:0:0:
256,192,100880,1,8,0:0:0:0:
256,192,101030,1,0,0:0:0:0:
256,192,101180,1,8,0:0:0:0:
256,192,101330,1,8,0:0:0:0:
256,192,101480,1,0,0:0:0:0:
256,192,101780,1,8,0:0:0:0:
256,192,102080,1,0,0:0:0:0:
256,192,102680,1,4,0:0:0:0:
256,192,102830,1,4,0:0:0:0:
256,192,102980,1,12,0:0:0:0:
256,192,103280,1,12,0:0:0:0:
256,192,103580,1,12,0:0:0:0:
256,192,103880,1,8,0:0:0:0:
256,192,104030,1,0,0:0:0:0:
256,192,104180,1,8,0:0:0:0:
256,192,104480,1,8,0:0:0:0:
256,192,104780,1,0,0:0:0:0:
256,192,104930,1,8,0:0:0:0:
256,192,105230,1,0,0:0:0:0:
256,192,105380,1,8,0:0:0:0:
256,192,105530,1,8,0:0:0:0:
256,192,105680,1,4,0:0:0:0:
256,192,105980,1,4,0:0:0:0:
256,192,106280,1,8,0:0:0:0:
256,192,106430,1,0,0:0:0:0:
256,192,106580,1,8,0:0:0:0:
256,192,106880,1,0,0:0:0:0:
256,192,107180,1,0,0:0:0:0:
256,192,107330,1,8,0:0:0:0:
256,192,108080,1,4,0:0:0:0:
256,192,108380,1,4,0:0:0:0:
256,192,108680,1,8,0:0:0:0:
256,192,108830,1,0,0:0:0:0:
256,192,108980,1,8,0:0:0:0:
256,192,109280,1,0,0:0:0:0:
256,192,109580,1,0,0:0:0:0:
256,192,109730,1,8,0:0:0:0:
256,192,110030,1,0,0:0:0:0:
256,192,110180,1,8,0:0:0:0:
256,192,110330,1,0,0:0:0:0:
256,192,110480,1,12,0:0:0:0:
256,192,110780,1,12,0:0:0:0:
256,192,111080,1,8,0:0:0:0:
256,192,111230,1,0,0:0:0:0:
256,192,111380,1,8,0:0:0:0:
256,192,111680,1,0,0:0:0:0:
256,192,111980,1,0,0:0:0:0:
256,192,112130,1,8,0:0:0:0:
256,192,112880,1,4,0:0:0:0:
256,192,113180,1,8,0:0:0:0:
256,192,113330,1,0,0:0:0:0:
256,192,113480,1,8,0:0:0:0:
256,192,113930,1,0,0:0:0:0:
256,192,114080,1,8,0:0:0:0:
256,192,114380,1,8,0:0:0:0:
256,192,114530,1,8,0:0:0:0:
256,192,114680,1,0,0:0:0:0:
256,192,114980,1,0,0:0:0:0:
256,192,115280,1,8,0:0:0:0:
256,192,115580,1,8,0:0:0:0:
256,192,115880,1,8,0:0:0:0:
256,192,116180,1,0,0:0:0:0:
256,192,116330,1,0,0:0:0:0:
256,192,116480,1,8,0:0:0:0:
256,192,116780,1,8,0:0:0:0:
256,192,116930,1,8,0:0:0:0:
256,192,117080,1,0,0:0:0:0:
256,192,117380,1,8,0:0:0:0:
256,192,117680,1,4,0:0:0:0:
256,192,120080,5,0,0:0:0:0:
256,192,120380,1,8,0:0:0:0:
256,192,120530,1,0,0:0:0:0:
256,192,120680,1,8,0:0:0:0:
256,192,120980,1,8,0:0:0:0:
256,192,121280,1,0,0:0:0:0:
256,192,121580,1,8,0:0:0:0:
256,192,121730,1,8,0:0:0:0:
256,192,121880,1,0,0:0:0:0:
256,192,122180,1,8,0:0:0:0:
256,192,122480,1,4,0:0:0:0:
256,192,124880,5,0,0:0:0:0:
256,192,125030,1,8,0:0:0:0:
256,192,125180,1,12,0:0:0:0:
256,192,125480,1,0,0:0:0:0:
256,192,125780,1,8,0:0:0:0:
256,192,126080,1,0,0:0:0:0:
256,192,126230,1,8,0:0:0:0:
256,192,126530,1,8,0:0:0:0:
256,192,126830,1,12,0:0:0:0:
256,192,126980,1,12,0:0:0:0:
256,192,127280,1,8,0:0:0:0:
256,192,127430,1,0,0:0:0:0:
256,192,127730,1,8,0:0:0:0:
256,192,128030,1,0,0:0:0:0:
256,192,128180,1,8,0:0:0:0:
256,192,128480,1,8,0:0:0:0:
256,192,128780,1,8,0:0:0:0:
256,192,128930,1,8,0:0:0:0:
256,192,129080,1,0,0:0:0:0:
256,192,129380,1,8,0:0:0:0:
256,192,129680,1,0,0:0:0:0:
256,192,129980,1,8,0:0:0:0:
256,192,130130,1,8,0:0:0:0:
256,192,130280,1,0,0:0:0:0:
256,192,130430,1,8,0:0:0:0:
256,192,130580,1,0,0:0:0:0:
256,192,130880,1,8,0:0:0:0:
256,192,131180,1,0,0:0:0:0:
256,192,131330,1,0,0:0:0:0:
256,192,131480,1,8,0:0:0:0:
256,192,132080,1,0,0:0:0:0:
256,192,132380,1,8,0:0:0:0:
256,192,132530,1,8,0:0:0:0:
256,192,132680,1,0,0:0:0:0:
256,192,132980,1,8,0:0:0:0:
256,192,133280,1,0,0:0:0:0:
256,192,133580,1,8,0:0:0:0:
256,192,133730,1,0,0:0:0:0:
256,192,133880,1,8,0:0:0:0:
256,192,134180,1,8,0:0:0:0:
256,192,134480,1,0,0:0:0:0:
256,192,135080,1,0,0:0:0:0:
256,192,135380,1,8,0:0:0:0:
256,192,135680,1,8,0:0:0:0:
256,192,135905,1,8,0:0:0:0:
256,192,136130,1,8,0:0:0:0:
256,192,136280,1,4,0:0:0:0:
256,192,136580,1,4,0:0:0:0:
256,192,137180,1,12,0:0:0:0:
256,192,137480,1,0,0:0:0:0:
256,192,137630,1,0,0:0:0:0:
256,192,137780,1,8,0:0:0:0:
256,192,138080,1,8,0:0:0:0:
256,192,138305,1,8,0:0:0:0:
256,192,138530,1,8,0:0:0:0:
256,192,138680,1,0,0:0:0:0:
256,192,138980,1,8,0:0:0:0:
256,192,139280,1,0,0:0:0:0:
256,192,139430,1,0,0:0:0:0:
256,192,139580,1,8,0:0:0:0:
256,192,139880,1,12,0:0:0:0:
256,192,140180,1,0,0:0:0:0:
256,192,140480,1,8,0:0:0:0:
256,192,140630,1,8,0:0:0:0:
256,192,140780,1,0,0:0:0:0:
256,192,140930,1,8,0:0:0:0:
256,192,141080,1,0,0:0:0:0:
256,192,141380,1,8,0:0:0:0:
256,192,141680,1,4,0:0:0:0:
256,192,141980,1,4,0:0:0:0:
256,192,142280,1,8,0:0:0:0:
256,192,142430,1,0,0:0:0:0:
256,192,142580,1,8,0:0:0:0:
256,192,142880,1,0,0:0:0:0:
256,192,143030,1,0,0:0:0:0:
256,192,143180,1,8,0:0:0:0:
256,192,143480,1,8,0:0:0:0:
256,192,143630,1,0,0:0:0:0:
256,192,143780,1,12,0:0:0:0:
256,192,144380,1,8,0:0:0:0:
256,192,144530,1,0,0:0:0:0:
256,192,144680,1,12,0:0:0:0:
256,192,144980,1,12,0:0:0:0:
256,192,145280,1,0,0:0:0:0:
256,192,145580,1,8,0:0:0:0:
256,192,145805,1,8,0:0:0:0:
256,192,146030,1,8,0:0:0:0:
256,192,146180,1,4,0:0:0:0:
256,192,146480,1,8,0:0:0:0:
256,192,146780,1,8,0:0:0:0:
256,192,147080,1,12,0:0:0:0:
256,192,147230,1,12,0:0:0:0:
256,192,147680,1,4,0:0:0:0:
256,192,147980,1,12,0:0:0:0:
256,192,148280,1,4,0:0:0:0:
256,192,148430,1,4,0:0:0:0:
256,192,148580,1,12,0:0:0:0:
256,192,148880,1,12,0:0:0:0:
256,192,149030,1,12,0:0:0:0:
256,192,149180,1,4,0:0:0:0:
256,192,149480,1,12,0:0:0:0:
256,192,149780,1,4,0:0:0:0:
256,192,150380,1,8,0:0:0:0:
256,192,150680,1,0,0:0:0:0:
256,192,150830,1,0,0:0:0:0:
256,192,150980,1,8,0:0:0:0:
256,192,151130,1,8,0:0:0:0:
256,192,151280,1,0,0:0:0:0:
256,192,151730,1,8,0:0:0:0:
256,192,152030,1,8,0:0:0:0:
256,192,152330,1,8,0:0:0:0:
256,192,152480,1,4,0:0:0:0:
256,192,152780,1,4,0:0:0:0:
256,192,153080,1,8,0:0:0:0:
256,192,153230,1,0,0:0:0:0:
256,192,153380,1,8,0:0:0:0:
256,192,153680,1,8,0:0:0:0:
256,192,153905,1,8,0:0:0:0:
256,192,154130,1,8,0:0:0:0:
256,192,154280,1,0,0:0:0:0:
256,192,154580,1,8,0:0:0:0:
256,192,154880,1,8,0:0:0:0:
256,192,155030,1,0,0:0:0:0:
256,192,155180,1,8,0:0:0:0:
256,192,155330,1,8,0:0:0:0:
256,192,155480,1,4,0:0:0:0:
256,192,155780,1,4,0:0:0:0:
256,192,156080,1,0,0:0:0:0:
256,192,156230,1,0,0:0:0:0:
256,192,156380,1,8,0:0:0:0:
256,192,156680,1,8,0:0:0:0:
256,192,156830,1,8,0:0:0:0:
256,192,156980,1,8,0:0:0:0:
256,192,157130,1,8,0:0:0:0:
256,192,157280,1,0,0:0:0:0:
256,192,157580,1,8,0:0:0:0:
256,192,158180,1,8,0:0:0:0:
256,192,158330,1,0,0:0:0:0:
256,192,158480,1,12,0:0:0:0:
256,192,158780,1,12,0:0:0:0:
256,192,159080,1,0,0:0:0:0:
256,192,159230,1,0,0:0:0:0:
256,192,159380,1,8,0:0:0:0:
256,192,159680,1,8,0:0:0:0:
256,192,159830,1,8,0:0:0:0:
256,192,159980,1,0,0:0:0:0:
256,192,160280,1,8,0:0:0:0:
256,192,160580,1,4,0:0:0:0:
256,192,161180,1,8,0:0:0:0:
256,192,161330,1,8,0:0:0:0:
256,192,161480,1,4,0:0:0:0:
256,192,161780,1,4,0:0:0:0:
256,192,162080,1,8,0:0:0:0:
256,192,162380,1,0,0:0:0:0:
256,192,162680,1,8,0:0:0:0:
256,192,162830,1,0,0:0:0:0:
256,192,162980,1,8,0:0:0:0:
256,192,163280,1,4,0:0:0:0:
256,192,163580,1,4,0:0:0:0:
256,192,163730,1,8,0:0:0:0:
256,192,163880,1,4,0:0:0:0:
256,192,164180,1,12,0:0:0:0:
256,192,164480,1,8,0:0:0:0:
256,192,164630,1,8,0:0:0:0:
256,192,164780,1,0,0:0:0:0:
256,192,164930,1,8,0:0:0:0:
256,192,165080,1,0,0:0:0:0:
256,192,165380,1,12,0:0:0:0:
256,192,165980,1,8,0:0:0:0:
256,192,166130,1,8,0:0:0:0:
256,192,166280,1,0,0:0:0:0:
256,192,166580,1,0,0:0:0:0:
256,192,166880,1,8,0:0:0:0:
256,192,167180,1,0,0:0:0:0:
256,192,167330,1,8,0:0:0:0:
256,192,167780,1,8,0:0:0:0:
256,192,168080,1,0,0:0:0:0:
256,192,168230,1,8,0:0:0:0:
256,192,168530,1,0,0:0:0:0:
256,192,168680,1,8,0:0:0:0:
256,192,168980,1,12,0:0:0:0:
