osu file format v14

[General]
AudioFilename: audio.mp3
AudioLeadIn: 0
PreviewTime: 75711
Countdown: 1
SampleSet: Normal
StackLeniency: 0.7
Mode: 1
LetterboxInBreaks: 0
WidescreenStoryboard: 1

[Editor]
DistanceSpacing: 2.8
BeatDivisor: 8
GridSize: 32
TimelineZoom: 1.5

[Metadata]
Title:Gas Gas
TitleUnicode:Gas Gas
Artist:Rahatt
ArtistUnicode:Rahatt
Creator:applerss
Version:Gas
Source:
Tags:breakcore electronic bosnian bosniak босански goran bregovic bregović gas gas gas
BeatmapID:1793281
BeatmapSetID:858060

[Difficulty]
HPDrainRate:5.5
CircleSize:5
OverallDifficulty:6
ApproachRate:6
SliderMultiplier:1.4
SliderTickRate:1

[Events]
//Background and Video events
0,0,"mm.jpg",0,0
//Break Periods
//Storyboard Layer 0 (Background)
//Storyboard Layer 1 (Fail)
//Storyboard Layer 2 (Pass)
//Storyboard Layer 3 (Foreground)
//Storyboard Layer 4 (Overlay)
//Storyboard Sound Samples

[TimingPoints]
2500,315.789473684211,4,1,0,85,1,0
2500,-100,4,1,0,85,0,1
12605,-100,4,1,0,85,0,0
25236,-76.9230769230769,4,1,0,85,0,0
26500,-75.187969924812,4,1,0,85,0,0
26815,-73.5294117647059,4,1,0,85,0,0
27131,-71.4285714285714,4,1,0,85,0,0
27763,-100,4,1,0,85,0,0
74263,-99.403203062047,4,1,0,85,0,0
74421,-98.813487196175,4,1,0,85,0,0
74736,-97.658424353376,4,1,0,85,0,0
74894,-97.089169546343,4,1,0,85,0,0
75052,-96.526512696996,4,1,0,85,0,0
75210,-95.970339755668,4,1,0,85,0,0
75368,-95.420539286189,4,1,0,85,0,0
75526,-94.877002391453,4,1,0,85,0,0
75684,-94.339622641509,4,1,0,85,0,0
75763,-94.339622641509,4,1,0,85,0,1
85710,-97.087378640777,4,1,0,85,0,1
85868,-100,4,1,0,85,0,0
118552,-97.087378640777,4,1,0,85,0,0
118631,-95.693779904306,4,1,0,85,0,0
118710,-94.339622641509,4,1,0,85,0,1
123763,-94.3396226415094,4,1,0,85,0,0
125026,-98.0392156862745,4,1,0,85,0,0
125657,-102.040816326531,4,1,0,65,0,0
126289,-106.382978723404,4,1,0,45,0,0
126921,-111.111111111111,4,1,0,25,0,0
127552,-116.279069767442,4,1,0,20,0,0
128736,-111.111111111111,4,1,0,44,0,0
131302,-83.3333333333333,4,1,0,85,0,0
131657,-83.3333333333333,4,1,0,85,0,0
132605,-83.3333333333333,4,1,0,85,0,0
132921,-83.3333333333333,4,1,0,85,0,0
133236,-76.9230769230769,4,1,0,85,0,0
133552,-71.4285714285714,4,1,0,85,0,0
133868,-97.0873786407767,4,1,0,85,0,0
143342,-71.4285714285714,4,1,0,85,0,1
143855,-66.6666666666667,4,1,0,5,0,0
144380,315.789473684211,4,1,0,5,1,0

[HitObjects]
256,192,2500,5,0,0:0:0:0:
256,192,2657,1,0,0:0:0:0:
256,192,2736,1,0,0:0:0:0:
256,192,2815,1,8,0:0:0:0:
256,192,2973,1,0,0:0:0:0:
256,192,3131,1,8,0:0:0:0:
256,192,3289,1,0,0:0:0:0:
256,192,3447,1,8,0:0:0:0:
256,192,3605,1,0,0:0:0:0:
256,192,3684,1,8,0:0:0:0:
256,192,3763,1,0,0:0:0:0:
256,192,3921,1,0,0:0:0:0:
256,192,4000,1,0,0:0:0:0:
256,192,4078,1,8,0:0:0:0:
256,192,4236,1,8,0:0:0:0:
256,192,4315,1,0,0:0:0:0:
256,192,4394,1,8,0:0:0:0:
256,192,4473,1,0,0:0:0:0:
256,192,4552,1,0,0:0:0:0:
256,192,4710,1,8,0:0:0:0:
256,192,4868,1,8,0:0:0:0:
256,192,5026,1,0,0:0:0:0:
256,192,5184,1,8,0:0:0:0:
256,192,5342,1,8,0:0:0:0:
256,192,5500,1,0,0:0:0:0:
256,192,5657,1,0,0:0:0:0:
256,192,5736,1,8,0:0:0:0:
256,192,5815,1,0,0:0:0:0:
256,192,5973,1,8,0:0:0:0:
256,192,6052,1,0,0:0:0:0:
256,192,6131,1,8,0:0:0:0:
256,192,6210,1,8,0:0:0:0:
256,192,6289,1,0,0:0:0:0:
256,192,6447,1,0,0:0:0:0:
256,192,6526,1,0,0:0:0:0:
256,192,6605,1,8,0:0:0:0:
256,192,6763,1,0,0:0:0:0:
256,192,6842,1,8,0:0:0:0:
256,192,6921,1,0,0:0:0:0:
256,192,7078,1,0,0:0:0:0:
256,192,7157,1,0,0:0:0:0:
256,192,7236,1,8,0:0:0:0:
256,192,7315,1,0,0:0:0:0:
256,192,7394,1,0,0:0:0:0:
256,192,7473,1,8,0:0:0:0:
256,192,7552,1,0,0:0:0:0:
256,192,7710,1,8,0:0:0:0:
256,160,7868,1,8,0:0:0:0:
256,160,7947,1,8,0:0:0:0:
256,160,8026,1,0,0:0:0:0:
256,160,8184,1,0,0:0:0:0:
256,160,8342,1,8,0:0:0:0:
256,160,8500,1,8,0:0:0:0:
256,160,8657,1,0,0:0:0:0:
256,160,8736,1,8,0:0:0:0:
256,160,8815,1,0,0:0:0:0:
256,160,8868,1,0,0:0:0:0:
256,160,8921,1,0,0:0:0:0:
256,160,8973,1,8,0:0:0:0:
256,160,9052,1,8,0:0:0:0:
256,160,9131,1,0,0:0:0:0:
256,160,9289,1,0,0:0:0:0:
256,160,9447,1,8,0:0:0:0:
256,160,9526,1,0,0:0:0:0:
256,160,9605,1,8,0:0:0:0:
256,160,9684,1,8,0:0:0:0:
256,160,9763,1,0,0:0:0:0:
256,160,9921,1,8,0:0:0:0:
256,160,10078,1,0,0:0:0:0:
256,160,10236,1,8,0:0:0:0:
256,160,10394,1,8,0:0:0:0:
256,160,10552,1,0,0:0:0:0:
256,160,10631,1,0,0:0:0:0:
256,160,10710,1,8,0:0:0:0:
256,160,10789,1,0,0:0:0:0:
256,160,10868,1,0,0:0:0:0:
256,160,11026,1,8,0:0:0:0:
256,160,11184,1,8,0:0:0:0:
256,160,11342,1,0,0:0:0:0:
256,160,11500,1,8,0:0:0:0:
256,160,11657,1,0,0:0:0:0:
256,160,11736,1,8,0:0:0:0:
256,160,11894,1,0,0:0:0:0:
256,160,11973,1,8,0:0:0:0:
256,160,12052,1,8,0:0:0:0:
256,160,12131,1,8,0:0:0:0:
256,160,12289,1,4,0:0:0:0:
256,160,12447,1,0,0:0:0:0:
256,160,12605,1,8,0:0:0:0:
256,192,16394,1,12,0:0:0:0:
256,192,16710,1,12,0:0:0:0:
256,192,17026,1,8,0:0:0:0:
256,192,17184,1,0,0:0:0:0:
256,192,17342,1,0,0:0:0:0:
256,192,17500,1,8,0:0:0:0:
256,192,17657,1,0,0:0:0:0:
256,192,17815,1,8,0:0:0:0:
256,192,17973,1,8,0:0:0:0:
256,192,18131,1,0,0:0:0:0:
256,192,18210,1,8,0:0:0:0:
256,192,18289,1,0,0:0:0:0:
256,192,18368,1,0,0:0:0:0:
256,192,18447,1,8,0:0:0:0:
256,192,18605,1,8,0:0:0:0:
256,192,18763,1,0,0:0:0:0:
256,192,18842,1,8,0:0:0:0:
256,192,18921,1,0,0:0:0:0:
256,192,19078,1,0,0:0:0:0:
256,192,19236,1,8,0:0:0:0:
256,192,19394,1,0,0:0:0:0:
256,192,19447,1,0,0:0:0:0:
256,192,19500,1,0,0:0:0:0:
256,192,19552,1,8,0:0:0:0:
256,160,19631,1,0,0:0:0:0:
256,160,19710,1,8,0:0:0:0:
256,160,19868,1,0,0:0:0:0:
256,160,19947,1,8,0:0:0:0:
256,160,20026,1,8,0:0:0:0:
256,160,20184,1,8,0:0:0:0:
256,160,20342,1,0,0:0:0:0:
256,160,20500,1,8,0:0:0:0:
256,160,20578,1,0,0:0:0:0:
256,160,20657,1,8,0:0:0:0:
256,160,20815,1,0,0:0:0:0:
256,160,20973,1,8,0:0:0:0:
256,160,21131,1,8,0:0:0:0:
256,160,21184,1,8,0:0:0:0:
256,160,21236,1,8,0:0:0:0:
256,160,21289,1,0,0:0:0:0:
256,160,21368,1,0,0:0:0:0:
256,160,21447,1,8,0:0:0:0:
256,160,21605,1,8,0:0:0:0:
256,160,21684,1,0,0:0:0:0:
256,160,21763,1,8,0:0:0:0:
256,160,21842,1,8,0:0:0:0:
256,160,21921,1,0,0:0:0:0:
256,160,22078,1,8,0:0:0:0:
256,160,22236,1,0,0:0:0:0:
256,160,22394,1,8,0:0:0:0:
256,160,22473,1,8,0:0:0:0:
256,160,22552,1,8,0:0:0:0:
256,160,22631,1,8,0:0:0:0:
256,160,22710,1,0,0:0:0:0:
256,160,22868,1,8,0:0:0:0:
256,160,22921,1,0,0:0:0:0:
256,160,22973,1,0,0:0:0:0:
256,160,23026,1,8,0:0:0:0:
256,160,23105,1,0,0:0:0:0:
256,160,23184,1,0,0:0:0:0:
256,160,23263,1,8,0:0:0:0:
256,160,23342,1,0,0:0:0:0:
256,160,23421,1,8,0:0:0:0:
256,160,23657,1,0,0:0:0:0:
256,160,23736,1,8,0:0:0:0:
256,160,23894,1,8,0:0:0:0:
256,160,23973,1,0,0:0:0:0:
256,160,24131,1,8,0:0:0:0:
256,160,24289,1,8,0:0:0:0:
256,160,24368,1,8,0:0:0:0:
256,160,24447,1,0,0:0:0:0:
256,160,24605,1,0,0:0:0:0:
256,160,24763,1,8,0:0:0:0:
256,160,24921,1,4,0:0:0:0:
256,160,25078,1,8,0:0:0:0:
256,160,25236,1,12,0:0:0:0:
256,160,25868,1,12,0:0:0:0:
256,160,26500,1,12,0:0:0:0:
256,160,26815,1,12,0:0:0:0:
256,160,27131,1,12,0:0:0:0:
256,160,27289,1,4,0:0:0:0:
256,160,27447,1,12,0:0:0:0:
256,160,27605,1,12,0:0:0:0:
256,160,27763,1,0,0:0:0:0:
256,160,27842,1,8,0:0:0:0:
256,160,28000,1,8,0:0:0:0:
256,160,28078,1,0,0:0:0:0:
256,160,28157,1,0,0:0:0:0:
256,160,28236,1,8,0:0:0:0:
256,160,28394,1,8,0:0:0:0:
256,160,28473,1,0,0:0:0:0:
256,160,28552,1,8,0:0:0:0:
256,160,28710,1,0,0:0:0:0:
256,160,28763,1,0,0:0:0:0:
256,160,28815,1,0,0:0:0:0:
256,160,28868,1,8,0:0:0:0:
288,160,29026,1,0,0:0:0:0:
288,160,29105,1,8,0:0:0:0:
288,160,29184,1,8,0:0:0:0:
288,160,29263,1,0,0:0:0:0:
288,160,29342,1,8,0:0:0:0:
288,160,29500,1,8,0:0:0:0:
288,160,29578,1,8,0:0:0:0:
256,160,29657,1,0,0:0:0:0:
256,160,29815,1,8,0:0:0:0:
256,160,29894,1,8,0:0:0:0:
256,160,29973,1,0,0:0:0:0:
256,160,30026,1,0,0:0:0:0:
256,160,30078,1,0,0:0:0:0:
256,160,30131,1,8,0:0:0:0:
256,160,30210,1,8,0:0:0:0:
256,160,30289,1,0,0:0:0:0:
256,160,30447,1,8,0:0:0:0:
256,160,30526,1,8,0:0:0:0:
256,160,30605,1,0,0:0:0:0:
256,160,30684,1,8,0:0:0:0:
256,160,30763,1,0,0:0:0:0:
256,160,30842,1,8,0:0:0:0:
256,160,30921,1,0,0:0:0:0:
256,160,30973,1,0,0:0:0:0:
256,160,31026,1,0,0:0:0:0:
256,160,31078,1,8,0:0:0:0:
256,160,31236,1,8,0:0:0:0:
256,160,31315,1,8,0:0:0:0:
256,160,31394,1,0,0:0:0:0:
256,160,31552,1,8,0:0:0:0:
256,160,31605,1,0,0:0:0:0:
256,160,31657,1,0,0:0:0:0:
256,160,31710,1,8,0:0:0:0:
256,160,31789,1,8,0:0:0:0:
256,160,31868,1,0,0:0:0:0:
256,160,32026,1,8,0:0:0:0:
256,160,32184,1,0,0:0:0:0:
256,160,32342,1,8,0:0:0:0:
256,160,32421,1,8,0:0:0:0:
256,160,32500,1,0,0:0:0:0:
256,160,32657,1,8,0:0:0:0:
256,192,32815,1,0,0:0:0:0:
256,192,32973,1,0,0:0:0:0:
256,192,33052,1,0,0:0:0:0:
256,192,33131,1,0,0:0:0:0:
256,192,33210,1,8,0:0:0:0:
288,192,33368,1,8,0:0:0:0:
288,192,33447,1,0,0:0:0:0:
288,192,33526,1,0,0:0:0:0:
288,192,33605,1,0,0:0:0:0:
288,192,33684,1,0,0:0:0:0:
256,224,33763,1,8,0:0:0:0:
256,192,33815,1,8,0:0:0:0:
288,224,33868,1,0,0:0:0:0:
256,192,33921,1,0,0:0:0:0:
288,192,34078,1,8,0:0:0:0:
288,192,34157,1,8,0:0:0:0:
288,192,34236,1,0,0:0:0:0:
288,192,34315,1,8,0:0:0:0:
288,192,34394,1,0,0:0:0:0:
288,192,34552,1,8,0:0:0:0:
288,192,34710,1,0,0:0:0:0:
288,192,34868,1,0,0:0:0:0:
288,192,34947,1,0,0:0:0:0:
288,192,35026,1,8,0:0:0:0:
288,192,35105,1,8,0:0:0:0:
288,192,35184,1,0,0:0:0:0:
288,192,35263,1,0,0:0:0:0:
288,192,35342,1,0,0:0:0:0:
288,192,35500,1,0,0:0:0:0:
288,192,35578,1,0,0:0:0:0:
288,192,35657,1,8,0:0:0:0:
288,192,35815,1,0,0:0:0:0:
288,192,35973,1,8,0:0:0:0:
288,192,36131,1,0,0:0:0:0:
288,192,36210,1,0,0:0:0:0:
288,192,36289,1,8,0:0:0:0:
288,192,36447,1,0,0:0:0:0:
288,192,36526,1,8,0:0:0:0:
288,192,36605,1,8,0:0:0:0:
288,192,36763,1,4,0:0:0:0:
288,192,36921,1,4,0:0:0:0:
288,192,37078,1,0,0:0:0:0:
288,192,37236,1,8,0:0:0:0:
288,192,37342,1,8,0:0:0:0:
288,192,37447,1,0,0:0:0:0:
288,192,37552,1,8,0:0:0:0:
288,192,37657,1,0,0:0:0:0:
288,192,37763,1,0,0:0:0:0:
256,192,37868,1,8,0:0:0:0:
256,192,37947,1,0,0:0:0:0:
256,192,38026,1,0,0:0:0:0:
256,192,38184,1,8,0:0:0:0:
256,192,38263,1,8,0:0:0:0:
256,192,38421,1,0,0:0:0:0:
256,192,38500,1,8,0:0:0:0:
256,192,38578,1,0,0:0:0:0:
256,192,38657,1,0,0:0:0:0:
256,192,38736,1,0,0:0:0:0:
256,192,38815,1,8,0:0:0:0:
256,192,38973,1,8,0:0:0:0:
256,192,39131,1,0,0:0:0:0:
256,192,39289,1,8,0:0:0:0:
256,192,39368,1,8,0:0:0:0:
256,192,39447,1,8,0:0:0:0:
256,192,39605,1,0,0:0:0:0:
256,192,39763,1,8,0:0:0:0:
256,192,39921,1,0,0:0:0:0:
256,192,40000,1,0,0:0:0:0:
256,192,40078,1,8,0:0:0:0:
256,192,40394,1,0,0:0:0:0:
256,192,40447,1,0,0:0:0:0:
256,192,40500,1,0,0:0:0:0:
256,192,40552,1,0,0:0:0:0:
256,192,40710,1,0,0:0:0:0:
256,192,40789,1,0,0:0:0:0:
256,192,40868,1,8,0:0:0:0:
256,192,40947,1,8,0:0:0:0:
256,192,41026,1,0,0:0:0:0:
256,192,41078,1,0,0:0:0:0:
256,192,41131,1,8,0:0:0:0:
256,192,41184,1,8,0:0:0:0:
256,192,41342,1,0,0:0:0:0:
256,192,41421,1,0,0:0:0:0:
256,192,41500,1,8,0:0:0:0:
256,192,41578,1,0,0:0:0:0:
256,192,41657,1,8,0:0:0:0:
256,192,41736,1,0,0:0:0:0:
256,192,41894,1,0,0:0:0:0:
256,192,41973,1,8,0:0:0:0:
256,192,42052,1,0,0:0:0:0:
256,192,42210,1,0,0:0:0:0:
256,192,42289,1,8,0:0:0:0:
256,192,42447,1,0,0:0:0:0:
256,192,42605,1,0,0:0:0:0:
256,192,42684,1,8,0:0:0:0:
256,192,42842,1,8,0:0:0:0:
256,192,42921,1,0,0:0:0:0:
256,192,43000,1,0,0:0:0:0:
288,192,43078,1,0,0:0:0:0:
288,192,43236,1,8,0:0:0:0:
320,192,43342,1,8,0:0:0:0:
288,192,43447,1,8,0:0:0:0:
288,192,43552,1,0,0:0:0:0:
320,192,43631,1,0,0:0:0:0:
320,192,43710,1,8,0:0:0:0:
320,192,43789,1,8,0:0:0:0:
320,192,43868,1,0,0:0:0:0:
288,192,43921,1,0,0:0:0:0:
288,192,43973,1,0,0:0:0:0:
320,192,44026,1,8,0:0:0:0:
320,192,44105,1,0,0:0:0:0:
320,192,44184,1,8,0:0:0:0:
320,192,44342,1,0,0:0:0:0:
320,192,44500,1,8,0:0:0:0:
320,192,44657,1,0,0:0:0:0:
320,192,44736,1,8,0:0:0:0:
320,192,44815,1,8,0:0:0:0:
320,192,44894,1,0,0:0:0:0:
320,192,44973,1,0,0:0:0:0:
320,192,45052,1,0,0:0:0:0:
320,192,45131,1,8,0:0:0:0:
320,192,45289,1,8,0:0:0:0:
320,192,45447,1,0,0:0:0:0:
320,192,45526,1,0,0:0:0:0:
320,192,45605,1,0,0:0:0:0:
320,192,45684,1,8,0:0:0:0:
320,192,45763,1,8,0:0:0:0:
320,192,45921,1,0,0:0:0:0:
320,192,46000,1,8,0:0:0:0:
320,192,46078,1,8,0:0:0:0:
320,192,46236,1,0,0:0:0:0:
320,192,46394,1,8,0:0:0:0:
320,192,46473,1,8,0:0:0:0:
320,192,46552,1,0,0:0:0:0:
320,192,46710,1,12,0:0:0:0:
320,192,46868,1,0,0:0:0:0:
320,192,47026,1,0,0:0:0:0:
320,192,47105,1,8,0:0:0:0:
320,192,47184,1,8,0:0:0:0:
320,192,47263,1,0,0:0:0:0:
320,192,47342,1,8,0:0:0:0:
320,192,47500,1,0,0:0:0:0:
320,192,47578,1,0,0:0:0:0:
320,192,47657,1,8,0:0:0:0:
320,192,47815,1,8,0:0:0:0:
320,192,47894,1,8,0:0:0:0:
320,192,47973,1,0,0:0:0:0:
320,192,48289,1,0,0:0:0:0:
320,192,48605,1,0,0:0:0:0:
320,192,48921,1,0,0:0:0:0:
320,192,49236,1,0,0:0:0:0:
320,192,49552,1,0,0:0:0:0:
320,192,49868,1,0,0:0:0:0:
320,192,50184,1,0,0:0:0:0:
320,192,50500,1,12,0:0:0:0:
320,192,50815,1,12,0:0:0:0:
320,192,51131,1,12,0:0:0:0:
320,192,51447,1,12,0:0:0:0:
320,192,51763,1,12,0:0:0:0:
320,192,52078,1,12,0:0:0:0:
320,192,52236,1,8,0:0:0:0:
320,192,52315,1,8,0:0:0:0:
320,192,52394,1,8,0:0:0:0:
320,192,52552,1,8,0:0:0:0:
320,192,52710,1,0,0:0:0:0:
320,192,52789,1,8,0:0:0:0:
320,192,52868,1,0,0:0:0:0:
320,192,52947,1,8,0:0:0:0:
320,192,53026,1,8,0:0:0:0:
320,192,53184,1,0,0:0:0:0:
320,192,53263,1,0,0:0:0:0:
320,192,53342,1,8,0:0:0:0:
320,192,53500,1,0,0:0:0:0:
320,192,53657,1,8,0:0:0:0:
352,160,53710,1,0,0:0:0:0:
320,192,53763,1,0,0:0:0:0:
320,192,53815,1,8,0:0:0:0:
320,160,53973,1,0,0:0:0:0:
320,192,54026,1,8,0:0:0:0:
320,192,54078,1,8,0:0:0:0:
320,192,54131,1,0,0:0:0:0:
320,192,54289,1,8,0:0:0:0:
256,192,54447,1,8,0:0:0:0:
256,192,54526,1,8,0:0:0:0:
256,192,54605,1,0,0:0:0:0:
256,192,54684,1,8,0:0:0:0:
256,224,54763,1,8,0:0:0:0:
256,192,54842,1,0,0:0:0:0:
256,192,54921,1,8,0:0:0:0:
256,192,54973,1,8,0:0:0:0:
256,192,55026,1,8,0:0:0:0:
256,192,55078,1,0,0:0:0:0:
256,192,55236,1,0,0:0:0:0:
256,192,55315,1,0,0:0:0:0:
256,192,55394,1,0,0:0:0:0:
256,192,55473,1,0,0:0:0:0:
256,192,55552,1,8,0:0:0:0:
256,192,55868,1,0,0:0:0:0:
256,192,56026,1,0,0:0:0:0:
256,192,56184,1,12,0:0:0:0:
256,192,56500,1,8,0:0:0:0:
256,192,56657,1,8,0:0:0:0:
256,192,56815,1,0,0:0:0:0:
256,192,56973,1,0,0:0:0:0:
256,192,57131,1,8,0:0:0:0:
256,192,57289,1,0,0:0:0:0:
256,192,57447,1,0,0:0:0:0:
256,192,57605,1,0,0:0:0:0:
256,192,57684,1,0,0:0:0:0:
256,192,57763,1,8,0:0:0:0:
256,192,57842,1,0,0:0:0:0:
256,192,57921,1,8,0:0:0:0:
256,192,58000,1,8,0:0:0:0:
256,192,58078,1,0,0:0:0:0:
256,192,58710,1,4,0:0:0:0:
256,192,59342,1,4,0:0:0:0:
256,192,59500,1,8,0:0:0:0:
256,192,59657,1,4,0:0:0:0:
256,192,59815,1,8,0:0:0:0:
256,192,59973,1,4,0:0:0:0:
256,192,60131,1,8,0:0:0:0:
256,192,60210,1,8,0:0:0:0:
256,192,60289,1,0,0:0:0:0:
256,224,60342,1,0,0:0:0:0:
256,224,60394,1,0,0:0:0:0:
256,192,60447,1,8,0:0:0:0:
256,192,60526,1,8,0:0:0:0:
256,192,60605,1,0,0:0:0:0:
256,192,60763,1,8,0:0:0:0:
256,192,60921,1,0,0:0:0:0:
256,192,61078,1,8,0:0:0:0:
256,192,61236,1,0,0:0:0:0:
256,192,61394,1,8,0:0:0:0:
256,192,61552,1,0,0:0:0:0:
256,192,61710,1,8,0:0:0:0:
256,192,61868,1,0,0:0:0:0:
256,192,61947,1,0,0:0:0:0:
256,192,62026,1,0,0:0:0:0:
256,192,62184,1,8,0:0:0:0:
256,192,62342,1,8,0:0:0:0:
256,192,62500,1,4,0:0:0:0:
256,192,62657,1,0,0:0:0:0:
256,192,62815,1,8,0:0:0:0:
256,192,62868,1,8,0:0:0:0:
256,192,62921,1,0,0:0:0:0:
256,192,62973,1,0,0:0:0:0:
256,192,63131,1,0,0:0:0:0:
256,192,63289,1,8,0:0:0:0:
256,192,63368,1,0,0:0:0:0:
256,192,63447,1,8,0:0:0:0:
256,192,63605,1,0,0:0:0:0:
256,192,63657,1,0,0:0:0:0:
256,192,63710,1,0,0:0:0:0:
256,192,63763,1,8,0:0:0:0:
288,160,63921,1,0,0:0:0:0:
256,192,64078,1,8,0:0:0:0:
256,192,64157,1,8,0:0:0:0:
256,192,64236,1,0,0:0:0:0:
256,192,64394,1,0,0:0:0:0:
256,160,64473,1,0,0:0:0:0:
256,160,64552,1,8,0:0:0:0:
256,160,64710,1,0,0:0:0:0:
256,160,64789,1,0,0:0:0:0:
256,160,64868,1,8,0:0:0:0:
256,160,65026,1,0,0:0:0:0:
256,160,65105,1,0,0:0:0:0:
256,160,65184,1,0,0:0:0:0:
256,160,65263,1,0,0:0:0:0:
256,160,65342,1,8,0:0:0:0:
256,160,65500,1,0,0:0:0:0:
256,192,65657,1,0,0:0:0:0:
256,192,65815,1,8,0:0:0:0:
256,192,65868,1,0,0:0:0:0:
256,192,65921,1,0,0:0:0:0:
256,160,65973,1,8,0:0:0:0:
256,192,66131,1,0,0:0:0:0:
256,192,66210,1,0,0:0:0:0:
256,192,66289,1,8,0:0:0:0:
256,192,66368,1,8,0:0:0:0:
256,192,66447,1,0,0:0:0:0:
256,192,66605,1,4,0:0:0:0:
256,192,66763,1,0,0:0:0:0:
256,192,66921,1,8,0:0:0:0:
256,192,67078,1,8,0:0:0:0:
256,192,67236,1,0,0:0:0:0:
256,192,67394,1,0,0:0:0:0:
256,192,67552,1,8,0:0:0:0:
256,192,67710,1,0,0:0:0:0:
256,192,67868,1,8,0:0:0:0:
256,192,68026,1,8,0:0:0:0:
256,192,68184,1,0,0:0:0:0:
256,192,68342,1,0,0:0:0:0:
256,192,68500,1,12,0:0:0:0:
256,192,68657,1,8,0:0:0:0:
256,192,68736,1,8,0:0:0:0:
256,192,68815,1,8,0:0:0:0:
256,192,68973,1,0,0:0:0:0:
256,192,69026,1,0,0:0:0:0:
256,192,69078,1,0,0:0:0:0:
256,192,69131,1,0,0:0:0:0:
288,192,69289,1,8,0:0:0:0:
288,192,69368,1,8,0:0:0:0:
288,192,69447,1,0,0:0:0:0:
288,192,69605,1,8,0:0:0:0:
288,192,69763,1,0,0:0:0:0:
288,192,69842,1,0,0:0:0:0:
288,192,69921,1,8,0:0:0:0:
288,192,70078,1,8,0:0:0:0:
288,192,70157,1,0,0:0:0:0:
288,192,70236,1,0,0:0:0:0:
288,192,70315,1,8,0:0:0:0:
288,192,70394,1,0,0:0:0:0:
288,192,70447,1,8,0:0:0:0:
288,192,70500,1,8,0:0:0:0:
288,192,70552,1,0,0:0:0:0:
288,192,70710,1,8,0:0:0:0:
288,192,71973,1,8,0:0:0:0:
288,192,72131,1,8,0:0:0:0:
288,192,72289,1,8,0:0:0:0:
288,192,72447,1,0,0:0:0:0:
288,192,72605,1,8,0:0:0:0:
288,192,72763,1,8,0:0:0:0:
288,192,72921,1,0,0:0:0:0:
288,192,73078,1,0,0:0:0:0:
288,192,73236,1,8,0:0:0:0:
288,192,73552,1,8,0:0:0:0:
288,192,73868,1,0,0:0:0:0:
288,192,74184,1,0,0:0:0:0:
288,192,74342,1,8,0:0:0:0:
288,192,74500,1,12,0:0:0:0:
288,192,74815,1,12,0:0:0:0:
288,192,74973,1,0,0:0:0:0:
288,192,75131,1,12,0:0:0:0:
288,192,75289,1,0,0:0:0:0:
288,192,75447,1,12,0:0:0:0:
288,192,75605,1,8,0:0:0:0:
288,192,75763,1,0,0:0:0:0:
320,192,75921,1,0,0:0:0:0:
320,192,76078,1,8,0:0:0:0:
320,192,76236,1,0,0:0:0:0:
320,192,76289,1,0,0:0:0:0:
320,192,76342,1,0,0:0:0:0:
320,192,76394,1,8,0:0:0:0:
288,192,76552,1,0,0:0:0:0:
288,192,76710,1,8,0:0:0:0:
288,192,76868,1,8,0:0:0:0:
288,192,76947,1,8,0:0:0:0:
288,192,77026,1,0,0:0:0:0:
288,224,77184,1,8,0:0:0:0:
288,192,77263,1,8,0:0:0:0:
288,192,77342,1,8,0:0:0:0:
320,160,77500,1,0,0:0:0:0:
288,192,77578,1,8,0:0:0:0:
288,192,77657,1,8,0:0:0:0:
288,192,77736,1,0,0:0:0:0:
288,192,77815,1,0,0:0:0:0:
288,192,77973,1,8,0:0:0:0:
288,192,78131,1,8,0:0:0:0:
288,192,78289,1,0,0:0:0:0:
288,192,78447,1,0,0:0:0:0:
288,192,78605,1,8,0:0:0:0:
288,192,78763,1,0,0:0:0:0:
288,192,78842,1,0,0:0:0:0:
288,192,78921,1,8,0:0:0:0:
288,192,79000,1,0,0:0:0:0:
288,192,79078,1,0,0:0:0:0:
288,192,79236,1,8,0:0:0:0:
288,192,79315,1,0,0:0:0:0:
288,192,79394,1,8,0:0:0:0:
288,192,79473,1,8,0:0:0:0:
288,192,79552,1,0,0:0:0:0:
288,192,79710,1,8,0:0:0:0:
288,192,79868,1,8,0:0:0:0:
288,192,80026,1,0,0:0:0:0:
320,192,80078,1,8,0:0:0:0:
320,192,80131,1,8,0:0:0:0:
320,192,80184,1,0,0:0:0:0:
288,192,80342,1,0,0:0:0:0:
288,192,80421,1,0,0:0:0:0:
288,192,80500,1,8,0:0:0:0:
288,192,80578,1,0,0:0:0:0:
288,192,80657,1,0,0:0:0:0:
288,192,80736,1,8,0:0:0:0:
288,192,80815,1,0,0:0:0:0:
288,192,80973,1,0,0:0:0:0:
288,192,81131,1,8,0:0:0:0:
288,192,81289,1,0,0:0:0:0:
288,192,81368,1,0,0:0:0:0:
288,192,81447,1,8,0:0:0:0:
288,192,81605,1,0,0:0:0:0:
288,192,81763,1,8,0:0:0:0:
320,192,81921,1,8,0:0:0:0:
288,224,81973,1,8,0:0:0:0:
288,192,82026,1,0,0:0:0:0:
288,192,82078,1,8,0:0:0:0:
288,192,82236,1,0,0:0:0:0:
288,192,82315,1,0,0:0:0:0:
288,192,82394,1,0,0:0:0:0:
288,192,82552,1,0,0:0:0:0:
288,192,82710,1,8,0:0:0:0:
288,192,82789,1,0,0:0:0:0:
288,192,82868,1,0,0:0:0:0:
288,192,82947,1,8,0:0:0:0:
288,192,83026,1,8,0:0:0:0:
288,192,83184,1,0,0:0:0:0:
288,192,83263,1,8,0:0:0:0:
288,192,83342,1,0,0:0:0:0:
288,192,83500,1,8,0:0:0:0:
288,192,83657,1,8,0:0:0:0:
288,192,83815,1,0,0:0:0:0:
288,192,83894,1,0,0:0:0:0:
288,192,83973,1,8,0:0:0:0:
288,192,84131,1,0,0:0:0:0:
288,192,84289,1,8,0:0:0:0:
288,192,84447,1,8,0:0:0:0:
288,192,84605,1,8,0:0:0:0:
288,192,84684,1,8,0:0:0:0:
288,192,84763,1,0,0:0:0:0:
288,192,84921,1,8,0:0:0:0:
288,192,85000,1,0,0:0:0:0:
288,192,85157,1,0,0:0:0:0:
288,192,85236,1,8,0:0:0:0:
288,192,85315,1,8,0:0:0:0:
288,192,85394,1,8,0:0:0:0:
288,192,85552,1,4,0:0:0:0:
288,192,85710,1,8,0:0:0:0:
288,192,85868,1,0,0:0:0:0:
288,192,87131,1,8,0:0:0:0:
288,192,87447,1,8,0:0:0:0:
288,192,87763,1,8,0:0:0:0:
288,192,87921,1,0,0:0:0:0:
288,192,88078,1,0,0:0:0:0:
288,192,88236,1,8,0:0:0:0:
288,192,88394,1,4,0:0:0:0:
288,192,88552,1,8,0:0:0:0:
288,192,88631,1,8,0:0:0:0:
288,192,88710,1,0,0:0:0:0:
288,192,88868,1,8,0:0:0:0:
288,192,89026,1,0,0:0:0:0:
288,192,89184,1,8,0:0:0:0:
288,192,89263,1,8,0:0:0:0:
288,192,89342,1,0,0:0:0:0:
288,192,89500,1,8,0:0:0:0:
288,192,89657,1,0,0:0:0:0:
288,192,89815,1,8,0:0:0:0:
288,192,89973,1,0,0:0:0:0:
288,192,90052,1,0,0:0:0:0:
288,192,90131,1,8,0:0:0:0:
288,192,90289,1,0,0:0:0:0:
288,192,90447,1,8,0:0:0:0:
288,192,90526,1,8,0:0:0:0:
288,192,90605,1,0,0:0:0:0:
288,192,90684,1,0,0:0:0:0:
288,192,90763,1,8,0:0:0:0:
288,192,90842,1,8,0:0:0:0:
288,192,90921,1,0,0:0:0:0:
288,192,91078,1,8,0:0:0:0:
288,192,91236,1,0,0:0:0:0:
288,192,91394,1,8,0:0:0:0:
288,192,91552,1,0,0:0:0:0:
288,192,91710,1,8,0:0:0:0:
288,192,91789,1,8,0:0:0:0:
288,192,91868,1,0,0:0:0:0:
288,192,92026,1,8,0:0:0:0:
288,192,92184,1,0,0:0:0:0:
288,192,92263,1,0,0:0:0:0:
288,192,92342,1,8,0:0:0:0:
288,192,92500,1,0,0:0:0:0:
288,192,92657,1,8,0:0:0:0:
288,192,92815,1,0,0:0:0:0:
288,192,92894,1,0,0:0:0:0:
288,192,92973,1,8,0:0:0:0:
288,192,93052,1,8,0:0:0:0:
288,192,93131,1,8,0:0:0:0:
288,192,93289,1,8,0:0:0:0:
288,192,93368,1,8,0:0:0:0:
288,192,93447,1,0,0:0:0:0:
288,192,93500,1,8,0:0:0:0:
288,192,93552,1,8,0:0:0:0:
288,192,93605,1,0,0:0:0:0:
288,192,93763,1,0,0:0:0:0:
288,192,93921,1,8,0:0:0:0:
288,192,94078,1,0,0:0:0:0:
288,192,94236,1,8,0:0:0:0:
288,192,94315,1,8,0:0:0:0:
288,192,94394,1,0,0:0:0:0:
288,192,94552,1,8,0:0:0:0:
288,192,94710,1,0,0:0:0:0:
288,192,94868,1,8,0:0:0:0:
288,192,95026,1,0,0:0:0:0:
288,192,95105,1,0,0:0:0:0:
288,192,95184,1,8,0:0:0:0:
288,192,95342,1,8,0:0:0:0:
288,192,95421,1,0,0:0:0:0:
288,192,95500,1,8,0:0:0:0:
288,192,95578,1,8,0:0:0:0:
288,192,95657,1,0,0:0:0:0:
288,192,95736,1,0,0:0:0:0:
288,192,95815,1,8,0:0:0:0:
288,192,95894,1,8,0:0:0:0:
288,224,95973,1,8,0:0:0:0:
288,192,96605,1,4,0:0:0:0:
288,192,97236,1,4,0:0:0:0:
288,192,97552,1,4,0:0:0:0:
288,192,97868,1,4,0:0:0:0:
288,192,98026,1,0,0:0:0:0:
288,192,98184,1,8,0:0:0:0:
288,192,98342,1,8,0:0:0:0:
288,192,98500,1,0,0:0:0:0:
288,192,98578,1,8,0:0:0:0:
288,192,98736,1,8,0:0:0:0:
288,192,98815,1,0,0:0:0:0:
288,192,98973,1,0,0:0:0:0:
288,192,99131,1,8,0:0:0:0:
288,192,99289,1,8,0:0:0:0:
288,192,99447,1,0,0:0:0:0:
256,192,99500,1,0,0:0:0:0:
256,192,99552,1,0,0:0:0:0:
256,192,99605,1,8,0:0:0:0:
256,192,99763,1,0,0:0:0:0:
256,192,99842,1,0,0:0:0:0:
256,192,99921,1,8,0:0:0:0:
256,192,100000,1,8,0:0:0:0:
256,192,100078,1,0,0:0:0:0:
256,192,100157,1,0,0:0:0:0:
256,192,100236,1,8,0:0:0:0:
256,192,100315,1,8,0:0:0:0:
256,192,100394,1,0,0:0:0:0:
256,192,100552,1,0,0:0:0:0:
256,192,100710,1,8,0:0:0:0:
256,192,100763,1,0,0:0:0:0:
256,192,100815,1,0,0:0:0:0:
256,192,100868,1,8,0:0:0:0:
288,192,101026,1,0,0:0:0:0:
288,192,101184,1,0,0:0:0:0:
288,192,101263,1,0,0:0:0:0:
288,192,101342,1,8,0:0:0:0:
288,192,101421,1,0,0:0:0:0:
288,192,101578,1,0,0:0:0:0:
288,192,101657,1,8,0:0:0:0:
288,160,101710,1,8,0:0:0:0:
288,192,101763,1,0,0:0:0:0:
288,192,101815,1,0,0:0:0:0:
288,192,101973,1,8,0:0:0:0:
288,192,102131,1,0,0:0:0:0:
288,192,102289,1,0,0:0:0:0:
288,224,102342,1,0,0:0:0:0:
288,224,102394,1,0,0:0:0:0:
288,192,102447,1,8,0:0:0:0:
288,224,102526,1,0,0:0:0:0:
288,224,102605,1,8,0:0:0:0:
288,192,102763,1,8,0:0:0:0:
288,192,102921,1,0,0:0:0:0:
288,192,103078,1,8,0:0:0:0:
288,192,103157,1,8,0:0:0:0:
288,192,103236,1,0,0:0:0:0:
288,192,103394,1,8,0:0:0:0:
288,192,103552,1,0,0:0:0:0:
288,192,103710,1,0,0:0:0:0:
288,192,103789,1,0,0:0:0:0:
256,192,103868,1,0,0:0:0:0:
288,192,103947,1,8,0:0:0:0:
288,192,104026,1,0,0:0:0:0:
256,192,104105,1,0,0:0:0:0:
256,192,104184,1,8,0:0:0:0:
256,192,104263,1,8,0:0:0:0:
288,192,104342,1,0,0:0:0:0:
288,192,104421,1,0,0:0:0:0:
256,224,104500,1,8,0:0:0:0:
288,192,104552,1,8,0:0:0:0:
288,192,104605,1,0,0:0:0:0:
256,192,104657,1,0,0:0:0:0:
288,192,104815,1,8,0:0:0:0:
288,192,104894,1,8,0:0:0:0:
288,192,104973,1,0,0:0:0:0:
288,192,105052,1,8,0:0:0:0:
288,192,105131,1,0,0:0:0:0:
288,192,105289,1,8,0:0:0:0:
288,192,105447,1,0,0:0:0:0:
288,192,105605,1,8,0:0:0:0:
288,192,105684,1,0,0:0:0:0:
288,192,105763,1,8,0:0:0:0:
288,192,105842,1,8,0:0:0:0:
288,192,105921,1,0,0:0:0:0:
288,192,106000,1,8,0:0:0:0:
288,192,106078,1,0,0:0:0:0:
288,192,106236,1,0,0:0:0:0:
288,192,106315,1,0,0:0:0:0:
288,192,106394,1,8,0:0:0:0:
288,192,106552,1,0,0:0:0:0:
288,192,106710,1,8,0:0:0:0:
288,192,106868,1,0,0:0:0:0:
288,192,106947,1,0,0:0:0:0:
288,192,107026,1,8,0:0:0:0:
288,192,107184,1,0,0:0:0:0:
288,192,107263,1,8,0:0:0:0:
288,192,107342,1,8,0:0:0:0:
288,192,107500,1,0,0:0:0:0:
288,192,107657,1,0,0:0:0:0:
288,192,107815,1,8,0:0:0:0:
288,192,107973,1,8,0:0:0:0:
288,192,108078,1,8,0:0:0:0:
288,192,108184,1,0,0:0:0:0:
288,192,108289,1,8,0:0:0:0:
288,192,108394,1,0,0:0:0:0:
288,192,108500,1,0,0:0:0:0:
288,192,108605,1,8,0:0:0:0:
288,192,108684,1,0,0:0:0:0:
288,192,108763,1,0,0:0:0:0:
288,192,108921,1,8,0:0:0:0:
288,192,109000,1,8,0:0:0:0:
288,192,109157,1,0,0:0:0:0:
288,192,109236,1,8,0:0:0:0:
288,192,109315,1,0,0:0:0:0:
288,192,109394,1,0,0:0:0:0:
288,192,109473,1,0,0:0:0:0:
288,192,109552,1,8,0:0:0:0:
288,192,109710,1,8,0:0:0:0:
288,192,109868,1,0,0:0:0:0:
256,192,110026,1,8,0:0:0:0:
256,192,110105,1,8,0:0:0:0:
256,192,110184,1,8,0:0:0:0:
256,192,110342,1,0,0:0:0:0:
256,192,110500,1,8,0:0:0:0:
256,192,110657,1,8,0:0:0:0:
256,192,110736,1,8,0:0:0:0:
288,192,110815,1,0,0:0:0:0:
288,192,110868,1,0,0:0:0:0:
288,192,110921,1,0,0:0:0:0:
256,192,110973,1,8,0:0:0:0:
288,192,111131,1,0,0:0:0:0:
256,192,111184,1,0,0:0:0:0:
256,192,111236,1,0,0:0:0:0:
256,192,111289,1,0,0:0:0:0:
256,192,111447,1,0,0:0:0:0:
256,192,111526,1,0,0:0:0:0:
256,192,111605,1,8,0:0:0:0:
256,192,111684,1,8,0:0:0:0:
256,192,111763,1,0,0:0:0:0:
256,192,111815,1,0,0:0:0:0:
256,192,111868,1,0,0:0:0:0:
256,192,111921,1,8,0:0:0:0:
256,192,112078,1,0,0:0:0:0:
256,192,112157,1,0,0:0:0:0:
256,192,112236,1,8,0:0:0:0:
256,192,112315,1,8,0:0:0:0:
256,192,112394,1,0,0:0:0:0:
256,192,112473,1,8,0:0:0:0:
256,192,112631,1,8,0:0:0:0:
256,192,112710,1,0,0:0:0:0:
256,192,112789,1,8,0:0:0:0:
256,192,112947,1,8,0:0:0:0:
256,192,113026,1,0,0:0:0:0:
256,192,113184,1,0,0:0:0:0:
256,192,113342,1,8,0:0:0:0:
256,192,113500,1,8,0:0:0:0:
256,192,113657,1,0,0:0:0:0:
256,192,113736,1,0,0:0:0:0:
256,192,113815,1,0,0:0:0:0:
256,192,113973,1,8,0:0:0:0:
256,160,114078,1,8,0:0:0:0:
256,192,114184,1,0,0:0:0:0:
256,192,114289,1,8,0:0:0:0:
256,224,114368,1,0,0:0:0:0:
288,192,114447,1,8,0:0:0:0:
288,192,114526,1,0,0:0:0:0:
288,192,114605,1,0,0:0:0:0:
288,192,114684,1,0,0:0:0:0:
288,192,114763,1,8,0:0:0:0:
288,192,114842,1,0,0:0:0:0:
288,192,114921,1,8,0:0:0:0:
288,192,115078,1,0,0:0:0:0:
288,192,115157,1,0,0:0:0:0:
288,192,115236,1,8,0:0:0:0:
288,192,115394,1,8,0:0:0:0:
288,192,115473,1,8,0:0:0:0:
288,192,115552,1,8,0:0:0:0:
288,192,115631,1,0,0:0:0:0:
288,192,115710,1,0,0:0:0:0:
256,192,115789,1,0,0:0:0:0:
256,192,115868,1,8,0:0:0:0:
256,192,116026,1,8,0:0:0:0:
256,192,116184,1,0,0:0:0:0:
256,192,116263,1,0,0:0:0:0:
256,192,116342,1,0,0:0:0:0:
288,192,116421,1,8,0:0:0:0:
288,192,116500,1,8,0:0:0:0:
288,192,116657,1,0,0:0:0:0:
288,192,116736,1,8,0:0:0:0:
288,192,116815,1,8,0:0:0:0:
288,192,116973,1,0,0:0:0:0:
288,192,117131,1,8,0:0:0:0:
288,192,117289,1,0,0:0:0:0:
288,192,117447,1,8,0:0:0:0:
288,192,117526,1,8,0:0:0:0:
288,192,117605,1,0,0:0:0:0:
288,192,117763,1,8,0:0:0:0:
288,192,117842,1,0,0:0:0:0:
288,192,117921,1,0,0:0:0:0:
288,224,118000,1,8,0:0:0:0:
288,224,118078,1,8,0:0:0:0:
288,224,118236,1,0,0:0:0:0:
288,224,118315,1,0,0:0:0:0:
288,224,118394,1,8,0:0:0:0:
288,224,118552,1,8,0:0:0:0:
288,224,118631,1,8,0:0:0:0:
288,224,118710,1,0,0:0:0:0:
288,224,118868,1,8,0:0:0:0:
288,224,119026,1,8,0:0:0:0:
288,224,119184,1,8,0:0:0:0:
288,224,119263,1,8,0:0:0:0:
288,224,119342,1,0,0:0:0:0:
288,224,119500,1,8,0:0:0:0:
288,224,119657,1,8,0:0:0:0:
288,224,119815,1,8,0:0:0:0:
288,224,119894,1,8,0:0:0:0:
288,224,119973,1,0,0:0:0:0:
288,224,120052,1,8,0:0:0:0:
320,224,120131,1,0,0:0:0:0:
320,224,120210,1,8,0:0:0:0:
320,224,120289,1,8,0:0:0:0:
320,224,120447,1,0,0:0:0:0:
288,224,120605,1,8,0:0:0:0:
288,224,120763,1,0,0:0:0:0:
288,224,120921,1,0,0:0:0:0:
288,224,121078,1,8,0:0:0:0:
288,224,121236,1,0,0:0:0:0:
288,224,121394,1,8,0:0:0:0:
288,224,121552,1,8,0:0:0:0:
288,224,121710,1,8,0:0:0:0:
288,224,121789,1,8,0:0:0:0:
288,224,121868,1,0,0:0:0:0:
288,224,122026,1,8,0:0:0:0:
288,224,122184,1,8,0:0:0:0:
288,224,122342,1,8,0:0:0:0:
288,224,122421,1,0,0:0:0:0:
288,224,122500,1,8,0:0:0:0:
288,224,122657,1,0,0:0:0:0:
288,224,122815,1,8,0:0:0:0:
288,224,122973,1,0,0:0:0:0:
288,224,123131,1,8,0:0:0:0:
288,224,123289,1,8,0:0:0:0:
288,224,123447,1,8,0:0:0:0:
288,224,123605,1,0,0:0:0:0:
288,224,123763,1,4,0:0:0:0:
288,224,123921,1,8,0:0:0:0:
288,224,124078,1,0,0:0:0:0:
288,224,124236,1,8,0:0:0:0:
288,224,124394,1,0,0:0:0:0:
288,224,124552,1,8,0:0:0:0:
288,224,124710,1,8,0:0:0:0:
288,224,124789,1,8,0:0:0:0:
288,224,124868,1,0,0:0:0:0:
288,224,125026,1,0,0:0:0:0:
288,224,125184,1,8,0:0:0:0:
288,224,125342,1,8,0:0:0:0:
288,224,125421,1,8,0:0:0:0:
288,224,125500,1,0,0:0:0:0:
288,224,125657,1,0,0:0:0:0:
288,224,125815,1,8,0:0:0:0:
288,224,125973,1,8,0:0:0:0:
288,224,126052,1,8,0:0:0:0:
288,224,126131,1,0,0:0:0:0:
288,224,126289,1,0,0:0:0:0:
288,224,126447,1,8,0:0:0:0:
288,224,126605,1,8,0:0:0:0:
288,224,126684,1,8,0:0:0:0:
288,224,126763,1,0,0:0:0:0:
288,224,126921,1,0,0:0:0:0:
288,224,127078,1,8,0:0:0:0:
288,224,127236,1,8,0:0:0:0:
288,224,127315,1,8,0:0:0:0:
288,224,127394,1,0,0:0:0:0:
288,224,127552,1,4,0:0:0:0:
288,224,127710,1,8,0:0:0:0:
288,224,127789,1,8,0:0:0:0:
288,224,127868,1,0,0:0:0:0:
288,224,127947,1,8,0:0:0:0:
288,224,128026,1,0,0:0:0:0:
288,224,128105,1,0,0:0:0:0:
288,224,128184,1,8,0:0:0:0:
288,224,128342,1,0,0:0:0:0:
288,224,128500,1,0,0:0:0:0:
288,224,128657,1,8,0:0:0:0:
288,224,128815,1,8,0:0:0:0:
288,224,128973,1,0,0:0:0:0:
288,224,129131,1,0,0:0:0:0:
288,224,129289,1,8,0:0:0:0:
288,224,129447,1,8,0:0:0:0:
288,224,129605,1,0,0:0:0:0:
288,224,129763,1,8,0:0:0:0:
288,224,130078,1,0,0:0:0:0:
288,224,130236,1,8,0:0:0:0:
288,224,130552,1,8,0:0:0:0:
288,224,130710,1,0,0:0:0:0:
288,224,130868,1,8,0:0:0:0:
288,224,131026,1,8,0:0:0:0:
288,224,131184,1,0,0:0:0:0:
288,224,131342,1,12,0:0:0:0:
288,224,131973,1,12,0:0:0:0:
288,224,132605,1,12,0:0:0:0:
288,224,132921,1,12,0:0:0:0:
288,224,133236,1,12,0:0:0:0:
288,224,133552,1,12,0:0:0:0:
288,224,133868,1,0,0:0:0:0:
288,224,133947,1,0,0:0:0:0:
288,192,134026,1,8,0:0:0:0:
288,192,134105,1,0,0:0:0:0:
288,192,134184,1,8,0:0:0:0:
288,192,134342,1,8,0:0:0:0:
288,192,134500,1,0,0:0:0:0:
288,192,134552,1,0,0:0:0:0:
288,192,134605,1,0,0:0:0:0:
288,192,134657,1,8,0:0:0:0:
288,192,134815,1,0,0:0:0:0:
288,192,134973,1,8,0:0:0:0:
288,192,135131,1,0,0:0:0:0:
288,192,135210,1,8,0:0:0:0:
288,192,135289,1,8,0:0:0:0:
288,192,135447,1,0,0:0:0:0:
288,192,135526,1,0,0:0:0:0:
288,192,135605,1,0,0:0:0:0:
288,192,135763,1,8,0:0:0:0:
288,192,135842,1,0,0:0:0:0:
288,192,135921,1,0,0:0:0:0:
288,192,136000,1,8,0:0:0:0:
288,192,136078,1,8,0:0:0:0:
288,192,136157,1,0,0:0:0:0:
288,192,136236,1,8,0:0:0:0:
288,192,136315,1,8,0:0:0:0:
288,192,136394,1,0,0:0:0:0:
288,192,136552,1,8,0:0:0:0:
288,192,136710,1,0,0:0:0:0:
288,192,136763,1,0,0:0:0:0:
288,192,136815,1,0,0:0:0:0:
288,192,136868,1,8,0:0:0:0:
256,192,136947,1,0,0:0:0:0:
288,192,137026,1,8,0:0:0:0:
288,192,137078,1,8,0:0:0:0:
288,192,137131,1,0,0:0:0:0:
288,192,137184,1,0,0:0:0:0:
288,192,137263,1,0,0:0:0:0:
288,192,137342,1,8,0:0:0:0:
256,192,137500,1,0,0:0:0:0:
256,192,137657,1,12,0:0:0:0:
256,192,137815,1,0,0:0:0:0:
256,192,137868,1,0,0:0:0:0:
256,192,137921,1,0,0:0:0:0:
256,192,137973,1,8,0:0:0:0:
256,192,138131,1,8,0:0:0:0:
256,192,138289,1,0,0:0:0:0:
256,192,138368,1,0,0:0:0:0:
256,192,138447,1,0,0:0:0:0:
256,192,138526,1,0,0:0:0:0:
256,192,138605,1,8,0:0:0:0:
256,192,138684,1,0,0:0:0:0:
256,192,138763,1,8,0:0:0:0:
256,192,138842,1,8,0:0:0:0:
256,192,138921,1,0,0:0:0:0:
256,192,139078,1,8,0:0:0:0:
256,192,139236,1,8,0:0:0:0:
256,192,139289,1,0,0:0:0:0:
256,192,139342,1,0,0:0:0:0:
256,192,139394,1,8,0:0:0:0:
256,192,139552,1,0,0:0:0:0:
256,192,139631,1,0,0:0:0:0:
256,192,139710,1,8,0:0:0:0:
256,192,139789,1,8,0:0:0:0:
256,192,139868,1,0,0:0:0:0:
224,192,140026,1,8,0:0:0:0:
256,192,140184,1,0,0:0:0:0:
256,192,140342,1,8,0:0:0:0:
256,192,140500,1,0,0:0:0:0:
256,192,140657,1,8,0:0:0:0:
256,192,140815,1,0,0:0:0:0:
256,192,140894,1,0,0:0:0:0:
256,192,140973,1,8,0:0:0:0:
256,192,141131,1,0,0:0:0:0:
256,192,141210,1,0,0:0:0:0:
256,192,141289,1,8,0:0:0:0:
256,192,141447,1,12,0:0:0:0:
256,192,141605,1,0,0:0:0:0:
256,192,141763,1,12,0:0:0:0:
256,192,141921,1,0,0:0:0:0:
256,192,142078,1,4,0:0:0:0:
256,192,142236,1,8,0:0:0:0:
256,192,142394,1,4,0:0:0:0:
256,192,142552,1,8,0:0:0:0:
256,192,142710,1,12,0:0:0:0:
256,192,143342,1,4,0:0:0:0:
256,192,143500,1,12,0:0:0:0:
256,192,143657,1,4,0:0:0:0:
256,192,143815,1,12,0:0:0:0:
