osu file format v14

[General]
AudioFilename: audio.mp3
AudioLeadIn: 0
PreviewTime: 26808
Countdown: 0
SampleSet: Normal
StackLeniency: 0.2
Mode: 1
LetterboxInBreaks: 0
WidescreenStoryboard: 1

[Editor]
Bookmarks: 4655,12039,26808,41578,48962,63731,80347,95116,111731,126500,141269,156038
DistanceSpacing: 1
BeatDivisor: 2
GridSize: 32
TimelineZoom: 0.4999999

[Metadata]
Title:Brecorr in Macedonia
TitleUnicode:Brecorr in Macedonia
Artist:Rahatt
ArtistUnicode:Rahatt
Creator:Genjuro
Version:Kantan
Source:
Tags:electronic macedonian breakcore balkancore gypsycore adrijana acevska made kqrth
BeatmapID:2434000
BeatmapSetID:1166056

[Difficulty]
HPDrainRate:7
CircleSize:2
OverallDifficulty:3
ApproachRate:10
SliderMultiplier:1.4
SliderTickRate:1

[Events]
//Background and Video events
0,0,"bg.jpg",0,40
//Break Periods
2,96962,98358
2,100654,102050
//Storyboard Layer 0 (Background)
//Storyboard Layer 1 (Fail)
//Storyboard Layer 2 (Pass)
//Storyboard Layer 3 (Foreground)
//Storyboard Layer 4 (Overlay)
//Storyboard Sound Samples

[TimingPoints]
4655,461.538461538462,4,1,0,100,1,0
28655,-100,4,1,0,100,0,1
37885,-100,4,1,0,100,0,0
39731,-100,4,1,0,100,0,1
41578,-100,4,1,0,100,0,0
65578,-100,4,1,0,100,0,1
74808,-100,4,1,0,100,0,0
76655,-100,4,1,0,100,0,1
78501,-100,4,1,0,100,0,0
80347,461.538461538462,4,1,0,100,1,0
87731,-100,4,1,0,100,0,1
95116,-100,4,1,0,100,0,0
111731,461.538461538462,4,1,0,100,1,0
113577,-100,4,1,0,100,0,1
122807,-100,4,1,0,100,0,0
124654,-100,4,1,0,100,0,1
126500,-100,4,1,0,100,0,0
143115,-100,4,1,0,100,0,1
152346,-100,4,1,0,100,0,0
154192,-100,4,1,0,100,0,1
156038,-100,4,1,0,100,0,0

[HitObjects]
256,192,4655,5,0,0:0:0:0:
256,192,5578,1,8,0:0:0:0:
256,192,6039,1,8,0:0:0:0:
256,192,6501,1,8,0:0:0:0:
256,192,7424,1,0,0:0:0:0:
256,192,8347,1,8,0:0:0:0:
256,192,9270,1,0,0:0:0:0:
256,192,9731,1,0,0:0:0:0:
256,192,10193,1,0,0:0:0:0:
256,192,11116,1,8,0:0:0:0:
256,192,12039,1,4,0:0:0:0:
256,192,13885,1,8,0:0:0:0:
256,192,14808,1,0,0:0:0:0:
256,192,15731,1,8,0:0:0:0:
256,192,16193,1,8,0:0:0:0:
256,192,16655,1,8,0:0:0:0:
256,192,17578,1,0,0:0:0:0:
256,192,18039,1,0,0:0:0:0:
256,192,18501,1,0,0:0:0:0:
256,192,19424,1,8,0:0:0:0:
256,192,21270,1,0,0:0:0:0:
256,192,22193,1,8,0:0:0:0:
256,192,23116,1,0,0:0:0:0:
256,192,23578,1,0,0:0:0:0:
256,192,24039,1,0,0:0:0:0:
256,192,24962,1,8,0:0:0:0:
256,192,25885,1,0,0:0:0:0:
256,192,26808,1,8,0:0:0:0:
256,192,28655,1,4,0:0:0:0:
256,192,29578,1,8,0:0:0:0:
256,192,30501,1,0,0:0:0:0:
256,192,30962,1,8,0:0:0:0:
256,192,31424,1,0,0:0:0:0:
256,192,32347,1,8,0:0:0:0:
256,192,32808,1,8,0:0:0:0:
256,192,33270,1,0,0:0:0:0:
256,192,33731,1,0,0:0:0:0:
256,192,34193,1,8,0:0:0:0:
256,192,35116,1,0,0:0:0:0:
256,192,36039,1,8,0:0:0:0:
256,192,36501,1,8,0:0:0:0:
256,192,36962,1,0,0:0:0:0:
256,192,37885,1,12,0:0:0:0:
256,192,39731,1,0,0:0:0:0:
256,192,40193,1,0,0:0:0:0:
256,192,40655,1,8,0:0:0:0:
256,192,41578,1,4,0:0:0:0:
256,192,43424,1,8,0:0:0:0:
256,192,44347,1,0,0:0:0:0:
256,192,45270,1,8,0:0:0:0:
256,192,46193,1,0,0:0:0:0:
256,192,46655,1,0,0:0:0:0:
256,192,47116,1,0,0:0:0:0:
256,192,48039,1,8,0:0:0:0:
256,192,48962,1,0,0:0:0:0:
256,192,50808,1,8,0:0:0:0:
256,192,51731,1,0,0:0:0:0:
256,192,52655,1,8,0:0:0:0:
256,192,53116,1,0,0:0:0:0:
256,192,53578,1,8,0:0:0:0:
256,192,54501,1,0,0:0:0:0:
256,192,54962,1,8,0:0:0:0:
256,192,55424,1,0,0:0:0:0:
256,192,56347,1,8,0:0:0:0:
256,192,58193,1,0,0:0:0:0:
256,192,59116,1,8,0:0:0:0:
256,192,60039,1,0,0:0:0:0:
256,192,60501,1,8,0:0:0:0:
256,192,60962,1,0,0:0:0:0:
256,192,61885,1,8,0:0:0:0:
256,192,62808,1,0,0:0:0:0:
256,192,63731,1,8,0:0:0:0:
256,192,65578,1,4,0:0:0:0:
256,192,66501,1,8,0:0:0:0:
256,192,67424,1,0,0:0:0:0:
256,192,67885,1,8,0:0:0:0:
256,192,68347,1,0,0:0:0:0:
256,192,69270,1,8,0:0:0:0:
256,192,69731,1,8,0:0:0:0:
256,192,70193,1,0,0:0:0:0:
256,192,70655,1,0,0:0:0:0:
256,192,71116,1,8,0:0:0:0:
256,192,72039,1,0,0:0:0:0:
256,192,72962,1,8,0:0:0:0:
256,192,73424,1,8,0:0:0:0:
256,192,73885,1,0,0:0:0:0:
256,192,74808,1,12,0:0:0:0:
256,192,76655,1,0,0:0:0:0:
256,192,77116,1,0,0:0:0:0:
256,192,77578,1,8,0:0:0:0:
256,192,78501,1,4,0:0:0:0:
256,192,80347,1,12,0:0:0:0:
256,192,81270,1,0,0:0:0:0:
256,192,82193,1,8,0:0:0:0:
256,192,82654,1,0,0:0:0:0:
256,192,83116,1,8,0:0:0:0:
256,192,84039,1,0,0:0:0:0:
256,192,84500,1,8,0:0:0:0:
256,192,84962,1,0,0:0:0:0:
256,192,85885,1,8,0:0:0:0:
256,192,87731,1,0,0:0:0:0:
256,192,88193,1,0,0:0:0:0:
256,192,88654,1,8,0:0:0:0:
256,192,89577,1,8,0:0:0:0:
256,192,90039,1,8,0:0:0:0:
256,192,90500,1,0,0:0:0:0:
256,192,91423,1,0,0:0:0:0:
256,192,91885,1,0,0:0:0:0:
256,192,92347,1,8,0:0:0:0:
256,192,92808,1,0,0:0:0:0:
256,192,93270,1,8,0:0:0:0:
256,192,93731,1,8,0:0:0:0:
256,192,94193,1,0,0:0:0:0:
256,192,95116,1,8,0:0:0:0:
256,192,98808,5,8,0:0:0:0:
256,192,102500,5,8,0:0:0:0:
256,192,104347,1,8,0:0:0:0:
256,192,106193,1,8,0:0:0:0:
256,192,107116,1,8,0:0:0:0:
256,192,108039,1,8,0:0:0:0:
256,192,108500,1,8,0:0:0:0:
256,192,108962,1,8,0:0:0:0:
256,192,109885,1,4,0:0:0:0:
256,192,111731,1,8,0:0:0:0:
256,192,112192,1,0,0:0:0:0:
256,192,112654,1,8,0:0:0:0:
256,192,113577,1,4,0:0:0:0:
256,192,114500,1,8,0:0:0:0:
256,192,115423,1,0,0:0:0:0:
256,192,115884,1,8,0:0:0:0:
256,192,116346,1,0,0:0:0:0:
256,192,117269,1,8,0:0:0:0:
256,192,117731,1,8,0:0:0:0:
256,192,118192,1,0,0:0:0:0:
256,192,118654,1,0,0:0:0:0:
256,192,119115,1,8,0:0:0:0:
256,192,120038,1,0,0:0:0:0:
256,192,120500,1,0,0:0:0:0:
256,192,120961,1,8,0:0:0:0:
256,192,121423,1,8,0:0:0:0:
256,192,121884,1,0,0:0:0:0:
256,192,122807,1,12,0:0:0:0:
256,192,124654,1,0,0:0:0:0:
256,192,125115,1,0,0:0:0:0:
256,192,125577,1,8,0:0:0:0:
256,192,126500,1,0,0:0:0:0:
256,192,126961,1,8,0:0:0:0:
256,192,127423,1,0,0:0:0:0:
256,192,128346,1,8,0:0:0:0:
256,192,129269,1,0,0:0:0:0:
256,192,130192,1,8,0:0:0:0:
256,192,130654,1,0,0:0:0:0:
256,192,131115,1,8,0:0:0:0:
256,192,132038,1,0,0:0:0:0:
256,192,132500,1,8,0:0:0:0:
256,192,132961,1,0,0:0:0:0:
256,192,133884,1,8,0:0:0:0:
256,192,135731,1,0,0:0:0:0:
256,192,136654,1,8,0:0:0:0:
256,192,137577,1,0,0:0:0:0:
256,192,138038,1,8,0:0:0:0:
256,192,138500,1,0,0:0:0:0:
256,192,139423,1,8,0:0:0:0:
256,192,140346,1,0,0:0:0:0:
256,192,141269,1,8,0:0:0:0:
256,192,143115,1,4,0:0:0:0:
256,192,144038,1,8,0:0:0:0:
256,192,144961,1,0,0:0:0:0:
256,192,145423,1,8,0:0:0:0:
256,192,145884,1,0,0:0:0:0:
256,192,146807,1,8,0:0:0:0:
256,192,147269,1,8,0:0:0:0:
256,192,147731,1,0,0:0:0:0:
256,192,148192,1,0,0:0:0:0:
256,192,148654,1,8,0:0:0:0:
256,192,149577,1,0,0:0:0:0:
256,192,150500,1,8,0:0:0:0:
256,192,150961,1,8,0:0:0:0:
256,192,151423,1,0,0:0:0:0:
256,192,152346,1,12,0:0:0:0:
256,192,154192,1,0,0:0:0:0:
256,192,154654,1,0,0:0:0:0:
256,192,155115,1,8,0:0:0:0:
256,192,156038,1,4,0:0:0:0:
256,192,156731,1,4,0:0:0:0:
256,192,157884,1,12,0:0:0:0:
