osu file format v14

[General]
AudioFilename: audio.mp3
AudioLeadIn: 0
PreviewTime: 26808
Countdown: 0
SampleSet: Normal
StackLeniency: 0.2
Mode: 1
LetterboxInBreaks: 0
WidescreenStoryboard: 1

[Editor]
Bookmarks: 4655,12039,26808,41578,48962,63731,80347,95116,111731,126500,141269,156038
DistanceSpacing: 1
BeatDivisor: 8
GridSize: 32
TimelineZoom: 3.099999

[Metadata]
Title:Brecorr in Macedonia
TitleUnicode:Brecorr in Macedonia
Artist:Rahatt
ArtistUnicode:Rahatt
Creator:Genjuro
Version:Inner Oni
Source:
Tags:electronic macedonian breakcore balkancore gypsycore adrijana acevska made kqrth
BeatmapID:2432558
BeatmapSetID:1166056

[Difficulty]
HPDrainRate:6
CircleSize:2
OverallDifficulty:6
ApproachRate:10
SliderMultiplier:1.4
SliderTickRate:1

[Events]
//Background and Video events
0,0,"bg.jpg",0,40
//Break Periods
2,96962,98358
2,100654,102050
//Storyboard Layer 0 (Background)
//Storyboard Layer 1 (Fail)
//Storyboard Layer 2 (Pass)
//Storyboard Layer 3 (Foreground)
//Storyboard Layer 4 (Overlay)
//Storyboard Sound Samples

[TimingPoints]
4655,461.538461538462,4,1,0,100,1,0
11981,-75.0000187500047,4,1,0,100,0,0
13135,-133.333333333333,4,1,0,100,0,0
13828,-100,4,1,0,100,0,0
25251,-104.918032786885,4,1,0,100,0,0
25366,-106.666666666667,4,1,0,100,0,0
25597,-110.344827586207,4,1,0,100,0,0
25828,-114.285714285714,4,1,0,100,0,0
25943,-116.363636363636,4,1,0,100,0,0
26058,-118.518518518519,4,1,0,100,0,0
26289,-123.076923076923,4,1,0,100,0,0
26751,-133.333333333333,4,1,0,100,0,0
28597,-75.0000187500047,4,1,0,100,0,0
28655,-75.0000187500047,4,1,0,100,0,1
37885,-75.0000187500047,4,1,0,100,0,0
38981,-133.333333333333,4,1,0,100,0,0
39674,-88.8888888888889,4,1,0,100,0,0
39731,-88.8888888888889,4,1,0,100,0,1
41578,-88.8888888888889,4,1,0,100,0,0
41866,-100,4,1,0,100,0,0
62174,-104.918032786885,4,1,0,100,0,0
62289,-106.666666666667,4,1,0,100,0,0
62520,-110.344827586207,4,1,0,100,0,0
62751,-114.285714285714,4,1,0,100,0,0
62866,-116.363636363636,4,1,0,100,0,0
62981,-118.518518518519,4,1,0,100,0,0
63212,-123.076923076923,4,1,0,100,0,0
63674,-133.333333333333,4,1,0,100,0,0
65520,-75.0000187500047,4,1,0,100,0,0
65578,-75.0000187500047,4,1,0,100,0,1
74808,-75.0000187500047,4,1,0,100,0,0
75905,-133.333333333333,4,1,0,100,0,0
76597,-88.8888888888889,4,1,0,100,0,0
76655,-88.8888888888889,4,1,0,100,0,1
78501,-88.8888888888889,4,1,0,100,0,0
80347,461.538461538462,4,1,0,100,1,0
87673,-75.0000187500047,4,1,0,100,0,0
87731,-75.0000187500047,4,1,0,100,0,1
95116,-75.0000187500047,4,1,0,100,0,0
111731,461.538461538462,4,1,0,100,1,0
113519,-75.0000187500047,4,1,0,100,0,0
113577,-75.0000187500047,4,1,0,100,0,1
122807,-75.0000187500047,4,1,0,100,0,0
123904,-133.333333333333,4,1,0,100,0,0
124596,-88.8888888888889,4,1,0,100,0,0
124654,-88.8888888888889,4,1,0,100,0,1
126500,-88.8888888888889,4,1,0,100,0,0
126788,-100,4,1,0,100,0,0
139711,-104.918032786885,4,1,0,100,0,0
139827,-106.666666666667,4,1,0,100,0,0
140057,-110.344827586207,4,1,0,100,0,0
140288,-114.285714285714,4,1,0,100,0,0
140404,-116.363636363636,4,1,0,100,0,0
140519,-118.518518518519,4,1,0,100,0,0
140750,-123.076923076923,4,1,0,100,0,0
141211,-133.333333333333,4,1,0,100,0,0
143057,-75.0000187500047,4,1,0,100,0,0
143115,-75.0000187500047,4,1,0,100,0,1
152346,-75.0000187500047,4,1,0,100,0,0
153442,-133.333333333333,4,1,0,100,0,0
154134,-88.8888888888889,4,1,0,100,0,0
154192,-88.8888888888889,4,1,0,100,0,1
155981,-75.0000187500047,4,1,0,100,0,1
156038,-75.0000187500047,4,1,0,100,0,0

[HitObjects]
256,192,4655,5,0,0:0:0:0:
256,192,4885,1,0,0:0:0:0:
256,192,5001,1,0,0:0:0:0:
256,192,5116,1,8,0:0:0:0:
256,192,5347,1,0,0:0:0:0:
256,192,5462,1,8,0:0:0:0:
256,192,5693,1,8,0:0:0:0:
256,192,5808,1,0,0:0:0:0:
256,192,6039,1,8,0:0:0:0:
256,192,6270,1,8,0:0:0:0:
256,192,6501,1,0,0:0:0:0:
256,192,6731,1,8,0:0:0:0:
256,192,6847,1,0,0:0:0:0:
256,192,6962,1,8,0:0:0:0:
256,192,7193,1,0,0:0:0:0:
256,192,7308,1,8,0:0:0:0:
256,192,7539,1,8,0:0:0:0:
256,192,7655,1,0,0:0:0:0:
256,192,7770,1,0,0:0:0:0:
256,192,7885,1,8,0:0:0:0:
256,192,8116,1,8,0:0:0:0:
256,192,8347,1,0,0:0:0:0:
256,192,8578,1,0,0:0:0:0:
256,192,8693,1,0,0:0:0:0:
256,192,8808,1,8,0:0:0:0:
256,192,9039,1,0,0:0:0:0:
256,192,9155,1,8,0:0:0:0:
256,192,9385,1,8,0:0:0:0:
256,192,9501,1,0,0:0:0:0:
256,192,9731,1,8,0:0:0:0:
256,192,9962,1,8,0:0:0:0:
256,192,10193,1,0,0:0:0:0:
256,192,10424,1,8,0:0:0:0:
256,192,10539,1,0,0:0:0:0:
256,192,10655,1,8,0:0:0:0:
256,192,10885,1,0,0:0:0:0:
256,192,11001,1,8,0:0:0:0:
256,192,11231,1,8,0:0:0:0:
256,192,11347,1,8,0:0:0:0:
256,192,11462,1,0,0:0:0:0:
256,192,11578,1,8,0:0:0:0:
256,192,12039,1,4,0:0:0:0:
256,192,13193,1,8,0:0:0:0:
256,192,13424,1,0,0:0:0:0:
256,192,13539,1,8,0:0:0:0:
256,192,13655,1,8,0:0:0:0:
256,192,13885,1,0,0:0:0:0:
256,192,14001,1,8,0:0:0:0:
256,192,14231,1,8,0:0:0:0:
256,192,14462,1,8,0:0:0:0:
256,192,14578,1,8,0:0:0:0:
256,192,14693,1,0,0:0:0:0:
256,192,14808,1,0,0:0:0:0:
256,192,15039,1,8,0:0:0:0:
256,192,15155,1,0,0:0:0:0:
256,192,15270,1,8,0:0:0:0:
256,192,15501,1,8,0:0:0:0:
256,192,15731,1,0,0:0:0:0:
256,192,15847,1,8,0:0:0:0:
256,192,16078,1,8,0:0:0:0:
256,192,16308,1,8,0:0:0:0:
256,192,16424,1,8,0:0:0:0:
256,192,16539,1,0,0:0:0:0:
256,192,16655,1,0,0:0:0:0:
256,192,16885,1,8,0:0:0:0:
256,192,17231,1,0,0:0:0:0:
256,192,17347,1,0,0:0:0:0:
256,192,17578,1,8,0:0:0:0:
256,192,17924,1,8,0:0:0:0:
256,192,18039,1,8,0:0:0:0:
256,192,18155,1,8,0:0:0:0:
256,192,18270,1,0,0:0:0:0:
256,192,18501,1,0,0:0:0:0:
256,192,18616,1,8,0:0:0:0:
256,192,18731,1,0,0:0:0:0:
256,192,18962,1,8,0:0:0:0:
256,192,19424,1,0,0:0:0:0:
256,192,19539,1,8,0:0:0:0:
256,192,19770,1,8,0:0:0:0:
256,192,20001,1,8,0:0:0:0:
256,192,20116,1,8,0:0:0:0:
256,192,20231,1,0,0:0:0:0:
256,192,20347,1,0,0:0:0:0:
256,192,20578,1,8,0:0:0:0:
256,192,20808,1,0,0:0:0:0:
256,192,20924,1,8,0:0:0:0:
256,192,21039,1,8,0:0:0:0:
256,192,21270,1,0,0:0:0:0:
256,192,21385,1,8,0:0:0:0:
256,192,21616,1,8,0:0:0:0:
256,192,21847,1,8,0:0:0:0:
256,192,21962,1,8,0:0:0:0:
256,192,22078,1,0,0:0:0:0:
256,192,22193,1,0,0:0:0:0:
256,192,22424,1,8,0:0:0:0:
256,192,22539,1,0,0:0:0:0:
256,192,22655,1,8,0:0:0:0:
256,192,22885,1,8,0:0:0:0:
256,192,23116,1,0,0:0:0:0:
256,192,23231,1,8,0:0:0:0:
256,192,23462,1,8,0:0:0:0:
256,192,23693,1,8,0:0:0:0:
256,192,23808,1,8,0:0:0:0:
256,192,23924,1,0,0:0:0:0:
256,192,24039,1,0,0:0:0:0:
256,192,24270,1,8,0:0:0:0:
256,192,24616,1,0,0:0:0:0:
256,192,24731,1,0,0:0:0:0:
256,192,24962,1,8,0:0:0:0:
256,192,25308,1,8,0:0:0:0:
256,192,25424,1,8,0:0:0:0:
256,192,25655,1,0,0:0:0:0:
256,192,25885,1,0,0:0:0:0:
256,192,26001,1,8,0:0:0:0:
256,192,26116,1,0,0:0:0:0:
256,192,26347,1,8,0:0:0:0:
256,192,26808,1,0,0:0:0:0:
256,192,27039,1,0,0:0:0:0:
256,192,27270,1,8,0:0:0:0:
256,192,27501,1,0,0:0:0:0:
256,192,27616,1,8,0:0:0:0:
256,192,27847,1,8,0:0:0:0:
256,192,27962,1,0,0:0:0:0:
256,192,28193,1,8,0:0:0:0:
256,192,28424,1,8,0:0:0:0:
256,192,28655,1,4,0:0:0:0:
256,192,28885,1,8,0:0:0:0:
256,192,29001,1,8,0:0:0:0:
256,192,29116,1,0,0:0:0:0:
256,192,29231,1,0,0:0:0:0:
256,192,29347,1,8,0:0:0:0:
256,192,29578,1,0,0:0:0:0:
256,192,29693,1,8,0:0:0:0:
256,192,29808,1,0,0:0:0:0:
256,192,29924,1,0,0:0:0:0:
256,192,30039,1,8,0:0:0:0:
256,192,30270,1,8,0:0:0:0:
256,192,30501,1,0,0:0:0:0:
256,192,30616,1,0,0:0:0:0:
256,192,30731,1,8,0:0:0:0:
256,192,30847,1,0,0:0:0:0:
256,192,30962,1,0,0:0:0:0:
256,192,31193,1,8,0:0:0:0:
256,192,31424,1,0,0:0:0:0:
256,192,31539,1,0,0:0:0:0:
256,192,31655,1,8,0:0:0:0:
256,192,31770,1,8,0:0:0:0:
256,192,31885,1,0,0:0:0:0:
256,192,32116,1,8,0:0:0:0:
256,192,32347,1,0,0:0:0:0:
256,192,32462,1,0,0:0:0:0:
256,192,32693,1,8,0:0:0:0:
256,192,32808,1,0,0:0:0:0:
256,192,33039,1,8,0:0:0:0:
256,192,33155,1,8,0:0:0:0:
256,192,33270,1,0,0:0:0:0:
256,192,33385,1,8,0:0:0:0:
256,192,33501,1,0,0:0:0:0:
256,192,33731,1,8,0:0:0:0:
256,192,33847,1,8,0:0:0:0:
256,192,33962,1,8,0:0:0:0:
256,192,34078,1,8,0:0:0:0:
256,192,34193,1,0,0:0:0:0:
256,192,34539,1,8,0:0:0:0:
256,192,34655,1,0,0:0:0:0:
256,192,34885,1,8,0:0:0:0:
256,192,35116,1,0,0:0:0:0:
256,192,35231,1,8,0:0:0:0:
256,192,35347,1,0,0:0:0:0:
256,192,35462,1,0,0:0:0:0:
256,192,35578,1,8,0:0:0:0:
256,192,35808,1,8,0:0:0:0:
256,192,36039,1,0,0:0:0:0:
256,192,36155,1,0,0:0:0:0:
256,192,36270,1,0,0:0:0:0:
256,192,36501,1,8,0:0:0:0:
256,192,36731,1,0,0:0:0:0:
256,192,36962,1,0,0:0:0:0:
256,192,37078,1,8,0:0:0:0:
256,192,37193,1,0,0:0:0:0:
256,192,37424,1,8,0:0:0:0:
256,192,37655,1,8,0:0:0:0:
256,192,37885,1,4,0:0:0:0:
256,192,39039,1,8,0:0:0:0:
256,192,39155,1,8,0:0:0:0:
256,192,39270,1,8,0:0:0:0:
256,192,39501,1,8,0:0:0:0:
256,192,39731,1,0,0:0:0:0:
256,192,39962,1,0,0:0:0:0:
256,192,40078,1,0,0:0:0:0:
256,192,40193,1,8,0:0:0:0:
256,192,40424,1,0,0:0:0:0:
256,192,40539,1,8,0:0:0:0:
256,192,40770,1,8,0:0:0:0:
256,192,40885,1,0,0:0:0:0:
256,192,41116,1,8,0:0:0:0:
256,192,41347,1,8,0:0:0:0:
256,192,41578,1,4,0:0:0:0:
256,192,41924,1,0,0:0:0:0:
256,192,42039,1,8,0:0:0:0:
256,192,42501,1,0,0:0:0:0:
256,192,42616,1,0,0:0:0:0:
256,192,42847,1,0,0:0:0:0:
256,192,42962,1,8,0:0:0:0:
256,192,43193,1,0,0:0:0:0:
256,192,43424,1,0,0:0:0:0:
256,192,43539,1,0,0:0:0:0:
256,192,43770,1,0,0:0:0:0:
256,192,43885,1,8,0:0:0:0:
256,192,44116,1,8,0:0:0:0:
256,192,44347,1,0,0:0:0:0:
256,192,44462,1,8,0:0:0:0:
256,192,44578,1,8,0:0:0:0:
256,192,44693,1,0,0:0:0:0:
256,192,44808,1,8,0:0:0:0:
256,192,45039,1,0,0:0:0:0:
256,192,45155,1,0,0:0:0:0:
256,192,45270,1,0,0:0:0:0:
256,192,45616,1,0,0:0:0:0:
256,192,45731,1,8,0:0:0:0:
256,192,45962,1,0,0:0:0:0:
256,192,46078,1,0,0:0:0:0:
256,192,46193,1,0,0:0:0:0:
256,192,46308,1,0,0:0:0:0:
256,192,46539,1,0,0:0:0:0:
256,192,46655,1,8,0:0:0:0:
256,192,46770,1,8,0:0:0:0:
256,192,46885,1,8,0:0:0:0:
256,192,47116,1,0,0:0:0:0:
256,192,47231,1,0,0:0:0:0:
256,192,47462,1,0,0:0:0:0:
256,192,47578,1,8,0:0:0:0:
256,192,48039,1,0,0:0:0:0:
256,192,48155,1,8,0:0:0:0:
256,192,48270,1,0,0:0:0:0:
256,192,48385,1,0,0:0:0:0:
256,192,48501,1,8,0:0:0:0:
256,192,48962,1,0,0:0:0:0:
256,192,49308,1,0,0:0:0:0:
256,192,49424,1,8,0:0:0:0:
256,192,49539,1,0,0:0:0:0:
256,192,49655,1,8,0:0:0:0:
256,192,49770,1,8,0:0:0:0:
256,192,49885,1,0,0:0:0:0:
256,192,50116,1,0,0:0:0:0:
256,192,50347,1,8,0:0:0:0:
256,192,50462,1,8,0:0:0:0:
256,192,50578,1,8,0:0:0:0:
256,192,50693,1,8,0:0:0:0:
256,192,50808,1,0,0:0:0:0:
256,192,51039,1,8,0:0:0:0:
256,192,51155,1,0,0:0:0:0:
256,192,51270,1,8,0:0:0:0:
256,192,51501,1,0,0:0:0:0:
256,192,51731,1,8,0:0:0:0:
256,192,51847,1,8,0:0:0:0:
256,192,51962,1,0,0:0:0:0:
256,192,52078,1,8,0:0:0:0:
256,192,52193,1,0,0:0:0:0:
256,192,52308,1,0,0:0:0:0:
256,192,52424,1,8,0:0:0:0:
256,192,52655,1,0,0:0:0:0:
256,192,52770,1,8,0:0:0:0:
256,192,53001,1,8,0:0:0:0:
256,192,53116,1,0,0:0:0:0:
256,192,53231,1,0,0:0:0:0:
256,192,53347,1,8,0:0:0:0:
256,192,53578,1,0,0:0:0:0:
256,192,53808,1,8,0:0:0:0:
256,192,54039,1,8,0:0:0:0:
256,192,54155,1,0,0:0:0:0:
256,192,54270,1,8,0:0:0:0:
256,192,54385,1,8,0:0:0:0:
256,192,54501,1,0,0:0:0:0:
256,192,54847,1,8,0:0:0:0:
256,192,54962,1,0,0:0:0:0:
256,192,55078,1,8,0:0:0:0:
256,192,55308,1,8,0:0:0:0:
256,192,55424,1,0,0:0:0:0:
256,192,55539,1,0,0:0:0:0:
256,192,55655,1,8,0:0:0:0:
256,192,55770,1,0,0:0:0:0:
256,192,55885,1,8,0:0:0:0:
256,192,56116,1,8,0:0:0:0:
256,192,56347,1,0,0:0:0:0:
256,192,56462,1,8,0:0:0:0:
256,192,56578,1,8,0:0:0:0:
256,192,56693,1,8,0:0:0:0:
256,192,56924,1,8,0:0:0:0:
256,192,57039,1,0,0:0:0:0:
256,192,57155,1,8,0:0:0:0:
256,192,57270,1,0,0:0:0:0:
256,192,57501,1,8,0:0:0:0:
256,192,57616,1,8,0:0:0:0:
256,192,57731,1,0,0:0:0:0:
256,192,57962,1,8,0:0:0:0:
256,192,58193,1,0,0:0:0:0:
256,192,58424,1,8,0:0:0:0:
256,192,58539,1,0,0:0:0:0:
256,192,58655,1,0,0:0:0:0:
256,192,58770,1,8,0:0:0:0:
256,192,58885,1,8,0:0:0:0:
256,192,59116,1,0,0:0:0:0:
256,192,59347,1,8,0:0:0:0:
256,192,59578,1,8,0:0:0:0:
256,192,59693,1,8,0:0:0:0:
256,192,59808,1,0,0:0:0:0:
256,192,60039,1,0,0:0:0:0:
256,192,60155,1,0,0:0:0:0:
256,192,60385,1,8,0:0:0:0:
256,192,60501,1,0,0:0:0:0:
256,192,60616,1,8,0:0:0:0:
256,192,60731,1,8,0:0:0:0:
256,192,60962,1,0,0:0:0:0:
256,192,61193,1,8,0:0:0:0:
256,192,61308,1,0,0:0:0:0:
256,192,61424,1,8,0:0:0:0:
256,192,61597,1,8,0:0:0:0:
256,192,61770,1,8,0:0:0:0:
256,192,61885,1,0,0:0:0:0:
256,192,62231,1,8,0:0:0:0:
256,192,62347,1,0,0:0:0:0:
256,192,62578,1,8,0:0:0:0:
256,192,62808,1,0,0:0:0:0:
256,192,62924,1,0,0:0:0:0:
256,192,63039,1,8,0:0:0:0:
256,192,63270,1,8,0:0:0:0:
256,192,63731,1,0,0:0:0:0:
256,192,63962,1,0,0:0:0:0:
256,192,64193,1,8,0:0:0:0:
256,192,64424,1,0,0:0:0:0:
256,192,64539,1,8,0:0:0:0:
256,192,64770,1,8,0:0:0:0:
256,192,64885,1,0,0:0:0:0:
256,192,65116,1,8,0:0:0:0:
256,192,65347,1,8,0:0:0:0:
256,192,65578,1,4,0:0:0:0:
256,192,65808,1,8,0:0:0:0:
256,192,65924,1,8,0:0:0:0:
256,192,66039,1,0,0:0:0:0:
256,192,66155,1,0,0:0:0:0:
256,192,66270,1,8,0:0:0:0:
256,192,66501,1,0,0:0:0:0:
256,192,66616,1,8,0:0:0:0:
256,192,66731,1,0,0:0:0:0:
256,192,66847,1,0,0:0:0:0:
256,192,66962,1,8,0:0:0:0:
256,192,67193,1,8,0:0:0:0:
256,192,67424,1,0,0:0:0:0:
256,192,67539,1,0,0:0:0:0:
256,192,67655,1,8,0:0:0:0:
256,192,67770,1,0,0:0:0:0:
256,192,67885,1,0,0:0:0:0:
256,192,68116,1,8,0:0:0:0:
256,192,68347,1,0,0:0:0:0:
256,192,68462,1,0,0:0:0:0:
256,192,68578,1,8,0:0:0:0:
256,192,68693,1,8,0:0:0:0:
256,192,68808,1,0,0:0:0:0:
256,192,69039,1,8,0:0:0:0:
256,192,69270,1,0,0:0:0:0:
256,192,69385,1,0,0:0:0:0:
256,192,69616,1,8,0:0:0:0:
256,192,69731,1,0,0:0:0:0:
256,192,69962,1,8,0:0:0:0:
256,192,70078,1,8,0:0:0:0:
256,192,70193,1,0,0:0:0:0:
256,192,70308,1,8,0:0:0:0:
256,192,70424,1,0,0:0:0:0:
256,192,70655,1,8,0:0:0:0:
256,192,70770,1,8,0:0:0:0:
256,192,70885,1,8,0:0:0:0:
256,192,71001,1,8,0:0:0:0:
256,192,71116,1,0,0:0:0:0:
256,192,71462,1,8,0:0:0:0:
256,192,71578,1,0,0:0:0:0:
256,192,71808,1,8,0:0:0:0:
256,192,72039,1,0,0:0:0:0:
256,192,72155,1,8,0:0:0:0:
256,192,72270,1,0,0:0:0:0:
256,192,72385,1,0,0:0:0:0:
256,192,72501,1,8,0:0:0:0:
256,192,72731,1,8,0:0:0:0:
256,192,72962,1,0,0:0:0:0:
256,192,73078,1,0,0:0:0:0:
256,192,73193,1,0,0:0:0:0:
256,192,73424,1,8,0:0:0:0:
256,192,73655,1,0,0:0:0:0:
256,192,73885,1,0,0:0:0:0:
256,192,74001,1,8,0:0:0:0:
256,192,74116,1,0,0:0:0:0:
256,192,74347,1,8,0:0:0:0:
256,192,74578,1,8,0:0:0:0:
256,192,74808,1,4,0:0:0:0:
256,192,75962,1,8,0:0:0:0:
256,192,76078,1,8,0:0:0:0:
256,192,76193,1,8,0:0:0:0:
256,192,76424,1,8,0:0:0:0:
256,192,76655,1,0,0:0:0:0:
256,192,76885,1,0,0:0:0:0:
256,192,77001,1,0,0:0:0:0:
256,192,77116,1,8,0:0:0:0:
256,192,77347,1,0,0:0:0:0:
256,192,77462,1,8,0:0:0:0:
256,192,77693,1,8,0:0:0:0:
256,192,77808,1,0,0:0:0:0:
256,192,78039,1,8,0:0:0:0:
256,192,78270,1,8,0:0:0:0:
256,192,78501,1,4,0:0:0:0:
256,192,80347,1,4,0:0:0:0:
256,192,80693,1,0,0:0:0:0:
256,192,80808,1,8,0:0:0:0:
256,192,81039,1,0,0:0:0:0:
256,192,81500,1,0,0:0:0:0:
256,192,81616,1,0,0:0:0:0:
256,192,81731,1,8,0:0:0:0:
256,192,81962,1,0,0:0:0:0:
256,192,82077,1,0,0:0:0:0:
256,192,82423,1,8,0:0:0:0:
256,192,82539,1,0,0:0:0:0:
256,192,82885,1,8,0:0:0:0:
256,192,83116,1,0,0:0:0:0:
256,192,83347,1,0,0:0:0:0:
256,192,83462,1,0,0:0:0:0:
256,192,83577,1,8,0:0:0:0:
256,192,83808,1,8,0:0:0:0:
256,192,84039,1,0,0:0:0:0:
256,192,84154,1,0,0:0:0:0:
256,192,84270,1,0,0:0:0:0:
256,192,84385,1,0,0:0:0:0:
256,192,84500,1,8,0:0:0:0:
256,192,84731,1,0,0:0:0:0:
256,192,84962,1,0,0:0:0:0:
256,192,85077,1,0,0:0:0:0:
256,192,85193,1,0,0:0:0:0:
256,192,85308,1,0,0:0:0:0:
256,192,85423,1,8,0:0:0:0:
256,192,85539,1,8,0:0:0:0:
256,192,85654,1,8,0:0:0:0:
256,192,85770,1,8,0:0:0:0:
256,192,85885,1,0,0:0:0:0:
256,192,86231,1,0,0:0:0:0:
256,192,86347,1,8,0:0:0:0:
256,192,86577,1,8,0:0:0:0:
256,192,86693,1,8,0:0:0:0:
256,192,86808,1,0,0:0:0:0:
256,192,87039,1,8,0:0:0:0:
256,192,87154,1,0,0:0:0:0:
256,192,87270,1,8,0:0:0:0:
256,192,87385,1,8,0:0:0:0:
256,192,87500,1,8,0:0:0:0:
256,192,87731,1,4,0:0:0:0:
256,192,87962,1,8,0:0:0:0:
256,192,88077,1,8,0:0:0:0:
256,192,88193,1,0,0:0:0:0:
256,192,88423,1,8,0:0:0:0:
256,192,88654,1,0,0:0:0:0:
256,192,88731,1,0,0:0:0:0:
256,192,88808,1,0,0:0:0:0:
256,192,88885,1,8,0:0:0:0:
256,192,89000,1,0,0:0:0:0:
256,192,89116,1,8,0:0:0:0:
256,192,89231,1,0,0:0:0:0:
256,192,89347,1,8,0:0:0:0:
256,192,89577,1,0,0:0:0:0:
256,192,89808,1,8,0:0:0:0:
256,192,89923,1,8,0:0:0:0:
256,192,90039,1,0,0:0:0:0:
256,192,90270,1,8,0:0:0:0:
256,192,90500,1,0,0:0:0:0:
256,192,90577,1,0,0:0:0:0:
256,192,90654,1,0,0:0:0:0:
256,192,90731,1,8,0:0:0:0:
256,192,90847,1,0,0:0:0:0:
256,192,90962,1,8,0:0:0:0:
256,192,91077,1,8,0:0:0:0:
256,192,91193,1,8,0:0:0:0:
256,192,91423,1,0,0:0:0:0:
256,192,91539,1,8,0:0:0:0:
256,192,91654,1,0,0:0:0:0:
256,192,91770,1,0,0:0:0:0:
256,192,91885,1,8,0:0:0:0:
256,192,91962,1,0,0:0:0:0:
256,192,92039,1,0,0:0:0:0:
256,192,92116,1,8,0:0:0:0:
256,192,92347,1,0,0:0:0:0:
256,192,92423,1,0,0:0:0:0:
256,192,92500,1,0,0:0:0:0:
256,192,92577,1,8,0:0:0:0:
256,192,92693,1,0,0:0:0:0:
256,192,92808,1,8,0:0:0:0:
256,192,92923,1,8,0:0:0:0:
256,192,93039,1,8,0:0:0:0:
256,192,93154,1,8,0:0:0:0:
256,192,93270,1,0,0:0:0:0:
256,192,93385,1,8,0:0:0:0:
256,192,93500,1,0,0:0:0:0:
256,192,93616,1,0,0:0:0:0:
256,192,93731,1,8,0:0:0:0:
256,192,93808,1,0,0:0:0:0:
256,192,93885,1,0,0:0:0:0:
256,192,93962,1,8,0:0:0:0:
256,192,94193,1,0,0:0:0:0:
256,192,94270,1,0,0:0:0:0:
256,192,94347,1,0,0:0:0:0:
256,192,94423,1,8,0:0:0:0:
256,192,94539,1,0,0:0:0:0:
256,192,94654,1,8,0:0:0:0:
256,192,94770,1,8,0:0:0:0:
256,192,94885,1,8,0:0:0:0:
256,192,95000,1,8,0:0:0:0:
256,192,95116,1,0,0:0:0:0:
256,192,98808,5,0,0:0:0:0:
256,192,102500,5,0,0:0:0:0:
256,192,104347,1,0,0:0:0:0:
256,192,106193,1,0,0:0:0:0:
256,192,107116,1,0,0:0:0:0:
256,192,108039,1,0,0:0:0:0:
256,192,108500,1,0,0:0:0:0:
256,192,108962,1,0,0:0:0:0:
256,192,109193,1,0,0:0:0:0:
256,192,109423,1,0,0:0:0:0:
256,192,109539,1,0,0:0:0:0:
256,192,109654,1,0,0:0:0:0:
256,192,109770,1,0,0:0:0:0:
256,192,109885,1,8,0:0:0:0:
256,192,111731,1,0,0:0:0:0:
256,192,111961,1,0,0:0:0:0:
256,192,112077,1,0,0:0:0:0:
256,192,112192,1,8,0:0:0:0:
256,192,112423,1,0,0:0:0:0:
256,192,112538,1,8,0:0:0:0:
256,192,112769,1,8,0:0:0:0:
256,192,112884,1,0,0:0:0:0:
256,192,113115,1,8,0:0:0:0:
256,192,113346,1,8,0:0:0:0:
256,192,113577,1,4,0:0:0:0:
256,192,113807,1,8,0:0:0:0:
256,192,113923,1,8,0:0:0:0:
256,192,114038,1,0,0:0:0:0:
256,192,114154,1,0,0:0:0:0:
256,192,114269,1,8,0:0:0:0:
256,192,114500,1,0,0:0:0:0:
256,192,114615,1,8,0:0:0:0:
256,192,114731,1,0,0:0:0:0:
256,192,114846,1,0,0:0:0:0:
256,192,114961,1,8,0:0:0:0:
256,192,115077,1,0,0:0:0:0:
256,192,115192,1,8,0:0:0:0:
256,192,115423,1,0,0:0:0:0:
256,192,115538,1,0,0:0:0:0:
256,192,115654,1,8,0:0:0:0:
256,192,115769,1,0,0:0:0:0:
256,192,115884,1,0,0:0:0:0:
256,192,116115,1,8,0:0:0:0:
256,192,116346,1,0,0:0:0:0:
256,192,116461,1,0,0:0:0:0:
256,192,116577,1,8,0:0:0:0:
256,192,116692,1,8,0:0:0:0:
256,192,116807,1,0,0:0:0:0:
256,192,116923,1,0,0:0:0:0:
256,192,117038,1,8,0:0:0:0:
256,192,117269,1,0,0:0:0:0:
256,192,117384,1,0,0:0:0:0:
256,192,117615,1,8,0:0:0:0:
256,192,117731,1,0,0:0:0:0:
256,192,117961,1,8,0:0:0:0:
256,192,118077,1,8,0:0:0:0:
256,192,118192,1,0,0:0:0:0:
256,192,118307,1,8,0:0:0:0:
256,192,118423,1,0,0:0:0:0:
256,192,118654,1,8,0:0:0:0:
256,192,118731,1,8,0:0:0:0:
256,192,118807,1,8,0:0:0:0:
256,192,118884,1,8,0:0:0:0:
256,192,118961,1,8,0:0:0:0:
256,192,119038,1,8,0:0:0:0:
256,192,119115,1,0,0:0:0:0:
256,192,119461,1,8,0:0:0:0:
256,192,119577,1,0,0:0:0:0:
256,192,119807,1,8,0:0:0:0:
256,192,120038,1,0,0:0:0:0:
256,192,120154,1,8,0:0:0:0:
256,192,120269,1,0,0:0:0:0:
256,192,120384,1,0,0:0:0:0:
256,192,120500,1,8,0:0:0:0:
256,192,120731,1,8,0:0:0:0:
256,192,120961,1,0,0:0:0:0:
256,192,121077,1,0,0:0:0:0:
256,192,121192,1,0,0:0:0:0:
256,192,121423,1,8,0:0:0:0:
256,192,121654,1,0,0:0:0:0:
256,192,121884,1,0,0:0:0:0:
256,192,122000,1,8,0:0:0:0:
256,192,122115,1,0,0:0:0:0:
256,192,122346,1,8,0:0:0:0:
256,192,122577,1,8,0:0:0:0:
256,192,122807,1,4,0:0:0:0:
256,192,123961,1,8,0:0:0:0:
256,192,124077,1,8,0:0:0:0:
256,192,124192,1,8,0:0:0:0:
256,192,124423,1,8,0:0:0:0:
256,192,124654,1,0,0:0:0:0:
256,192,124884,1,0,0:0:0:0:
256,192,125000,1,0,0:0:0:0:
256,192,125115,1,8,0:0:0:0:
256,192,125346,1,0,0:0:0:0:
256,192,125461,1,8,0:0:0:0:
256,192,125692,1,8,0:0:0:0:
256,192,125807,1,0,0:0:0:0:
256,192,126038,1,0,0:0:0:0:
256,192,126154,1,0,0:0:0:0:
256,192,126269,1,8,0:0:0:0:
256,192,126384,1,8,0:0:0:0:
256,192,126500,1,0,0:0:0:0:
256,192,126846,1,0,0:0:0:0:
256,192,126961,1,8,0:0:0:0:
256,192,127077,1,0,0:0:0:0:
256,192,127192,1,8,0:0:0:0:
256,192,127307,1,8,0:0:0:0:
256,192,127423,1,0,0:0:0:0:
256,192,127654,1,0,0:0:0:0:
256,192,127884,1,8,0:0:0:0:
256,192,128000,1,8,0:0:0:0:
256,192,128115,1,8,0:0:0:0:
256,192,128231,1,8,0:0:0:0:
256,192,128346,1,0,0:0:0:0:
256,192,128577,1,8,0:0:0:0:
256,192,128692,1,0,0:0:0:0:
256,192,128807,1,8,0:0:0:0:
256,192,129038,1,0,0:0:0:0:
256,192,129269,1,8,0:0:0:0:
256,192,129384,1,8,0:0:0:0:
256,192,129500,1,0,0:0:0:0:
256,192,129615,1,8,0:0:0:0:
256,192,129731,1,0,0:0:0:0:
256,192,129846,1,0,0:0:0:0:
256,192,129961,1,8,0:0:0:0:
256,192,130192,1,0,0:0:0:0:
256,192,130307,1,8,0:0:0:0:
256,192,130538,1,8,0:0:0:0:
256,192,130654,1,0,0:0:0:0:
256,192,130769,1,0,0:0:0:0:
256,192,130884,1,8,0:0:0:0:
256,192,131115,1,0,0:0:0:0:
256,192,131346,1,8,0:0:0:0:
256,192,131577,1,8,0:0:0:0:
256,192,131692,1,0,0:0:0:0:
256,192,131807,1,8,0:0:0:0:
256,192,131923,1,8,0:0:0:0:
256,192,132038,1,0,0:0:0:0:
256,192,132384,1,8,0:0:0:0:
256,192,132500,1,0,0:0:0:0:
256,192,132615,1,8,0:0:0:0:
256,192,132846,1,8,0:0:0:0:
256,192,132961,1,0,0:0:0:0:
256,192,133077,1,0,0:0:0:0:
256,192,133192,1,8,0:0:0:0:
256,192,133307,1,0,0:0:0:0:
256,192,133423,1,8,0:0:0:0:
256,192,133654,1,8,0:0:0:0:
256,192,133884,1,0,0:0:0:0:
256,192,134000,1,8,0:0:0:0:
256,192,134115,1,8,0:0:0:0:
256,192,134231,1,8,0:0:0:0:
256,192,134461,1,8,0:0:0:0:
256,192,134577,1,0,0:0:0:0:
256,192,134692,1,8,0:0:0:0:
256,192,134807,1,0,0:0:0:0:
256,192,135038,1,8,0:0:0:0:
256,192,135154,1,8,0:0:0:0:
256,192,135269,1,0,0:0:0:0:
256,192,135500,1,8,0:0:0:0:
256,192,135731,1,0,0:0:0:0:
256,192,135961,1,8,0:0:0:0:
256,192,136077,1,0,0:0:0:0:
256,192,136192,1,0,0:0:0:0:
256,192,136307,1,8,0:0:0:0:
256,192,136423,1,8,0:0:0:0:
256,192,136654,1,0,0:0:0:0:
256,192,136884,1,8,0:0:0:0:
256,192,137115,1,8,0:0:0:0:
256,192,137231,1,8,0:0:0:0:
256,192,137346,1,0,0:0:0:0:
256,192,137577,1,0,0:0:0:0:
256,192,137692,1,0,0:0:0:0:
256,192,137923,1,8,0:0:0:0:
256,192,138038,1,0,0:0:0:0:
256,192,138154,1,8,0:0:0:0:
256,192,138269,1,8,0:0:0:0:
256,192,138500,1,0,0:0:0:0:
256,192,138731,1,8,0:0:0:0:
256,192,138846,1,0,0:0:0:0:
256,192,138961,1,8,0:0:0:0:
256,192,139134,1,8,0:0:0:0:
256,192,139307,1,8,0:0:0:0:
256,192,139423,1,0,0:0:0:0:
256,192,139769,1,8,0:0:0:0:
256,192,139884,1,0,0:0:0:0:
256,192,140115,1,8,0:0:0:0:
256,192,140346,1,0,0:0:0:0:
256,192,140461,1,0,0:0:0:0:
256,192,140577,1,8,0:0:0:0:
256,192,140807,1,8,0:0:0:0:
256,192,141269,1,0,0:0:0:0:
256,192,141500,1,0,0:0:0:0:
256,192,141731,1,8,0:0:0:0:
256,192,141961,1,0,0:0:0:0:
256,192,142077,1,8,0:0:0:0:
256,192,142307,1,8,0:0:0:0:
256,192,142423,1,0,0:0:0:0:
256,192,142654,1,8,0:0:0:0:
256,192,142884,1,8,0:0:0:0:
256,192,143115,1,4,0:0:0:0:
256,192,143346,1,8,0:0:0:0:
256,192,143461,1,8,0:0:0:0:
256,192,143577,1,0,0:0:0:0:
256,192,143692,1,0,0:0:0:0:
256,192,143807,1,8,0:0:0:0:
256,192,144038,1,0,0:0:0:0:
256,192,144154,1,8,0:0:0:0:
256,192,144269,1,0,0:0:0:0:
256,192,144384,1,0,0:0:0:0:
256,192,144500,1,8,0:0:0:0:
256,192,144731,1,8,0:0:0:0:
256,192,144961,1,0,0:0:0:0:
256,192,145077,1,0,0:0:0:0:
256,192,145192,1,8,0:0:0:0:
256,192,145307,1,0,0:0:0:0:
256,192,145423,1,0,0:0:0:0:
256,192,145654,1,8,0:0:0:0:
256,192,145884,1,0,0:0:0:0:
256,192,146000,1,0,0:0:0:0:
256,192,146115,1,8,0:0:0:0:
256,192,146231,1,8,0:0:0:0:
256,192,146346,1,0,0:0:0:0:
256,192,146577,1,8,0:0:0:0:
256,192,146807,1,0,0:0:0:0:
256,192,146923,1,0,0:0:0:0:
256,192,147154,1,8,0:0:0:0:
256,192,147269,1,0,0:0:0:0:
256,192,147500,1,8,0:0:0:0:
256,192,147615,1,8,0:0:0:0:
256,192,147731,1,0,0:0:0:0:
256,192,147846,1,8,0:0:0:0:
256,192,147961,1,0,0:0:0:0:
256,192,148192,1,8,0:0:0:0:
256,192,148307,1,8,0:0:0:0:
256,192,148423,1,8,0:0:0:0:
256,192,148538,1,8,0:0:0:0:
256,192,148654,1,0,0:0:0:0:
256,192,149000,1,8,0:0:0:0:
256,192,149115,1,0,0:0:0:0:
256,192,149346,1,8,0:0:0:0:
256,192,149577,1,0,0:0:0:0:
256,192,149692,1,8,0:0:0:0:
256,192,149807,1,0,0:0:0:0:
256,192,149923,1,0,0:0:0:0:
256,192,150038,1,8,0:0:0:0:
256,192,150269,1,8,0:0:0:0:
256,192,150500,1,0,0:0:0:0:
256,192,150615,1,0,0:0:0:0:
256,192,150731,1,0,0:0:0:0:
256,192,150961,1,8,0:0:0:0:
256,192,151192,1,0,0:0:0:0:
256,192,151423,1,0,0:0:0:0:
256,192,151538,1,8,0:0:0:0:
256,192,151654,1,0,0:0:0:0:
256,192,151884,1,8,0:0:0:0:
256,192,152115,1,8,0:0:0:0:
256,192,152346,1,4,0:0:0:0:
256,192,153500,1,8,0:0:0:0:
256,192,153615,1,8,0:0:0:0:
256,192,153731,1,8,0:0:0:0:
256,192,153961,1,8,0:0:0:0:
256,192,154192,1,0,0:0:0:0:
256,192,154423,1,0,0:0:0:0:
256,192,154538,1,0,0:0:0:0:
256,192,154654,1,8,0:0:0:0:
256,192,154884,1,0,0:0:0:0:
256,192,155000,1,8,0:0:0:0:
256,192,155231,1,8,0:0:0:0:
256,192,155346,1,0,0:0:0:0:
256,192,155577,1,8,0:0:0:0:
256,192,155807,1,8,0:0:0:0:
256,192,156038,1,4,0:0:0:0:
256,192,156384,1,4,0:0:0:0:
256,192,156731,1,4,0:0:0:0:
256,192,157307,1,8,0:0:0:0:
256,192,157423,1,0,0:0:0:0:
256,192,157538,1,0,0:0:0:0:
256,192,157654,1,0,0:0:0:0:
256,192,157884,1,12,0:0:0:0:
