osu file format v14

[General]
AudioFilename: audio.mp3
AudioLeadIn: 0
PreviewTime: 281
Countdown: 1
SampleSet: Soft
StackLeniency: 0.7
Mode: 1
LetterboxInBreaks: 0
WidescreenStoryboard: 1

[Editor]
DistanceSpacing: 0.8
BeatDivisor: 4
GridSize: 32
TimelineZoom: 0.9999999

[Metadata]
Title:Paranoid Android
TitleUnicode:Paranoid Android
Artist:Radiohead
ArtistUnicode:Radiohead
Creator:DukeDukeDura
Version:Rain down on mya
Source:
Tags:
BeatmapID:1906789
BeatmapSetID:912747

[Difficulty]
HPDrainRate:5
CircleSize:5
OverallDifficulty:5
ApproachRate:5
SliderMultiplier:1.4
SliderTickRate:1

[Events]
//Background and Video events
0,0,"bg.jpg",0,0
//Break Periods
//Storyboard Layer 0 (Background)
//Storyboard Layer 1 (Fail)
//Storyboard Layer 2 (Pass)
//Storyboard Layer 3 (Foreground)
//Storyboard Sound Samples

[TimingPoints]
648,366.580113028868,8,2,0,80,1,0
117953,366.580113028868,8,2,0,80,1,0
129683,366.580113028868,7,2,0,80,1,0
137381,366.580113028868,8,2,0,80,1,0
140313,366.580113028868,8,2,0,80,1,0
152043,366.580113028868,7,2,0,80,1,0
159741,366.580113028868,8,2,0,80,1,0
162673,366.580113028868,8,2,0,80,1,0
168538,366.580113028868,8,2,0,80,1,0
171470,366.580113028868,8,2,0,80,1,0
174402,366.580113028868,7,2,0,80,1,0
182100,366.580113028868,8,2,0,80,1,0
185032,366.580113028868,8,2,0,80,1,0
190897,366.580113028868,8,2,0,80,1,0
196762,366.580113028868,7,2,0,80,1,0
204460,366.580113028868,8,2,0,80,1,0
207392,419.477750201,8,2,0,80,1,0
214103,477.118206035545,8,2,0,80,1,0
336245,375,8,2,0,80,1,0
336245,-120.481927710843,8,2,0,80,0,0
338870,-97.0873786407767,8,2,0,80,0,0
339245,363.636363636364,8,2,0,80,1,0
339245,-101.010101010101,8,2,0,80,0,0
345063,368.098159509202,8,2,0,80,1,0
348007,364.741641337386,7,2,0,80,1,0
348007,-101.010101010101,7,2,0,80,0,0
350560,370.37037037037,7,2,0,80,1,0
350560,-99.009900990099,7,2,0,80,0,0
353152,362.537764350453,7,2,0,80,1,0
353152,-101.010101010101,7,2,0,80,0,0
355689,365.853658536585,8,2,0,80,1,0
355689,-101.010101010101,7,2,0,80,0,0
358615,368.098159509202,8,2,0,80,1,0
358615,-99.009900990099,7,2,0,80,0,0
370394,362.537764350453,7,2,0,80,1,0
370394,-102.040816326531,7,2,0,80,0,0

[HitObjects]
256,192,648,5,0,0:0:0:0:
256,192,1014,1,0,0:0:0:0:
256,192,1197,1,8,0:0:0:0:
256,192,1564,1,8,0:0:0:0:
256,192,1931,1,8,0:0:0:0:
256,192,2114,1,0,0:0:0:0:
256,192,2297,1,0,0:0:0:0:
256,192,2480,1,0,0:0:0:0:
256,192,2664,1,8,0:0:0:0:
256,192,3030,1,8,0:0:0:0:
256,192,3397,1,8,0:0:0:0:
256,192,3580,1,0,0:0:0:0:
256,192,3947,1,0,0:0:0:0:
256,192,4130,1,8,0:0:0:0:
256,192,4497,1,0,0:0:0:0:
256,192,4863,1,0,0:0:0:0:
256,192,5046,1,8,0:0:0:0:
256,192,5230,1,8,0:0:0:0:
256,192,5413,1,0,0:0:0:0:
256,192,5596,1,8,0:0:0:0:
256,192,5963,1,8,0:0:0:0:
256,192,6329,1,8,0:0:0:0:
256,192,6513,1,0,0:0:0:0:
256,192,6879,1,0,0:0:0:0:
256,192,7063,1,8,0:0:0:0:
256,192,7246,1,8,0:0:0:0:
256,192,7429,1,0,0:0:0:0:
256,192,7796,1,8,0:0:0:0:
256,192,7979,1,0,0:0:0:0:
256,192,8346,1,0,0:0:0:0:
256,192,8529,1,8,0:0:0:0:
256,192,8896,1,8,0:0:0:0:
256,192,9079,1,8,0:0:0:0:
256,192,9262,1,0,0:0:0:0:
256,192,9445,1,8,0:0:0:0:
256,192,9812,1,0,0:0:0:0:
256,192,10179,1,8,0:0:0:0:
256,192,10362,1,8,0:0:0:0:
256,192,10545,1,0,0:0:0:0:
256,192,10912,1,0,0:0:0:0:
256,192,11095,1,8,0:0:0:0:
256,192,11278,1,0,0:0:0:0:
256,192,11462,1,0,0:0:0:0:
256,192,11645,1,8,0:0:0:0:
256,192,12011,1,8,0:0:0:0:
256,192,12378,1,0,0:0:0:0:
256,192,12745,1,0,0:0:0:0:
256,192,12928,1,8,0:0:0:0:
256,192,13295,1,0,0:0:0:0:
256,192,13661,1,0,0:0:0:0:
256,192,13844,1,8,0:0:0:0:
256,192,14028,1,8,0:0:0:0:
256,192,14211,1,0,0:0:0:0:
256,192,14394,1,8,0:0:0:0:
256,192,14761,1,8,0:0:0:0:
256,192,14944,1,0,0:0:0:0:
256,192,15127,1,8,0:0:0:0:
256,192,15311,1,0,0:0:0:0:
256,192,15677,1,0,0:0:0:0:
256,192,15861,1,8,0:0:0:0:
256,192,16044,1,8,0:0:0:0:
256,192,16227,1,8,0:0:0:0:
256,192,16410,1,0,0:0:0:0:
256,192,16777,1,0,0:0:0:0:
256,192,17144,1,8,0:0:0:0:
256,192,17327,1,0,0:0:0:0:
256,192,17510,1,0,0:0:0:0:
256,192,17877,1,8,0:0:0:0:
256,192,18243,1,0,0:0:0:0:
256,192,18977,1,8,0:0:0:0:
256,192,19160,1,0,0:0:0:0:
256,192,19343,1,8,0:0:0:0:
256,192,19435,1,8,0:0:0:0:
256,192,19526,1,0,0:0:0:0:
261,192,19618,1,0,0:0:0:0:
256,192,19710,1,8,0:0:0:0:
256,192,19893,1,0,0:0:0:0:
256,192,20076,1,0,0:0:0:0:
256,192,20168,1,8,0:0:0:0:
256,192,20260,1,0,0:0:0:0:
256,192,20443,1,8,0:0:0:0:
256,192,20718,1,0,0:0:0:0:
256,192,20809,1,8,0:0:0:0:
256,192,20901,1,8,0:0:0:0:
256,192,20993,1,8,0:0:0:0:
256,192,21084,1,8,0:0:0:0:
256,192,21176,1,0,0:0:0:0:
256,192,21451,1,0,0:0:0:0:
256,192,21543,1,8,0:0:0:0:
256,192,21726,1,8,0:0:0:0:
256,192,21909,1,8,0:0:0:0:
256,192,22092,1,0,0:0:0:0:
256,192,22276,1,8,0:0:0:0:
256,192,22367,1,0,0:0:0:0:
256,192,22551,1,0,0:0:0:0:
256,192,22642,1,8,0:0:0:0:
256,192,22734,1,8,0:0:0:0:
256,192,22826,1,0,0:0:0:0:
256,192,23009,1,8,0:0:0:0:
256,192,23192,1,8,0:0:0:0:
256,192,23284,1,0,0:0:0:0:
256,192,23375,1,0,0:0:0:0:
256,192,23467,1,0,0:0:0:0:
256,192,23559,1,8,0:0:0:0:
256,192,23742,1,8,0:0:0:0:
256,192,23834,1,8,0:0:0:0:
256,192,23925,1,0,0:0:0:0:
256,192,24017,1,8,0:0:0:0:
256,192,24109,1,8,0:0:0:0:
256,192,24200,1,8,0:0:0:0:
256,192,24292,1,0,0:0:0:0:
256,192,24475,1,0,0:0:0:0:
256,192,24567,1,0,0:0:0:0:
256,192,24658,1,0,0:0:0:0:
256,192,24750,1,0,0:0:0:0:
256,192,24842,1,8,0:0:0:0:
256,192,24933,1,8,0:0:0:0:
256,192,25025,1,8,0:0:0:0:
256,192,25208,1,8,0:0:0:0:
256,192,25300,1,0,0:0:0:0:
256,192,25392,1,0,0:0:0:0:
256,192,25483,1,0,0:0:0:0:
256,192,25575,1,8,0:0:0:0:
256,192,25758,1,0,0:0:0:0:
256,192,25942,1,8,0:0:0:0:
256,192,26033,1,8,0:0:0:0:
256,192,26125,1,8,0:0:0:0:
256,192,26216,1,8,0:0:0:0:
256,192,26308,1,0,0:0:0:0:
256,192,26400,1,0,0:0:0:0:
256,192,26491,1,8,0:0:0:0:
256,192,26675,1,0,0:0:0:0:
256,192,26858,1,8,0:0:0:0:
256,192,27041,1,0,0:0:0:0:
256,192,27408,1,0,0:0:0:0:
256,192,27591,1,8,0:0:0:0:
256,192,27774,1,0,0:0:0:0:
256,192,27958,1,0,0:0:0:0:
256,192,28141,1,8,0:0:0:0:
256,192,28508,1,0,0:0:0:0:
256,192,28691,1,8,0:0:0:0:
256,192,28874,1,0,0:0:0:0:
256,192,29241,1,8,0:0:0:0:
256,192,29424,1,0,0:0:0:0:
256,192,29607,1,8,0:0:0:0:
256,192,29974,1,0,0:0:0:0:
256,192,30340,1,0,0:0:0:0:
256,192,30524,1,8,0:0:0:0:
256,192,30890,1,0,0:0:0:0:
256,192,31257,1,8,0:0:0:0:
256,192,31440,1,0,0:0:0:0:
256,192,31624,1,0,0:0:0:0:
256,192,31807,1,0,0:0:0:0:
256,192,31990,1,8,0:0:0:0:
256,192,32357,1,8,0:0:0:0:
256,192,32540,1,0,0:0:0:0:
256,192,32723,1,8,0:0:0:0:
256,192,32907,1,0,0:0:0:0:
256,192,33273,1,0,0:0:0:0:
256,192,33456,1,8,0:0:0:0:
256,192,33640,1,8,0:0:0:0:
256,192,33823,1,8,0:0:0:0:
256,192,34006,1,0,0:0:0:0:
256,192,34373,1,0,0:0:0:0:
256,192,34556,1,8,0:0:0:0:
256,192,34739,1,0,0:0:0:0:
256,192,35106,1,8,0:0:0:0:
256,192,35473,1,0,0:0:0:0:
256,192,35839,1,8,0:0:0:0:
256,192,36481,1,0,0:0:0:0:
256,192,36572,1,8,0:0:0:0:
256,192,36756,1,0,0:0:0:0:
256,192,36939,1,8,0:0:0:0:
256,192,37031,1,8,0:0:0:0:
256,192,37122,1,0,0:0:0:0:
256,192,37214,1,8,0:0:0:0:
256,192,37306,1,0,0:0:0:0:
256,192,37397,1,0,0:0:0:0:
256,192,37489,1,8,0:0:0:0:
256,192,37672,1,8,0:0:0:0:
256,192,37764,1,8,0:0:0:0:
256,192,37855,1,0,0:0:0:0:
256,192,37947,1,8,0:0:0:0:
256,192,38039,1,8,0:0:0:0:
256,192,38130,1,8,0:0:0:0:
256,192,38222,1,8,0:0:0:0:
256,192,38405,1,0,0:0:0:0:
256,192,38497,1,0,0:0:0:0:
256,192,38589,1,0,0:0:0:0:
256,192,38680,1,0,0:0:0:0:
256,192,38772,1,8,0:0:0:0:
256,192,39138,1,8,0:0:0:0:
256,192,39230,1,8,0:0:0:0:
256,192,39322,1,8,0:0:0:0:
256,192,39413,1,0,0:0:0:0:
256,192,39505,1,0,0:0:0:0:
256,192,39597,1,8,0:0:0:0:
256,192,39872,1,8,0:0:0:0:
256,192,39963,1,0,0:0:0:0:
256,192,40055,1,8,0:0:0:0:
256,192,40147,1,8,0:0:0:0:
256,192,40238,1,8,0:0:0:0:
256,192,40330,1,8,0:0:0:0:
256,192,40421,1,0,0:0:0:0:
256,192,40605,1,8,0:0:0:0:
256,192,40696,1,8,0:0:0:0:
256,192,40788,1,0,0:0:0:0:
256,192,40880,1,8,0:0:0:0:
256,192,40971,1,8,0:0:0:0:
256,192,41063,1,0,0:0:0:0:
256,192,41155,1,8,0:0:0:0:
256,192,41338,1,8,0:0:0:0:
256,192,41430,1,0,0:0:0:0:
256,192,41521,1,8,0:0:0:0:
256,192,41613,1,8,0:0:0:0:
256,192,41704,1,0,0:0:0:0:
256,192,42071,1,0,0:0:0:0:
256,192,42254,1,8,0:0:0:0:
256,192,42346,1,8,0:0:0:0:
256,192,42438,1,8,0:0:0:0:
256,192,42529,1,0,0:0:0:0:
256,192,42713,1,0,0:0:0:0:
256,192,42804,1,8,0:0:0:0:
256,192,42988,1,8,0:0:0:0:
256,192,43079,1,8,0:0:0:0:
256,192,43171,1,0,0:0:0:0:
256,192,43354,1,0,0:0:0:0:
256,192,43537,1,8,0:0:0:0:
256,192,43629,1,8,0:0:0:0:
256,192,43812,1,0,0:0:0:0:
256,192,43904,1,8,0:0:0:0:
256,192,43996,1,8,0:0:0:0:
256,192,44087,1,8,0:0:0:0:
256,192,44271,1,0,0:0:0:0:
256,192,44454,1,8,0:0:0:0:
256,192,44637,1,0,0:0:0:0:
256,192,44729,1,0,0:0:0:0:
256,192,44820,1,0,0:0:0:0:
256,192,44912,1,0,0:0:0:0:
256,192,45004,1,8,0:0:0:0:
256,192,45187,1,8,0:0:0:0:
256,192,45279,1,8,0:0:0:0:
256,192,45370,1,0,0:0:0:0:
256,192,45554,1,0,0:0:0:0:
256,192,45737,1,8,0:0:0:0:
256,192,45828,1,8,0:0:0:0:
256,192,46012,1,0,0:0:0:0:
256,192,46103,1,8,0:0:0:0:
256,192,46287,1,8,0:0:0:0:
256,192,46470,1,0,0:0:0:0:
256,192,46837,1,8,0:0:0:0:
256,192,47203,1,0,0:0:0:0:
256,192,47570,1,8,0:0:0:0:
256,192,47936,1,0,0:0:0:0:
256,192,48120,1,8,0:0:0:0:
256,192,48486,1,8,0:0:0:0:
256,192,49036,1,0,0:0:0:0:
256,192,49403,1,0,0:0:0:0:
256,192,49586,1,8,0:0:0:0:
256,192,49678,1,8,0:0:0:0:
256,192,49769,1,8,0:0:0:0:
256,192,49953,1,8,0:0:0:0:
256,192,50136,1,0,0:0:0:0:
256,192,50502,1,0,0:0:0:0:
256,192,50594,1,8,0:0:0:0:
256,192,50686,1,8,0:0:0:0:
256,192,50777,1,8,0:0:0:0:
256,192,50869,1,0,0:0:0:0:
256,192,51052,1,8,0:0:0:0:
256,192,51236,1,8,0:0:0:0:
256,192,51327,1,0,0:0:0:0:
256,192,51419,1,8,0:0:0:0:
256,192,51602,1,8,0:0:0:0:
256,192,51785,1,8,0:0:0:0:
256,192,51969,1,0,0:0:0:0:
256,192,52060,1,8,0:0:0:0:
256,192,52335,1,0,0:0:0:0:
256,192,52519,1,8,0:0:0:0:
256,192,52610,1,8,0:0:0:0:
256,192,52702,1,8,0:0:0:0:
256,192,52885,1,0,0:0:0:0:
256,192,53068,1,8,0:0:0:0:
256,192,53435,1,0,0:0:0:0:
256,192,53527,1,8,0:0:0:0:
256,192,53618,1,8,0:0:0:0:
256,192,53710,1,8,0:0:0:0:
256,192,53802,1,0,0:0:0:0:
256,192,53985,1,8,0:0:0:0:
256,192,54168,1,8,0:0:0:0:
256,192,54351,1,0,0:0:0:0:
256,192,54443,1,8,0:0:0:0:
256,192,54718,1,0,0:0:0:0:
256,192,54901,1,8,0:0:0:0:
256,192,55176,1,0,0:0:0:0:
256,192,55268,1,8,0:0:0:0:
256,192,55451,1,8,0:0:0:0:
256,192,55543,1,8,0:0:0:0:
256,192,55635,1,0,0:0:0:0:
256,192,55818,1,0,0:0:0:0:
256,192,56001,1,8,0:0:0:0:
256,192,56093,1,0,0:0:0:0:
256,192,56184,1,8,0:0:0:0:
256,192,56368,1,0,0:0:0:0:
256,192,56643,1,0,0:0:0:0:
256,192,56734,1,8,0:0:0:0:
256,192,56918,1,8,0:0:0:0:
256,192,57009,1,8,0:0:0:0:
256,192,57101,1,0,0:0:0:0:
256,192,57284,1,0,0:0:0:0:
256,192,57467,1,8,0:0:0:0:
256,192,57651,1,8,0:0:0:0:
256,192,57834,1,0,0:0:0:0:
256,192,58201,1,0,0:0:0:0:
256,192,58384,1,8,0:0:0:0:
256,192,58476,1,8,0:0:0:0:
256,192,58567,1,8,0:0:0:0:
256,192,58750,1,8,0:0:0:0:
256,192,58934,1,0,0:0:0:0:
256,192,59300,1,0,0:0:0:0:
256,192,59392,1,8,0:0:0:0:
256,192,59484,1,8,0:0:0:0:
256,192,59575,1,8,0:0:0:0:
256,192,59667,1,0,0:0:0:0:
256,192,59850,1,8,0:0:0:0:
256,192,60033,1,8,0:0:0:0:
256,192,60125,1,0,0:0:0:0:
256,192,60217,1,8,0:0:0:0:
256,192,60400,1,8,0:0:0:0:
256,192,60583,1,8,0:0:0:0:
256,192,60767,1,0,0:0:0:0:
256,192,60858,1,8,0:0:0:0:
256,192,61133,1,0,0:0:0:0:
256,192,61317,1,8,0:0:0:0:
256,192,61408,1,8,0:0:0:0:
256,192,61500,1,8,0:0:0:0:
256,192,61683,1,0,0:0:0:0:
256,192,61866,1,8,0:0:0:0:
256,192,62233,1,0,0:0:0:0:
256,192,62325,1,8,0:0:0:0:
256,192,62416,1,8,0:0:0:0:
256,192,62508,1,8,0:0:0:0:
256,192,62600,1,0,0:0:0:0:
256,192,62783,1,8,0:0:0:0:
256,192,62966,1,8,0:0:0:0:
256,192,63149,1,0,0:0:0:0:
256,192,63241,1,8,0:0:0:0:
256,192,63516,1,0,0:0:0:0:
256,192,63699,1,8,0:0:0:0:
256,192,63974,1,0,0:0:0:0:
256,192,64066,1,8,0:0:0:0:
256,192,64249,1,8,0:0:0:0:
256,192,64341,1,8,0:0:0:0:
256,192,64432,1,0,0:0:0:0:
256,192,64616,1,0,0:0:0:0:
256,192,64799,1,8,0:0:0:0:
256,192,64982,1,8,0:0:0:0:
256,192,65166,1,0,0:0:0:0:
256,192,65532,1,0,0:0:0:0:
256,192,65715,1,8,0:0:0:0:
256,192,66082,1,8,0:0:0:0:
256,192,66632,1,0,0:0:0:0:
256,192,66999,1,0,0:0:0:0:
256,192,67182,1,8,0:0:0:0:
256,192,67548,1,8,0:0:0:0:
256,192,67732,1,0,0:0:0:0:
256,192,68098,1,0,0:0:0:0:
256,192,68831,1,8,0:0:0:0:
256,192,69015,1,0,0:0:0:0:
256,192,69198,1,0,0:0:0:0:
256,192,69290,1,8,0:0:0:0:
261,192,69473,1,8,0:0:0:0:
256,192,69565,1,8,0:0:0:0:
256,192,69656,1,8,0:0:0:0:
256,192,69748,1,0,0:0:0:0:
256,192,69931,1,0,0:0:0:0:
256,192,70023,1,8,0:0:0:0:
256,192,70114,1,8,0:0:0:0:
256,192,70298,1,0,0:0:0:0:
256,192,70573,1,0,0:0:0:0:
256,192,70664,1,8,0:0:0:0:
256,192,70756,1,8,0:0:0:0:
256,192,70848,1,8,0:0:0:0:
256,192,70939,1,8,0:0:0:0:
256,192,71031,1,0,0:0:0:0:
256,192,71306,1,0,0:0:0:0:
256,192,71397,1,8,0:0:0:0:
256,192,71581,1,8,0:0:0:0:
256,192,71764,1,0,0:0:0:0:
256,192,72131,1,8,0:0:0:0:
256,192,72222,1,8,0:0:0:0:
256,192,72314,1,0,0:0:0:0:
256,192,72406,1,8,0:0:0:0:
256,192,72497,1,0,0:0:0:0:
256,192,72589,1,0,0:0:0:0:
256,192,72680,1,8,0:0:0:0:
256,192,72864,1,0,0:0:0:0:
256,192,73047,1,8,0:0:0:0:
256,192,73230,1,0,0:0:0:0:
256,192,73597,1,8,0:0:0:0:
256,192,73689,1,8,0:0:0:0:
256,192,73780,1,8,0:0:0:0:
256,192,73872,1,8,0:0:0:0:
256,192,73964,1,0,0:0:0:0:
256,192,74238,1,0,0:0:0:0:
256,192,74330,1,8,0:0:0:0:
256,192,74422,1,8,0:0:0:0:
256,192,74513,1,0,0:0:0:0:
256,192,74697,1,0,0:0:0:0:
256,192,74788,1,8,0:0:0:0:
256,192,74880,1,8,0:0:0:0:
256,192,75063,1,8,0:0:0:0:
256,192,75155,1,0,0:0:0:0:
256,192,75247,1,0,0:0:0:0:
256,192,75338,1,0,0:0:0:0:
256,192,75430,1,8,0:0:0:0:
256,192,75613,1,0,0:0:0:0:
256,192,75796,1,8,0:0:0:0:
256,192,75888,1,0,0:0:0:0:
256,192,75980,1,0,0:0:0:0:
256,192,76071,1,8,0:0:0:0:
256,192,76255,1,8,0:0:0:0:
256,192,76346,1,0,0:0:0:0:
256,192,76530,1,0,0:0:0:0:
256,192,76713,1,8,0:0:0:0:
256,192,76896,1,0,0:0:0:0:
256,192,77263,1,0,0:0:0:0:
256,192,77446,1,8,0:0:0:0:
256,192,77629,1,0,0:0:0:0:
256,192,77813,1,0,0:0:0:0:
256,192,77996,1,8,0:0:0:0:
256,192,78362,1,0,0:0:0:0:
256,192,78546,1,8,0:0:0:0:
256,192,78729,1,0,0:0:0:0:
256,192,79096,1,8,0:0:0:0:
256,192,79279,1,0,0:0:0:0:
256,192,79462,1,8,0:0:0:0:
256,192,79829,1,0,0:0:0:0:
256,192,80195,1,0,0:0:0:0:
256,192,80379,1,8,0:0:0:0:
256,192,80745,1,0,0:0:0:0:
256,192,81112,1,8,0:0:0:0:
256,192,81295,1,0,0:0:0:0:
256,192,81478,1,0,0:0:0:0:
256,192,81662,1,0,0:0:0:0:
256,192,81845,1,8,0:0:0:0:
256,192,82212,1,8,0:0:0:0:
256,192,82395,1,0,0:0:0:0:
256,192,82578,1,8,0:0:0:0:
256,192,82761,1,0,0:0:0:0:
256,192,83128,1,0,0:0:0:0:
256,192,83311,1,8,0:0:0:0:
256,192,83495,1,8,0:0:0:0:
256,192,83678,1,8,0:0:0:0:
256,192,83861,1,0,0:0:0:0:
256,192,84228,1,0,0:0:0:0:
256,192,84411,1,8,0:0:0:0:
256,192,84594,1,0,0:0:0:0:
256,192,84961,1,8,0:0:0:0:
256,192,85328,1,0,0:0:0:0:
256,192,85694,1,8,0:0:0:0:
256,192,86336,1,0,0:0:0:0:
256,192,86427,1,8,0:0:0:0:
256,192,86611,1,0,0:0:0:0:
256,192,86794,1,8,0:0:0:0:
256,192,86885,1,0,0:0:0:0:
256,192,86977,1,0,0:0:0:0:
256,192,87069,1,8,0:0:0:0:
256,192,87160,1,8,0:0:0:0:
256,192,87252,1,0,0:0:0:0:
256,192,87344,1,8,0:0:0:0:
256,192,87527,1,8,0:0:0:0:
256,192,87619,1,0,0:0:0:0:
256,192,87710,1,8,0:0:0:0:
256,192,87802,1,8,0:0:0:0:
256,192,87894,1,8,0:0:0:0:
256,192,87985,1,8,0:0:0:0:
256,192,88077,1,0,0:0:0:0:
256,192,88260,1,0,0:0:0:0:
256,192,88352,1,0,0:0:0:0:
256,192,88443,1,0,0:0:0:0:
256,192,88535,1,0,0:0:0:0:
256,192,88627,1,8,0:0:0:0:
256,192,88993,1,8,0:0:0:0:
256,192,89085,1,8,0:0:0:0:
256,192,89177,1,8,0:0:0:0:
256,192,89268,1,0,0:0:0:0:
256,192,89360,1,0,0:0:0:0:
256,192,89452,1,8,0:0:0:0:
256,192,89726,1,8,0:0:0:0:
256,192,89818,1,0,0:0:0:0:
256,192,89910,1,8,0:0:0:0:
256,192,90001,1,8,0:0:0:0:
256,192,90093,1,0,0:0:0:0:
256,192,90460,1,8,0:0:0:0:
256,192,90551,1,8,0:0:0:0:
256,192,90643,1,8,0:0:0:0:
256,192,90735,1,8,0:0:0:0:
256,192,90826,1,0,0:0:0:0:
256,192,90918,1,8,0:0:0:0:
256,192,91101,1,8,0:0:0:0:
256,192,91193,1,0,0:0:0:0:
256,192,91376,1,8,0:0:0:0:
256,192,91559,1,0,0:0:0:0:
256,192,91926,1,8,0:0:0:0:
256,192,92109,1,0,0:0:0:0:
256,192,92201,1,0,0:0:0:0:
256,192,92293,1,8,0:0:0:0:
256,192,92384,1,0,0:0:0:0:
256,192,92567,1,0,0:0:0:0:
256,192,92659,1,8,0:0:0:0:
256,192,92751,1,0,0:0:0:0:
256,192,92842,1,0,0:0:0:0:
256,192,92934,1,8,0:0:0:0:
256,192,93026,1,0,0:0:0:0:
256,192,93301,1,0,0:0:0:0:
256,192,93392,1,0,0:0:0:0:
256,192,93484,1,8,0:0:0:0:
256,192,93576,1,8,0:0:0:0:
256,192,93667,1,8,0:0:0:0:
256,192,93759,1,0,0:0:0:0:
256,192,93942,1,8,0:0:0:0:
256,192,94125,1,0,0:0:0:0:
256,192,94309,1,8,0:0:0:0:
256,192,94400,1,8,0:0:0:0:
256,192,94492,1,0,0:0:0:0:
256,192,94584,1,8,0:0:0:0:
256,192,94675,1,8,0:0:0:0:
256,192,94767,1,8,0:0:0:0:
256,192,94859,1,0,0:0:0:0:
256,192,94950,1,8,0:0:0:0:
256,192,95042,1,8,0:0:0:0:
256,192,95134,1,0,0:0:0:0:
256,192,95225,1,8,0:0:0:0:
256,192,95317,1,8,0:0:0:0:
256,192,95408,1,8,0:0:0:0:
256,192,95500,1,0,0:0:0:0:
256,192,95592,1,8,0:0:0:0:
256,192,95867,1,8,0:0:0:0:
256,192,95958,1,0,0:0:0:0:
256,192,96142,1,8,0:0:0:0:
256,192,96233,1,8,0:0:0:0:
256,192,96325,1,8,0:0:0:0:
256,192,96417,1,0,0:0:0:0:
256,192,96508,1,8,0:0:0:0:
256,192,96600,1,8,0:0:0:0:
256,192,96691,1,0,0:0:0:0:
256,192,96875,1,0,0:0:0:0:
256,192,96966,1,0,0:0:0:0:
256,192,97058,1,8,0:0:0:0:
256,192,97150,1,0,0:0:0:0:
256,192,97425,1,8,0:0:0:0:
256,192,97791,1,0,0:0:0:0:
256,192,97975,1,8,0:0:0:0:
256,192,98341,1,8,0:0:0:0:
256,192,98891,1,0,0:0:0:0:
256,192,99258,1,0,0:0:0:0:
256,192,99441,1,8,0:0:0:0:
256,192,99532,1,8,0:0:0:0:
256,192,99624,1,8,0:0:0:0:
256,192,99807,1,8,0:0:0:0:
256,192,99991,1,0,0:0:0:0:
256,192,100357,1,0,0:0:0:0:
256,192,100449,1,8,0:0:0:0:
256,192,100541,1,8,0:0:0:0:
256,192,100632,1,8,0:0:0:0:
256,192,100724,1,0,0:0:0:0:
256,192,100907,1,8,0:0:0:0:
256,192,101090,1,8,0:0:0:0:
256,192,101182,1,0,0:0:0:0:
256,192,101274,1,8,0:0:0:0:
256,192,101457,1,8,0:0:0:0:
256,192,101640,1,8,0:0:0:0:
256,192,101824,1,0,0:0:0:0:
256,192,101915,1,8,0:0:0:0:
256,192,102190,1,0,0:0:0:0:
256,192,102373,1,8,0:0:0:0:
256,192,102465,1,8,0:0:0:0:
256,192,102557,1,8,0:0:0:0:
256,192,102740,1,0,0:0:0:0:
256,192,102923,1,8,0:0:0:0:
256,192,103290,1,0,0:0:0:0:
256,192,103382,1,8,0:0:0:0:
256,192,103473,1,8,0:0:0:0:
256,192,103565,1,8,0:0:0:0:
256,192,103657,1,0,0:0:0:0:
256,192,103840,1,8,0:0:0:0:
256,192,104023,1,8,0:0:0:0:
256,192,104206,1,0,0:0:0:0:
256,192,104298,1,8,0:0:0:0:
256,192,104573,1,0,0:0:0:0:
256,192,104756,1,8,0:0:0:0:
256,192,105031,1,0,0:0:0:0:
256,192,105123,1,8,0:0:0:0:
256,192,105306,1,8,0:0:0:0:
256,192,105398,1,8,0:0:0:0:
256,192,105489,1,0,0:0:0:0:
256,192,105673,1,0,0:0:0:0:
256,192,105856,1,8,0:0:0:0:
256,192,105948,1,0,0:0:0:0:
256,192,106039,1,8,0:0:0:0:
256,192,106223,1,0,0:0:0:0:
256,192,106498,1,0,0:0:0:0:
256,192,106589,1,8,0:0:0:0:
256,192,106772,1,8,0:0:0:0:
256,192,106864,1,8,0:0:0:0:
256,192,106956,1,0,0:0:0:0:
256,192,107139,1,0,0:0:0:0:
256,192,107322,1,8,0:0:0:0:
256,192,107506,1,8,0:0:0:0:
256,192,107689,1,0,0:0:0:0:
256,192,108055,1,0,0:0:0:0:
256,192,108239,1,8,0:0:0:0:
256,192,108330,1,8,0:0:0:0:
256,192,108422,1,8,0:0:0:0:
256,192,108605,1,8,0:0:0:0:
256,192,108789,1,0,0:0:0:0:
256,192,109155,1,0,0:0:0:0:
256,192,109247,1,8,0:0:0:0:
256,192,109339,1,8,0:0:0:0:
256,192,109430,1,8,0:0:0:0:
256,192,109522,1,0,0:0:0:0:
256,192,109705,1,8,0:0:0:0:
256,192,109888,1,8,0:0:0:0:
256,192,109980,1,0,0:0:0:0:
256,192,110072,1,8,0:0:0:0:
256,192,110255,1,8,0:0:0:0:
256,192,110438,1,8,0:0:0:0:
256,192,110622,1,0,0:0:0:0:
256,192,110713,1,8,0:0:0:0:
256,192,110988,1,0,0:0:0:0:
256,192,111171,1,8,0:0:0:0:
256,192,111263,1,8,0:0:0:0:
256,192,111355,1,8,0:0:0:0:
256,192,111538,1,0,0:0:0:0:
256,192,111721,1,8,0:0:0:0:
256,192,112088,1,0,0:0:0:0:
256,192,112179,1,8,0:0:0:0:
256,192,112271,1,8,0:0:0:0:
256,192,112363,1,8,0:0:0:0:
256,192,112454,1,0,0:0:0:0:
256,192,112638,1,8,0:0:0:0:
256,192,112821,1,8,0:0:0:0:
256,192,113004,1,0,0:0:0:0:
256,192,113096,1,8,0:0:0:0:
256,192,113371,1,0,0:0:0:0:
256,192,113554,1,8,0:0:0:0:
256,192,113829,1,0,0:0:0:0:
256,192,113921,1,8,0:0:0:0:
256,192,114104,1,8,0:0:0:0:
256,192,114196,1,8,0:0:0:0:
256,192,114287,1,0,0:0:0:0:
256,192,114471,1,0,0:0:0:0:
256,192,114654,1,8,0:0:0:0:
256,192,114837,1,8,0:0:0:0:
256,192,115020,1,0,0:0:0:0:
256,192,115387,1,0,0:0:0:0:
256,192,115570,1,8,0:0:0:0:
256,192,115937,1,8,0:0:0:0:
256,192,116487,1,0,0:0:0:0:
256,192,116853,1,0,0:0:0:0:
256,192,117037,1,8,0:0:0:0:
256,192,117403,1,8,0:0:0:0:
256,192,117587,1,0,0:0:0:0:
256,192,117953,1,0,0:0:0:0:
256,192,118319,1,0,0:0:0:0:
256,192,118502,1,0,0:0:0:0:
256,192,118686,1,8,0:0:0:0:
256,192,118869,1,8,0:0:0:0:
256,192,119236,1,0,0:0:0:0:
256,192,119602,1,0,0:0:0:0:
256,192,119969,1,0,0:0:0:0:
256,192,120152,1,8,0:0:0:0:
256,192,120335,1,0,0:0:0:0:
256,192,120519,1,8,0:0:0:0:
256,192,120885,1,0,0:0:0:0:
256,192,121252,1,0,0:0:0:0:
256,192,121435,1,0,0:0:0:0:
256,192,121618,1,8,0:0:0:0:
256,192,121802,1,8,0:0:0:0:
256,192,122168,1,0,0:0:0:0:
256,192,122535,1,8,0:0:0:0:
256,192,122901,1,0,0:0:0:0:
256,192,123085,1,8,0:0:0:0:
256,192,123268,1,0,0:0:0:0:
256,192,123451,1,8,0:0:0:0:
256,192,123634,1,8,0:0:0:0:
256,192,123818,1,0,0:0:0:0:
256,192,124184,1,0,0:0:0:0:
256,192,124368,1,0,0:0:0:0:
256,192,124551,1,8,0:0:0:0:
256,192,124734,1,8,0:0:0:0:
256,192,125101,1,0,0:0:0:0:
256,192,125467,1,0,0:0:0:0:
256,192,125834,1,0,0:0:0:0:
256,192,126017,1,8,0:0:0:0:
256,192,126201,1,0,0:0:0:0:
256,192,126384,1,8,0:0:0:0:
256,192,126750,1,0,0:0:0:0:
256,192,127117,1,0,0:0:0:0:
256,192,127300,1,0,0:0:0:0:
256,192,127484,1,8,0:0:0:0:
256,192,127667,1,8,0:0:0:0:
256,192,128033,1,0,0:0:0:0:
256,192,128400,1,8,0:0:0:0:
256,192,128767,1,0,0:0:0:0:
256,192,128950,1,8,0:0:0:0:
256,192,129133,1,8,0:0:0:0:
256,192,129316,1,0,0:0:0:0:
256,192,129500,1,8,0:0:0:0:
256,192,129683,1,0,0:0:0:0:
256,192,130049,1,0,0:0:0:0:
256,192,130416,1,8,0:0:0:0:
256,192,130599,1,0,0:0:0:0:
256,192,130782,1,8,0:0:0:0:
256,192,130966,1,0,0:0:0:0:
256,192,131332,1,0,0:0:0:0:
256,192,131699,1,8,0:0:0:0:
256,192,131882,1,8,0:0:0:0:
256,192,132065,1,0,0:0:0:0:
256,192,132249,1,8,0:0:0:0:
256,192,132615,1,0,0:0:0:0:
256,192,132982,1,8,0:0:0:0:
256,192,133165,1,8,0:0:0:0:
256,192,133348,1,0,0:0:0:0:
256,192,133532,1,8,0:0:0:0:
256,192,133715,1,0,0:0:0:0:
256,192,133898,1,0,0:0:0:0:
256,192,134081,1,8,0:0:0:0:
256,192,134265,1,0,0:0:0:0:
256,192,134448,1,8,0:0:0:0:
256,192,134631,1,8,0:0:0:0:
256,192,134815,1,0,0:0:0:0:
256,192,135181,1,0,0:0:0:0:
256,192,135548,1,8,0:0:0:0:
256,192,135731,1,8,0:0:0:0:
256,192,135914,1,0,0:0:0:0:
256,192,136098,1,8,0:0:0:0:
256,192,136464,1,8,0:0:0:0:
256,192,136831,1,0,0:0:0:0:
256,192,137014,1,8,0:0:0:0:
256,192,137197,1,8,0:0:0:0:
256,192,137381,1,0,0:0:0:0:
256,192,137747,1,0,0:0:0:0:
256,192,138114,1,8,0:0:0:0:
256,192,138297,1,8,0:0:0:0:
256,192,138480,1,0,0:0:0:0:
256,192,138664,1,0,0:0:0:0:
256,192,138847,1,8,0:0:0:0:
256,192,139030,1,0,0:0:0:0:
256,192,139213,1,8,0:0:0:0:
256,192,139305,1,8,0:0:0:0:
256,192,139397,1,8,0:0:0:0:
256,192,139488,1,8,0:0:0:0:
256,192,139580,1,8,0:0:0:0:
256,192,139672,1,8,0:0:0:0:
256,192,139763,1,0,0:0:0:0:
256,192,139855,1,8,0:0:0:0:
256,192,139947,1,8,0:0:0:0:
256,192,140038,1,8,0:0:0:0:
256,192,140130,1,0,0:0:0:0:
256,192,140313,1,8,0:0:0:0:
256,192,140679,1,0,0:0:0:0:
256,192,140862,1,0,0:0:0:0:
256,192,141046,1,8,0:0:0:0:
256,192,141229,1,0,0:0:0:0:
256,192,141321,1,8,0:0:0:0:
256,192,141596,1,8,0:0:0:0:
256,192,141687,1,0,0:0:0:0:
256,192,141962,1,8,0:0:0:0:
256,192,142054,1,8,0:0:0:0:
256,192,142145,1,0,0:0:0:0:
256,192,142329,1,0,0:0:0:0:
256,192,142512,1,8,0:0:0:0:
256,192,142695,1,0,0:0:0:0:
256,192,142879,1,8,0:0:0:0:
256,192,143245,1,0,0:0:0:0:
256,192,143428,1,8,0:0:0:0:
256,192,143612,1,0,0:0:0:0:
256,192,143795,1,0,0:0:0:0:
256,192,143978,1,8,0:0:0:0:
256,192,144162,1,8,0:0:0:0:
256,192,144528,1,0,0:0:0:0:
256,192,144895,1,8,0:0:0:0:
256,192,145078,1,0,0:0:0:0:
256,192,145261,1,0,0:0:0:0:
256,192,145445,1,8,0:0:0:0:
256,192,145628,1,0,0:0:0:0:
256,192,145811,1,8,0:0:0:0:
256,192,145994,1,8,0:0:0:0:
256,192,146178,1,0,0:0:0:0:
256,192,146544,1,0,0:0:0:0:
256,192,146728,1,0,0:0:0:0:
256,192,146911,1,8,0:0:0:0:
256,192,147094,1,0,0:0:0:0:
256,192,147186,1,8,0:0:0:0:
256,192,147461,1,8,0:0:0:0:
256,192,147552,1,0,0:0:0:0:
256,192,147827,1,8,0:0:0:0:
256,192,147919,1,8,0:0:0:0:
256,192,148011,1,0,0:0:0:0:
256,192,148194,1,0,0:0:0:0:
256,192,148377,1,8,0:0:0:0:
256,192,148561,1,0,0:0:0:0:
256,192,148744,1,8,0:0:0:0:
256,192,149110,1,0,0:0:0:0:
256,192,149294,1,8,0:0:0:0:
256,192,149477,1,0,0:0:0:0:
256,192,149660,1,0,0:0:0:0:
256,192,149844,1,8,0:0:0:0:
256,192,150027,1,8,0:0:0:0:
256,192,150393,1,0,0:0:0:0:
256,192,150760,1,8,0:0:0:0:
256,192,150943,1,0,0:0:0:0:
256,192,151127,1,0,0:0:0:0:
256,192,151310,1,8,0:0:0:0:
256,192,151493,1,0,0:0:0:0:
256,192,151676,1,8,0:0:0:0:
256,192,152043,1,0,0:0:0:0:
256,192,152409,1,8,0:0:0:0:
256,192,152592,1,0,0:0:0:0:
256,192,152776,1,8,0:0:0:0:
256,192,152959,1,8,0:0:0:0:
256,192,153142,1,0,0:0:0:0:
256,192,153326,1,8,0:0:0:0:
256,192,153692,1,0,0:0:0:0:
256,192,153875,1,8,0:0:0:0:
256,192,154059,1,8,0:0:0:0:
256,192,154242,1,0,0:0:0:0:
256,192,154425,1,0,0:0:0:0:
256,192,154609,1,8,0:0:0:0:
256,192,154975,1,0,0:0:0:0:
256,192,155158,1,0,0:0:0:0:
256,192,155342,1,8,0:0:0:0:
256,192,155525,1,0,0:0:0:0:
256,192,155708,1,8,0:0:0:0:
256,192,155892,1,0,0:0:0:0:
256,192,156075,1,8,0:0:0:0:
256,192,156258,1,8,0:0:0:0:
256,192,156441,1,0,0:0:0:0:
256,192,156625,1,8,0:0:0:0:
256,192,156808,1,0,0:0:0:0:
256,192,156991,1,0,0:0:0:0:
256,192,157175,1,8,0:0:0:0:
256,192,157541,1,0,0:0:0:0:
256,192,157724,1,0,0:0:0:0:
256,192,157908,1,8,0:0:0:0:
256,192,158091,1,0,0:0:0:0:
256,192,158274,1,8,0:0:0:0:
256,192,158458,1,0,0:0:0:0:
256,192,158824,1,8,0:0:0:0:
256,192,159008,1,0,0:0:0:0:
256,192,159191,1,8,0:0:0:0:
256,192,159374,1,8,0:0:0:0:
256,192,159557,1,0,0:0:0:0:
256,192,159741,1,8,0:0:0:0:
256,192,160107,1,0,0:0:0:0:
256,192,160290,1,8,0:0:0:0:
256,192,160474,1,0,0:0:0:0:
256,192,160657,1,0,0:0:0:0:
256,192,160840,1,8,0:0:0:0:
256,192,161024,1,8,0:0:0:0:
256,192,161207,1,0,0:0:0:0:
256,192,161390,1,8,0:0:0:0:
256,192,161757,1,8,0:0:0:0:
256,192,162673,1,4,0:0:0:0:
256,192,163222,1,0,0:0:0:0:
256,192,163589,1,8,0:0:0:0:
256,192,163772,1,0,0:0:0:0:
256,192,164139,1,0,0:0:0:0:
256,192,164322,1,8,0:0:0:0:
256,192,164505,1,8,0:0:0:0:
256,192,164689,1,8,0:0:0:0:
256,192,164872,1,0,0:0:0:0:
256,192,165239,1,12,0:0:0:0:
256,192,165605,1,0,0:0:0:0:
256,192,165972,1,0,0:0:0:0:
256,192,166155,1,0,0:0:0:0:
256,192,166338,1,8,0:0:0:0:
256,192,166522,1,8,0:0:0:0:
256,192,166705,1,0,0:0:0:0:
256,192,166888,1,8,0:0:0:0:
256,192,166980,1,0,0:0:0:0:
256,192,167255,1,8,0:0:0:0:
256,192,167438,1,0,0:0:0:0:
256,192,167621,1,0,0:0:0:0:
256,192,167805,1,8,0:0:0:0:
256,192,168171,1,8,0:0:0:0:
256,192,168538,1,8,0:0:0:0:
256,192,168721,1,0,0:0:0:0:
256,192,168812,1,8,0:0:0:0:
256,192,168904,1,0,0:0:0:0:
256,192,169087,1,8,0:0:0:0:
256,192,169271,1,8,0:0:0:0:
256,192,169454,1,0,0:0:0:0:
256,192,169637,1,8,0:0:0:0:
256,192,169821,1,0,0:0:0:0:
256,192,170004,1,8,0:0:0:0:
256,192,170095,1,8,0:0:0:0:
256,192,170187,1,0,0:0:0:0:
256,192,170279,1,0,0:0:0:0:
256,192,170370,1,8,0:0:0:0:
256,192,170462,1,8,0:0:0:0:
256,192,170554,1,8,0:0:0:0:
256,192,170645,1,0,0:0:0:0:
256,192,170737,1,8,0:0:0:0:
256,192,170829,1,0,0:0:0:0:
256,192,170920,1,0,0:0:0:0:
256,192,171012,1,0,0:0:0:0:
256,192,171104,1,8,0:0:0:0:
256,192,171195,1,8,0:0:0:0:
256,192,171287,1,0,0:0:0:0:
256,192,171470,1,12,0:0:0:0:
256,192,171836,1,0,0:0:0:0:
256,192,171928,1,8,0:0:0:0:
256,192,172019,1,0,0:0:0:0:
256,192,172203,1,8,0:0:0:0:
256,192,172386,1,8,0:0:0:0:
256,192,172569,1,8,0:0:0:0:
256,192,172753,1,0,0:0:0:0:
256,192,172844,1,8,0:0:0:0:
256,192,173119,1,0,0:0:0:0:
256,192,173302,1,0,0:0:0:0:
256,192,173486,1,0,0:0:0:0:
256,192,173669,1,8,0:0:0:0:
256,192,174036,1,8,0:0:0:0:
256,192,174402,1,0,0:0:0:0:
256,192,174768,1,0,0:0:0:0:
256,192,174951,1,0,0:0:0:0:
256,192,175135,1,8,0:0:0:0:
256,192,175318,1,8,0:0:0:0:
256,192,175501,1,8,0:0:0:0:
256,192,175685,1,0,0:0:0:0:
256,192,176051,1,0,0:0:0:0:
256,192,176234,1,8,0:0:0:0:
256,192,176326,1,0,0:0:0:0:
256,192,176601,1,8,0:0:0:0:
256,192,176784,1,8,0:0:0:0:
256,192,176968,1,0,0:0:0:0:
256,192,177334,1,0,0:0:0:0:
256,192,177517,1,0,0:0:0:0:
256,192,177701,1,8,0:0:0:0:
256,192,177884,1,8,0:0:0:0:
256,192,178067,1,8,0:0:0:0:
256,192,178251,1,0,0:0:0:0:
256,192,178617,1,0,0:0:0:0:
256,192,178800,1,8,0:0:0:0:
256,192,179167,1,8,0:0:0:0:
256,192,179534,1,0,0:0:0:0:
256,192,179809,1,0,0:0:0:0:
256,192,179900,1,8,0:0:0:0:
256,192,180083,1,0,0:0:0:0:
256,192,180267,1,8,0:0:0:0:
256,192,180450,1,8,0:0:0:0:
256,192,180633,1,8,0:0:0:0:
256,192,180817,1,0,0:0:0:0:
256,192,181183,1,0,0:0:0:0:
256,192,181367,1,8,0:0:0:0:
256,192,181458,1,0,0:0:0:0:
256,192,181733,1,8,0:0:0:0:
256,192,181916,1,8,0:0:0:0:
256,192,182100,1,0,0:0:0:0:
256,192,182466,1,0,0:0:0:0:
256,192,182649,1,0,0:0:0:0:
256,192,182833,1,8,0:0:0:0:
256,192,183016,1,8,0:0:0:0:
256,192,183199,1,0,0:0:0:0:
256,192,183566,1,8,0:0:0:0:
256,192,183749,1,8,0:0:0:0:
256,192,184116,1,0,0:0:0:0:
256,192,184299,1,8,0:0:0:0:
256,192,184391,1,8,0:0:0:0:
256,192,184482,1,0,0:0:0:0:
256,192,184666,1,8,0:0:0:0:
256,192,184849,1,0,0:0:0:0:
256,192,185032,1,8,0:0:0:0:
256,192,185123,1,8,0:0:0:0:
256,192,185215,1,8,0:0:0:0:
256,192,185306,1,8,0:0:0:0:
256,192,185398,1,8,0:0:0:0:
256,192,185490,1,8,0:0:0:0:
256,192,185581,1,8,0:0:0:0:
256,192,185673,1,8,0:0:0:0:
256,192,185765,1,8,0:0:0:0:
256,192,185856,1,8,0:0:0:0:
256,192,185948,1,8,0:0:0:0:
256,192,186040,1,8,0:0:0:0:
256,192,186131,1,8,0:0:0:0:
256,192,186223,1,8,0:0:0:0:
256,192,186315,1,8,0:0:0:0:
256,192,186406,1,8,0:0:0:0:
256,192,186498,1,8,0:0:0:0:
256,192,186589,1,8,0:0:0:0:
256,192,186681,1,8,0:0:0:0:
256,192,186773,1,8,0:0:0:0:
256,192,186864,1,8,0:0:0:0:
256,192,186956,1,8,0:0:0:0:
256,192,187048,1,8,0:0:0:0:
256,192,187139,1,8,0:0:0:0:
256,192,187231,1,8,0:0:0:0:
256,192,187323,1,8,0:0:0:0:
256,192,187414,1,8,0:0:0:0:
256,192,187506,1,8,0:0:0:0:
256,192,187598,1,0,0:0:0:0:
256,192,187964,1,8,0:0:0:0:
256,192,188056,1,8,0:0:0:0:
256,192,188147,1,8,0:0:0:0:
256,192,188239,1,8,0:0:0:0:
256,192,188331,1,8,0:0:0:0:
256,192,188422,1,8,0:0:0:0:
256,192,188514,1,8,0:0:0:0:
256,192,188606,1,8,0:0:0:0:
256,192,188697,1,8,0:0:0:0:
256,192,188789,1,8,0:0:0:0:
256,192,188881,1,8,0:0:0:0:
256,192,188972,1,8,0:0:0:0:
256,192,189064,1,0,0:0:0:0:
256,192,189156,1,0,0:0:0:0:
256,192,189247,1,8,0:0:0:0:
256,192,189339,1,0,0:0:0:0:
256,192,189430,1,8,0:0:0:0:
256,192,189522,1,0,0:0:0:0:
256,192,189614,1,0,0:0:0:0:
256,192,189705,1,8,0:0:0:0:
256,192,189797,1,0,0:0:0:0:
256,192,189889,1,8,0:0:0:0:
256,192,189980,1,0,0:0:0:0:
256,192,190072,1,0,0:0:0:0:
256,192,190164,1,8,0:0:0:0:
256,192,190255,1,8,0:0:0:0:
256,192,190347,1,8,0:0:0:0:
256,192,190439,1,8,0:0:0:0:
256,192,190530,1,0,0:0:0:0:
256,192,190622,1,8,0:0:0:0:
256,192,190713,1,8,0:0:0:0:
256,192,190805,1,8,0:0:0:0:
256,192,190897,1,0,0:0:0:0:
256,192,191263,1,8,0:0:0:0:
256,192,191355,1,8,0:0:0:0:
256,192,191446,1,0,0:0:0:0:
256,192,191630,1,0,0:0:0:0:
256,192,191813,1,8,0:0:0:0:
256,192,192088,1,0,0:0:0:0:
256,192,192180,1,8,0:0:0:0:
256,192,192363,1,8,0:0:0:0:
256,192,192546,1,0,0:0:0:0:
256,192,192638,1,0,0:0:0:0:
256,192,192729,1,0,0:0:0:0:
256,192,192821,1,0,0:0:0:0:
256,192,192913,1,8,0:0:0:0:
256,192,193096,1,0,0:0:0:0:
256,192,193463,1,8,0:0:0:0:
256,192,193554,1,8,0:0:0:0:
256,192,193646,1,0,0:0:0:0:
256,192,193829,1,8,0:0:0:0:
256,192,194012,1,8,0:0:0:0:
256,192,194196,1,0,0:0:0:0:
256,192,194471,1,8,0:0:0:0:
256,192,194562,1,0,0:0:0:0:
256,192,194746,1,8,0:0:0:0:
256,192,194837,1,0,0:0:0:0:
256,192,194929,1,0,0:0:0:0:
256,192,195021,1,0,0:0:0:0:
256,192,195112,1,8,0:0:0:0:
256,192,195295,1,0,0:0:0:0:
256,192,195479,1,8,0:0:0:0:
256,192,195570,1,8,0:0:0:0:
256,192,195662,1,8,0:0:0:0:
256,192,195845,1,0,0:0:0:0:
256,192,196029,1,8,0:0:0:0:
256,192,196120,1,8,0:0:0:0:
256,192,196212,1,8,0:0:0:0:
256,192,196395,1,0,0:0:0:0:
256,192,196762,1,8,0:0:0:0:
256,192,196853,1,8,0:0:0:0:
256,192,196945,1,0,0:0:0:0:
256,192,197128,1,8,0:0:0:0:
256,192,197311,1,0,0:0:0:0:
256,192,197495,1,8,0:0:0:0:
256,192,197678,1,8,0:0:0:0:
256,192,197861,1,0,0:0:0:0:
256,192,198228,1,0,0:0:0:0:
256,192,198319,1,0,0:0:0:0:
256,192,198411,1,8,0:0:0:0:
256,192,198594,1,8,0:0:0:0:
256,192,198778,1,0,0:0:0:0:
256,192,198961,1,8,0:0:0:0:
256,192,199328,1,8,0:0:0:0:
256,192,199419,1,8,0:0:0:0:
256,192,199511,1,0,0:0:0:0:
256,192,199694,1,8,0:0:0:0:
256,192,199877,1,0,0:0:0:0:
256,192,200061,1,8,0:0:0:0:
256,192,200244,1,8,0:0:0:0:
256,192,200427,1,0,0:0:0:0:
256,192,200794,1,0,0:0:0:0:
256,192,200886,1,0,0:0:0:0:
256,192,200977,1,0,0:0:0:0:
256,192,201160,1,8,0:0:0:0:
256,192,201344,1,0,0:0:0:0:
256,192,201527,1,8,0:0:0:0:
256,192,201710,1,0,0:0:0:0:
256,192,201894,1,8,0:0:0:0:
256,192,201985,1,8,0:0:0:0:
256,192,202077,1,0,0:0:0:0:
256,192,202260,1,8,0:0:0:0:
256,192,202443,1,0,0:0:0:0:
256,192,202627,1,8,0:0:0:0:
256,192,202810,1,8,0:0:0:0:
256,192,202993,1,0,0:0:0:0:
256,192,203360,1,8,0:0:0:0:
256,192,203543,1,0,0:0:0:0:
256,192,203635,1,0,0:0:0:0:
256,192,203727,1,8,0:0:0:0:
256,192,203910,1,0,0:0:0:0:
256,192,204093,1,8,0:0:0:0:
256,192,204460,1,8,0:0:0:0:
256,192,204551,1,8,0:0:0:0:
256,192,204643,1,0,0:0:0:0:
256,192,204826,1,8,0:0:0:0:
256,192,205009,1,0,0:0:0:0:
256,192,205193,1,8,0:0:0:0:
256,192,205376,1,8,0:0:0:0:
256,192,205559,1,0,0:0:0:0:
256,192,205926,1,0,0:0:0:0:
256,192,206109,1,0,0:0:0:0:
256,192,206476,1,8,0:0:0:0:
256,192,206842,1,8,0:0:0:0:
256,192,207026,1,0,0:0:0:0:
256,192,207392,12,0,213893,0:0:0:0:
256,192,214103,5,0,0:0:0:0:
256,192,214580,1,0,0:0:0:0:
256,192,215057,1,8,0:0:0:0:
256,192,215295,1,8,0:0:0:0:
256,192,215534,1,8,0:0:0:0:
256,192,215772,1,8,0:0:0:0:
256,192,216011,1,0,0:0:0:0:
256,192,216488,1,0,0:0:0:0:
256,192,216965,1,8,0:0:0:0:
256,192,217204,1,0,0:0:0:0:
256,192,217442,1,8,0:0:0:0:
256,192,217919,1,0,0:0:0:0:
256,192,218397,1,0,0:0:0:0:
256,192,218874,1,8,0:0:0:0:
256,192,219112,1,0,0:0:0:0:
256,192,219351,1,8,0:0:0:0:
256,192,219589,1,8,0:0:0:0:
256,192,219828,1,0,0:0:0:0:
256,192,220305,1,0,0:0:0:0:
256,192,220782,1,8,0:0:0:0:
256,192,221021,1,8,0:0:0:0:
256,192,221259,1,0,0:0:0:0:
256,192,221736,1,8,0:0:0:0:
256,192,222214,1,0,0:0:0:0:
256,192,222691,1,0,0:0:0:0:
256,192,222929,1,8,0:0:0:0:
256,192,223168,1,8,0:0:0:0:
256,192,223406,1,8,0:0:0:0:
256,192,223645,1,0,0:0:0:0:
256,192,224122,1,0,0:0:0:0:
256,192,224599,1,8,0:0:0:0:
256,192,224838,1,0,0:0:0:0:
256,192,225076,1,8,0:0:0:0:
256,192,225553,1,0,0:0:0:0:
256,192,226030,1,0,0:0:0:0:
256,192,226508,1,8,0:0:0:0:
256,192,226746,1,8,0:0:0:0:
256,192,226985,1,0,0:0:0:0:
256,192,227223,1,8,0:0:0:0:
256,192,227462,1,0,0:0:0:0:
256,192,227939,1,0,0:0:0:0:
256,192,228416,1,8,0:0:0:0:
256,192,228655,1,8,0:0:0:0:
256,192,228893,1,0,0:0:0:0:
256,192,229370,1,0,0:0:0:0:
256,192,229847,1,0,0:0:0:0:
256,192,230325,1,8,0:0:0:0:
256,192,230563,1,0,0:0:0:0:
256,192,230802,1,8,0:0:0:0:
256,192,231040,1,8,0:0:0:0:
256,192,231279,1,0,0:0:0:0:
256,192,231756,1,0,0:0:0:0:
256,192,232233,1,0,0:0:0:0:
256,192,232472,1,8,0:0:0:0:
256,192,232710,1,0,0:0:0:0:
256,192,233187,1,0,0:0:0:0:
256,192,233664,1,0,0:0:0:0:
256,192,234141,1,8,0:0:0:0:
256,192,234380,1,8,0:0:0:0:
256,192,234619,1,0,0:0:0:0:
256,192,234857,1,8,0:0:0:0:
256,192,235096,1,0,0:0:0:0:
256,192,235573,1,0,0:0:0:0:
256,192,236050,1,0,0:0:0:0:
256,192,236288,1,8,0:0:0:0:
256,192,236527,1,8,0:0:0:0:
256,192,236766,1,8,0:0:0:0:
256,192,237004,1,0,0:0:0:0:
256,192,237481,1,0,0:0:0:0:
256,192,237958,1,8,0:0:0:0:
256,192,238197,1,0,0:0:0:0:
256,192,238436,1,0,0:0:0:0:
256,192,238674,1,8,0:0:0:0:
256,192,238913,1,0,0:0:0:0:
256,192,239390,1,0,0:0:0:0:
256,192,239867,1,8,0:0:0:0:
256,192,240105,1,0,0:0:0:0:
256,192,240344,1,8,0:0:0:0:
256,192,240583,1,8,0:0:0:0:
256,192,240821,1,0,0:0:0:0:
256,192,241298,1,0,0:0:0:0:
256,192,241775,1,8,0:0:0:0:
256,192,242014,1,0,0:0:0:0:
256,192,242252,1,0,0:0:0:0:
256,192,242491,1,0,0:0:0:0:
256,192,242730,1,8,0:0:0:0:
256,192,243207,1,8,0:0:0:0:
256,192,243684,1,0,0:0:0:0:
256,192,243922,1,8,0:0:0:0:
256,192,244161,1,8,0:0:0:0:
256,192,244638,1,0,0:0:0:0:
256,192,245115,1,8,0:0:0:0:
256,192,245274,1,8,0:0:0:0:
256,192,245433,1,0,0:0:0:0:
256,192,245592,1,8,0:0:0:0:
256,192,245831,1,0,0:0:0:0:
256,192,246069,1,8,0:0:0:0:
256,192,246308,1,8,0:0:0:0:
256,192,246547,1,0,0:0:0:0:
256,192,246706,1,0,0:0:0:0:
256,192,246865,1,8,0:0:0:0:
256,192,247024,1,0,0:0:0:0:
256,192,247262,1,0,0:0:0:0:
256,192,247501,1,8,0:0:0:0:
256,192,247739,1,0,0:0:0:0:
256,192,247978,1,8,0:0:0:0:
256,192,248216,1,8,0:0:0:0:
256,192,248455,1,0,0:0:0:0:
256,192,248932,1,0,0:0:0:0:
256,192,249409,1,8,0:0:0:0:
256,192,249568,1,0,0:0:0:0:
256,192,249727,1,0,0:0:0:0:
256,192,249886,1,8,0:0:0:0:
256,192,250125,1,8,0:0:0:0:
256,192,250363,1,0,0:0:0:0:
256,192,250523,1,8,0:0:0:0:
256,192,250682,1,8,0:0:0:0:
256,192,250841,1,0,0:0:0:0:
256,192,251079,1,0,0:0:0:0:
256,192,251318,1,8,0:0:0:0:
256,192,251676,1,0,0:0:0:0:
256,192,252033,1,8,0:0:0:0:
256,192,252272,1,0,0:0:0:0:
256,192,252431,1,0,0:0:0:0:
256,192,252590,1,8,0:0:0:0:
256,192,252749,1,0,0:0:0:0:
256,192,252988,1,8,0:0:0:0:
256,192,253226,1,0,0:0:0:0:
256,192,253465,1,8,0:0:0:0:
256,192,253703,1,8,0:0:0:0:
256,192,253942,1,0,0:0:0:0:
256,192,254180,1,8,0:0:0:0:
256,192,254339,1,8,0:0:0:0:
256,192,254499,1,0,0:0:0:0:
256,192,254658,1,8,0:0:0:0:
256,192,254896,1,0,0:0:0:0:
256,192,255135,1,8,0:0:0:0:
256,192,255612,1,8,0:0:0:0:
256,192,255850,1,0,0:0:0:0:
256,192,256089,1,8,0:0:0:0:
256,192,256248,1,8,0:0:0:0:
256,192,256407,1,8,0:0:0:0:
256,192,256566,1,0,0:0:0:0:
256,192,256725,1,0,0:0:0:0:
256,192,256884,1,0,0:0:0:0:
256,192,257043,1,8,0:0:0:0:
256,192,257282,1,8,0:0:0:0:
256,192,257520,1,8,0:0:0:0:
256,192,257759,1,8,0:0:0:0:
256,192,257997,1,0,0:0:0:0:
256,192,258474,1,0,0:0:0:0:
256,192,258952,1,8,0:0:0:0:
256,192,259190,1,8,0:0:0:0:
256,192,259429,1,0,0:0:0:0:
256,192,259667,1,8,0:0:0:0:
256,192,259906,1,0,0:0:0:0:
256,192,260383,1,0,0:0:0:0:
256,192,260860,1,8,0:0:0:0:
256,192,261099,1,8,0:0:0:0:
256,192,261337,1,8,0:0:0:0:
256,192,261576,1,0,0:0:0:0:
256,192,261814,1,8,0:0:0:0:
256,192,261973,1,8,0:0:0:0:
256,192,262132,1,8,0:0:0:0:
256,192,262291,1,0,0:0:0:0:
256,192,262450,1,0,0:0:0:0:
256,192,262610,1,0,0:0:0:0:
256,192,262769,1,8,0:0:0:0:
256,192,263007,1,0,0:0:0:0:
256,192,263246,1,8,0:0:0:0:
256,192,263484,1,8,0:0:0:0:
256,192,263723,1,0,0:0:0:0:
256,192,264200,1,0,0:0:0:0:
256,192,264677,1,8,0:0:0:0:
256,192,264916,1,0,0:0:0:0:
256,192,265154,1,0,0:0:0:0:
256,192,265393,1,8,0:0:0:0:
256,192,265631,1,0,0:0:0:0:
256,192,265790,1,8,0:0:0:0:
256,192,265949,1,8,0:0:0:0:
256,192,266108,1,8,0:0:0:0:
256,192,266267,1,8,0:0:0:0:
256,192,266426,1,8,0:0:0:0:
256,192,266586,1,0,0:0:0:0:
256,192,266824,1,0,0:0:0:0:
256,192,267063,1,8,0:0:0:0:
256,192,267301,1,8,0:0:0:0:
256,192,267540,1,0,0:0:0:0:
256,192,268017,1,8,0:0:0:0:
256,192,268176,1,0,0:0:0:0:
256,192,268335,1,8,0:0:0:0:
256,192,268494,1,8,0:0:0:0:
256,192,268733,1,0,0:0:0:0:
256,192,268971,1,8,0:0:0:0:
256,192,269210,1,8,0:0:0:0:
256,192,269448,1,0,0:0:0:0:
256,192,269607,1,0,0:0:0:0:
256,192,269766,1,0,0:0:0:0:
256,192,269925,1,8,0:0:0:0:
256,192,270164,1,0,0:0:0:0:
256,192,270402,1,8,0:0:0:0:
256,192,270641,1,8,0:0:0:0:
256,192,270880,1,0,0:0:0:0:
256,192,271357,1,8,0:0:0:0:
256,192,271516,1,0,0:0:0:0:
256,192,271675,1,0,0:0:0:0:
256,192,271834,1,8,0:0:0:0:
256,192,272072,1,0,0:0:0:0:
256,192,272311,1,8,0:0:0:0:
256,192,272549,1,8,0:0:0:0:
256,192,272788,1,0,0:0:0:0:
256,192,272947,1,8,0:0:0:0:
256,192,273106,1,8,0:0:0:0:
256,192,273265,1,0,0:0:0:0:
256,192,273504,1,0,0:0:0:0:
256,192,273742,1,8,0:0:0:0:
256,192,274219,1,8,0:0:0:0:
256,192,274458,1,0,0:0:0:0:
256,192,274697,1,0,0:0:0:0:
256,192,274935,1,0,0:0:0:0:
256,192,275174,1,8,0:0:0:0:
256,192,275651,1,8,0:0:0:0:
256,192,275810,1,8,0:0:0:0:
256,192,275969,1,0,0:0:0:0:
256,192,276128,1,8,0:0:0:0:
256,192,276366,1,0,0:0:0:0:
256,192,276605,1,8,0:0:0:0:
256,192,276844,1,8,0:0:0:0:
256,192,277082,1,0,0:0:0:0:
256,192,277241,1,0,0:0:0:0:
256,192,277400,1,8,0:0:0:0:
256,192,277559,1,0,0:0:0:0:
256,192,277798,1,0,0:0:0:0:
256,192,278036,1,8,0:0:0:0:
256,192,278275,1,0,0:0:0:0:
256,192,278513,1,8,0:0:0:0:
256,192,278752,1,8,0:0:0:0:
256,192,278991,1,0,0:0:0:0:
256,192,279468,1,0,0:0:0:0:
256,192,279945,1,8,0:0:0:0:
256,192,280104,1,0,0:0:0:0:
256,192,280263,1,0,0:0:0:0:
256,192,280422,1,8,0:0:0:0:
256,192,280660,1,8,0:0:0:0:
256,192,280899,1,0,0:0:0:0:
256,192,281058,1,8,0:0:0:0:
256,192,281217,1,8,0:0:0:0:
256,192,281376,1,0,0:0:0:0:
256,192,281615,1,0,0:0:0:0:
256,192,281853,1,8,0:0:0:0:
256,192,282211,1,0,0:0:0:0:
256,192,282569,1,8,0:0:0:0:
256,192,282808,1,0,0:0:0:0:
256,192,282967,1,0,0:0:0:0:
256,192,283126,1,8,0:0:0:0:
256,192,283285,1,0,0:0:0:0:
256,192,283523,1,8,0:0:0:0:
256,192,283762,1,0,0:0:0:0:
256,192,284000,1,8,0:0:0:0:
256,192,284239,1,8,0:0:0:0:
256,192,284477,1,0,0:0:0:0:
256,192,284716,1,8,0:0:0:0:
256,192,284875,1,8,0:0:0:0:
256,192,285034,1,0,0:0:0:0:
256,192,285193,1,8,0:0:0:0:
256,192,285432,1,0,0:0:0:0:
256,192,285670,1,8,0:0:0:0:
256,192,285829,1,8,0:0:0:0:
256,192,285988,1,8,0:0:0:0:
256,192,286147,1,0,0:0:0:0:
256,192,286386,1,8,0:0:0:0:
256,192,286624,1,0,0:0:0:0:
256,192,286863,1,8,0:0:0:0:
256,192,287102,1,0,0:0:0:0:
256,192,287261,1,0,0:0:0:0:
256,192,287420,1,0,0:0:0:0:
256,192,287579,1,8,0:0:0:0:
256,192,287817,1,0,0:0:0:0:
256,192,288056,1,8,0:0:0:0:
256,192,288294,1,8,0:0:0:0:
256,192,288533,1,0,0:0:0:0:
256,192,288771,1,8,0:0:0:0:
256,192,289010,1,8,0:0:0:0:
256,192,289169,1,0,0:0:0:0:
256,192,289328,1,0,0:0:0:0:
256,192,289487,1,8,0:0:0:0:
256,192,289726,1,0,0:0:0:0:
256,192,289964,1,8,0:0:0:0:
256,192,290123,1,8,0:0:0:0:
256,192,290282,1,8,0:0:0:0:
256,192,290441,1,0,0:0:0:0:
256,192,290919,1,8,0:0:0:0:
256,192,291396,1,0,0:0:0:0:
256,192,291634,1,8,0:0:0:0:
256,192,291873,1,8,0:0:0:0:
256,192,292111,1,0,0:0:0:0:
256,192,292350,1,8,0:0:0:0:
256,192,292509,1,8,0:0:0:0:
256,192,292668,1,8,0:0:0:0:
256,192,292827,1,0,0:0:0:0:
256,192,292986,1,0,0:0:0:0:
256,192,293145,1,0,0:0:0:0:
256,192,293304,1,8,0:0:0:0:
256,192,293543,1,0,0:0:0:0:
256,192,293781,1,8,0:0:0:0:
256,192,294020,1,8,0:0:0:0:
256,192,294258,1,0,0:0:0:0:
256,192,294735,1,0,0:0:0:0:
256,192,295213,1,8,0:0:0:0:
256,192,295451,1,0,0:0:0:0:
256,192,295690,1,0,0:0:0:0:
256,192,295928,1,8,0:0:0:0:
256,192,296167,1,0,0:0:0:0:
256,192,296326,1,8,0:0:0:0:
256,192,296485,1,8,0:0:0:0:
256,192,296644,1,8,0:0:0:0:
256,192,296803,1,8,0:0:0:0:
256,192,296962,1,8,0:0:0:0:
256,192,297121,1,0,0:0:0:0:
256,192,297280,1,0,0:0:0:0:
256,192,297439,1,0,0:0:0:0:
256,192,297598,1,8,0:0:0:0:
256,192,297837,1,8,0:0:0:0:
256,192,298075,1,0,0:0:0:0:
256,192,298552,1,8,0:0:0:0:
256,192,298711,1,0,0:0:0:0:
256,192,298871,1,8,0:0:0:0:
256,192,299030,1,8,0:0:0:0:
256,192,299268,1,0,0:0:0:0:
256,192,299507,1,8,0:0:0:0:
256,192,299745,1,8,0:0:0:0:
256,192,299984,1,0,0:0:0:0:
256,192,300143,1,8,0:0:0:0:
256,192,300302,1,0,0:0:0:0:
256,192,300461,1,8,0:0:0:0:
256,192,300620,1,8,0:0:0:0:
256,192,300779,1,8,0:0:0:0:
256,192,300938,1,0,0:0:0:0:
256,192,301177,1,8,0:0:0:0:
256,192,301415,1,0,0:0:0:0:
256,192,301892,1,8,0:0:0:0:
256,192,302051,1,0,0:0:0:0:
256,192,302210,1,8,0:0:0:0:
256,192,302369,1,8,0:0:0:0:
256,192,302608,1,0,0:0:0:0:
256,192,302846,1,8,0:0:0:0:
256,192,303085,1,8,0:0:0:0:
256,192,303324,1,0,0:0:0:0:
256,192,303483,1,8,0:0:0:0:
256,192,303642,1,8,0:0:0:0:
256,192,303801,1,8,0:0:0:0:
256,192,303960,1,8,0:0:0:0:
256,192,304119,1,8,0:0:0:0:
256,192,304278,1,0,0:0:0:0:
256,192,304516,1,8,0:0:0:0:
256,192,304755,1,0,0:0:0:0:
256,192,304994,1,8,0:0:0:0:
256,192,305232,1,0,0:0:0:0:
256,192,305471,1,0,0:0:0:0:
256,192,305709,1,8,0:0:0:0:
256,192,306186,1,0,0:0:0:0:
256,192,306663,1,8,0:0:0:0:
256,192,306902,1,0,0:0:0:0:
256,192,307141,1,8,0:0:0:0:
256,192,307300,1,8,0:0:0:0:
256,192,307459,1,0,0:0:0:0:
256,192,307618,1,8,0:0:0:0:
256,192,308095,1,0,0:0:0:0:
256,192,308333,1,8,0:0:0:0:
256,192,308572,1,8,0:0:0:0:
256,192,308810,1,0,0:0:0:0:
256,192,309049,1,0,0:0:0:0:
256,192,309208,1,8,0:0:0:0:
256,192,309367,1,8,0:0:0:0:
256,192,309526,1,0,0:0:0:0:
256,192,310003,1,0,0:0:0:0:
256,192,310480,1,8,0:0:0:0:
256,192,310719,1,0,0:0:0:0:
256,192,310957,1,8,0:0:0:0:
256,192,311117,1,8,0:0:0:0:
256,192,311276,1,0,0:0:0:0:
256,192,311435,1,8,0:0:0:0:
256,192,311912,1,0,0:0:0:0:
256,192,312389,1,8,0:0:0:0:
256,192,312627,1,0,0:0:0:0:
256,192,312866,1,0,0:0:0:0:
256,192,313025,1,8,0:0:0:0:
256,192,313184,1,8,0:0:0:0:
256,192,313343,1,0,0:0:0:0:
256,192,313820,1,0,0:0:0:0:
256,192,314297,1,8,0:0:0:0:
256,192,314536,1,0,0:0:0:0:
256,192,314774,1,8,0:0:0:0:
256,192,314933,1,8,0:0:0:0:
256,192,315093,1,8,0:0:0:0:
256,192,315252,1,0,0:0:0:0:
256,192,315729,1,0,0:0:0:0:
256,192,316206,1,8,0:0:0:0:
256,192,316444,1,0,0:0:0:0:
256,192,316683,1,8,0:0:0:0:
256,192,316842,1,0,0:0:0:0:
256,192,317001,1,0,0:0:0:0:
256,192,317160,1,8,0:0:0:0:
256,192,317637,1,0,0:0:0:0:
256,192,318114,1,8,0:0:0:0:
256,192,318273,1,8,0:0:0:0:
256,192,318432,1,0,0:0:0:0:
256,192,318591,1,8,0:0:0:0:
256,192,318830,1,0,0:0:0:0:
256,192,319069,1,8,0:0:0:0:
256,192,319546,1,0,0:0:0:0:
256,192,320023,1,8,0:0:0:0:
256,192,320261,1,0,0:0:0:0:
256,192,320500,1,8,0:0:0:0:
256,192,320659,1,8,0:0:0:0:
256,192,320818,1,8,0:0:0:0:
256,192,320977,1,0,0:0:0:0:
256,192,321454,1,8,0:0:0:0:
256,192,321693,1,0,0:0:0:0:
256,192,321931,1,8,0:0:0:0:
256,192,322170,1,8,0:0:0:0:
256,192,322408,1,0,0:0:0:0:
256,192,322567,1,8,0:0:0:0:
256,192,322726,1,8,0:0:0:0:
256,192,322885,1,0,0:0:0:0:
256,192,323363,1,0,0:0:0:0:
256,192,323601,1,8,0:0:0:0:
256,192,323840,1,0,0:0:0:0:
256,192,324078,1,0,0:0:0:0:
256,192,324317,1,8,0:0:0:0:
256,192,324476,1,8,0:0:0:0:
256,192,324635,1,0,0:0:0:0:
256,192,324794,1,8,0:0:0:0:
256,192,325271,1,8,0:0:0:0:
256,192,325510,1,0,0:0:0:0:
256,192,325748,1,8,0:0:0:0:
256,192,325907,1,8,0:0:0:0:
256,192,326066,1,0,0:0:0:0:
256,192,326225,1,8,0:0:0:0:
256,192,326464,1,8,0:0:0:0:
256,192,326702,1,0,0:0:0:0:
256,192,327180,1,0,0:0:0:0:
256,192,327418,1,8,0:0:0:0:
256,192,327657,1,0,0:0:0:0:
256,192,327816,1,0,0:0:0:0:
256,192,327975,1,8,0:0:0:0:
256,192,328134,1,0,0:0:0:0:
256,192,328372,1,0,0:0:0:0:
256,192,328611,1,8,0:0:0:0:
256,192,329088,1,0,0:0:0:0:
256,192,329565,1,8,0:0:0:0:
256,192,329804,1,8,0:0:0:0:
256,192,330042,1,0,0:0:0:0:
256,192,330281,1,0,0:0:0:0:
256,192,330519,1,8,0:0:0:0:
256,192,330678,1,0,0:0:0:0:
256,192,330837,1,0,0:0:0:0:
256,192,330996,1,8,0:0:0:0:
256,192,331235,1,0,0:0:0:0:
256,192,331474,1,8,0:0:0:0:
256,192,331633,1,8,0:0:0:0:
256,192,331792,1,0,0:0:0:0:
256,192,331951,1,8,0:0:0:0:
256,192,332189,1,0,0:0:0:0:
256,192,332428,1,8,0:0:0:0:
256,192,332905,1,0,0:0:0:0:
256,192,333382,1,8,0:0:0:0:
256,192,333621,1,8,0:0:0:0:
256,192,333859,1,0,0:0:0:0:
256,192,334098,1,0,0:0:0:0:
256,192,334336,1,8,0:0:0:0:
256,192,334495,1,0,0:0:0:0:
256,192,334654,1,0,0:0:0:0:
256,192,334813,1,0,0:0:0:0:
256,192,335052,1,8,0:0:0:0:
256,192,335291,1,0,0:0:0:0:
256,192,335450,1,8,0:0:0:0:
256,192,335609,1,8,0:0:0:0:
256,192,335768,1,8,0:0:0:0:
256,192,336006,1,0,0:0:0:0:
256,192,336245,1,8,0:0:0:0:
256,192,336620,1,0,0:0:0:0:
256,192,336995,1,8,0:0:0:0:
256,192,337182,1,8,0:0:0:0:
256,192,337557,1,0,0:0:0:0:
256,192,337932,1,8,0:0:0:0:
256,192,338120,1,0,0:0:0:0:
256,192,338307,1,0,0:0:0:0:
256,192,338495,1,8,0:0:0:0:
256,192,338870,1,12,0:0:0:0:
256,192,339245,1,0,0:0:0:0:
256,192,339608,1,0,0:0:0:0:
256,192,339790,1,0,0:0:0:0:
256,192,339972,1,8,0:0:0:0:
256,192,340154,1,8,0:0:0:0:
256,192,340517,1,0,0:0:0:0:
256,192,340881,1,0,0:0:0:0:
256,192,341063,1,8,0:0:0:0:
256,192,341245,1,0,0:0:0:0:
256,192,341426,1,8,0:0:0:0:
256,192,341790,1,8,0:0:0:0:
256,192,341972,1,0,0:0:0:0:
256,192,342154,1,8,0:0:0:0:
256,192,342517,1,0,0:0:0:0:
256,192,342699,1,8,0:0:0:0:
256,192,342881,1,0,0:0:0:0:
256,192,343063,1,8,0:0:0:0:
256,192,343245,1,8,0:0:0:0:
256,192,343426,1,0,0:0:0:0:
256,192,343608,1,8,0:0:0:0:
256,192,343699,1,8,0:0:0:0:
256,192,343790,1,0,0:0:0:0:
256,192,343881,1,8,0:0:0:0:
256,192,343972,1,0,0:0:0:0:
256,192,344063,1,8,0:0:0:0:
256,192,344154,1,8,0:0:0:0:
256,192,344245,1,0,0:0:0:0:
256,192,344335,1,8,0:0:0:0:
256,192,344426,1,8,0:0:0:0:
256,192,344517,1,0,0:0:0:0:
256,192,344608,1,0,0:0:0:0:
256,192,344699,1,8,0:0:0:0:
256,192,344881,1,0,0:0:0:0:
256,192,345063,1,12,0:0:0:0:
256,192,345431,1,0,0:0:0:0:
256,192,345615,1,0,0:0:0:0:
256,192,345799,1,8,0:0:0:0:
256,192,345983,1,8,0:0:0:0:
256,192,346351,1,0,0:0:0:0:
256,192,346719,1,8,0:0:0:0:
256,192,346903,1,0,0:0:0:0:
256,192,347087,1,0,0:0:0:0:
256,192,347271,1,8,0:0:0:0:
256,192,347455,1,8,0:0:0:0:
256,192,347639,1,0,0:0:0:0:
256,192,348007,1,8,0:0:0:0:
256,192,348189,1,0,0:0:0:0:
256,192,348371,1,8,0:0:0:0:
256,192,348462,1,8,0:0:0:0:
256,192,348554,1,8,0:0:0:0:
256,192,348645,1,8,0:0:0:0:
256,192,348736,1,0,0:0:0:0:
256,192,348918,1,0,0:0:0:0:
256,192,349101,1,8,0:0:0:0:
256,192,349283,1,8,0:0:0:0:
256,192,349465,1,0,0:0:0:0:
256,192,349557,1,0,0:0:0:0:
256,192,349648,1,0,0:0:0:0:
256,192,349739,1,0,0:0:0:0:
256,192,349830,1,8,0:0:0:0:
256,192,350195,1,0,0:0:0:0:
256,192,350560,1,8,0:0:0:0:
256,192,350745,1,0,0:0:0:0:
256,192,350930,1,8,0:0:0:0:
256,192,351022,1,0,0:0:0:0:
256,192,351115,1,0,0:0:0:0:
256,192,351208,1,0,0:0:0:0:
256,192,351300,1,8,0:0:0:0:
256,192,351485,1,0,0:0:0:0:
256,192,351671,1,8,0:0:0:0:
256,192,351763,1,8,0:0:0:0:
256,192,351856,1,0,0:0:0:0:
256,192,351948,1,8,0:0:0:0:
256,192,352041,1,0,0:0:0:0:
256,192,352134,1,0,0:0:0:0:
256,192,352226,1,8,0:0:0:0:
256,192,352411,1,8,0:0:0:0:
256,192,352597,1,0,0:0:0:0:
256,192,352782,1,8,0:0:0:0:
256,192,352874,1,0,0:0:0:0:
256,192,352967,1,0,0:0:0:0:
256,192,353060,1,8,0:0:0:0:
256,192,353152,1,8,0:0:0:0:
256,192,353242,1,8,0:0:0:0:
256,192,353333,1,0,0:0:0:0:
256,192,353423,1,0,0:0:0:0:
256,192,353514,1,8,0:0:0:0:
256,192,353695,1,0,0:0:0:0:
256,192,353877,1,8,0:0:0:0:
256,192,354058,1,0,0:0:0:0:
256,192,354148,1,0,0:0:0:0:
256,192,354239,1,8,0:0:0:0:
256,192,354420,1,8,0:0:0:0:
256,192,354602,1,0,0:0:0:0:
256,192,354783,1,0,0:0:0:0:
256,192,354964,1,8,0:0:0:0:
256,192,355055,1,8,0:0:0:0:
256,192,355145,1,0,0:0:0:0:
256,192,355236,1,8,0:0:0:0:
256,192,355417,1,8,0:0:0:0:
256,192,355508,1,0,0:0:0:0:
256,192,355599,1,0,0:0:0:0:
256,192,355689,1,8,0:0:0:0:
256,192,355780,1,8,0:0:0:0:
256,192,355871,1,8,0:0:0:0:
256,192,355963,1,8,0:0:0:0:
256,192,356054,1,0,0:0:0:0:
256,192,356146,1,8,0:0:0:0:
256,192,356237,1,8,0:0:0:0:
256,192,356329,1,0,0:0:0:0:
256,192,356420,1,8,0:0:0:0:
256,192,356603,1,0,0:0:0:0:
256,192,356786,1,8,0:0:0:0:
256,192,357152,1,8,0:0:0:0:
256,192,357335,1,0,0:0:0:0:
256,192,357701,1,8,0:0:0:0:
256,192,358067,1,0,0:0:0:0:
256,192,358219,1,8,0:0:0:0:
256,192,358615,1,4,0:0:0:0:
256,192,358983,1,0,0:0:0:0:
256,192,359167,1,0,0:0:0:0:
256,192,359351,1,8,0:0:0:0:
256,192,359535,1,8,0:0:0:0:
256,192,359903,1,0,0:0:0:0:
256,192,360271,1,8,0:0:0:0:
256,192,360455,1,0,0:0:0:0:
256,192,360639,1,0,0:0:0:0:
256,192,360823,1,8,0:0:0:0:
256,192,361191,1,12,0:0:0:0:
256,192,361559,1,0,0:0:0:0:
256,192,361651,1,8,0:0:0:0:
256,192,361743,1,8,0:0:0:0:
256,192,361927,1,8,0:0:0:0:
256,192,362019,1,8,0:0:0:0:
256,192,362111,1,0,0:0:0:0:
256,192,362295,1,8,0:0:0:0:
256,192,362480,1,0,0:0:0:0:
256,192,362664,1,8,0:0:0:0:
256,192,362848,1,8,0:0:0:0:
256,192,362940,1,8,0:0:0:0:
256,192,363032,1,8,0:0:0:0:
256,192,363124,1,0,0:0:0:0:
256,192,363216,1,8,0:0:0:0:
256,192,363400,1,8,0:0:0:0:
256,192,363584,1,0,0:0:0:0:
256,192,363768,1,8,0:0:0:0:
256,192,363952,1,8,0:0:0:0:
256,192,364044,1,8,0:0:0:0:
256,192,364136,1,0,0:0:0:0:
256,192,364504,1,8,0:0:0:0:
256,192,364596,1,8,0:0:0:0:
256,192,364688,1,8,0:0:0:0:
256,192,364780,1,8,0:0:0:0:
256,192,364872,1,0,0:0:0:0:
256,192,365056,1,0,0:0:0:0:
256,192,365148,1,8,0:0:0:0:
256,192,365240,1,8,0:0:0:0:
256,192,365424,1,0,0:0:0:0:
256,192,365608,1,8,0:0:0:0:
256,192,365700,1,8,0:0:0:0:
256,192,365792,1,0,0:0:0:0:
256,192,365976,1,0,0:0:0:0:
256,192,366068,1,8,0:0:0:0:
256,192,366253,1,8,0:0:0:0:
256,192,366345,1,0,0:0:0:0:
256,192,366529,1,8,0:0:0:0:
256,192,366713,1,0,0:0:0:0:
256,192,366805,1,8,0:0:0:0:
256,192,366897,1,8,0:0:0:0:
256,192,366989,1,8,0:0:0:0:
256,192,367081,1,0,0:0:0:0:
256,192,367173,1,0,0:0:0:0:
256,192,367265,1,0,0:0:0:0:
256,192,367357,1,8,0:0:0:0:
256,192,367449,1,0,0:0:0:0:
256,192,367725,1,8,0:0:0:0:
256,192,367817,1,0,0:0:0:0:
256,192,368001,1,8,0:0:0:0:
256,192,368093,1,8,0:0:0:0:
256,192,368185,1,0,0:0:0:0:
256,192,368277,1,8,0:0:0:0:
256,192,368369,1,8,0:0:0:0:
256,192,368461,1,8,0:0:0:0:
256,192,368553,1,0,0:0:0:0:
256,192,368645,1,8,0:0:0:0:
256,192,368829,1,8,0:0:0:0:
256,192,368921,1,0,0:0:0:0:
256,192,369013,1,8,0:0:0:0:
256,192,369105,1,8,0:0:0:0:
256,192,369197,1,8,0:0:0:0:
256,192,369289,1,8,0:0:0:0:
256,192,369381,1,0,0:0:0:0:
256,192,369473,1,8,0:0:0:0:
256,192,369565,1,8,0:0:0:0:
256,192,369657,1,0,0:0:0:0:
256,192,369841,1,8,0:0:0:0:
256,192,370026,1,0,0:0:0:0:
256,192,370394,1,12,0:0:0:0:
256,192,370756,1,0,0:0:0:0:
256,192,370937,1,0,0:0:0:0:
256,192,371119,1,8,0:0:0:0:
256,192,371481,1,0,0:0:0:0:
256,192,371844,1,8,0:0:0:0:
256,192,372025,1,0,0:0:0:0:
256,192,372206,1,8,0:0:0:0:
256,192,372387,1,8,0:0:0:0:
256,192,372569,1,0,0:0:0:0:
256,192,372931,1,8,0:0:0:0:
256,192,373293,1,0,0:0:0:0:
256,192,373474,1,0,0:0:0:0:
256,192,373656,1,8,0:0:0:0:
256,192,374018,1,0,0:0:0:0:
256,192,374199,1,0,0:0:0:0:
256,192,374381,1,8,0:0:0:0:
256,192,374562,1,0,0:0:0:0:
256,192,374743,1,8,0:0:0:0:
256,192,374924,1,8,0:0:0:0:
256,192,375106,1,8,0:0:0:0:
256,192,375287,1,0,0:0:0:0:
256,192,375468,1,8,0:0:0:0:
256,192,375831,1,0,0:0:0:0:
256,192,376012,1,0,0:0:0:0:
256,192,376194,1,8,0:0:0:0:
256,192,376556,1,0,0:0:0:0:
256,192,376737,1,0,0:0:0:0:
256,192,376919,1,8,0:0:0:0:
256,192,377100,1,0,0:0:0:0:
256,192,377281,1,8,0:0:0:0:
256,192,377462,1,8,0:0:0:0:
256,192,377644,1,0,0:0:0:0:
256,192,378006,1,8,0:0:0:0:
256,192,378369,1,0,0:0:0:0:
256,192,378550,1,0,0:0:0:0:
256,192,378732,1,8,0:0:0:0:
256,192,379457,1,8,0:0:0:0:
256,192,379638,1,8,0:0:0:0:
256,192,380000,1,8,0:0:0:0:
256,192,380363,1,0,0:0:0:0:
