osu file format v14

[General]
AudioFilename: paranoid.mp3
AudioLeadIn: 0
PreviewTime: 244402
Countdown: 0
SampleSet: Soft
StackLeniency: 1
Mode: 0
LetterboxInBreaks: 0
WidescreenStoryboard: 1

[Editor]
Bookmarks: 18145,56263,66526
DistanceSpacing: 2.5
BeatDivisor: 4
GridSize: 32
TimelineZoom: 1

[Metadata]
Title:Paranoid Android
TitleUnicode:Paranoid Android
Artist:Radiohead
ArtistUnicode:Radiohead
Creator:-Penta
Version:from a great height
Source:
Tags:english alt alternative prog progressive indie rock marathon ok computer Thom Yorke Jonny Greenwood Colin Ed O'Brien Philip Selway fllecc ergo proxy
BeatmapID:4347095
BeatmapSetID:1989770

[Difficulty]
HPDrainRate:5.2
CircleSize:4.2
OverallDifficulty:8
ApproachRate:9
SliderMultiplier:1.4
SliderTickRate:1

[Events]
//Background and Video events
0,0,"ok-computer-header.jpg",0,0
//Break Periods
//Storyboard Layer 0 (Background)
//Storyboard Layer 1 (Fail)
//Storyboard Layer 2 (Pass)
//Storyboard Layer 3 (Foreground)
//Storyboard Layer 4 (Overlay)
//Storyboard Sound Samples

[TimingPoints]
2658,366.524129505192,4,2,1,35,1,0
2658,-200,4,2,1,35,0,0
2932,-200,4,2,1,5,0,0
3035,366.524129505192,4,2,1,45,1,0
8716,-66.6666666666667,4,2,1,45,0,0
8899,-100,4,2,1,45,0,0
20643,366.524129505192,4,2,1,45,1,0
46757,-76.9230769230769,4,2,1,45,0,0
49964,-100,4,2,1,60,0,0
52805,-100,4,2,1,5,0,0
52897,-294.117647058824,4,2,2,60,0,0
55737,-294.117647058824,4,2,1,5,0,0
55829,-153.846153846153,4,2,1,60,0,0
58761,-100,4,2,1,60,0,0
61602,-100,4,2,1,5,0,0
61693,-212.765957446809,4,2,2,60,0,0
64534,-270.27027027027,4,2,1,5,0,0
64625,-166.666666666667,4,2,1,60,0,0
66091,-166.666666666667,4,2,1,60,0,0
67191,-100,4,2,1,60,0,0
70507,366.524129505192,4,2,1,45,1,0
93598,-100,4,2,1,45,0,0
102761,-166.666666666667,4,2,2,45,0,0
105509,-166.666666666667,4,2,2,5,0,0
105601,-250,4,2,1,5,0,0
105693,-100,4,2,1,45,0,0
111557,-133.333333333333,4,2,2,45,0,0
114398,-270.27027027027,4,2,2,45,0,0
114489,-100,4,2,1,45,0,0
120262,-100,4,2,1,5,0,0
120354,-100,4,2,1,45,0,0
132083,366.524129505192,7,2,1,50,1,0
132083,-100,7,2,1,50,0,0
137947,-83.3333333333333,7,2,1,50,0,0
138497,-100,7,2,1,50,0,0
139413,-66.6666666666667,7,2,1,50,0,0
140146,-133.333333333333,7,2,1,50,0,0
142620,-133.333333333333,7,2,1,5,0,0
142712,366.524129505192,4,2,1,45,1,0
142712,-133.333333333333,4,2,1,45,0,0
144911,-66.6666666666667,4,2,1,45,0,0
145644,-100,4,2,1,45,0,0
148576,-66.6666666666667,4,2,1,45,0,0
149126,-133.333333333333,4,2,1,45,0,0
150775,-66.6666666666667,4,2,1,45,0,0
151508,-100,4,2,1,45,0,0
154441,366.524129505192,7,2,1,50,1,0
155997,-100,7,2,1,5,0,0
156090,-100,7,2,1,50,0,0
156640,-66.6666666666667,7,2,1,50,0,0
157373,-100,7,2,1,50,0,0
163604,-100,7,2,1,50,0,0
165070,366.524129505192,4,2,2,70,1,0
165070,-50,4,2,2,70,0,0
165619,-100,4,2,1,50,0,0
167635,-50,4,2,2,70,0,0
167909,-50,4,2,2,5,0,0
168002,-66.6666666666667,4,2,2,60,0,0
169285,-50,4,2,2,60,0,0
170201,-66.6666666666667,4,2,2,60,0,0
170934,-100,4,2,2,60,0,0
172583,-66.6666666666667,4,2,2,60,0,0
172767,-50,4,2,2,60,0,0
172950,-40,4,2,2,60,0,0
173408,-50,4,2,2,60,0,0
173500,-40,4,2,2,70,0,0
173866,-66.6666666666667,4,2,2,60,0,0
174599,-66.6666666666667,4,2,2,60,0,0
176432,-133.333333333333,4,2,2,60,0,0
176784,366.524129505192,7,2,2,60,1,0
176784,-66.6666666666667,7,2,2,60,0,0
178066,-100,7,2,2,60,0,0
178616,-80,7,2,2,60,0,0
178983,-66.6666666666667,7,2,2,60,0,0
180632,-100,7,2,2,60,0,0
181182,-66.6666666666667,7,2,2,60,0,0
181915,-50,7,2,2,60,0,0
183198,-100,7,2,2,60,0,0
183747,-66.6666666666667,7,2,2,60,0,0
184114,-100,7,2,2,60,0,0
184481,-50,7,2,2,60,0,0
185030,-66.6666666666667,7,2,2,60,0,0
185763,-66.6666666666667,7,2,2,5,0,0
185947,-66.6666666666667,7,2,2,60,0,0
187413,366.524129505192,4,2,2,70,1,1
189978,-50,4,2,2,70,0,1
193277,-50,4,2,2,75,0,1
194193,-100,4,2,2,75,0,1
194743,-50,4,2,2,75,0,1
199141,366.524129505192,7,2,2,75,1,1
199141,-50,7,2,2,75,0,1
203172,-66.6666666666667,7,2,2,75,0,1
204272,-50,7,2,2,75,0,1
209586,-50,7,2,1,75,0,1
209772,420.462508759636,4,2,99,60,1,0
210612,-100,4,2,99,60,0,0
211453,-100,4,2,2,50,0,0
212294,-100,4,2,2,50,0,0
213135,-100,4,2,2,30,0,0
213976,-100,4,2,2,30,0,0
214817,-100,4,2,2,20,0,0
216394,-100,4,2,2,5,0,0
216483,477.13717693837,4,2,1,30,1,0
245107,-90.9090909090909,4,2,1,30,0,0
247015,-100,4,2,1,40,0,0
264196,-66.6666666666667,4,2,1,40,0,0
265150,-83.3333333333333,4,2,1,40,0,0
267059,-83.3333333333333,4,2,1,40,0,0
268013,-66.6666666666667,4,2,1,40,0,0
271711,-66.6666666666667,4,2,1,5,0,0
271830,-100,4,2,1,40,0,0
275528,-100,4,2,1,5,0,0
275648,-100,4,2,1,40,0,0
277552,-90.9090909090909,4,2,1,40,0,0
286383,-66.6666666666667,4,2,1,40,0,0
289007,-83.3333333333333,4,2,1,40,0,0
302248,-90.9090909090909,4,2,1,5,0,0
302367,-90.9090909090909,4,2,1,40,0,0
306065,-90.9090909090909,4,2,1,5,0,0
306184,-90.9090909090909,4,2,1,40,0,0
308093,-83.3333333333333,4,2,1,40,0,0
308570,-133.333333333333,4,2,1,40,0,0
309047,-66.6666666666667,4,2,1,40,0,0
309524,-83.3333333333333,4,2,1,40,0,0
310956,-58.8235294117647,4,2,1,40,0,0
311433,-83.3333333333333,4,2,1,40,0,0
312387,-90.9090909090909,4,2,1,40,0,0
312864,-71.4285714285714,4,2,1,40,0,0
313341,-83.3333333333333,4,2,1,40,0,0
316204,-133.333333333333,4,2,1,40,0,0
316681,-66.6666666666667,4,2,1,40,0,0
317158,-83.3333333333333,4,2,1,40,0,0
318113,-76.9230769230769,4,2,1,40,0,0
318590,-74.0740740740741,4,2,1,40,0,0
319067,-83.3333333333333,4,2,1,40,0,0
320021,-71.4285714285714,4,2,1,40,0,0
320498,-66.6666666666667,4,2,1,40,0,0
320976,-76.9230769230769,4,2,1,40,0,0
321453,-57.1428571428571,4,2,1,40,0,0
322407,-83.3333333333333,4,2,1,40,0,0
323123,-50,4,2,1,40,0,0
323361,-57.1428571428571,4,2,1,40,0,0
324316,-76.9230769230769,4,2,1,40,0,0
324793,-83.3333333333333,4,2,1,40,0,0
328133,-76.9230769230769,4,2,1,40,0,0
328610,-83.3333333333333,4,2,1,40,0,0
329087,-100,4,2,1,40,0,0
331473,-100,4,2,1,40,0,0
336717,-100,4,2,1,40,0,0
337671,-125,4,2,1,40,0,0
338661,366.524129505192,4,2,1,40,1,0
341225,-66.6666666666667,4,2,3,70,0,0
341501,-66.6666666666667,4,2,3,5,0,0
341593,-80,4,2,2,60,0,1
344525,-100,4,2,2,50,0,0
344891,-100,4,2,2,60,0,0
345258,-100,4,2,2,70,0,0
345624,-100,4,2,2,60,0,0
345991,-100,4,2,2,60,0,0
346358,-100,4,2,2,60,0,0
346541,-100,4,2,2,60,0,0
346724,-100,4,2,2,60,0,0
346907,-100,4,2,2,60,0,0
347365,-100,4,2,2,5,0,0
347457,-80,4,2,2,60,0,1
349656,-500,4,2,2,80,0,1
350022,-133.333333333333,4,2,2,70,0,1
350298,-57.1428571428571,4,2,2,80,0,0
350393,366.524129505192,7,2,2,75,1,0
350393,-50,7,2,2,75,0,1
350571,-57.1428571428571,7,2,2,75,0,1
351126,-50,7,2,2,75,0,1
351304,-30.7692307692308,7,2,2,75,0,1
351492,361.44578313253,7,2,2,75,1,1
351492,-66.6666666666667,7,2,2,75,0,1
351672,-50,7,2,2,75,0,1
352214,-57.1428571428571,7,2,2,75,0,1
352395,-66.6666666666667,7,2,2,75,0,1
352928,375,7,2,2,75,1,1
352928,-57.1428571428571,7,2,2,75,0,1
353115,-50,7,2,2,75,0,1
353663,375,7,2,2,75,1,1
353663,-50,7,2,2,75,0,1
353850,-30.7692307692308,7,2,2,75,0,1
354053,366.524129505192,7,2,2,75,1,1
354053,-66.6666666666667,7,2,2,75,0,1
354236,-50,7,2,2,75,0,1
354969,-40,7,2,2,75,0,1
355519,-57.1428571428571,7,2,2,75,0,1
356068,-50,7,2,2,75,0,1
356252,-50,7,2,2,75,0,1
356618,-66.6666666666667,7,2,2,75,0,1
356801,-50,7,2,2,75,0,1
357351,365.853658536585,7,2,2,75,1,1
357351,-50,7,2,2,75,0,1
357533,-47.6190476190476,7,2,2,75,0,1
357716,-100,7,2,2,75,0,1
358082,-57.1428571428571,7,2,2,75,0,1
358631,-50,7,2,2,75,0,1
358814,-50,7,2,2,75,0,1
358997,-30.7692307692308,7,2,2,75,0,1
359180,359.281437125748,7,2,2,75,1,1
359539,-40,7,2,2,75,0,0
359718,-100,7,2,2,75,0,0
360617,379.746835443038,7,2,2,75,1,0
360996,368.098159509202,7,2,2,75,1,1
361088,-100,7,2,2,75,0,0
363582,366.524129505192,4,2,2,75,1,0
363948,366.524129505192,4,2,2,60,1,1
363948,-50,4,2,2,60,0,1
364681,-80,4,2,1,60,0,1
365414,-57.1428571428571,4,2,2,60,0,1
365597,-44.4444444444445,4,2,2,60,0,1
365780,-57.1428571428571,4,2,2,60,0,1
365963,-44.4444444444445,4,2,2,60,0,1
366147,-50,4,2,2,60,0,1
366513,-100,4,2,2,60,0,1
366788,-50,4,2,2,60,0,0
366880,-50,4,2,2,60,0,1
367429,-66.6666666666667,4,2,2,60,0,1
367613,-50,4,2,2,60,0,1
367979,-100,4,2,2,60,0,1
368346,-40,4,2,2,60,0,1
369812,-50,4,2,2,60,0,1
370362,-66.6666666666667,4,2,2,60,0,1
370728,-44.4444444444445,4,2,2,60,0,1
371288,363.636363636364,4,2,2,65,1,1
371288,-44.4444444444445,4,2,2,65,0,1
372197,-100,4,2,2,65,0,1
372651,-100,4,2,2,65,0,0
372742,-30.00300030003,7,2,2,75,0,1
373106,-50,7,2,2,75,0,1
373469,375,7,2,2,75,1,1
373656,-66.6666666666667,7,2,2,75,0,1
373844,-50,7,2,2,75,0,1
374031,-40,7,2,2,75,0,1
374219,-33.3333333333333,7,2,2,75,0,1
374406,-66.6666666666667,7,2,2,75,0,1
374594,348.837209302326,7,2,2,75,1,1
374594,-33.3333333333333,7,2,2,75,0,1
374768,-66.6666666666667,7,2,2,75,0,1
374942,-33.3333333333333,7,2,2,75,0,1
375117,-66.6666666666667,7,2,2,75,0,1
375291,382.165605095541,7,2,2,75,1,1
375291,-25,7,2,2,75,0,1
375673,-50,7,2,2,75,0,1
376055,359.820089955022,7,2,2,75,1,1
376055,-40,7,2,2,75,0,1
376414,-50,7,2,2,75,0,1
376594,-40,7,2,2,75,0,1
376774,-33.3333333333333,7,2,2,75,0,1
376954,-66.6666666666667,7,2,2,75,0,1
377134,-33.3333333333333,7,2,2,75,0,1
377314,-66.6666666666667,7,2,2,75,0,1
377494,365.853658536585,7,2,2,75,1,1
377494,-33.3333333333333,7,2,2,75,0,1
377676,-66.6666666666667,7,2,2,75,0,1
377859,364.188163884674,7,2,2,75,1,1
377859,-30.00003000003,7,2,2,75,0,1
378223,-50,7,2,2,75,0,1
378587,-40,7,2,2,75,0,1
378951,-66.6666666666667,7,2,2,75,0,1
379315,-33.3333333333333,7,2,2,75,0,1
379497,-66.6666666666667,7,2,2,75,0,1
379679,-33.3333333333333,7,2,2,75,0,1
379862,-66.6666666666667,7,2,2,75,0,1
380044,357.142857142857,7,2,2,75,1,1
380044,-66.6666666666667,7,2,2,75,0,1
380222,-66.6666666666667,7,2,2,75,0,1
380401,375,7,2,2,75,1,1
380401,-20,7,2,2,75,0,1
380776,-50,7,2,2,75,0,1
380963,-49.5049504950495,7,2,2,75,0,1
381151,364.741641337386,7,2,2,75,1,1
381151,-40,7,2,2,75,0,1
381515,-50,7,2,2,75,0,1
381880,375,7,2,2,75,1,1
381880,-100,7,2,2,75,0,0
382817,-166.666666666667,7,2,2,75,0,0
383192,-100,7,2,2,5,0,0

[Colours]
Combo1 : 188,121,255
Combo2 : 0,255,255
Combo3 : 192,192,192

[HitObjects]
118,192,2658,6,0,B|110:168|110:168|111:202,1,52.5
137,303,3035,5,0,1:0:0:0:
137,303,3401,1,0,1:0:0:0:
51,269,3584,2,0,P|47:306|64:354,1,70,2|8,1:2|0:0,0:0:0:0:
286,370,3951,5,2,3:2:0:0:
215,350,4134,1,0,0:0:0:0:
286,370,4317,1,0,1:0:0:0:
215,350,4501,5,0,0:0:0:0:
351,310,4684,1,0,1:0:0:0:
215,350,4867,1,0,0:0:0:0:
351,310,5050,6,0,P|356:272|344:229,1,70,2|8,1:2|0:0,0:0:0:0:
349,241,5417,1,2,3:2:0:0:
173,110,5600,6,0,L|178:160,1,35
171,218,5783,2,0,P|168:192|171:158,1,35,2|0,0:0|0:0,0:0:0:0:
257,6,5967,5,2,1:3:0:0:
257,6,6333,5,0,1:0:0:0:
308,66,6516,2,0,P|341:60|386:32,1,70,2|8,1:2|0:0,0:0:0:0:
171,36,6883,5,2,3:2:0:0:
97,63,7066,1,0,0:0:0:0:
171,36,7250,1,0,1:0:0:0:
23,18,7433,6,0,B|24:59|24:59|8:100,1,70,0|0,0:0|1:0,0:0:0:0:
13,86,7799,1,0,0:0:0:0:
194,142,7983,6,0,L|294:158,1,70,2|8,1:2|0:0,0:0:0:0:
92,225,8349,2,0,L|161:213,1,70,10|0,0:0|0:0,0:0:0:0:
14,171,8624,1,0,0:0:0:0:
14,171,8716,1,0,0:0:0:0:
146,339,8899,6,0,P|110:357|75:353,1,70,0|0,1:0|0:0,0:0:0:0:
8,297,9265,2,0,P|26:288|52:292,1,35,0|0,1:0|0:0,0:0:0:0:
221,371,9449,6,0,L|234:302,1,70,2|8,1:2|0:0,0:0:0:0:
272,237,9815,1,2,3:2:0:0:
272,237,9998,1,0,0:0:0:0:
233,302,10182,22,0,P|251:311|277:307,1,35,0|0,1:0|0:0,0:0:0:0:
480,263,10365,1,0,0:0:0:0:
409,235,10548,1,0,1:0:0:0:
358,290,10732,1,0,0:0:0:0:
425,314,10915,1,2,1:2:0:0:
469,157,11098,6,0,B|470:116|470:116|480:70,1,70,8|2,0:0|3:2,0:0:0:0:
257,250,11465,2,0,L|261:301,1,35
258,333,11648,2,0,L|255:299,1,35
329,167,11831,6,0,B|333:143|333:143|385:102|371:28,1,140,2|0,1:2|1:0,0:0:0:0:
149,72,12381,1,0,1:0:0:0:
232,69,12564,2,0,B|219:79|219:79|186:78|158:107,1,70,8|0,0:0|3:0,0:0:0:0:
45,214,12931,2,0,B|56:239|56:239|130:224|167:268,1,140,2|0,0:0|0:0,0:0:0:0:
161,261,13480,1,0,1:0:0:0:
321,207,13664,6,0,B|321:196|321:196|345:187|363:150,1,70,2|0,0:0|1:0,0:0:0:0:
264,297,14030,2,0,B|264:308|264:308|288:317|306:354,1,70,10|0,0:0|3:0,0:0:0:0:
406,250,14397,2,0,B|413:266|413:266|449:218|489:217,1,105,2|0,0:3|0:0,0:0:0:0:
482,217,14763,6,0,B|481:191|481:191|513:137|481:69,1,140,2|0,1:2|1:0,0:0:0:0:
348,145,15313,2,0,P|381:142|425:120,1,70,2|8,1:2|0:0,0:0:0:0:
231,47,15680,1,2,3:2:0:0:
307,65,15863,1,0,0:0:0:0:
231,47,16046,1,0,1:0:0:0:
187,117,16229,6,0,B|193:146|193:146|185:198,1,70,0|0,0:0|1:0,0:0:0:0:
262,12,16596,2,0,B|285:30|285:30|312:75,1,70,0|2,0:0|1:2,0:0:0:0:
76,143,16962,1,8,0:0:0:0:
100,35,17146,5,2,3:2:0:0:
76,143,17329,1,0,0:0:0:0:
100,35,17512,1,0,0:0:0:0:
16,213,17695,6,0,B|18:244|18:244|76:248|110:315,1,140,2|0,1:2|1:0,0:0:0:0:
41,371,18245,1,0,1:0:0:0:
41,371,18429,2,0,B|55:364|55:364|82:384|126:374,1,70,8|0,0:0|3:0,0:0:0:0:
301,252,18795,2,0,B|288:264|288:264|223:245|172:306,1,140,2|0,0:0|0:0,0:0:0:0:
178,299,19345,1,0,1:0:0:0:
253,349,19528,5,2,0:0:0:0:
247,265,19711,1,0,1:0:0:0:
150,377,19895,1,10,0:0:0:0:
338,295,20078,1,8,0:0:0:0:
150,377,20261,2,0,L|138:307,1,70,2|0,0:3|0:0,0:0:0:0:
220,164,20643,6,0,B|179:144|179:198|283:203|288:118,1,140,2|0,1:2|1:0,0:0:0:0:
284,136,21192,1,0,1:0:0:0:
170,75,21376,2,0,P|153:41|147:-2,1,70,10|0,0:0|3:0,0:0:0:0:
421,43,21742,5,2,0:0:0:0:
434,114,21925,1,0,1:0:0:0:
492,64,22109,1,0,0:0:0:0:
421,43,22292,1,0,1:0:0:0:
358,95,22475,2,0,P|365:137|385:176,1,70,2|0,0:0|1:0,0:0:0:0:
505,300,22842,5,8,0:0:0:0:
432,268,23025,1,0,3:0:0:0:
289,374,23208,6,0,B|322:335|216:284|230:379|289:338,1,105,2|0,0:0|0:0,0:0:0:0:
309,296,23575,6,0,B|326:264|316:215,1,70,0|0,1:0|0:0,0:0:0:0:
203,171,23941,1,2,1:2:0:0:
150,115,24124,1,0,1:0:0:0:
183,43,24308,1,8,0:0:0:0:
239,99,24491,1,0,3:0:0:0:
138,247,24674,6,0,B|68:236|79:279|2:266,1,140,2|0,0:0|0:0,0:0:0:0:
2,266,25224,1,0,1:0:0:0:
214,204,25407,6,0,B|212:280|250:265|243:348,1,140,2|8,0:0|0:0,0:0:0:0:
243,338,25957,1,0,3:0:0:0:
291,141,26140,5,2,0:0:0:0:
257,111,26324,1,0,0:0:0:0:
256,60,26507,22,0,P|290:60|326:29,1,70,2|0,1:2|0:0,0:0:0:0:
111,105,26873,2,0,P|159:114|187:141,1,70,2|0,1:2|1:0,0:0:0:0:
372,132,27240,5,8,0:0:0:0:
291,141,27423,2,0,B|362:120,1,70,0|2,3:0|0:0,0:0:0:0:
26,28,27790,22,0,P|48:37|73:33,1,35,0|0,1:0|0:0,0:0:0:0:
212,70,27973,1,0,0:0:0:0:
193,59,28157,1,0,1:0:0:0:
150,64,28340,1,2,0:0:0:0:
131,115,28523,1,0,1:0:0:0:
163,175,28706,1,8,0:0:0:0:
237,188,28890,5,0,3:0:0:0:
78,229,29073,1,2,0:0:0:0:
259,200,29256,1,2,0:0:0:0:
195,303,29439,6,0,B|295:267|285:388|387:344,1,210,2|0,1:2|1:0,0:0:0:0:
464,242,30172,1,10,0:0:0:0:
512,165,30355,1,0,3:0:0:0:
512,354,30539,6,0,B|411:397|421:276|321:312,1,210,2|0,0:0|1:0,0:0:0:0:
166,355,31272,2,0,B|128:360|98:346,1,70,2|0,0:0|1:0,0:0:0:0:
260,169,31638,2,0,B|290:164|329:176,1,70,10|0,0:0|3:0,0:0:0:0:
70,128,32005,5,2,0:3:0:0:
70,128,32188,1,0,0:0:0:0:
329,176,32371,6,0,P|254:182|195:225,1,140,0|0,1:2|1:0,0:0:0:0:
0,110,32921,2,0,P|45:117|84:142,1,70,2|8,1:2|0:0,0:0:0:0:
165,7,33288,1,2,3:2:0:0:
150,88,33471,1,0,0:0:0:0:
165,7,33654,1,0,1:0:0:0:
260,169,33837,6,0,B|247:185|247:185|234:240,1,70,0|0,0:0|1:0,0:0:0:0:
238,70,34204,1,0,0:0:0:0:
287,16,34387,2,0,B|307:18|307:18|361:2,1,70,2|8,1:2|0:0,0:0:0:0:
460,166,34754,1,2,3:2:0:0:
452,150,34937,1,0,0:0:0:0:
421,131,35120,1,0,0:0:0:0:
346,138,35303,6,0,B|314:151|303:185|303:185|352:184|376:236,1,140,2|0,1:2|1:0,0:0:0:0:
245,362,35853,1,0,1:0:0:0:
181,323,36037,2,0,P|172:286|172:243,1,70,8|0,0:0|3:0,0:0:0:0:
490,324,36403,6,0,B|456:303|424:314|424:314|399:354|351:343,1,140,2|0,0:0|0:0,0:0:0:0:
262,198,36953,1,0,1:0:0:0:
365,217,37136,1,2,0:0:0:0:
365,217,37319,1,0,1:0:0:0:
216,92,37503,5,10,0:0:0:0:
24,160,37686,1,8,0:0:0:0:
232,0,37869,5,2,0:3:0:0:
232,0,38236,6,0,P|247:56|228:135,1,140,0|0,1:0|1:0,0:0:0:0:
99,140,38785,1,0,1:0:0:0:
228,134,38969,2,0,P|205:100|166:83,1,70,10|0,0:0|3:0,0:0:0:0:
196,225,39335,5,2,0:0:0:0:
298,248,39518,1,0,1:0:0:0:
299,173,39702,1,0,0:0:0:0:
196,225,39885,1,0,1:0:0:0:
339,324,40068,6,0,B|416:336|389:382|479:368,1,140,2|8,0:0|0:0,0:0:0:0:
466,369,40618,1,0,3:0:0:0:
198,322,40801,2,0,P|238:312|266:293,1,70,2|0,0:0|0:0,0:0:0:0:
330,117,41168,5,2,1:3:0:0:
330,117,41534,5,2,1:2:0:0:
279,174,41718,2,0,P|277:128|278:95,1,70,0|8,1:0|0:0,0:0:0:0:
457,25,42084,1,0,3:0:0:0:
508,73,42267,5,2,0:0:0:0:
509,3,42451,1,0,1:0:0:0:
342,37,42634,6,0,L|226:14,1,105,2|0,0:0|0:0,0:0:0:0:
178,63,43000,2,0,P|185:107|188:143,1,70,2|0,0:0|1:0,0:0:0:0:
500,232,43367,5,8,0:0:0:0:
374,174,43550,1,0,3:0:0:0:
272,247,43734,1,2,0:0:0:0:
194,166,43917,22,0,P|190:148|187:131,1,35
255,368,44100,5,2,1:3:0:0:
255,368,44467,1,2,1:2:0:0:
358,293,44650,2,0,P|352:334|351:373,1,70,0|8,1:0|0:0,0:0:0:0:
119,353,45016,5,0,3:0:0:0:
156,267,45200,1,2,0:0:0:0:
237,297,45383,1,0,1:0:0:0:
194,377,45566,1,0,0:0:0:0:
73,282,45749,1,0,1:0:0:0:
182,245,45933,1,2,0:0:0:0:
103,374,46116,1,0,1:0:0:0:
45,247,46299,1,8,0:0:0:0:
251,319,46482,1,0,3:0:0:0:
70,384,46666,5,2,0:0:0:0:
93,159,46849,2,0,P|95:180|113:206,1,45.4999979171754,2|0,0:3|0:0,0:0:0:0:
107,200,47032,6,0,B|166:219|92:76|-22:164,1,181.999991668702,2|0,1:2|1:0,0:0:0:0:
237,117,47582,5,0,1:0:0:0:
256,92,47765,1,10,0:0:0:0:
246,48,47949,1,0,3:0:0:0:
252,217,48132,5,2,0:0:0:0:
252,217,48682,5,2,0:0:0:0:
121,279,48865,2,0,B|107:297|157:325|199:271,1,90.9999958343508,2|0,0:0|0:0,0:0:0:0:
254,0,49231,5,2,0:0:0:0:
254,0,49964,6,0,L|244:146,1,140,6|0,1:0|1:2,0:0:0:0:
219,360,50514,2,0,L|205:276,1,70,2|8,1:0|0:0,0:0:0:0:
254,0,50881,6,0,B|294:9|294:9|333:47|333:47|392:58,1,140,2|0,3:1|1:0,0:0:0:0:
481,222,51431,2,0,L|401:233,1,70,2|0,0:1|1:0,0:0:0:0:
162,153,51797,1,0,0:2:0:0:
186,80,51980,1,2,1:2:0:0:
242,192,52164,6,0,B|314:209|177:46|81:217|131:256,1,245,10|0,0:1|0:0,0:0:0:0:
37,184,52897,6,2,B|17:221|-30:179|-17:115|100:126|296:154|307:352|105:324|72:254|114:239|135:256,1,368.900002251587,6|0,1:0|0:0,0:2:0:0:
217,326,55829,5,2,1:0:0:0:
42,371,56195,1,0,1:2:0:0:
42,371,56379,2,0,L|39:317,1,45.4999979171754,2|8,1:0|0:0,0:0:0:0:
131,249,56745,6,0,B|123:320|123:320|134:391,1,136.499993751526,2|2,3:1|0:1,0:0:0:0:
244,234,57661,1,0,0:2:0:0:
309,188,57845,2,0,B|316:147|316:147|307:87,1,90.9999958343508,2|2,1:0|0:3,0:0:0:0:
144,44,58394,1,0,3:0:0:0:
151,117,58578,1,2,0:0:0:0:
236,233,58761,6,0,L|238:372,1,140,6|0,1:0|1:2,0:0:0:0:
319,293,59311,1,2,1:0:0:0:
489,312,59677,6,0,B|503:251|503:251|483:160,1,140,2|0,3:1|1:0,0:0:0:0:
511,99,60227,1,2,0:1:0:0:
407,247,60410,2,0,B|395:308|395:308|415:399,1,140,0|2,1:0|1:2,0:0:0:0:
375,162,60960,6,0,B|281:177|216:63|127:94,1,245,10|0,0:1|0:0,0:0:0:0:
0,119,61693,6,2,B|-29:99|-59:115|-26:192|141:249|285:-44|143:-91|-76:-93|-9:33|61:119|149:89,1,509.949992218781,6|0,1:0|0:0,0:2:0:0:
146,89,64625,6,0,B|179:114|179:114|231:110,1,83.9999974365235,2|0,1:0|1:0,0:0:0:0:
221,111,65175,1,2,1:0:0:0:
364,35,65542,2,0,L|449:26,1,83.9999974365235,2|0,3:1|0:0,0:0:0:0:
262,102,66091,6,0,L|221:110,1,41.9999987182618,2|0,0:1|1:0,0:0:0:0:
221,110,66458,1,0,0:2:0:0:
322,170,66641,2,0,L|416:190,1,83.9999974365235,2|2,1:0|3:1,0:0:0:0:
404,187,67191,1,0,0:0:0:0:
404,187,67374,1,0,0:0:0:0:
226,198,67558,5,2,1:0:0:0:
257,298,67924,1,0,1:0:0:0:
257,298,68107,1,2,1:0:0:0:
231,112,68474,1,2,3:1:0:0:
268,43,68840,1,0,1:0:0:0:
137,122,69024,5,2,0:1:0:0:
268,43,69390,1,0,0:0:0:0:
268,43,69573,1,2,1:0:0:0:
231,112,69940,1,2,3:1:0:0:
352,204,70507,6,0,B|428:203|407:252|502:248,1,140,4|0,1:2|1:0,0:0:0:0:
345,304,71056,1,0,1:0:0:0:
345,304,71240,2,0,B|338:338|338:338|349:379,1,70,10|0,0:0|3:0,0:0:0:0:
503,195,71606,5,2,0:0:0:0:
512,117,71789,1,0,1:0:0:0:
460,63,71973,1,0,0:0:0:0:
400,74,72156,1,0,1:0:0:0:
374,118,72339,2,0,P|419:125|451:113,1,70,2|0,0:0|1:0,0:0:0:0:
232,34,72706,5,8,0:0:0:0:
306,57,72889,1,0,3:0:0:0:
232,34,73072,2,0,B|197:46|197:46|177:68|177:68|110:86,1,105,2|0,0:0|0:0,0:0:0:0:
1,107,73439,6,0,B|75:124|52:161|136:156,1,140,0|0,1:0|1:0,0:0:0:0:
55,11,73988,1,0,1:0:0:0:
55,11,74172,2,0,P|57:48|66:86,1,70,10|0,0:0|3:0,0:0:0:0:
193,202,74538,6,0,P|204:137|184:78,1,105,2|0,0:0|0:0,0:0:0:0:
128,156,74905,1,0,0:0:0:0:
128,156,75088,1,0,1:0:0:0:
298,219,75271,2,0,L|218:226,1,70,2|0,0:0|1:0,0:0:0:0:
39,374,75638,5,8,0:0:0:0:
78,306,75821,1,0,3:0:0:0:
75,384,76004,1,2,0:0:0:0:
31,237,76188,1,2,0:3:0:0:
31,237,76371,6,0,B|84:170|158:195|158:195,1,140,0|2,1:0|1:2,0:0:0:0:
281,302,76921,1,0,1:0:0:0:
281,302,77104,1,8,0:0:0:0:
213,249,77287,2,0,P|287:262|356:229,1,140,0|0,3:0|1:0,0:0:0:0:
448,288,77837,2,0,L|453:359,1,70,0|0,0:0|1:0,0:0:0:0:
452,357,78204,1,2,0:0:0:0:
512,145,78387,2,0,L|507:216,1,70,0|8,1:0|0:0,0:0:0:0:
385,121,78753,5,0,3:0:0:0:
346,57,78937,1,2,0:0:0:0:
413,94,79120,1,2,0:0:0:0:
272,149,79303,6,0,B|239:159|239:159|177:122|119:150,1,140,2|0,1:2|1:0,0:0:0:0:
198,35,79853,1,0,1:0:0:0:
265,0,80036,2,0,P|251:43|228:66,1,70,10|0,0:0|3:0,0:0:0:0:
0,102,80403,6,0,B|19:115|19:115|56:55|127:58,1,140,2|0,0:0|0:0,0:0:0:0:
177,227,80952,1,0,1:0:0:0:
92,212,81136,2,0,P|122:183|151:175,1,70,2|0,0:0|1:0,0:0:0:0:
368,356,81502,5,10,0:0:0:0:
290,322,81685,1,0,3:0:0:0:
290,322,81869,1,0,0:0:0:0:
213,367,82052,1,0,0:0:0:0:
276,234,82235,6,0,B|355:247|336:288|422:275,1,140,0|0,1:0|1:0,0:0:0:0:
477,238,82785,2,0,P|486:202|481:156,1,70,2|8,1:2|0:0,0:0:0:0:
337,26,83152,2,0,P|325:75|331:172,1,140,2|0,3:2|1:0,0:0:0:0:
512,65,83701,5,0,0:0:0:0:
444,33,83885,1,0,1:0:0:0:
407,102,84068,1,0,0:0:0:0:
472,169,84251,2,0,P|470:212|482:251,1,70,2|8,1:2|0:0,0:0:0:0:
252,193,84618,5,2,3:2:0:0:
341,242,84801,1,0,0:0:0:0:
252,193,84984,1,2,0:0:0:0:
341,242,85167,6,0,B|318:263|318:263|258:245|199:315,1,140,2|0,1:2|1:0,0:0:0:0:
126,192,85717,1,0,1:0:0:0:
193,161,85901,2,0,B|199:172|199:172|230:171|257:198,1,70,10|0,0:0|3:0,0:0:0:0:
184,384,86267,6,0,B|146:368|146:368|156:314|110:248,1,140,2|0,1:2|0:0,0:0:0:0:
21,313,86817,1,0,1:0:0:0:
125,273,87000,2,0,P|85:260|61:238,1,70,2|0,0:0|1:0,0:0:0:0:
219,293,87367,5,10,0:0:0:0:
51,384,87733,1,0,0:0:0:0:
369,378,88100,6,0,B|355:328|355:328|370:279|370:279|368:229,1,140,4|0,1:2|1:0,0:0:0:0:
368,242,88649,1,0,1:0:0:0:
304,141,88833,2,0,P|296:171|306:219,1,70,10|0,0:0|3:0,0:0:0:0:
512,124,89199,6,0,B|440:138|458:177|369:155,1,140,2|0,0:0|0:0,0:0:0:0:
380,157,89749,1,0,1:0:0:0:
432,68,89932,2,0,P|438:33|430:0,1,70,2|0,0:0|1:0,0:0:0:0:
232,127,90299,5,8,0:0:0:0:
302,2,90482,1,0,3:0:0:0:
432,68,90665,5,2,0:0:0:0:
355,95,90849,1,0,0:0:0:0:
205,14,91032,6,0,B|134:7|146:54|65:39,1,140,0|2,1:2|1:2,0:0:0:0:
202,192,91582,2,0,P|206:158|203:113,1,70,0|8,1:0|0:0,0:0:0:0:
5,156,91948,5,0,3:0:0:0:
38,225,92131,1,2,0:0:0:0:
90,249,92315,1,0,1:0:0:0:
130,239,92498,6,0,P|134:303|127:354,1,105
65,372,92864,2,0,L|-15:378,1,70,2|0,0:0|0:0,0:0:0:0:
260,209,93231,6,0,P|254:283|266:324,1,105,0|0,1:0|0:0,0:0:0:0:
338,365,93598,2,0,L|418:371,1,70,2|0,0:0|0:0,0:0:0:0:
450,250,93964,6,0,P|423:208|328:198,1,140,0|2,1:2|1:2,0:0:0:0:
458,116,94514,2,0,B|455:150|455:150|460:195,1,70,0|8,1:0|0:0,0:0:0:0:
273,137,94880,2,0,B|284:72|284:72|265:-15,1,140,0|0,3:0|1:0,0:0:0:0:
427,35,95430,5,0,0:0:0:0:
353,20,95613,1,0,1:0:0:0:
196,100,95797,6,0,B|127:113|140:152|58:139,1,140,2|8,0:0|0:0,0:0:0:0:
111,36,96346,1,0,3:0:0:0:
111,36,96530,2,0,P|154:48|166:95,1,70,2|0,0:0|0:0,0:0:0:0:
71,264,96896,6,0,B|91:273|91:273|146:234|215:257,1,140,2|0,1:2|1:0,0:0:0:0:
18,328,97446,1,0,1:0:0:0:
18,328,97629,2,0,P|55:355|87:357,1,70,10|0,0:0|3:0,0:0:0:0:
315,267,97996,6,0,B|307:290|307:290|250:314|235:384,1,140,2|2,0:2|0:0,0:0:0:0:
443,370,98546,1,0,1:0:0:0:
443,370,98729,5,2,0:0:0:0:
243,111,99095,1,10,0:0:0:0:
243,111,99462,5,2,0:3:0:0:
313,159,99645,1,0,0:0:0:0:
112,234,99828,6,0,B|75:238|75:238|35:280|35:280|-21:289,1,140,6|0,1:0|1:2,0:0:0:0:
92,123,100378,6,0,L|106:42,1,70,2|8,1:0|0:0,0:0:0:0:
215,246,100745,2,0,L|193:408,1,140,2|0,3:1|1:0,0:0:0:0:
293,163,101295,1,2,0:0:0:0:
227,126,101478,2,0,L|367:142,1,140,2|0,1:0|1:0,0:0:0:0:
484,329,102028,6,0,B|519:364|539:314|480:241|381:240|364:315,1,210,10|0,0:1|0:0,0:0:0:0:
70,284,102761,6,2,B|-87:168|58:-31|325:38|161:81|323:222|43:79|96:311,1,629.999980773926,6|0,1:0|0:0,0:2:0:0:
94,301,105693,6,0,L|235:319,1,140,0|0,1:0|1:2,0:0:0:0:
364,287,106243,1,2,1:0:0:0:
364,287,106609,2,0,B|322:284|322:284|280:237|280:237|246:229,1,140,2|0,3:1|1:0,0:0:0:0:
455,284,107159,6,0,L|447:360,1,70,2|2,0:0|1:0,0:0:0:0:
447,353,107525,1,0,0:0:0:0:
447,145,107709,6,0,L|456:293,1,140,2|2,1:0|0:3,0:0:0:0:
455,284,108258,1,2,3:0:0:0:
455,284,108442,1,0,0:0:0:0:
380,91,108625,6,0,B|338:103|338:103|311:151|311:151|252:166,1,140,6|0,1:0|1:2,0:0:0:0:
120,137,109175,2,0,L|205:151,1,70,2|8,1:0|0:0,0:0:0:0:
162,384,109541,2,0,L|139:229,1,140,2|0,3:1|1:0,0:0:0:0:
290,50,110091,2,0,B|311:115|311:115|283:200,1,140,2|0,0:0|0:0,0:0:0:0:
20,192,110641,5,2,1:3:0:0:
198,43,110824,2,0,B|208:-9|98:3|66:99|130:146,1,210,10|0,0:1|0:0,0:0:0:0:
451,353,111557,6,2,B|622:149|315:124|534:2|135:-8|102:356|456:82|444:330,1,735.000028038026,6|0,1:0|0:0,0:2:0:0:
258,323,114489,6,0,L|92:338,1,140,2|0,1:0|1:2,0:0:0:0:
116,172,115039,2,0,B|116:208|116:208|133:237,1,70,2|8,1:0|0:0,0:0:0:0:
246,371,115406,6,0,L|261:221,1,140,2|0,3:1|1:0,0:0:0:0:
220,104,115955,2,0,B|203:133|203:133|203:169,1,70,2|0,0:1|1:0,0:0:0:0:
347,306,116322,1,0,0:2:0:0:
338,204,116505,6,0,L|346:292,1,70,2|8,1:0|0:0,0:0:0:0:
307,126,116872,1,0,3:2:0:0:
322,50,117055,1,0,0:0:0:0:
307,126,117238,1,0,0:0:0:0:
182,32,117422,6,0,B|154:35|154:35|116:91|116:91|58:104,1,140,2|0,1:0|1:2,0:0:0:0:
21,51,117971,5,2,1:0:0:0:
81,187,118338,1,2,3:1:0:0:
28,301,118704,1,0,1:0:0:0:
235,240,118888,5,2,0:1:0:0:
161,368,119254,1,0,0:2:0:0:
161,368,119437,1,2,1:0:0:0:
256,192,119529,12,0,120262,0:0:0:0:
346,189,120354,6,0,P|378:185|436:178,1,70,0|0,1:2|0:0,0:0:0:0:
277,234,120720,2,0,P|242:229|164:234,1,105,0|0,1:2|0:0,0:0:0:0:
172,232,121087,1,10,0:0:0:0:
236,122,121270,2,0,P|247:155|248:204,1,70,2|0,3:2|0:0,0:0:0:0:
94,371,121637,6,0,P|100:318|88:256,1,105,0|0,1:2|0:0,0:0:0:0:
91,267,122003,2,0,P|79:216|79:188,1,70,0|0,1:2|0:0,0:0:0:0:
302,330,122370,5,0,1:0:0:0:
226,310,122553,1,10,0:0:0:0:
94,371,122736,5,0,3:0:0:0:
14,378,122919,2,0,P|49:359|92:351,1,70,2|0,0:0|0:0,0:0:0:0:
240,351,123286,6,0,P|293:346|355:340,1,105,0|0,1:2|0:0,0:0:0:0:
344,341,123652,2,0,P|350:301|353:259,1,70,0|0,1:2|1:0,0:0:0:0:
247,172,124019,1,10,0:0:0:0:
181,221,124202,2,0,P|223:213|268:206,1,70,2|0,3:2|0:0,0:0:0:0:
497,153,124569,6,0,B|431:139|429:190|354:166,1,140,0|2,1:2|1:2,0:0:0:0:
215,107,125119,5,0,0:0:0:0:
329,74,125302,1,0,1:2:0:0:
329,74,125485,1,10,0:0:0:0:
215,107,125668,1,8,0:0:0:0:
293,0,125852,5,2,0:0:0:0:
273,172,126035,1,0,0:0:0:0:
146,42,126218,6,0,P|78:39|31:58,1,105,0|0,1:2|0:0,0:0:0:0:
43,50,126585,2,0,P|38:85|34:123,1,70,0|0,1:2|1:0,0:0:0:0:
73,237,126951,1,10,0:0:0:0:
191,184,127134,2,0,P|155:178|118:174,1,70,2|0,3:2|0:0,0:0:0:0:
4,308,127501,6,0,B|74:300|66:360|159:345,1,140,0|0,1:2|1:2,0:0:0:0:
290,339,128051,1,0,0:0:0:0:
298,270,128234,1,0,1:0:0:0:
220,381,128417,6,0,P|273:363|301:362,1,70,10|0,0:0|3:0,0:0:0:0:
500,317,128784,2,0,P|422:298|371:298,1,105,2|0,0:0|0:0,0:0:0:0:
397,296,129150,6,0,P|393:265|384:221,1,70,0|0,1:2|0:0,0:0:0:0:
227,103,129517,2,0,P|229:166|250:234,1,105,0|0,1:2|0:0,0:0:0:0:
238,206,129883,1,10,0:0:0:0:
415,145,130067,2,0,L|339:132,1,70,2|0,3:2|0:0,0:0:0:0:
259,12,130433,5,2,1:2:0:0:
259,12,130800,5,2,1:2:0:0:
183,49,130983,1,0,0:0:0:0:
249,42,131166,1,2,1:2:0:0:
151,22,131350,1,10,0:0:0:0:
169,98,131533,1,8,0:0:0:0:
236,13,131716,1,2,3:2:0:0:
85,101,131899,1,2,0:0:0:0:
396,185,132083,5,2,1:2:0:0:
396,185,132449,2,0,P|400:143|401:109,1,70,0|0,1:2|1:0,0:0:0:0:
287,242,132816,2,0,P|283:200|282:166,1,70,10|0,0:0|3:2,0:0:0:0:
472,303,133182,1,0,0:0:0:0:
496,165,133365,2,0,P|497:200|501:235,1,70,2|0,1:2|0:0,0:0:0:0:
177,363,133732,5,2,1:2:0:0:
327,340,133915,1,2,0:2:0:0:
402,355,134098,1,0,1:0:0:0:
473,380,134282,6,0,B|488:348|488:348|472:304,1,70,10|0,0:0|3:0,0:0:0:0:
235,170,134648,6,0,B|250:121|346:152|267:166,1,105,2|0,1:2|0:0,0:0:0:0:
160,122,135015,2,0,P|119:117|63:109,1,70,0|0,1:2|1:0,0:0:0:0:
252,65,135381,1,10,0:2:0:0:
0,0,135564,6,0,P|32:7|69:9,1,70,2|0,3:2|0:0,0:0:0:0:
173,227,135931,2,0,P|138:223|104:218,1,70,0|2,1:2|0:0,0:0:0:0:
361,117,136298,5,2,1:2:0:0:
304,162,136481,1,2,0:0:0:0:
313,224,136664,1,2,1:2:0:0:
357,240,136847,2,0,B|377:211|377:211|342:232,1,70,10|0,0:0|3:0,0:0:0:0:
254,362,137214,6,0,P|295:356|348:354,1,70,2|0,1:2|0:0,0:0:0:0:
141,251,137580,2,0,P|182:257|235:259,1,70,0|0,1:2|1:0,0:0:0:0:
0,370,137947,2,0,B|9:388|9:388|8:361,1,41.9999987182618,10|0,0:0|0:0,0:0:0:0:
31,250,138130,1,0,3:2:0:0:
0,370,138313,1,0,0:0:0:0:
31,250,138497,2,0,P|38:204|42:169,1,70,2|0,1:2|0:0,0:0:0:0:
106,330,138863,5,0,1:2:0:0:
142,251,139046,1,2,0:0:0:0:
214,227,139230,1,0,1:0:0:0:
266,256,139413,6,0,B|284:246|284:246|285:243|285:243|248:227,1,52.5000020027161,10|0,0:0|0:0,0:0:0:0:
136,112,139596,2,0,B|81:90|81:90|155:73,1,105.000004005432,0|2,3:0|1:2,0:0:0:0:
415,159,140146,6,0,P|411:186|411:219,1,52.5000020027161,0|0,1:2|1:0,0:0:0:0:
489,253,140513,6,0,B|493:243|493:243|486:211,1,26.2500010013581,8|0,0:2|0:0,0:0:0:0:
490,228,140696,1,2,3:2:0:0:
402,287,140879,2,0,P|398:314|398:347,1,52.5000020027161,2|0,0:3|1:0,0:0:0:0:
476,369,141246,5,2,0:2:0:0:
256,192,141337,12,0,142620,0:0:0:0:
256,192,142712,6,0,B|242:139|294:121|290:85,1,105.000004005432,2|2,1:2|1:2,0:0:0:0:
289,96,143261,1,0,1:0:0:0:
162,27,143445,1,10,0:0:0:0:
162,27,143628,2,0,P|177:49|208:55,1,52.5000020027161,2|0,3:2|0:0,0:0:0:0:
396,15,143994,5,2,1:2:0:0:
393,32,144178,1,0,0:0:0:0:
353,175,144361,5,2,1:2:0:0:
350,158,144545,1,0,0:0:0:0:
476,74,144727,5,2,1:2:0:0:
346,138,144911,2,0,B|397:137|396:187|466:169,1,105.000004005432,10|0,0:0|3:0,0:0:0:0:
303,26,145277,6,0,B|219:5|213:107|97:71,1,210.000008010865,2|2,0:3|1:2,0:0:0:0:
29,35,145827,1,0,0:0:0:0:
32,28,146010,1,2,1:2:0:0:
39,31,146193,1,0,1:0:0:0:
34,47,146377,1,10,0:0:0:0:
9,52,146560,1,2,3:2:0:0:
52,23,146743,1,0,0:0:0:0:
68,72,146927,1,2,1:2:0:0:
6,79,147110,1,0,0:0:0:0:
87,29,147293,1,2,1:2:0:0:
51,113,147476,1,0,0:0:0:0:
0,4,147660,1,0,1:0:0:0:
106,74,147843,1,10,0:0:0:0:
0,109,148026,1,0,3:0:0:0:
101,22,148209,1,2,0:0:0:0:
26,191,148393,1,0,0:0:0:0:
0,4,148576,6,0,B|26:9|117:-5|117:-5|171:22|211:33,1,210.000008010865,2|0,1:2|1:2,0:0:0:0:
202,30,149126,1,0,1:0:0:0:
422,21,149309,1,10,0:0:0:0:
422,21,149492,2,0,P|398:7|366:10,1,52.5000020027161,2|0,3:2|0:0,0:0:0:0:
173,220,149859,5,2,1:2:0:0:
191,214,150042,1,0,0:0:0:0:
210,210,150225,1,2,1:2:0:0:
381,202,150409,5,2,0:0:0:0:
266,123,150592,1,0,1:0:0:0:
346,288,150775,6,0,B|389:278|401:322|455:321,1,105.000004005432,10|0,0:0|3:0,0:0:0:0:
226,365,151142,6,0,B|116:361|149:273|11:261,1,210.000008010865,2|2,0:0|1:2,0:0:0:0:
29,349,151691,1,0,0:0:0:0:
32,356,151874,1,2,1:2:0:0:
39,353,152057,1,0,1:0:0:0:
34,337,152241,1,10,0:0:0:0:
9,332,152424,1,0,3:0:0:0:
52,361,152607,1,0,0:0:0:0:
68,312,152791,1,2,1:2:0:0:
6,305,152974,1,0,0:0:0:0:
87,355,153157,1,2,1:2:0:0:
51,271,153340,1,0,0:0:0:0:
11,365,153524,1,0,1:0:0:0:
106,310,153707,1,10,0:0:0:0:
0,275,153890,1,0,3:0:0:0:
141,319,154073,1,2,0:0:0:0:
22,199,154257,1,0,0:0:0:0:
0,384,154441,5,2,1:2:0:0:
15,121,154807,6,0,P|54:115|91:111,1,70,0|0,1:0|1:0,0:0:0:0:
12,29,155174,2,0,B|4:-5|4:-5|11:-9|11:-9|61:37,1,105,10|0,0:0|0:0,0:0:0:0:
135,186,155540,5,0,0:0:0:0:
196,9,155723,2,0,B|264:-8|322:8,1,105,2|0,1:2|0:0,0:0:0:0:
363,39,156090,1,2,1:2:0:0:
424,120,156273,5,0,0:0:0:0:
261,94,156456,1,0,1:0:0:0:
424,120,156640,6,0,B|449:113|449:113|401:103,1,52.5000020027161,10|0,0:0|0:0,0:0:0:0:
254,182,156823,2,0,B|206:185|206:185|280:213,1,105.000004005432,0|2,3:0|1:2,0:0:0:0:
496,223,157373,6,0,P|448:233|416:243,1,70,0|0,1:0|1:0,0:0:0:0:
508,378,157739,2,0,B|469:383|469:383|428:358,1,70,10|0,0:0|3:2,0:0:0:0:
443,368,158106,1,0,0:0:0:0:
250,272,158289,5,0,1:2:0:0:
222,200,158472,1,2,0:0:0:0:
272,142,158656,1,2,1:2:0:0:
335,148,158839,1,2,0:0:0:0:
361,190,159022,1,2,1:2:0:0:
361,190,159205,6,0,B|367:223|367:223|353:256,1,70,10|0,0:0|3:0,0:0:0:0:
161,136,159572,6,0,P|143:92|142:5,1,105,2|0,1:2|0:0,0:0:0:0:
137,35,159938,2,0,P|181:34|224:35,1,70,0|0,1:0|1:0,0:0:0:0:
75,191,160305,2,0,B|44:204|44:204|-7:188,1,70,10|2,0:2|3:2,0:0:0:0:
38,122,160671,5,0,0:0:0:0:
297,214,160855,2,0,P|228:206|158:208,1,140,2|2,1:2|1:2,0:0:0:0:
247,374,161404,5,0,0:0:0:0:
241,360,161588,1,0,1:0:0:0:
16,290,161771,2,0,B|2:305|2:305|23:335|23:335|24:367,1,70,10|0,0:0|3:0,0:0:0:0:
236,333,162138,6,0,B|300:318|323:360|386:354,1,140,2|0,1:2|1:0,0:0:0:0:
447,329,162687,1,0,1:0:0:0:
242,222,162871,5,10,0:0:0:0:
174,253,163054,1,0,0:0:0:0:
85,300,163237,2,0,P|37:292|-1:289,1,70,2|0,3:0|0:0,0:0:0:0:
301,79,163604,5,2,0:0:0:0:
301,79,163787,1,2,1:2:0:0:
193,213,164153,1,2,1:2:0:0:
304,366,164520,1,0,3:0:0:0:
304,366,164703,6,0,P|296:327|294:288,1,70,2|0,3:0|0:0,0:0:0:0:
100,57,165070,6,2,B|124:65|159:28|27:-13|-27:117|28:156|28:156|46:114|93:117,1,280,6|2,1:2|1:2,0:1:0:0:
69,118,165619,5,2,0:0:0:0:
505,28,165986,1,2,3:2:0:0:
505,28,166536,5,2,3:2:0:0:
396,129,166719,1,2,1:2:0:0:
272,26,166902,1,2,0:0:0:0:
71,119,167085,1,2,1:2:0:0:
71,119,167269,6,0,B|63:86|63:86|75:35,1,70,8|2,0:0|3:2,0:0:0:0:
174,220,167544,1,0,0:0:0:0:
164,254,167635,6,0,B|139:294|139:294|114:316|114:316|58:363|-22:380,1,210,14|0,0:0|0:0,0:0:0:0:
71,119,168002,6,0,B|129:129|173:125|173:125|231:144,1,157.500006008148,6|0,1:0|0:0,0:0:0:0:
316,295,168368,1,2,1:2:0:0:
193,234,168551,1,2,1:2:0:0:
395,332,168735,2,0,B|381:334|381:334|361:315|349:282,1,52.5000020027161,10|0,0:1|0:0,0:0:0:0:
155,217,168918,2,0,B|135:215|135:215|114:235|96:267,1,52.5000020027161,10|0,0:2|0:0,0:0:0:0:
113,239,169101,1,2,0:0:0:0:
216,388,169285,6,0,B|114:363|204:226|267:270|267:270|246:304|275:343,2,280,2|2|2,1:0|1:0|1:2,0:0:0:0:
210,165,170201,6,0,B|227:136|227:136|207:110|199:36,1,105.000004005432,12|0,0:0|0:0,0:0:0:0:
46,382,170567,5,4,3:0:0:0:
492,197,170934,1,6,1:0:0:0:
492,197,171300,5,2,0:3:0:0:
453,213,171667,1,2,0:3:0:0:
369,192,172033,1,2,0:3:0:0:
269,240,172217,1,2,0:3:0:0:
108,178,172400,6,0,L|102:142,1,35,10|8,0:1|0:0,0:0:0:0:
167,38,172583,2,0,L|156:124,1,52.5000020027161,10|8,0:0|0:0,0:0:0:0:
189,295,172767,2,0,L|178:219,1,70,8|8,0:0|0:0,0:0:0:0:
252,6,172950,2,0,L|236:108,1,87.5,10|8,0:1|0:0,0:0:0:0:
436,364,173133,5,8,3:0:0:0:
436,364,173500,2,2,B|228:352|306:160|353:90,1,350,2|6,1:0|1:0,1:0:0:0:
341,108,174233,2,0,P|341:135|329:166,1,52.5000020027161,2|0,1:2|0:0,0:0:0:0:
333,159,174416,1,2,1:2:0:0:
252,6,174599,2,0,P|243:30|244:57,1,52.5000020027161,10|0,0:1|0:0,0:0:0:0:
431,236,174782,6,0,B|431:191|431:191|453:160|455:103,1,105.000004005432,2|2,0:0|0:0,0:0:0:0:
45,149,175149,2,0,B|154:121|146:252|258:261,2,210.000008010865,2|2|2,1:1|1:1|1:0,0:0:0:0:
100,371,176065,5,12,0:0:0:0:
31,331,176248,1,2,0:0:0:0:
162,7,176432,1,6,3:0:0:0:
162,7,176784,6,0,B|140:75|274:88|291:200,1,210.000008010865,6|0,1:2|1:0,0:0:0:0:
282,167,177333,1,0,1:0:0:0:
77,272,177517,2,0,P|64:243|66:206,1,52.5000020027161,10|0,0:1|0:0,0:0:0:0:
62,222,177700,2,0,P|86:294|79:338,1,105.000004005432,8|2,0:0|3:0,0:0:0:0:
4,161,178066,2,0,L|24:17,1,140,2|0,1:1|1:0,0:0:0:0:
256,192,178616,5,8,0:0:0:0:
254,26,178983,6,0,L|254:-5,1,26.2500010013581,10|0,3:0|0:0,0:0:0:0:
230,348,179349,6,0,B|339:296|350:393|469:386,1,210.000008010865,2|0,1:2|1:0,0:0:0:0:
426,383,179899,1,0,1:0:0:0:
356,197,180082,2,0,P|353:228|361:255,1,52.5000020027161,10|0,0:1|0:0,0:0:0:0:
358,248,180265,2,0,P|370:175|357:125,1,105.000004005432,8|2,0:0|3:0,0:0:0:0:
118,219,180632,2,0,L|270:188,1,140,2|0,1:1|1:0,0:0:0:0:
364,145,181182,5,8,0:0:0:0:
255,191,181365,1,0,0:0:0:0:
0,0,181548,6,0,L|0:32,1,26.2500010013581,10|0,3:0|0:0,0:0:0:0:
512,247,181915,6,2,B|316:108|308:424|119:325,1,420,6|0,1:1|1:0,0:1:0:0:
32,209,182648,2,0,L|46:302,1,70,10|0,0:1|0:0,0:0:0:0:
42,278,182831,2,0,P|60:184|42:125,1,140,8|2,0:0|3:0,0:0:0:0:
87,24,183198,5,2,1:1:0:0:
182,57,183381,1,0,0:0:0:0:
118,105,183564,1,0,1:0:0:0:
182,57,183747,6,0,B|269:81|242:122|334:124,1,157.500006008148,8|0,0:0|0:0,0:0:0:0:
380,73,184114,2,0,B|373:41|373:41|381:-1,1,70,10|0,0:3|0:0,0:0:0:0:
474,361,184481,6,0,B|539:250|313:229|273:370,1,280,2|0,1:2|1:0,0:0:0:0:
291,330,185030,2,0,P|273:302|269:266,1,52.5000020027161,0|0,1:0|0:0,0:0:0:0:
339,154,185214,2,0,P|316:171|299:199,1,52.5000020027161,10|0,0:1|0:0,0:0:0:0:
185,374,185397,2,0,P|156:339|152:308,1,52.5000020027161,8|0,0:0|0:0,0:0:0:0:
248,0,185580,6,0,P|192:23|154:98,1,105.000004005432,2|0,3:0|0:0,0:0:0:0:
24,380,185947,5,10,0:1:0:0:
493,288,186130,1,10,0:1:0:0:
0,165,186496,1,8,3:0:0:0:
493,55,186863,1,8,3:0:0:0:
256,192,187046,5,4,3:0:0:0:
254,108,187229,1,2,0:1:0:0:
256,384,187413,5,12,0:2:0:0:
256,192,187504,12,8,189978,3:0:0:0:
180,178,190345,6,0,B|86:163|83:17|288:-36|328:163|451:178|490:130,1,490,6|2,1:2|0:0,0:0:0:0:
487,135,191078,6,0,P|494:170|487:204,1,70,8|0,0:0|0:0,0:0:0:0:
180,178,191261,2,0,P|164:81|186:13,1,140,10|0,0:1|0:0,0:0:0:0:
488,204,191628,6,2,B|540:162|581:53|267:-96|206:238|5:146,1,630,6|2,1:1|0:0,0:1:0:0:
14,150,192544,5,14,0:0:0:0:
58,360,192910,5,8,3:0:0:0:
58,360,193277,6,2,B|172:338|113:230|231:205,1,210,6|0,1:0|0:0,0:1:0:0:
198,216,193643,1,2,1:3:0:0:
179,318,193827,2,0,B|146:314|126:279|89:273,1,70,2|0,1:0|0:0,0:0:0:0:
118,284,194010,1,8,0:0:0:0:
322,378,194193,6,2,L|483:352,1,140,10|0,0:1|1:0,0:1:0:0:
313,43,194743,6,0,P|319:77|335:108,1,70,2|0,3:0|0:0,0:0:0:0:
336,187,194926,2,2,P|375:105|365:-16,1,210,10|0,0:1|0:0,0:1:0:0:
352,119,195293,6,0,P|336:88|330:54,1,70,2|0,1:0|0:0,0:0:0:0:
383,11,195476,2,2,P|394:102|353:198,1,210,10|0,0:1|0:0,0:1:0:0:
346,59,195843,6,0,P|352:93|368:124,1,70,8|0,3:0|0:0,0:0:0:0:
369,203,196026,2,2,P|408:121|398:0,1,210,4|0,3:0|0:0,0:1:0:0:
389,128,196393,6,0,P|373:97|367:63,1,70,2|0,0:1|0:0,0:0:0:0:
420,20,196576,2,2,P|431:111|390:207,1,210,2|0,1:0|0:0,0:1:0:0:
192,313,196942,5,8,0:2:0:0:
250,129,197125,1,10,0:1:0:0:
510,327,197309,5,2,3:0:0:0:
334,363,197492,1,2,0:1:0:0:
26,274,197675,5,6,1:2:0:0:
85,219,197858,1,10,0:1:0:0:
85,219,197950,1,8,0:0:0:0:
85,219,198042,1,8,0:0:0:0:
26,274,198225,1,2,1:3:0:0:
3,74,198408,6,0,B|-1:103|-1:103|23:154,1,70,10|0,0:1|0:0,0:0:0:0:
250,129,198591,2,0,B|252:147|252:147|219:205,1,70,10|0,0:1|0:0,0:0:0:0:
141,374,198775,1,6,1:2:0:0:
141,374,198866,1,0,0:0:0:0:
141,374,198958,2,0,P|117:338|106:281,1,70,8|8,0:0|0:0,0:0:0:0:
406,125,199141,5,6,1:0:0:0:
398,147,199324,1,2,0:1:0:0:
311,80,199507,1,10,0:1:0:0:
319,122,199690,1,0,1:0:0:0:
205,124,199874,1,10,0:1:0:0:
130,11,200057,1,10,0:1:0:0:
36,112,200240,1,10,3:3:0:0:
106,166,200423,1,0,1:0:0:0:
12,364,200607,1,2,0:1:0:0:
140,307,200790,1,2,1:1:0:0:
293,241,200973,1,14,0:0:0:0:
224,384,201156,1,0,0:0:0:0:
140,307,201340,1,10,3:0:0:0:
100,142,201523,1,4,3:0:0:0:
407,274,201706,1,6,1:2:0:0:
370,261,201889,1,2,0:1:0:0:
465,184,202073,1,2,1:0:0:0:
409,193,202256,1,0,1:0:0:0:
337,131,202439,1,10,0:1:0:0:
482,48,202622,1,10,0:1:0:0:
285,0,202806,1,10,3:0:0:0:
261,90,202989,1,0,1:0:0:0:
67,0,203172,1,2,0:1:0:0:
164,155,203356,1,0,1:0:0:0:
154,270,203539,1,14,0:0:0:0:
0,134,203722,1,2,0:1:0:0:
384,260,203905,2,0,L|360:362,1,105.000004005432,10|4,3:0|3:0,0:0:0:0:
1,269,204272,1,6,1:0:0:0:
9,247,204455,1,2,0:1:0:0:
105,343,204638,1,2,1:0:0:0:
97,301,204821,1,0,1:0:0:0:
171,220,205005,1,10,0:1:0:0:
229,366,205188,1,10,0:1:0:0:
348,332,205371,1,10,3:0:0:0:
303,265,205554,1,0,1:0:0:0:
500,255,205738,1,2,0:1:0:0:
327,152,205921,1,2,1:0:0:0:
298,36,206104,1,14,0:0:0:0:
512,149,206288,1,0,0:0:0:0:
390,51,206471,1,10,3:0:0:0:
425,190,206654,1,4,3:0:0:0:
109,124,206837,1,6,1:2:0:0:
146,137,207020,1,2,0:1:0:0:
40,211,207204,1,2,1:0:0:0:
96,202,207387,1,0,1:0:0:0:
277,242,207570,1,10,0:1:0:0:
46,322,207753,1,10,0:1:0:0:
184,384,207937,1,10,3:0:0:0:
260,130,208120,1,0,1:0:0:0:
184,384,208304,1,14,0:1:0:0:
316,149,208487,6,0,B|259:162|259:162|279:254,1,140,14|0,0:1|0:0,0:0:0:0:
459,92,208853,2,0,B|516:105|516:105|496:197,1,140,10|0,3:0|0:0,0:0:0:0:
222,20,209220,5,6,3:0:0:0:
382,103,209403,1,0,1:0:0:0:
311,45,209586,5,2,0:3:0:0:
269,94,209678,1,2,0:3:0:0:
209,14,209770,1,6,1:0:0:0:
256,192,209877,12,0,216394,0:0:0:0:
511,192,216483,6,0,P|426:176|214:186,1,280,4|10,1:0|0:0,0:0:0:0:
148,250,217675,1,0,3:0:0:0:
233,182,217914,1,0,0:0:0:0:
148,250,218152,1,0,3:0:0:0:
0,88,218391,6,0,B|59:82|66:136|135:123,2,140,2|0|10,1:2|1:0|0:0,0:0:0:0:
0,88,219584,1,0,3:0:0:0:
67,203,219822,2,0,P|70:253|67:283,1,70
237,80,220300,6,0,P|178:1|57:10,1,210,2|0,1:2|0:0,0:0:0:0:
173,168,221254,2,0,P|254:164|327:168,1,140,10|0,0:0|0:0,0:0:0:0:
91,149,221970,1,0,3:0:0:0:
372,84,222208,6,0,P|305:67|236:79,1,140,0|0,1:2|1:0,0:0:0:0:
503,251,223162,1,10,0:0:0:0:
491,232,223401,1,2,3:2:0:0:
445,211,223640,1,0,0:0:0:0:
367,227,223878,1,2,0:0:0:0:
207,296,224117,6,0,P|139:317|-25:281,1,210,2|0,1:2|0:0,0:0:0:0:
205,382,225071,1,10,0:0:0:0:
138,164,225310,2,0,L|144:239,1,70,0|0,3:0|0:0,0:0:0:0:
143,233,225787,1,0,3:2:0:0:
398,369,226025,6,0,B|411:314|352:285|368:236,2,140,2|0|10,1:2|1:0|0:0,0:0:0:0:
295,384,227218,2,0,P|289:335|290:300,2,70,0|0|0,3:0|0:0|0:0,0:0:0:0:
461,205,227934,6,0,P|429:138|295:128,1,210,2|0,1:2|0:0,0:0:0:0:
218,195,228888,2,0,P|220:241|216:277,2,70,10|0|0,0:0|3:0|0:0,0:0:0:0:
218,195,229604,1,0,3:2:0:0:
217,85,229842,6,0,B|117:64|127:158|-4:120,1,210,2|0,1:2|0:0,0:0:0:0:
16,0,230797,1,10,0:0:0:0:
177,167,231035,2,0,P|173:208|163:240,1,70,2|0,3:2|0:0,0:0:0:0:
17,125,231512,5,2,0:0:0:0:
144,10,231751,2,0,P|215:5|331:100,1,210,2|0,1:2|0:0,0:0:0:0:
257,302,232705,2,0,P|254:247|257:155,1,140,10|0,0:0|0:0,0:0:0:0:
256,162,233421,1,0,3:0:0:0:
398,224,233659,6,0,P|409:295|398:387,1,140,0|0,1:2|1:0,0:0:0:0:
274,336,234614,5,10,0:0:0:0:
403,362,234852,1,2,3:2:0:0:
248,233,235091,5,0,0:0:0:0:
88,279,235329,1,0,3:0:0:0:
144,384,235568,6,0,B|131:333|180:313|170:241,2,140,2|0|10,1:2|0:0|0:0,0:0:0:0:
9,305,236761,2,0,P|7:263|8:229,1,70,0|0,3:0|0:0,0:0:0:0:
7,235,237238,1,0,3:0:0:0:
94,111,237477,6,0,P|116:161|210:167,1,140,0|0,1:2|1:0,0:0:0:0:
193,175,238192,1,0,0:0:0:0:
285,84,238431,5,10,0:2:0:0:
305,166,238670,1,0,3:2:0:0:
285,84,238909,1,0,0:0:0:0:
305,166,239147,1,0,3:0:0:0:
213,13,239385,6,0,B|327:8|299:112|412:60,1,210,2|0,1:2|0:0,0:0:0:0:
503,12,240339,2,0,P|502:70|502:170,1,140,10|0,0:0|0:0,0:0:0:0:
350,269,241055,1,0,3:0:0:0:
493,230,241294,2,0,B|435:250|420:188|356:199,2,140,2|0|10,1:2|1:0|0:0,0:0:0:0:
482,325,242486,1,0,3:0:0:0:
409,290,242725,1,0,0:0:0:0:
311,346,242964,1,2,3:2:0:0:
104,249,243202,6,0,P|95:199|96:88,1,140,2|0,1:2|1:0,0:0:0:0:
176,159,243918,1,0,0:0:0:0:
253,0,244156,2,0,P|262:50|261:161,1,140,10|0,0:0|0:0,0:0:0:0:
263,138,244872,1,0,3:2:0:0:
22,34,245111,6,0,B|102:12|105:80|176:71,2,154.000004699707,2|0|10,1:2|1:0|0:0,0:0:0:0:
22,34,246304,1,2,0:3:0:0:
0,162,246542,1,10,0:0:0:0:
88,252,246781,1,10,0:0:0:0:
123,146,247019,5,4,1:0:0:0:
81,349,247496,1,2,0:0:0:0:
299,372,247974,2,0,P|313:326|294:219,1,140,10|0,0:0|0:0,0:0:0:0:
287,90,248689,2,0,L|293:131,1,35,0|0,3:2|0:0,0:0:0:0:
292,124,248928,2,0,B|366:116|355:162|437:171,2,140,2|0|10,1:2|1:0|0:0,0:0:0:0:
422,167,250359,5,0,0:0:0:0:
293,125,250598,1,0,3:2:0:0:
145,235,250836,5,2,1:3:0:0:
293,125,251314,1,0,0:0:0:0:
132,4,251791,2,0,B|140:66|186:59|192:130,1,140,10|0,0:0|0:0,0:0:0:0:
35,214,252506,2,0,L|38:162,1,35,0|0,3:0|0:0,0:0:0:0:
37,179,252745,2,0,B|88:200|88:200|103:224|103:224|164:251,1,140,2|0,1:2|1:0,0:0:0:0:
389,191,253699,5,10,0:0:0:0:
318,175,253938,1,0,0:0:0:0:
318,175,254057,1,2,0:0:0:0:
318,175,254176,1,0,0:0:0:0:
271,234,254415,1,2,0:0:0:0:
435,120,254653,5,2,1:3:0:0:
341,293,255131,1,0,0:0:0:0:
170,178,255608,2,0,P|192:123|291:102,1,140,10|0,0:0|0:0,0:0:0:0:
127,68,256323,2,0,L|76:60,1,35,0|0,3:0|0:0,0:0:0:0:
92,62,256562,2,0,B|177:44|130:29|230:13,2,140,2|0|10,1:2|1:0|0:0,0:0:0:0:
26,29,257755,1,0,0:0:0:0:
6,126,257993,5,2,0:0:0:0:
196,77,258232,1,2,0:0:0:0:
244,237,258471,5,2,1:3:0:0:
93,63,258948,1,2,0:0:0:0:
386,15,259425,2,0,L|379:52,1,35,10|0,0:0|0:0,0:0:0:0:
379,49,259663,1,0,3:0:0:0:
386,15,259902,1,0,0:0:0:0:
347,178,260141,2,0,L|340:141,1,35,0|0,3:2|0:0,0:0:0:0:
340,143,260379,6,0,B|409:137|427:212|486:202,1,140,2|0,1:2|1:0,0:0:0:0:
463,201,261095,1,0,0:0:0:0:
221,232,261333,2,0,L|275:227,1,35,10|0,0:0|0:0,0:0:0:0:
255,228,261572,2,0,L|167:216,2,70,2|0|2,3:2|0:0|0:3,0:0:0:0:
393,378,262288,5,2,1:2:0:0:
193,305,262765,1,0,0:0:0:0:
23,363,263242,2,0,P|16:298|26:209,1,140,10|0,0:0|0:0,0:0:0:0:
22,223,263958,1,2,3:2:0:0:
214,54,264196,6,2,B|247:56|274:6|128:-38|14:151|159:226,1,315.000012016297,2|0,1:2|0:0,0:2:0:0:
284,307,265150,6,0,L|235:300,1,41.9999987182618,10|0,0:0|0:0,0:0:0:0:
242,301,265389,1,0,3:0:0:0:
420,273,265628,1,0,0:0:0:0:
242,301,265866,1,0,3:0:0:0:
420,273,266105,6,0,B|452:187|400:102|400:102,1,167.999994873047,2|0,1:2|0:0,0:0:0:0:
241,27,267059,5,10,0:0:0:0:
231,194,267298,1,0,0:0:0:0:
231,194,267536,1,0,0:0:0:0:
241,27,267775,2,0,L|246:85,1,41.9999987182618,2|0,3:2|0:0,0:0:0:0:
306,225,268013,6,2,B|339:213|366:251|267:318|156:241|164:149|164:149|143:246|37:226,2,420.000016021729,2|10|4,1:2|0:0|1:0,0:2:0:0:
306,225,270399,5,2,1:2:0:0:
256,192,270518,12,0,271711,0:0:0:0:
126,230,271830,6,0,P|120:187|114:151,1,70,2|2,1:2|0:0,0:0:0:0:
188,57,272308,2,0,P|192:91|198:126,1,70,0|0,1:0|0:0,0:0:0:0:
280,224,272785,2,0,B|342:201|362:272|443:257,1,140,10|2,0:0|0:3,0:0:0:0:
411,258,273500,1,0,3:0:0:0:
221,350,273739,5,4,1:2:0:0:
256,192,273858,12,0,275528,0:0:0:0:
425,219,275648,6,0,P|433:170|434:131,1,70,2|2,1:2|0:0,0:0:0:0:
292,32,276125,2,0,P|299:71|340:168,1,140,0|10,1:0|0:0,0:0:0:0:
337,163,276840,1,2,0:3:0:0:
436,62,277079,1,10,0:0:0:0:
337,163,277317,1,10,0:0:0:0:
8,7,277556,6,0,B|82:-12|71:49|153:46,1,154.000004699707,4|0,1:0|0:0,0:0:0:0:
203,116,278510,2,0,L|147:134,1,38.5000011749268,10|0,0:0|0:0,0:0:0:0:
203,116,278749,1,0,0:0:0:0:
257,182,278987,1,0,0:0:0:0:
337,163,279226,1,0,3:0:0:0:
246,273,279465,6,0,P|172:256|122:198,2,154.000004699707,2|0|10,1:2|1:0|0:0,0:0:0:0:
455,365,281373,6,0,B|462:310|462:310|474:288|474:288|489:198,2,154.000004699707,0|0|10,1:2|0:0|0:0,0:0:0:0:
302,278,282566,2,0,L|312:224,1,38.5000011749268,0|0,3:0|0:0,0:0:0:0:
291,290,282805,1,0,0:0:0:0:
349,372,283043,1,0,3:0:0:0:
430,143,283282,6,0,P|378:99|267:103,2,154.000004699707,2|0|10,1:2|1:0|0:0,0:0:0:0:
152,349,284952,1,2,3:2:0:0:
152,349,285190,6,0,P|77:356|-18:374,2,154.000004699707,4|0|10,1:2|0:0|0:0,0:0:0:0:
233,244,286383,2,0,L|246:321,1,52.5000020027161,0|0,3:0|0:0,0:0:0:0:
180,194,286622,1,0,0:0:0:0:
276,58,286860,5,0,3:0:0:0:
35,0,287099,2,2,P|-5:63|36:210,1,210.000008010865,2|0,1:2|1:0,0:1:0:0:
279,376,288053,6,0,L|184:360,3,70.0000026702882,10|2|2|2,0:0|0:0|0:0|0:0,0:0:0:0:
263,227,288769,1,0,3:0:0:0:
297,16,289007,6,0,P|301:77|306:117,1,83.9999974365235,2|2,1:2|0:0,0:0:0:0:
161,167,289484,2,0,P|190:137|221:108,1,83.9999974365235,2|0,0:0|0:0,0:0:0:0:
356,183,289962,2,0,P|314:178|272:175,1,83.9999974365235,10|0,0:0|3:0,0:0:0:0:
173,38,290439,2,0,P|198:72|221:107,1,83.9999974365235,2|0,0:0|3:0,0:0:0:0:
319,244,290916,6,0,P|296:209|271:175,1,83.9999974365235,2|0,1:2|0:0,0:0:0:0:
326,18,291393,2,0,P|316:59|304:99,1,83.9999974365235,2|0,1:2|0:0,0:0:0:0:
50,182,291870,5,10,0:0:0:0:
187,114,292109,1,0,3:0:0:0:
280,285,292347,5,2,0:3:0:0:
37,219,292586,1,0,0:0:0:0:
37,219,292705,1,0,0:0:0:0:
37,219,292824,6,0,B|126:233|95:286|206:268,1,167.999994873047,2|0,1:2|0:0,0:0:0:0:
394,167,293779,2,0,L|382:237,1,41.9999987182618,10|0,0:0|0:0,0:0:0:0:
349,103,294017,1,0,0:0:0:0:
384,290,294256,1,0,0:0:0:0:
349,103,294494,1,2,3:2:0:0:
487,345,294733,6,2,B|518:357|557:323|413:235|322:323|361:392,1,251.999992309571,2|0,1:2|0:0,0:2:0:0:
26,156,295687,5,10,0:0:0:0:
172,83,295926,1,0,3:0:0:0:
289,145,296164,1,0,0:0:0:0:
327,216,296403,1,0,3:0:0:0:
133,384,296642,6,0,P|124:312|127:197,2,167.999994873047,2|0|10,1:2|0:0|0:0,0:0:0:0:
333,279,297834,1,0,0:0:0:0:
251,140,298073,1,0,0:0:0:0:
277,356,298312,1,2,3:2:0:0:
251,140,298550,6,2,B|229:107|304:78|360:204|272:295|162:310|122:210,2,335.999989746094,2|10|4,1:2|0:0|1:0,0:2:0:0:
488,64,300936,5,2,1:2:0:0:
256,192,301055,12,0,302248,0:0:0:0:
393,168,302367,6,0,P|311:142|249:151,1,115.50000352478,2|0,1:2|0:0,0:0:0:0:
237,199,302844,2,0,L|248:287,1,77.0000023498536,2|0,1:2|0:0,0:0:0:0:
461,117,303321,1,10,0:0:0:0:
461,117,303799,1,2,0:3:0:0:
282,143,304037,1,0,3:0:0:0:
435,0,304276,5,2,1:2:0:0:
260,381,304753,5,2,0:0:0:0:
256,192,304872,12,0,306065,0:0:0:0:
10,257,306184,6,0,P|-1:205|2:169,1,77.0000023498536,2|0,1:2|0:0,0:0:0:0:
176,63,306661,2,0,P|186:116|180:196,1,115.50000352478,2|0,0:0|0:0,0:0:0:0:
106,149,307139,5,12,0:0:0:0:
258,33,307377,1,8,3:0:0:0:
393,47,307616,1,6,3:0:0:0:
455,118,307854,1,6,3:0:0:0:
446,197,308093,5,4,1:0:0:0:
33,376,308570,5,2,0:0:0:0:
180,200,308809,1,0,0:0:0:0:
64,253,309047,1,10,0:0:0:0:
282,248,309286,1,0,0:0:0:0:
33,376,309524,6,0,P|81:360|124:351,1,83.9999974365235,2|0,3:2|3:0,0:0:0:0:
400,280,310001,5,2,1:3:0:0:
400,280,310479,5,2,1:2:0:0:
228,171,310717,1,0,0:0:0:0:
292,259,310956,1,10,0:0:0:0:
241,62,311194,1,0,0:0:0:0:
400,280,311433,6,0,P|403:333|397:374,1,83.9999974365235,2|0,3:2|3:0,0:0:0:0:
241,62,311910,5,2,1:3:0:0:
241,62,312387,5,2,0:2:0:0:
412,166,312626,1,0,0:0:0:0:
340,92,312864,1,10,0:0:0:0:
504,206,313103,1,0,0:0:0:0:
241,62,313341,6,0,P|197:69|156:92,1,83.9999974365235,2|0,3:2|3:0,0:0:0:0:
226,369,313818,5,2,1:3:0:0:
226,369,314296,5,2,1:2:0:0:
180,299,314534,1,0,0:0:0:0:
214,157,314773,1,10,0:0:0:0:
428,46,315011,1,0,0:0:0:0:
404,66,315131,1,0,0:0:0:0:
375,68,315250,1,2,3:2:0:0:
185,24,315488,1,2,0:3:0:0:
43,171,315727,5,4,1:2:0:0:
43,171,316204,5,2,0:3:0:0:
304,190,316443,1,0,0:0:0:0:
173,180,316681,1,10,0:0:0:0:
435,200,316920,1,0,0:0:0:0:
43,171,317158,6,0,P|48:229|71:265,1,83.9999974365235,2|0,3:2|3:0,0:0:0:0:
405,113,317636,5,2,1:3:0:0:
405,113,318113,5,2,1:2:0:0:
231,259,318351,1,0,0:0:0:0:
294,157,318590,1,10,0:0:0:0:
242,377,318828,1,0,0:0:0:0:
405,113,319067,6,0,P|376:71|309:58,1,83.9999974365235,2|0,3:2|3:0,0:0:0:0:
75,207,319544,5,2,1:3:0:0:
75,207,320021,5,2,0:2:0:0:
347,131,320260,1,0,0:0:0:0:
220,201,320498,1,10,0:0:0:0:
429,10,320737,1,0,0:0:0:0:
4,15,320976,5,2,3:2:0:0:
57,86,321214,1,0,3:0:0:0:
429,10,321453,5,2,1:2:0:0:
429,10,321930,5,2,1:2:0:0:
330,204,322168,1,2,0:3:0:0:
403,160,322407,5,10,0:0:0:0:
101,283,322646,1,2,0:3:0:0:
186,293,322884,5,10,0:0:0:0:
35,47,323123,2,0,P|41:83|75:130,1,70,8|0,0:0|0:0,0:0:0:0:
252,370,323361,5,4,1:0:0:0:
252,370,323838,5,2,0:0:0:0:
295,148,324076,1,0,0:0:0:0:
234,251,324315,1,10,0:0:0:0:
407,105,324553,1,0,0:0:0:0:
252,370,324793,6,0,P|209:359|165:317,1,83.9999974365235,2|2,3:2|3:2,0:0:0:0:
256,0,325270,5,2,1:3:0:0:
252,370,325747,5,2,1:2:0:0:
233,211,325985,1,0,0:0:0:0:
264,288,326224,1,10,0:0:0:0:
167,161,326462,1,0,0:0:0:0:
252,370,326701,6,0,P|295:359|339:317,1,83.9999974365235,2|0,3:2|3:0,0:0:0:0:
256,64,327178,5,4,1:2:0:0:
252,370,327655,5,2,0:0:0:0:
271,238,327893,1,0,0:0:0:0:
243,301,328132,1,10,0:0:0:0:
328,198,328370,1,0,0:0:0:0:
248,365,328610,6,0,P|200:355|167:327,1,83.9999974365235,2|0,3:2|3:2,0:0:0:0:
256,128,329087,5,2,1:3:0:0:
248,365,329564,5,2,1:2:0:0:
218,257,329802,1,0,0:0:0:0:
247,307,330041,1,10,0:0:0:0:
168,228,330279,1,0,0:0:0:0:
248,365,330518,5,4,0:0:0:0:
282,360,330637,1,0,0:0:0:0:
313,343,330756,1,10,0:0:0:0:
415,123,330995,5,4,1:0:0:0:
415,123,331473,6,0,B|410:161|417:204,1,70,2|0,0:0|0:0,0:0:0:0:
183,66,331950,2,0,P|208:38|319:34,1,140,10|2,0:0|0:2,0:0:0:0:
304,26,332665,1,0,3:0:0:0:
261,248,332904,6,0,P|258:186|260:95,1,140,2|0,1:2|1:0,0:0:0:0:
259,108,333620,1,0,0:0:0:0:
67,165,333858,1,10,0:0:0:0:
143,195,334097,1,0,0:0:0:0:
67,165,334335,1,0,1:0:0:0:
169,81,334574,1,0,0:0:0:0:
82,5,334813,1,4,1:2:0:0:
82,5,335290,6,0,P|79:47|88:88,1,70,2|0,0:2|0:0,0:0:0:0:
250,159,335767,2,0,P|269:100|240:7,1,140,10|2,0:0|0:2,0:0:0:0:
252,25,336483,1,0,3:0:0:0:
151,230,336721,6,0,B|198:227|198:227|235:244|235:244|305:236,1,140,2|0,1:2|1:0,0:0:0:0:
286,238,337437,1,0,0:0:0:0:
331,203,337675,1,10,0:0:0:0:
406,207,337914,1,0,0:0:0:0:
465,269,338152,1,0,0:0:0:0:
462,362,338391,1,0,0:0:0:0:
395,62,338630,5,4,1:0:0:0:
347,60,341135,5,0,0:0:0:0:
347,60,341226,2,2,B|355:31|433:57|468:142|377:179,1,157.500006008148,10|0,3:0|0:0,0:1:0:0:
249,384,341593,6,0,B|247:303|313:309|277:202,1,175,6|0,1:0|1:0,0:0:0:0:
194,0,342142,2,0,P|193:32|203:63,1,43.75,0|0,1:2|0:0,0:0:0:0:
195,43,342326,1,10,0:1:0:0:
347,146,342509,2,0,P|352:94|346:58,1,87.5,10|0,0:1|0:0,0:0:0:0:
26,148,342876,2,0,B|72:161|72:161|98:186|98:186|146:192,1,131.25,2|0,1:0|0:0,0:0:0:0:
145,191,343242,5,2,1:0:0:0:
131,113,343425,1,0,0:0:0:0:
113,35,343609,1,2,1:0:0:0:
81,263,343792,5,14,0:0:0:0:
113,35,343975,1,2,0:1:0:0:
341,85,344158,2,0,P|338:147|327:181,1,87.5,4|0,3:0|0:0,0:0:0:0:
98,358,344525,5,6,1:2:0:0:
103,353,344891,1,2,0:3:0:0:
116,342,345258,1,2,0:3:0:0:
160,338,345624,1,2,0:3:0:0:
211,372,345991,5,10,0:1:0:0:
258,392,346082,1,8,0:0:0:0:
310,385,346174,1,10,0:0:0:0:
351,354,346265,1,8,0:0:0:0:
312,365,346358,2,0,L|265:345,1,35,8|8,0:0|0:0,0:0:0:0:
387,190,346541,1,10,0:1:0:0:
429,158,346632,1,10,0:0:0:0:
478,165,346724,5,8,3:0:0:0:
293,262,346907,1,4,3:0:0:0:
117,0,347091,2,0,L|104:107,1,105,2|0,1:0|0:0,0:0:0:0:
211,362,347457,6,0,B|127:374|157:340|59:351,1,131.25,6|0,1:0|0:0,0:0:0:0:
82,350,347824,1,0,1:0:0:0:
198,205,348007,2,0,P|203:227|201:263,1,43.75,0|0,1:0|0:0,0:0:0:0:
203,248,348190,1,10,0:1:0:0:
21,207,348373,2,0,P|16:154|26:108,1,87.5,10|0,0:1|0:0,0:0:0:0:
280,47,348740,6,0,B|215:-4|167:110|90:37,2,175,2|2|2,1:1|1:0|1:0,0:0:0:0:
449,269,349656,6,2,L|497:261,1,49,14|0,0:0|0:0,1:0:0:0:
497,261,350393,6,0,B|516:258|506:319|426:364|310:272,1,210,6|0,1:0|0:0,0:0:0:0:
413,81,350759,2,0,B|416:108|416:108|411:147,1,61.2500005841255,0|0,1:0|0:0,0:0:0:0:
411,141,350942,1,0,1:0:0:0:
295,226,351126,5,8,0:0:0:0:
508,153,351309,1,8,0:0:0:0:
338,0,351492,2,0,B|334:24|334:24|339:63,1,52.5000020027161,2|0,0:1|0:0,0:0:0:0:
480,337,351672,6,0,B|526:344|509:267|334:229|309:393,1,280,2|2,1:1|1:0,0:0:0:0:
43,241,352214,5,10,0:1:0:0:
242,164,352395,1,0,0:0:0:0:
311,380,352576,5,0,0:0:0:0:
196,288,352757,1,2,3:0:0:0:
423,196,352928,6,2,B|484:135|445:23|385:74|392:118|456:143,1,183.750001752377,6|0,1:2|0:0,0:1:0:0:
510,25,353303,2,0,L|422:6,1,70,0|0,1:0|0:0,0:0:0:0:
441,10,353490,1,0,1:0:0:0:
241,106,353663,6,0,P|275:104|308:88,1,70,8|0,0:0|0:0,0:0:0:0:
307,88,353850,1,8,0:0:0:0:
86,36,354053,1,2,0:1:0:0:
307,88,354236,6,0,P|198:93|122:206,1,210,2|0,1:0|0:0,0:0:0:0:
132,162,354602,1,2,1:0:0:0:
389,138,354786,5,10,0:1:0:0:
323,5,354969,1,2,0:1:0:0:
326,258,355152,6,2,B|301:211|382:198|392:329|266:383|166:306,1,262.5,2|2,0:1|0:0,0:1:0:0:
0,299,355519,6,0,B|-34:278|-35:217|129:210|147:376|93:395,1,245.000002336502,6|0,1:0|1:0,0:0:0:0:
113,368,356068,1,0,1:0:0:0:
76,155,356252,2,0,B|73:190|73:190|87:238,1,70,8|0,0:0|0:0,0:0:0:0:
82,223,356435,1,8,0:0:0:0:
282,384,356618,6,0,L|283:322,1,52.5000020027161,2|0,0:1|0:0,0:0:0:0:
193,131,356801,2,0,B|236:220|236:220|188:346,1,210,2|0,1:0|0:0,0:0:0:0:
196,323,357168,1,2,1:0:0:0:
501,195,357351,6,2,B|412:217|342:86|425:20,1,210,10|0,0:1|0:0,0:1:0:0:
475,15,357716,2,0,P|479:78|477:113,1,70,2|0,0:3|1:0,0:0:0:0:
167,68,358082,6,0,L|257:55,1,61.2500005841255,6|0,1:2|0:0,0:0:0:0:
227,59,358265,1,2,0:1:0:0:
72,22,358448,1,0,1:0:0:0:
338,83,358631,6,0,P|239:83|102:202,1,280,0|0,1:0|0:0,0:0:0:0:
326,185,359180,2,0,P|282:171|246:173,1,70,10|0,3:0|0:0,0:0:0:0:
61,348,359539,5,14,0:1:0:0:
450,316,359718,2,0,B|455:278|455:278|466:246|466:246|455:157,2,140,14|10|6,0:1|3:0|3:0,0:0:0:0:
247,372,360617,1,12,0:3:0:0:
247,372,360996,6,0,B|251:308|322:333|330:230,1,140,4|0,1:0|0:0,0:0:0:0:
324,261,361548,1,0,0:0:0:0:
224,154,361732,2,0,B|215:173|226:206|274:230,1,70,2|0,0:1|0:0,0:0:0:0:
413,91,362284,5,2,0:1:0:0:
405,122,362468,1,0,0:0:0:0:
507,53,362652,2,0,B|516:80|507:105|477:128,1,70,2|0,0:1|0:0,0:0:0:0:
274,54,363020,5,0,0:0:0:0:
336,15,363204,1,2,0:1:0:0:
274,54,363388,1,0,0:0:0:0:
14,22,363572,5,14,0:0:0:0:
14,22,363948,6,0,B|-28:16|7:-47|327:58|242:314,1,420,4|0,1:0|0:0,0:0:0:0:
74,375,364681,1,8,0:0:0:0:
77,292,364864,2,0,P|130:309|154:341,1,87.5,10|0,0:0|0:0,0:0:0:0:
480,376,365230,6,0,B|410:368|407:291|307:310,2,175,2|0|2,1:2|1:0|1:0,0:0:0:0:
480,376,366147,2,0,B|456:299|456:299|537:273,1,140,14|0,0:0|0:0,0:0:0:0:
394,149,366513,2,0,B|374:206|374:206|303:189,1,105,10|0,3:0|0:0,0:0:0:0:
155,143,366880,6,0,B|117:106|167:-13|398:65|294:108|235:123|190:74,1,280,6|0,1:2|1:2,0:0:0:0:
48,55,367429,2,0,P|37:33|34:-9,1,52.5000020027161,2|0,1:0|0:0,0:0:0:0:
34,0,367613,2,0,P|70:103|23:163,2,140,14|0|6,0:0|0:0|0:0,0:0:0:0:
21,369,368346,5,6,1:2:0:0:
273,344,368529,1,10,0:1:0:0:
235,305,368620,1,8,0:0:0:0:
190,278,368712,1,8,0:0:0:0:
139,261,368803,1,8,0:0:0:0:
86,258,368895,5,4,1:0:0:0:
196,384,369079,1,10,0:1:0:0:
263,236,369262,1,10,0:1:0:0:
157,133,369445,5,4,1:2:0:0:
94,376,369629,1,8,0:2:0:0:
94,376,369720,1,8,0:2:0:0:
94,376,369812,6,0,P|254:348|398:322,1,280,6|2,1:0|1:1,0:0:0:0:
503,218,370362,2,2,P|436:175|357:189,1,157.500006008148,2|0,1:1|0:0,0:1:0:0:
362,186,370728,2,0,B|412:188|436:168|429:126,1,78.7500030040742,2|0,0:0|0:0,0:0:0:0:
254,7,370911,6,0,P|258:108|252:169,1,157.500006008148,6|8,0:0|0:0,0:0:0:0:
483,14,371278,5,14,0:0:0:0:
365,192,371469,1,8,0:0:0:0:
365,192,371560,1,8,0:0:0:0:
365,192,371651,1,14,0:0:0:0:
151,133,371833,1,8,0:0:0:0:
254,7,372015,1,10,3:0:0:0:
487,112,372197,5,10,3:0:0:0:
256,233,372378,2,0,P|251:202|261:131,1,70,6|2,3:0|1:0,0:0:0:0:
493,368,372742,6,2,B|526:370|516:267|319:227|235:371,1,349.965000473929,6|0,1:0|0:0,0:1:0:0:
237,366,373106,1,2,1:0:0:0:
178,337,373288,2,0,P|212:343|238:366,1,70,2|0,1:0|0:0,0:0:0:0:
92,370,373469,5,8,0:0:0:0:
156,131,373656,1,8,0:0:0:0:
87,180,373844,5,2,3:0:0:0:
237,366,374031,1,2,1:0:0:0:
432,249,374219,1,0,0:0:0:0:
311,1,374406,5,2,1:0:0:0:
239,185,374594,1,10,0:1:0:0:
432,249,374768,1,0,0:0:0:0:
150,76,374942,5,10,3:0:0:0:
127,91,375030,1,0,0:0:0:0:
141,98,375117,2,0,L|154:167,1,52.5000020027161,2|0,0:1|0:0,0:0:0:0:
437,111,375291,6,2,B|473:9|255:-27|207:199|319:296,1,420,6|0,1:2|0:0,0:1:0:0:
305,282,375673,1,2,1:0:0:0:
346,185,375864,2,0,P|328:204|314:250,1,70,2|0,1:1|0:0,0:0:0:0:
468,351,376055,5,8,0:0:0:0:
211,299,376234,1,8,0:0:0:0:
270,363,376414,5,2,3:0:0:0:
388,310,376594,1,0,1:0:0:0:
297,58,376774,5,2,0:1:0:0:
173,201,376954,1,2,1:0:0:0:
270,363,377134,1,8,0:0:0:0:
454,321,377314,1,2,0:1:0:0:
470,132,377494,5,10,3:0:0:0:
310,258,377676,1,8,0:2:0:0:
314,244,377768,1,8,0:2:0:0:
318,261,377859,6,2,B|350:279|309:110|86:161|124:-3,1,349.999643961951,6|0,1:0|0:0,0:1:0:0:
121,11,378223,1,2,1:0:0:0:
104,78,378405,2,0,P|120:30|120:0,1,70,2|0,1:1|0:0,0:0:0:0:
12,146,378587,5,8,0:0:0:0:
279,93,378769,1,8,0:0:0:0:
188,149,378951,5,2,3:0:0:0:
104,78,379133,1,0,1:0:0:0:
150,277,379315,5,2,0:1:0:0:
371,235,379497,1,2,1:0:0:0:
325,14,379679,5,14,0:0:0:0:
239,210,379862,1,2,0:1:0:0:
376,359,380044,2,0,L|505:341,1,105.000004005432,10|2,3:0|0:1,0:0:0:0:
50,156,380401,6,2,B|-24:154|-18:-1|229:0|194:223|248:316|400:240,1,525,6|0,1:2|0:0,0:1:0:0:
390,244,380776,1,2,1:0:0:0:
159,165,380963,6,2,B|108:201|149:277|236:290|237:143|335:178,1,280,2|8,1:0|0:0,0:1:0:0:
261,379,381515,6,0,P|247:353|254:295,1,70,10|0,3:0|0:0,0:0:0:0:
248,245,381698,2,0,P|262:271|255:329,1,70,6|0,3:0|0:0,0:0:0:0:
37,352,381880,5,14,0:1:0:0:
332,177,382067,6,0,B|316:173|316:173|271:134,1,70,14|0,0:1|0:0,0:0:0:0:
37,352,382442,6,0,B|46:338|46:338|92:312,1,70,10|0,3:0|0:0,0:0:0:0:
400,349,382723,1,2,0:0:0:0:
400,349,382817,6,0,B|411:359|411:359|492:380,1,83.9999974365235,4|0,3:0|0:0,0:0:0:0:
