osu file format v14

[General]
AudioFilename: audio.mp3
AudioLeadIn: 0
PreviewTime: 76616
Countdown: 0
SampleSet: None
StackLeniency: 0.5
Mode: 0
LetterboxInBreaks: 0
WidescreenStoryboard: 0

[Editor]
DistanceSpacing: 1.2
BeatDivisor: 4
GridSize: 4
TimelineZoom: 2.2

[Metadata]
Title:No Surprises
TitleUnicode:No Surprises
Artist:Radiohead
ArtistUnicode:Radiohead
Creator:riffy
Version:Tranquility
Source:
Tags:ok computer bakari
BeatmapID:1722221
BeatmapSetID:821712

[Difficulty]
HPDrainRate:7
CircleSize:5
OverallDifficulty:6
ApproachRate:7
SliderMultiplier:2.2
SliderTickRate:1

[Events]
//Background and Video events
0,0,"tired.jpg",0,0
//Break Periods
2,107785,119932
//Storyboard Layer 0 (Background)
//Storyboard Layer 1 (Fail)
//Storyboard Layer 2 (Pass)
//Storyboard Layer 3 (Foreground)
//Storyboard Sound Samples

[TimingPoints]
12990.03,833.333333333333,4,2,0,52,1,0
14656,785.340314136126,4,2,0,52,1,0
16224,802.139,4,2,0,52,1,0
19432,808.6254,4,2,0,52,1,0
22666,800,4,2,0,52,1,0
25866,817.4387,4,2,0,52,1,0
29135,806.4516,4,2,0,52,1,0
32360,802.139,4,2,0,52,1,0
35568,795.756,4,2,0,52,1,0
38751,802.139,4,2,0,52,1,0
41959,795.756,4,2,0,52,1,0
45142,804.2896,4,2,0,52,1,0
48359,806.451612903226,4,2,0,52,1,0
49971,777.20207253886,4,2,0,52,1,0
51525,795.756,4,3,0,52,1,1
51922,-100,4,3,0,52,0,0
54708,783.289817232376,4,3,0,52,1,0
56274,800,4,3,0,52,1,0
57874,787.4016,4,3,0,52,1,0
64172,793.650793650794,4,3,0,52,1,0
65759,789.473684210526,4,3,0,52,1,0
67338,795.756,4,3,0,52,1,0
70521,785.3403,4,2,0,52,1,0
73662,787.40157480315,4,2,0,52,1,0
75236,783.289817232376,4,2,0,52,1,0
76802,-100,4,3,0,52,0,1
76998,-100,4,3,0,52,0,0
78369,779.220779220779,4,3,0,52,1,0
79927,781.25,4,3,0,52,1,0
83052,777.2021,4,3,0,52,1,0
86160,773.1959,4,3,0,52,1,0
88479,-100,4,3,0,62,0,0
88866,-100,4,3,0,52,0,0
89252,777.2021,4,3,0,52,1,1
92360,779.220779220779,4,3,0,52,1,1
93918,740.740740740741,4,3,0,52,1,1
95399,774.193548387097,4,3,0,52,1,1
98497,769.230769230769,4,3,0,52,1,1
100035,738.916256157635,4,3,0,52,1,1
101143,-100,4,3,0,52,0,0
101512,779.2208,4,3,0,52,1,1
104628,789.4737,4,3,0,52,1,1
107785,791.5567,4,3,0,52,1,0
110951,826.4463,4,3,0,52,1,0
114256,813.0081,4,3,0,52,1,0
117508,831.0249,4,3,0,52,1,0
120832,797.8723,4,2,0,52,1,0
124023,804.2896,4,2,0,52,1,0
127240,775.1938,4,2,0,52,1,0
130340,787.4016,4,2,0,52,1,0
133489,753.7689,4,3,0,52,1,1
136504,795.755968169761,4,3,0,52,1,1
138095,737.100737100737,4,3,0,52,1,1
139200,-100,4,3,0,52,0,0
139565,773.1959,4,3,0,52,1,1
142657,755.6675,4,3,0,52,1,1
145301,-100,4,3,0,52,0,0
145679,761.4213,4,3,0,52,1,1
148724,769.2308,4,3,0,52,1,1
150262,772.200772200772,4,3,0,52,1,1
151806,780.234070221066,4,3,0,63,1,0
153366,775.193798449612,4,3,0,63,1,0
154916,761.421319796954,4,3,0,63,1,0
156438,763.358778625954,4,3,0,63,1,0
157964,767.263427109974,4,3,0,63,1,0
161038,760.456273764259,4,3,0,63,1,0
162558,732.600732600733,4,3,0,63,1,0
164023,761.4213,4,3,0,63,1,0
167068,770.218228498074,4,3,0,63,1,0
170148,750.938673341677,4,3,0,63,1,0
173150,746.2687,4,3,0,63,1,0
176135,771.2083,4,3,0,63,1,1
176327,-100,4,3,0,63,0,0
179219,773.1959,4,3,0,63,1,0
182311,763.3588,4,3,0,63,1,0
185364,748.129675810474,4,3,0,63,1,0
186860,726.392251815981,4,3,0,63,1,0
187949,-100,4,3,0,63,0,0
188312,761.4213,4,3,0,63,1,1
191357,755.667506297229,4,3,0,63,1,1
192868,719.424460431655,4,3,0,63,1,1
193947,-100,4,3,0,63,0,0
194305,765.3062,4,3,0,63,1,1
197366,759.493670886076,4,3,0,63,1,1
198884,733.496332518337,4,3,0,63,1,1
199984,-100,4,3,0,63,0,0
200351,765.3062,4,3,0,63,1,1
203412,793.6508,4,3,0,63,1,1
206785,-100,4,2,0,5,0,0

[Colours]
Combo1 : 165,90,90
Combo2 : 194,181,160
Combo3 : 163,168,192
Combo4 : 95,126,124

[HitObjects]
68,48,12990,6,0,B|68:172,1,110,6|0,2:3|0:0,0:0:0:0:
68,267,13823,1,2,3:2:0:0:
177,267,14240,1,0,0:0:0:0:
177,267,14448,1,0,0:0:0:0:
177,267,14656,1,2,0:0:0:0:
177,157,15048,1,0,0:0:0:0:
177,47,15441,1,2,3:2:0:0:
287,47,15834,1,0,0:0:0:0:
287,47,16030,1,0,0:0:0:0:
287,47,16224,6,0,B|404:48,1,110,6|0,2:3|0:0,0:0:0:0:
506,47,17026,1,2,3:2:0:0:
506,156,17427,1,0,0:0:0:0:
506,156,17627,1,0,0:0:0:0:
506,156,17828,1,2,0:0:0:0:
396,156,18229,1,0,3:0:0:0:
286,156,18630,1,2,3:2:0:0:
286,156,18830,1,0,3:0:0:0:
286,156,19031,1,0,3:0:0:0:
286,265,19432,6,0,B|405:265,1,110,6|0,2:3|0:0,0:0:0:0:
505,265,20240,1,2,3:2:0:0:
505,155,20644,1,0,0:0:0:0:
505,155,20847,1,0,0:0:0:0:
505,155,21049,1,2,0:0:0:0:
395,155,21453,1,0,0:0:0:0:
285,155,21857,1,2,3:2:0:0:
176,160,22262,1,0,0:0:0:0:
176,160,22464,1,0,0:0:0:0:
176,160,22666,6,0,B|176:48,1,110,6|0,2:3|0:0,0:0:0:0:
286,50,23466,1,2,3:2:0:0:
286,160,23866,1,0,0:0:0:0:
286,270,24266,1,2,0:0:0:0:
176,270,24666,1,0,0:0:0:0:
65,270,25066,1,2,3:2:0:0:
65,270,25266,1,0,3:0:0:0:
65,270,25466,1,0,3:0:0:0:
8,124,25866,6,0,P|64:108|168:172,1,165,6|0,2:3|0:0,0:0:0:0:
221,152,26683,1,2,3:2:0:0:
314,58,27092,1,0,0:0:0:0:
314,58,27296,1,0,0:0:0:0:
314,58,27500,1,2,0:0:0:0:
407,151,27909,1,0,0:0:0:0:
313,244,28318,1,2,3:2:0:0:
219,150,28727,1,0,0:0:0:0:
219,150,28931,1,0,0:0:0:0:
219,150,29135,6,0,P|288:136|360:200,1,165,6|0,2:3|0:0,0:0:0:0:
284,272,29941,1,2,3:2:0:0:
464,356,30344,2,0,P|472:324|472:288,1,55,0|0,0:0|0:0,0:0:0:0:
384,256,30747,2,0,B|400:392,1,110,2|0,0:0|0:0,0:0:0:0:
268,340,31554,1,2,3:2:0:0:
256,208,31957,1,0,0:0:0:0:
256,208,32159,1,0,0:0:0:0:
256,208,32360,6,0,P|236:180|236:32,1,165,6|0,2:3|0:0,0:0:0:0:
284,12,33162,1,2,3:2:0:0:
152,12,33563,1,0,0:0:0:0:
152,12,33763,1,0,0:0:0:0:
152,12,33964,1,2,0:0:0:0:
152,143,34365,1,0,0:0:0:0:
283,143,34766,1,2,3:2:0:0:
283,143,34966,1,0,0:0:0:0:
283,143,35167,1,0,0:0:0:0:
472,144,35568,6,0,P|460:208|424:256,2,110,6|0|2,2:3|0:0|3:2,3:2:0:0:
320,220,36761,2,0,P|332:280|388:372,1,165
456,348,37557,1,0,0:0:0:0:
388,236,37955,1,2,3:2:0:0:
248,340,38353,1,0,0:0:0:0:
248,340,38552,1,0,0:0:0:0:
248,340,38751,6,0,B|144:376|144:272|28:332,1,220,6|2,2:3|3:2,0:0:0:0:
37,195,39954,1,0,0:0:0:0:
37,195,40154,1,0,0:0:0:0:
37,195,40355,1,2,0:0:0:0:
37,63,40756,1,0,0:0:0:0:
168,63,41157,1,2,3:2:0:0:
168,194,41558,1,0,0:0:0:0:
168,194,41759,1,0,0:0:0:0:
168,194,41959,6,0,P|212:204|248:204,1,55,6|0,2:3|0:0,0:0:0:0:
284,260,42356,2,0,P|240:280|164:280,1,110,2|2,0:0|3:2,0:0:0:0:
384,320,43152,2,0,P|368:264|428:168,1,165
480,160,43948,1,0,0:0:0:0:
386,66,44346,1,2,3:2:0:0:
296,160,44744,1,0,0:0:0:0:
296,160,44943,1,0,0:0:0:0:
296,160,45142,6,0,B|180:160,1,110,6|0,2:3|0:0,0:0:0:0:
76,160,45946,1,2,3:2:0:0:
76,269,46348,1,0,0:0:0:0:
76,269,46549,1,0,0:0:0:0:
76,269,46750,1,2,0:0:0:0:
141,269,46951,1,0,0:0:0:0:
206,269,47152,1,0,0:0:0:0:
206,159,47554,1,2,3:2:0:0:
316,159,47957,1,0,0:0:0:0:
316,159,48158,1,0,0:0:0:0:
316,159,48359,6,0,B|316:48,1,110,6|0,2:3|0:0,0:0:0:0:
426,49,49165,1,2,3:2:0:0:
426,159,49568,1,0,3:0:0:0:
426,225,49770,1,0,3:0:0:0:
426,291,49971,1,8,3:0:0:0:
316,216,50359,1,0,3:0:0:0:
316,216,50553,1,0,3:0:0:0:
316,216,50748,1,2,3:2:0:0:
260,252,50942,1,0,3:0:0:0:
244,316,51136,1,0,0:0:0:0:
28,308,51525,6,0,P|60:272|180:256,1,165,6|0,0:3|0:0,0:0:0:0:
76,184,52320,2,0,P|114:112|99:32,1,165,8|0,3:0|0:0,0:0:0:0:
188,128,53116,2,0,P|230:196|307:223,1,165,2|0,0:0|0:0,0:0:0:0:
400,156,53912,1,2,0:2:0:0:
308,16,54310,1,0,0:0:0:0:
308,16,54509,1,0,0:0:0:0:
348,84,54708,6,0,P|420:104|496:48,1,165,6|0,0:0|0:0,0:0:0:0:
420,172,55491,2,0,P|436:200|504:260,1,110,8|0,0:0|0:0,0:0:0:0:
432,288,56078,1,0,0:0:0:0:
388,344,56274,2,0,P|440:360|500:360,1,110,2|0,0:0|0:0,0:0:0:0:
292,268,57074,1,2,2:0:0:0:
144,360,57474,1,0,0:0:0:0:
144,360,57674,1,0,0:0:0:0:
56,292,57874,6,0,P|108:276|216:324,1,165,6|0,0:0|0:0,0:0:0:0:
224,168,58661,2,0,P|256:224|264:272,1,110,8|0,0:0|0:0,0:0:0:0:
336,248,59251,1,0,0:0:0:0:
336,248,59448,1,2,0:0:0:0:
316,312,59645,1,0,0:0:0:0:
272,360,59842,1,0,0:0:0:0:
178,266,60236,1,2,2:0:0:0:
271,172,60629,1,0,0:0:0:0:
271,172,60826,1,0,0:0:0:0:
271,172,61023,6,0,P|272:100|208:24,1,165,6|0,0:0|0:0,0:0:0:0:
124,76,61811,1,8,0:0:0:0:
124,207,62204,1,0,0:0:0:0:
124,207,62401,1,0,0:0:0:0:
124,207,62598,2,0,B|124:324,1,110,2|0,0:0|0:0,0:0:0:0:
236,204,63385,1,2,2:0:0:0:
236,320,63779,1,0,0:0:0:0:
236,320,63976,1,0,0:0:0:0:
236,320,64173,6,0,P|280:352|346:359,1,110,6|0,0:0|0:0,0:0:0:0:
380,260,64965,2,0,P|436:296|504:300,1,110,8|0,0:0|0:0,0:0:0:0:
496,224,65560,1,0,0:0:0:0:
496,224,65759,1,2,0:0:0:0:
408,120,66153,1,0,0:0:0:0:
306,221,66548,1,2,2:0:0:0:
408,321,66943,1,0,0:0:0:0:
408,321,67140,1,0,0:0:0:0:
408,321,67338,6,0,P|416:288|416:244,1,55,6|0,0:0|0:0,0:0:0:0:
496,236,67735,2,0,P|478:207|447:175,1,55,0|0,0:0|0:0,0:0:0:0:
500,112,68133,2,0,P|466:103|422:104,1,55,8|0,0:0|0:0,0:0:0:0:
416,16,68531,2,0,P|387:33|355:64,1,55,0|0,0:0|0:0,0:0:0:0:
264,32,68929,1,0,0:2:0:0:
284,100,69128,1,0,0:0:0:0:
336,148,69327,1,0,0:0:0:0:
234,249,69725,1,2,2:2:0:0:
335,350,70123,1,0,2:3:0:0:
335,350,70322,1,0,2:3:0:0:
335,350,70521,6,0,B|453:351,1,110,6|0,2:3|0:0,0:0:0:0:
444,240,71306,1,2,3:2:0:0:
333,240,71699,1,0,3:0:0:0:
333,240,71895,1,0,3:0:0:0:
333,240,72091,1,2,0:0:0:0:
222,240,72484,1,0,0:0:0:0:
222,350,72877,1,2,3:2:0:0:
112,350,73269,1,0,0:0:0:0:
112,240,73662,6,0,B|225:240,1,110,6|0,2:3|0:0,0:0:0:0:
222,129,74449,1,4,3:2:0:0:
111,129,74843,1,2,3:0:0:0:
111,129,75039,1,0,3:0:0:0:
111,129,75236,1,2,0:0:0:0:
111,18,75627,1,0,0:0:0:0:
221,18,76019,1,2,3:2:0:0:
330,18,76410,1,0,3:0:0:0:
492,104,76802,6,0,P|432:124|328:80,1,165,6|0,3:0|0:0,0:0:0:0:
300,160,77586,2,0,P|276:128|264:56,1,110,8|0,0:0|0:0,0:0:0:0:
284,256,78369,2,0,P|332:228|448:248,1,165,2|0,0:0|0:0,0:0:0:0:
488,296,79148,1,2,2:0:0:0:
396,356,79537,1,0,0:0:0:0:
216,276,79927,6,0,P|164:284|92:372,1,165,6|0,0:0|0:0,0:0:0:0:
32,312,80708,1,8,0:0:0:0:
240,356,81098,2,0,B|348:392|348:276|480:356,1,220,0|0,0:0|0:0,0:0:0:0:
272,268,82270,1,2,2:0:0:0:
464,196,82661,2,0,P|440:208|396:216,1,55,0|0,0:0|0:0,0:0:0:0:
305,115,83052,6,0,B|414:124,1,110,6|0,0:0|0:0,0:0:0:0:
232,55,83829,2,0,P|275:32|339:30,1,110,8|0,0:0|0:0,0:0:0:0:
280,152,84606,2,0,B|244:260|360:260|280:392,1,220,2|2,0:0|2:0,0:0:0:0:
196,316,85772,1,0,0:0:0:0:
0,256,86160,5,6,0:0:0:0:
72,348,86546,1,0,0:0:0:0:
192,184,86933,1,8,0:0:0:0:
112,264,87319,1,0,0:0:0:0:
192,184,87706,1,2,0:0:0:0:
8,104,88092,1,4,0:0:0:0:
8,104,88479,2,0,P|32:140|40:168,1,55,2|4,2:0|0:0,0:0:0:0:
112,192,88866,2,0,P|92:224|68:248,1,55,6|2,0:0|0:0,0:0:0:0:
20,340,89252,6,0,P|88:304|196:376,1,220,4|8,1:0|0:0,0:0:0:0:
424,324,90417,1,0,0:0:0:0:
424,324,90612,1,0,0:0:0:0:
424,324,90806,2,0,B|308:316,1,110,2|0,0:0|0:0,0:0:0:0:
252,200,91583,1,2,2:0:0:0:
324,88,91972,1,0,0:0:0:0:
480,176,92360,6,0,P|448:204|368:216,1,110,2|0,0:0|0:0,0:0:0:0:
288,340,93139,2,0,P|340:324|364:322,1,55,8|0,0:0|0:0,0:0:0:0:
420,288,93528,2,0,P|440:328|448:352,1,55,8|4,0:0|0:0,0:0:0:0:
340,232,93918,1,2,0:0:0:0:
340,232,94103,1,0,0:0:0:0:
340,232,94288,1,0,0:0:0:0:
272,216,94658,1,0,0:0:0:0:
272,216,95029,1,0,0:0:0:0:
20,340,95399,6,0,P|88:304|196:376,1,220,4|8,1:0|0:0,0:0:0:0:
424,324,96560,1,0,0:0:0:0:
424,324,96753,1,0,0:0:0:0:
424,324,96947,2,0,B|308:316,1,110,2|0,0:0|0:0,0:0:0:0:
252,200,97721,1,2,2:0:0:0:
324,88,98108,1,0,0:0:0:0:
480,176,98495,6,0,P|448:204|368:216,1,110,2|0,0:0|0:0,0:0:0:0:
288,340,99266,2,0,P|340:324|364:322,1,55,8|0,0:0|0:0,0:0:0:0:
420,288,99650,2,0,P|440:328|448:352,1,55,8|4,0:0|0:0,0:0:0:0:
340,232,100035,1,2,0:0:0:0:
340,232,100219,1,0,0:0:0:0:
340,232,100404,1,0,0:0:0:0:
272,216,100773,1,2,0:0:0:0:
272,216,100958,1,4,0:0:0:0:
272,216,101143,1,8,0:0:0:0:
20,340,101512,6,0,P|88:304|196:376,1,220,4|8,1:0|0:0,0:0:0:0:
424,324,102680,1,0,0:0:0:0:
424,324,102875,1,0,0:0:0:0:
424,324,103070,2,0,B|308:316,1,110,2|0,0:0|0:0,0:0:0:0:
252,200,103849,1,2,2:0:0:0:
324,88,104239,1,0,0:0:0:0:
480,176,104628,6,0,P|448:204|368:216,1,110,2|0,0:0|0:0,0:0:0:0:
288,340,105417,2,0,P|340:324|364:322,1,55,8|0,0:0|0:0,0:0:0:0:
420,288,105812,2,0,P|440:328|448:352,1,55,8|4,0:0|0:0,0:0:0:0:
340,232,106206,1,2,0:0:0:0:
340,232,106601,1,0,0:0:0:0:
272,216,106996,1,0,0:0:0:0:
272,216,107193,1,0,0:0:0:0:
272,216,107391,1,2,2:0:0:0:
32,184,120832,6,0,P|108:184|176:316,1,220,2|0,0:0|0:0,0:0:0:0:
276,100,122427,2,0,P|188:40|172:112,1,220,2|0,0:0|0:0,0:0:0:0:
236,204,123624,1,0,0:0:0:0:
184,300,124023,5,2,0:0:0:0:
280,356,124425,2,0,P|324:344|396:344,1,110,0|0,0:0|0:0,0:0:0:0:
440,244,125229,2,0,P|424:208|412:128,1,110,0|2,0:0|0:0,0:0:0:0:
472,48,126033,1,0,0:0:0:0:
472,48,126435,1,0,0:0:0:0:
472,48,126838,1,0,0:0:0:0:
504,160,127240,6,0,P|408:288|280:208,1,330,2|0,0:0|0:0,0:0:0:0:
224,128,128790,2,0,P|88:61|24:104,1,220,2|0,0:0|0:0,0:0:0:0:
12,300,130340,5,2,0:0:0:0:
104,360,130733,1,0,0:0:0:0:
208,324,131127,1,0,0:0:0:0:
280,240,131521,1,0,0:0:0:0:
308,132,131914,1,2,0:0:0:0:
384,52,132308,2,0,P|448:64|492:116,1,110,0|0,0:0|0:0,0:0:0:0:
20,340,133489,6,0,P|88:304|196:376,1,220,4|8,1:0|0:0,0:0:0:0:
424,324,134619,1,0,0:0:0:0:
424,324,134808,1,0,0:0:0:0:
424,324,134996,2,0,B|308:316,1,110,2|0,0:0|0:0,0:0:0:0:
252,200,135750,1,2,2:0:0:0:
324,88,136127,1,0,0:0:0:0:
480,176,136504,6,0,P|448:204|368:216,1,110,2|0,0:0|0:0,0:0:0:0:
288,340,137299,2,0,P|340:324|364:322,1,55,8|0,0:0|0:0,0:0:0:0:
420,288,137697,2,0,P|440:328|448:352,1,55,8|4,0:0|0:0,0:0:0:0:
340,232,138095,1,2,0:0:0:0:
340,232,138279,1,0,0:0:0:0:
340,232,138463,1,0,0:0:0:0:
272,216,138832,1,0,0:0:0:0:
272,216,139200,1,0,0:0:0:0:
20,340,139565,6,0,P|88:304|196:376,1,220,4|8,1:0|0:0,0:0:0:0:
424,324,140724,1,0,0:0:0:0:
424,324,140918,1,0,0:0:0:0:
424,324,141111,2,0,B|308:316,1,110,2|0,0:0|0:0,0:0:0:0:
252,200,141884,1,2,2:0:0:0:
324,88,142271,1,0,0:0:0:0:
480,176,142657,6,0,P|448:204|368:216,1,110,2|0,0:0|0:0,0:0:0:0:
288,340,143412,2,0,P|340:324|364:322,1,55,8|0,0:0|0:0,0:0:0:0:
420,288,143790,2,0,P|440:328|448:352,1,55,8|4,0:0|0:0,0:0:0:0:
340,232,144168,1,2,0:0:0:0:
340,232,144546,1,0,0:0:0:0:
272,216,144924,1,2,0:0:0:0:
272,216,145112,1,4,0:0:0:0:
272,216,145301,1,8,0:0:0:0:
20,340,145679,6,0,P|88:304|196:376,1,220,4|8,1:0|0:0,0:0:0:0:
424,324,146821,1,0,0:0:0:0:
424,324,147011,1,0,0:0:0:0:
424,324,147201,2,0,B|308:316,1,110,2|0,0:0|0:0,0:0:0:0:
252,200,147963,1,2,2:0:0:0:
324,88,148343,1,0,0:0:0:0:
480,176,148724,6,0,P|448:204|368:216,1,110,2|0,0:0|0:0,0:0:0:0:
288,340,149493,2,0,P|340:324|364:322,1,55,8|0,0:0|0:0,0:0:0:0:
420,288,149877,2,0,P|440:328|448:352,1,55,8|4,0:0|0:0,0:0:0:0:
340,232,150262,1,2,0:0:0:0:
340,232,150648,1,0,0:0:0:0:
272,216,151034,1,0,0:0:0:0:
272,216,151227,1,0,0:0:0:0:
272,216,151420,1,0,0:0:0:0:
272,348,151806,6,0,B|388:348,1,110,4|0,0:0|0:0,0:0:0:0:
492,348,152586,1,10,0:0:0:0:
492,238,152976,1,0,0:0:0:0:
492,238,153171,1,0,0:0:0:0:
492,238,153366,1,2,0:0:0:0:
381,238,153753,1,0,0:0:0:0:
384,348,154141,1,10,0:0:0:0:
273,348,154528,2,0,B|236:348,3,27.5
216,348,154916,6,0,B|88:348,1,110,4|0,0:0|0:0,0:0:0:0:
106,237,155677,1,10,0:0:0:0:
216,237,156058,1,0,0:0:0:0:
216,237,156248,1,0,0:0:0:0:
216,237,156438,1,2,0:0:0:0:
293,159,156819,1,0,0:0:0:0:
370,81,157201,1,10,0:0:0:0:
447,3,157583,1,0,0:0:0:0:
447,110,157964,5,4,0:0:0:0:
369,32,158347,1,0,0:0:0:0:
291,109,158731,1,10,0:0:0:0:
368,186,159114,1,0,0:0:0:0:
368,186,159306,1,0,0:0:0:0:
368,186,159498,1,2,0:0:0:0:
368,252,159690,1,0,0:0:0:0:
368,317,159882,1,0,0:0:0:0:
257,317,160265,1,10,0:0:0:0:
146,317,160649,1,0,0:0:0:0:
146,317,160841,1,0,0:0:0:0:
146,317,161033,5,4,0:0:0:0:
68,239,161418,1,2,0:0:0:0:
145,161,161798,1,10,0:0:0:0:
222,238,162178,1,2,0:0:0:0:
299,315,162558,1,6,0:0:0:0:
380,244,162924,1,0,0:0:0:0:
380,244,163107,1,0,0:0:0:0:
380,244,163290,1,10,0:0:0:0:
329,190,163473,1,0,0:0:0:0:
282,143,163656,1,0,0:0:0:0:
205,66,164023,5,4,0:0:0:0:
127,143,164403,1,0,0:0:0:0:
204,220,164784,1,10,0:0:0:0:
281,142,165165,1,0,0:0:0:0:
281,142,165355,1,0,0:0:0:0:
281,142,165545,1,2,0:0:0:0:
347,142,165736,1,0,0:0:0:0:
412,142,165926,2,0,L|412:197,1,55
412,263,166307,2,0,L|355:263,1,55,10|0,0:0|0:0,0:0:0:0:
292,268,166687,1,0,0:0:0:0:
292,268,166878,1,0,0:0:0:0:
292,268,167068,5,6,0:0:0:0:
213,340,167453,1,2,0:0:0:0:
135,262,167838,1,10,0:0:0:0:
57,184,168223,1,0,0:0:0:0:
57,184,168415,1,0,0:0:0:0:
57,184,168608,1,2,0:0:0:0:
134,106,168993,1,2,0:0:0:0:
211,183,169378,1,10,0:0:0:0:
211,183,169571,1,0,0:0:0:0:
211,183,169763,2,0,B|210:257,1,55
210,305,170148,6,0,B|326:305,1,110,4|0,0:0|0:0,0:0:0:0:
429,305,170898,1,10,0:0:0:0:
424,176,171274,1,0,0:0:0:0:
424,176,171462,1,0,0:0:0:0:
424,176,171649,1,2,0:0:0:0:
313,176,172025,1,2,0:0:0:0:
202,176,172400,1,10,0:0:0:0:
91,176,172776,1,8,0:0:0:0:
91,286,173150,6,0,B|217:286,1,110,4|0,0:0|0:0,0:0:0:0:
310,286,173896,2,0,B|436:286,1,110,10|10,0:0|0:0,0:0:0:0:
420,176,174642,2,0,B|294:176,1,110,2|0,0:0|0:0,0:0:0:0:
200,176,175388,1,10,0:0:0:0:
153,129,175575,1,2,0:0:0:0:
106,175,175761,1,2,0:0:0:0:
152,221,175948,1,2,0:0:0:0:
152,228,176135,6,0,B|152:340,1,110,4|0,0:0|0:0,0:0:0:0:
262,338,176906,2,0,B|262:228,1,110,10|0,0:0|0:0,0:0:0:0:
262,117,177677,2,0,B|262:7,1,110,2|0,0:0|0:0,0:0:0:0:
151,7,178448,2,0,B|151:117,1,110,10|0,0:0|0:0,0:0:0:0:
152,252,179219,6,0,P|104:278|60:252,1,110,4|0,0:0|0:0,0:0:0:0:
68,132,179992,1,10,0:0:0:0:
224,172,180378,1,0,0:0:0:0:
152,16,180765,2,0,P|140:68|156:200,1,165,2|0,0:0|0:0,0:0:0:0:
200,240,181538,1,10,0:0:0:0:
320,124,181925,1,0,0:0:0:0:
504,204,182311,6,0,P|440:224|312:216,1,165,4|0,0:0|0:0,0:0:0:0:
256,176,183074,1,10,0:0:0:0:
154,280,183456,1,0,0:0:0:0:
154,280,183646,1,0,0:0:0:0:
154,280,183837,1,2,0:0:0:0:
76,202,184219,1,0,0:0:0:0:
168,72,184601,1,10,0:0:0:0:
245,149,184982,1,0,0:0:0:0:
396,104,185364,5,4,0:0:0:0:
324,204,185738,1,0,0:0:0:0:
352,340,186112,1,10,0:0:0:0:
324,204,186486,2,0,P|312:232|296:272,1,55
212,244,186860,2,0,P|224:292|256:364,1,110,2|2,0:0|0:0,0:0:0:0:
100,284,187586,1,10,0:0:0:0:
124,216,187767,1,2,0:0:0:0:
140,144,187949,1,8,0:0:0:0:
124,216,188131,1,4,0:0:0:0:
100,284,188312,6,0,P|58:290|1:342,1,110,4|0,1:0|0:0,0:0:0:0:
177,354,189073,2,0,P|156:317|88:281,1,110,10|0,0:0|0:0,0:0:0:0:
376,320,189834,2,0,B|260:312,1,110,2|0,0:0|0:0,0:0:0:0:
228,180,190596,1,10,0:0:0:0:
324,88,190976,1,0,0:0:0:0:
480,176,191357,6,0,P|448:204|368:216,1,110,4|0,0:0|0:0,0:0:0:0:
288,340,192112,2,0,P|340:324|392:320,1,55,10|0,0:0|0:0,0:0:0:0:
436,276,192490,1,8,0:0:0:0:
448,356,192679,1,4,0:0:0:0:
436,276,192868,1,2,0:0:0:0:
393,123,193227,1,2,0:0:0:0:
276,232,193587,1,10,0:0:0:0:
188,168,193947,1,2,0:0:0:0:
100,284,194305,6,0,P|58:290|1:342,1,110,4|0,1:0|0:0,0:0:0:0:
177,354,195070,2,0,P|156:317|88:281,1,110,10|0,0:0|0:0,0:0:0:0:
376,320,195835,2,0,B|260:312,1,110,2|0,0:0|0:0,0:0:0:0:
228,180,196600,1,10,0:0:0:0:
324,88,196983,1,0,0:0:0:0:
480,176,197366,6,0,P|448:204|368:216,1,110,4|0,0:0|0:0,0:0:0:0:
288,340,198125,2,0,P|340:324|392:320,1,55,10|0,0:0|0:0,0:0:0:0:
436,276,198505,1,8,0:0:0:0:
448,356,198695,1,4,0:0:0:0:
436,276,198884,1,2,0:0:0:0:
424,192,199067,1,0,0:0:0:0:
412,108,199250,1,2,2:0:0:0:
304,216,199617,1,2,0:2:0:0:
184,160,199984,1,2,0:0:0:0:
100,284,200351,6,0,P|58:290|1:342,1,110,4|0,1:0|0:0,0:0:0:0:
177,354,201116,2,0,P|156:317|88:281,1,110,10|0,0:0|0:0,0:0:0:0:
376,320,201881,2,0,B|260:312,1,110,2|0,0:0|0:0,0:0:0:0:
228,180,202646,1,10,0:0:0:0:
324,88,203029,1,0,0:0:0:0:
480,176,203412,6,0,P|448:204|368:216,1,110,4|0,0:0|0:0,0:0:0:0:
288,340,204205,2,0,P|340:324|392:320,1,55,10|0,0:0|0:0,0:0:0:0:
436,276,204603,1,8,0:0:0:0:
448,356,204801,1,4,0:0:0:0:
436,276,204999,1,2,0:0:0:0:
356,128,205396,1,4,2:0:0:0:
212,228,205792,1,0,0:0:0:0:
212,228,205991,1,0,0:0:0:0:
212,228,206189,1,0,0:0:0:0:
100,120,206586,5,4,3:2:0:0:
