osu file format v14

[General]
AudioFilename: audio.mp3
AudioLeadIn: 0
PreviewTime: 221363
Countdown: 0
SampleSet: Soft
StackLeniency: 0.6
Mode: 0
LetterboxInBreaks: 0
WidescreenStoryboard: 0

[Editor]
DistanceSpacing: 0.8
BeatDivisor: 4
GridSize: 32
TimelineZoom: 1.61136

[Metadata]
Title:Let Down
TitleUnicode:Let Down
Artist:Radiohead
ArtistUnicode:Radiohead
Creator:zglock
Version:Skeptic
Source:
Tags:ok computer alternative rock english thom yorke johnny greenwood philip selway ed o'brien colin greenwood
BeatmapID:2782107
BeatmapSetID:1343172

[Difficulty]
HPDrainRate:5
CircleSize:5
OverallDifficulty:7.2
ApproachRate:8
SliderMultiplier:3.59999990463257
SliderTickRate:1

[Events]
//Background and Video events
0,0,"OK COMPUTER.jpeg",0,0
//Break Periods
2,81265,89789
//Storyboard Layer 0 (Background)
//Storyboard Layer 1 (Fail)
//Storyboard Layer 2 (Pass)
//Storyboard Layer 3 (Foreground)
//Storyboard Layer 4 (Overlay)
//Storyboard Sound Samples

[TimingPoints]
210.671701148044,563.380281690141,5,2,1,80,1,0
3027,555.555555555556,5,2,1,80,1,0
6360,560.747663551402,5,2,1,80,1,0
6920,582.52427184466,5,2,1,80,1,0
7502,566.037735849057,5,2,1,80,1,0
9200,550.45871559633,5,2,1,80,1,0
9750,555.555555555556,5,2,1,80,1,0
11416,566.037735849057,5,2,1,80,1,0
12548,549.199084668192,5,2,1,80,1,0
13097,562.851782363977,4,2,1,65,1,0
14080,-100,4,2,1,5,0,0
14221,-200,4,2,1,65,0,0
15204,-200,4,2,1,5,0,0
15345,-200,4,2,1,65,0,0
15629,-208.333333333333,4,2,1,65,0,0
15922,582.52427184466,4,2,1,65,1,0
16510,572.246065808298,4,2,1,65,1,0
17224,-100,4,2,1,5,0,0
17367,-100,4,2,1,65,0,0
17654,571.428571428571,4,2,1,65,1,0
18652,-100,4,2,1,5,0,0
18797,-100,4,2,1,65,0,0
19367,-200,4,2,1,65,0,0
19797,-200,4,2,1,5,0,0
19939,592.885375494071,4,2,1,65,1,0
19939,-200,4,2,1,65,0,0
21124,579.150579150579,4,2,1,65,1,0
21124,-200,4,2,1,65,0,0
22280,578.034682080925,4,2,1,70,1,0
22280,-125,4,2,1,65,0,0
23291,-125,4,2,1,5,0,0
23436,-125,4,2,1,65,0,0
24447,-125,4,2,1,5,0,0
24592,583.090379008746,4,2,1,5,1,0
24592,-125,4,2,1,65,0,0
26924,581.395348837209,4,2,1,65,1,0
26924,-125,4,2,1,65,0,0
27359,-125,4,2,1,5,0,0
27504,-125,4,2,1,65,0,0
27939,-125,4,2,1,5,0,0
28086,585.9375,4,2,1,65,1,0
28086,-125,4,2,1,65,0,0
28671,-125,4,2,1,65,0,0
29111,-125,4,2,1,5,0,0
29257,588.235294117648,4,2,1,70,1,0
29257,-125,4,2,1,65,0,0
31609,581.395348837209,4,2,1,65,1,0
31609,-125,4,2,1,65,0,0
32045,-125,4,2,1,5,0,0
32190,-125,4,2,1,65,0,0
32626,-125,4,2,1,5,0,0
32771,-125,4,2,1,65,0,0
33353,-125,4,2,1,65,0,0
33789,-125,4,2,1,5,0,0
33945,588.235294117648,4,2,1,65,1,0
33945,-125,4,2,1,65,0,0
36741,-125,4,2,1,5,0,0
36886,576.923076923078,4,2,1,70,1,0
36886,-125,4,2,1,65,0,0
37318,-125,4,2,1,5,0,0
37462,-125,4,2,1,65,0,0
38039,597.014925373135,4,2,1,70,1,0
38039,-125,4,2,1,65,0,0
38636,588.235294117647,4,2,1,65,1,0
38636,-125,4,2,1,65,0,0
40403,586.510263929619,4,2,1,65,1,0
40403,-125,4,2,1,65,0,0
40989,594.059405940595,4,2,1,75,1,0
40989,-109.529025191676,4,2,1,70,0,0
41583,574.162679425838,4,2,1,75,1,0
41583,-111.111111111111,4,2,1,70,0,0
42013,-111.111111111111,4,2,1,5,0,0
42157,-111.111111111111,4,2,1,70,0,0
42731,597.014925373135,4,2,1,75,1,0
42731,-111.111111111111,4,2,1,70,0,0
43178,-111.111111111111,4,2,1,5,0,0
43328,590.26069847516,4,2,1,70,1,0
43328,-111.111111111111,4,2,1,70,0,0
43925,-111.111111111111,4,2,1,70,0,0
45689,588.235294117648,4,2,1,70,1,0
45689,-111.111111111111,4,2,1,70,0,0
46130,-111.111111111111,4,2,1,5,0,0
46277,576.923076923078,4,2,1,75,1,0
46277,-111.111111111111,4,2,1,70,0,0
46709,-111.111111111111,4,2,1,5,0,0
46853,-111.111111111111,4,2,1,70,0,0
47863,-111.111111111111,4,2,1,5,0,0
48007,594.059405940595,4,2,1,75,1,0
48007,-111.111111111111,4,2,1,70,0,0
50383,582.524271844661,4,2,1,75,1,0
50383,-111.111111111111,4,2,1,70,0,0
50819,-111.111111111111,4,2,1,5,0,0
50965,-111.111111111111,4,2,1,70,0,0
51402,-111.111111111111,4,2,1,5,0,0
51548,603.015075376884,4,2,1,75,1,0
51548,-111.111111111111,4,2,1,70,0,0
52724,588.235294117648,4,2,1,75,1,0
52724,-111.111111111111,4,2,1,70,0,0
55077,576.923076923078,4,2,1,75,1,0
55077,-111.111111111111,4,2,1,70,0,0
55509,-111.111111111111,4,2,1,5,0,0
55653,591.133004926109,4,2,1,75,1,0
55653,-111.111111111111,4,2,1,70,0,0
56096,-111.111111111111,4,2,1,5,0,0
56244,-111.111111111111,4,2,1,70,0,0
57278,-111.111111111111,4,2,1,5,0,0
57426,579.710144927536,4,2,1,75,1,0
57426,-111.111111111111,4,2,1,70,0,0
58005,-111.111111111111,4,2,1,70,0,0
58599,588.235294117647,4,2,1,75,1,0
58599,-111.111111111111,4,2,1,70,0,0
59775,588.235294117648,4,2,1,70,1,0
62569,-100,4,2,1,5,0,0
62716,-100,4,2,1,70,0,0
63010,579.710144927536,4,2,1,70,1,0
64459,588.235294117647,4,2,1,70,1,0
64900,-100,4,2,1,5,0,0
65047,-100,4,2,1,70,0,0
65635,600,4,2,1,70,1,0
66835,601.202404809619,4,2,1,70,1,0
68037,588.235294117648,4,2,1,70,1,0
69213,586.79706601467,4,2,1,70,1,0
69654,-100,4,2,1,5,0,0
69801,-100,4,2,1,70,0,0
71560,589.970501474926,4,2,1,70,1,0
72002,-100,4,2,1,5,0,0
72149,-100,4,2,1,70,0,0
73919,595.533498759306,4,2,1,70,1,0
76747,-100,4,2,1,5,0,0
76896,-100,4,2,1,70,0,0
78683,594.059405940594,4,2,1,70,1,0
79129,-100,4,2,1,5,0,0
79278,-100,4,2,1,70,0,0
81065,592.183181997631,4,2,1,70,1,0
90539,582.524271844661,4,2,1,80,1,0
90539,-111.111111111111,4,2,1,70,0,0
91558,-111.111111111111,4,2,1,5,0,0
91704,-111.111111111111,4,2,1,70,0,0
92723,-111.111111111111,4,2,1,5,0,0
92869,-111.111111111111,4,2,1,70,0,0
94616,600.000000000001,4,2,1,80,1,0
94616,-111.111111111111,4,2,1,70,0,0
95216,576.923076923078,4,2,1,80,1,0
95216,-111.111111111111,4,2,1,70,0,0
95648,-111.111111111111,4,2,1,5,0,0
95792,585.365853658538,4,2,1,80,1,0
95792,-111.111111111111,4,2,1,70,0,0
96231,-111.111111111111,4,2,1,5,0,0
96377,-111.111111111111,4,2,1,70,0,0
96962,567.375886524824,4,2,1,80,1,0
96962,-111.111111111111,4,2,1,70,0,0
97387,-111.111111111111,4,2,1,5,0,0
97529,592.592592592593,4,2,1,80,1,0
97529,-111.111111111111,4,2,1,70,0,0
99899,582.524271844661,4,2,1,80,1,0
99899,-111.111111111111,4,2,1,70,0,0
100335,-111.111111111111,4,2,1,5,0,0
100481,-111.111111111111,4,2,1,70,0,0
100918,-111.111111111111,4,2,1,5,0,0
101064,-111.111111111111,4,2,1,70,0,0
102083,-111.111111111111,4,2,1,5,0,0
102229,591.133004926109,4,2,1,80,1,0
102229,-111.111111111111,4,2,1,70,0,0
102672,-111.111111111111,4,2,1,5,0,0
102820,-111.111111111111,4,2,1,70,0,0
104593,585.365853658537,4,2,1,80,1,0
104593,-111.111111111111,4,2,1,70,0,0
105032,-111.111111111111,4,2,1,5,0,0
105178,-111.111111111111,4,2,1,70,0,0
105617,-111.111111111111,4,2,1,5,0,0
105763,-111.111111111111,4,2,1,70,0,0
106788,-111.111111111111,4,2,1,5,0,0
106934,-111.111111111111,4,2,1,70,0,0
109275,-100,4,2,2,75,0,0
109714,-100,4,2,2,5,0,0
109861,-100,4,2,2,75,0,0
110297,-100,4,2,2,5,0,0
110446,576.923076923077,4,2,2,75,1,0
110446,-100,4,2,2,75,0,0
111455,-100,4,2,2,5,0,0
111599,586.79706601467,4,2,2,5,1,0
111599,-100,4,2,2,75,0,0
113946,571.428571428571,4,2,2,85,1,0
113947,-100,4,2,2,75,0,0
114374,-100,4,2,2,5,0,0
114517,-100,4,2,2,75,0,0
114946,-100,4,2,2,5,0,0
115088,594.059405940594,4,2,2,5,1,0
115088,-100,4,2,2,75,0,0
115660,594.059405940594,4,2,2,75,1,0
116254,582.52427184466,4,2,2,75,1,0
118584,579.710144927537,4,2,2,75,1,0
119019,-100,4,2,2,5,0,0
119164,-100,4,2,2,75,0,0
119599,-100,4,2,2,5,0,0
119744,-100,4,2,2,75,0,0
123657,-100,4,2,2,5,0,0
123802,-100,4,2,2,75,0,0
124236,-100,4,2,2,5,0,0
124381,-100,4,2,2,75,0,0
125541,-100,4,2,2,75,0,0
126120,588.812561334642,4,2,2,75,1,0
126708,571.428571428571,4,2,2,75,1,0
127297,-100,4,2,2,75,0,0
127862,592.300098716683,4,2,2,90,1,0
127862,-86.9565217391304,4,2,2,80,0,0
129050,-86.9565217391304,4,2,2,80,0,0
129638,555.555555555556,4,2,2,80,1,0
129638,-86.9565217391304,4,2,2,80,0,0
130226,581.395348837209,4,2,2,90,1,0
130226,-86.9565217391304,4,2,2,80,0,0
130662,-86.9565217391304,4,2,2,5,0,0
130808,-86.9565217391304,4,2,2,80,0,0
132406,-86.9565217391304,4,2,2,5,0,0
132551,-86.9565217391304,4,2,2,80,0,0
134886,588.235294117648,4,2,2,90,1,0
134886,-86.9565217391304,4,2,2,80,0,0
137680,-86.9565217391304,4,2,2,5,0,0
137827,-86.9565217391304,4,2,2,80,0,0
139444,-86.9565217391304,4,2,2,5,0,0
139591,585.080448561677,4,2,2,80,1,0
139591,-86.9565217391304,4,2,2,80,0,0
141931,589.970501474926,4,2,2,80,1,0
141931,-86.9565217391304,4,2,2,80,0,0
144733,-86.9565217391304,4,2,2,5,0,0
144880,-86.9565217391304,4,2,2,80,0,0
146650,594.059405940595,4,2,2,90,1,0
146650,-86.9565217391304,4,2,2,80,0,0
147095,-86.9565217391304,4,2,2,5,0,0
147244,-86.9565217391304,4,2,2,80,0,0
149026,645.161290322581,4,2,1,50,1,0
149026,-476.190476190476,4,2,1,55,0,0
149348,612.244897959184,4,2,1,50,1,0
149348,-476.190476190476,4,2,1,25,0,0
151184,571.428571428571,4,2,1,50,1,0
151184,-476.190476190476,4,2,1,25,0,0
151755,600,4,2,1,50,1,0
151755,-476.190476190476,4,2,1,25,0,0
152955,585.365853658536,4,2,1,50,1,0
152955,-476.190476190476,4,2,1,25,0,0
153833,585.365853658536,4,2,1,50,1,0
153833,-476.190476190476,4,2,1,25,0,0
160857,588.235294117647,4,2,1,25,1,0
160857,-476.190476190476,4,2,1,25,0,0
163209,580.832526621491,4,2,1,25,1,0
163209,-476.190476190476,4,2,1,25,0,0
166113,585.365853658536,4,2,1,50,1,0
166113,-476.190476190476,4,2,1,25,0,0
167283,608.149199270221,4,2,1,50,1,0
167283,-476.190476190476,4,2,1,25,0,0
167587,-476.190476190476,4,2,1,45,0,0
167739,-476.190476190476,4,2,1,5,0,0
167891,584.225900681597,4,2,1,75,1,0
167891,-142.857142857143,4,2,1,70,0,0
170081,-142.857142857143,4,2,1,5,0,0
170227,-142.857142857143,4,2,1,70,0,0
172564,585.9375,4,2,1,70,1,0
172564,-142.857142857143,4,2,1,70,0,0
175347,-142.857142857143,4,2,1,5,0,0
175500,594.059405940595,4,2,1,75,1,0
175500,-142.857142857143,4,2,1,70,0,0
177282,584.225900681597,4,2,1,75,1,0
177282,-142.857142857143,4,2,1,70,0,0
179618,582.52427184466,4,2,1,70,1,0
179618,-142.857142857143,4,2,1,70,0,0
181948,586.080586080586,4,2,1,70,1,0
181948,-142.857142857143,4,2,1,70,0,0
182387,-142.857142857143,4,2,1,5,0,0
182534,-142.857142857143,4,2,1,70,0,0
184292,585.365853658537,4,2,1,70,1,0
184292,-142.857142857143,4,2,1,70,0,0
187072,-142.857142857143,4,2,1,5,0,0
187218,-142.857142857143,4,2,1,70,0,0
188980,588.235294117647,4,2,1,70,1,0
188980,-142.857142857143,4,2,1,70,0,0
189418,-142.857142857143,4,2,1,5,0,0
189565,-142.857142857143,4,2,1,70,0,0
189858,591.133004926108,4,2,1,70,1,0
189858,-142.857142857143,4,2,1,70,0,0
191335,585.365853658537,4,2,1,75,1,0
191335,-142.857142857143,4,2,1,70,0,0
194271,591.133004926108,4,2,1,75,1,0
194271,-142.857142857143,4,2,1,70,0,0
196044,589.68058968059,4,2,1,75,1,0
196044,-142.857142857143,4,2,1,70,0,0
198844,-142.857142857143,4,2,1,5,0,0
198992,-142.857142857143,4,2,1,70,0,0
200761,585.365853658537,4,2,1,75,1,0
200761,-142.857142857143,4,2,1,70,0,0
201200,-142.857142857143,4,2,1,5,0,0
201346,-142.857142857143,4,2,1,70,0,0
201948,585.365853658537,4,2,1,70,1,0
201948,-142.857142857143,4,2,1,70,0,0
203111,591.133004926108,4,2,1,70,1,0
203111,-142.857142857143,4,2,1,70,0,0
205919,-142.857142857143,4,2,1,5,0,0
206067,-142.857142857143,4,2,1,70,0,0
207840,574.162679425838,4,2,1,80,1,0
207840,-117.647058823529,4,2,1,70,0,0
208270,-117.647058823529,4,2,1,5,0,0
208414,-117.647058823529,4,2,1,70,0,0
210567,-117.647058823529,4,2,1,5,0,0
210710,-117.647058823529,4,2,1,70,0,0
212433,570.884871550904,4,2,1,70,1,0
212433,-117.647058823529,4,2,1,70,0,0
212863,-117.647058823529,4,2,1,5,0,0
213007,-117.647058823529,4,2,1,70,0,0
213432,-117.647058823529,4,2,1,5,0,0
213574,-117.647058823529,4,2,1,70,0,0
214716,571.428571428571,4,2,1,70,1,0
214716,-117.647058823529,4,2,1,70,0,0
215144,-117.647058823529,4,2,1,5,0,0
215287,-117.647058823529,4,2,1,70,0,0
215858,576.923076923077,4,2,1,70,1,0
215858,-117.647058823529,4,2,1,70,0,0
217011,562.060889929742,4,2,1,80,1,0
217011,-117.647058823529,4,2,1,70,0,0
217432,-117.647058823529,4,2,1,5,0,0
217573,-117.647058823529,4,2,1,70,0,0
219274,564.705882352942,4,2,1,80,1,0
219274,-117.647058823529,4,2,1,70,0,0
220403,554.272517321017,4,2,1,80,1,0
220403,-117.647058823529,4,2,1,70,0,0
221522,568.720379146919,4,2,2,85,1,1
221522,-86.9565217391304,4,2,2,80,0,1
221948,-86.9565217391304,4,2,2,5,0,1
222090,-86.9565217391304,4,2,2,80,0,1
222517,-86.9565217391304,4,2,2,5,0,1
222659,-86.9565217391304,4,2,2,80,0,1
223652,-86.9565217391304,4,2,2,5,0,1
223796,574.162679425838,4,2,2,85,1,1
223796,-86.9565217391304,4,2,2,80,0,1
226523,-86.9565217391304,4,2,2,5,0,1
226666,-86.9565217391304,4,2,2,80,0,1
227097,-86.9565217391304,4,2,2,5,0,1
227240,-86.9565217391304,4,2,2,80,0,1
228245,-86.9565217391304,4,2,2,5,0,1
228389,-86.9565217391304,4,2,2,80,0,1
228963,600.000000000001,4,2,2,85,1,1
228963,-86.9565217391304,4,2,2,80,0,1
229563,576.923076923078,4,2,2,85,1,1
229563,-86.9565217391304,4,2,2,80,0,1
230716,574.162679425838,4,2,2,85,1,1
230716,-86.9565217391304,4,2,2,80,0,1
231146,-86.9565217391304,4,2,2,5,0,1
231290,-86.9565217391304,4,2,2,80,0,1
231720,-86.9565217391304,4,2,2,5,0,1
231864,-86.9565217391304,4,2,2,80,0,1
232869,-86.9565217391304,4,2,2,5,0,1
233012,-86.9565217391304,4,2,2,80,0,1
233443,-86.9565217391304,4,2,2,5,0,1
233586,600.000000000001,4,2,2,85,1,1
233586,-86.9565217391304,4,2,2,80,0,1
234786,567.644276253548,4,2,2,85,1,1
234786,-86.9565217391304,4,2,2,80,0,1
235353,572.246065808298,4,2,2,80,1,1
235353,-86.9565217391304,4,2,2,80,0,1
235786,-86.9565217391304,4,2,2,5,0,1
235928,-86.9565217391304,4,2,2,80,0,1
236357,-86.9565217391304,4,2,2,5,0,1
236500,-86.9565217391304,4,2,2,80,0,1
237500,-86.9565217391304,4,2,2,5,0,1
237643,-86.9565217391304,4,2,2,80,0,1
238214,588.235294117648,4,2,2,85,1,1
238214,-86.9565217391304,4,2,2,80,0,1
239390,566.839867737364,4,2,2,85,1,1
239390,-86.9565217391304,4,2,2,80,0,1
239956,571.428571428571,4,2,2,85,1,1
239956,-83.3333333333333,4,2,2,80,0,1
240384,-83.3333333333333,4,2,2,5,0,1
240527,-83.3333333333333,4,2,2,80,0,1
240956,-83.3333333333333,4,2,2,5,0,1
241098,-83.3333333333333,4,2,2,80,0,1
242098,-83.3333333333333,4,2,2,5,0,1
242241,-83.3333333333333,4,2,2,80,0,1
244527,578.034682080925,4,2,2,85,1,1
244527,-83.3333333333333,4,2,2,80,0,1
244964,-83.3333333333333,4,2,2,5,0,1
245108,-83.3333333333333,4,2,2,80,0,1
245541,-83.3333333333333,4,2,2,5,0,1
245685,-83.3333333333333,4,2,2,80,0,1
246839,582.52427184466,4,2,2,80,1,1
246839,-83.3333333333333,4,2,2,80,0,1
249169,572.929100023872,4,2,2,85,1,1
249169,-83.3333333333333,4,2,2,80,0,1
249601,-83.3333333333333,4,2,2,5,0,1
249745,-83.3333333333333,4,2,2,80,0,1
250171,-83.3333333333333,4,2,2,5,0,1
250314,-83.3333333333333,4,2,2,80,0,1
252033,585.365853658537,4,2,2,80,1,1
252033,-83.3333333333333,4,2,2,80,0,1
253203,566.037735849057,4,2,2,80,1,1
253203,-83.3333333333333,4,2,2,80,0,1
253769,578.871201157742,4,2,2,80,1,1
253769,-83.3333333333333,4,2,2,80,0,1
254203,-83.3333333333333,4,2,2,5,0,1
254347,-83.3333333333333,4,2,2,80,0,1
254782,-83.3333333333333,4,2,2,5,0,1
254926,-83.3333333333333,4,2,2,80,0,1
258255,-83.3333333333333,4,2,2,80,0,0
258399,606.060606060607,4,2,2,90,1,1
258399,-83.3333333333333,4,2,2,85,0,1
259005,579.710144927537,4,2,2,90,1,1
259005,-83.3333333333333,4,2,2,85,0,1
261178,-83.3333333333333,4,2,2,5,0,1
261323,574.162679425838,4,2,2,90,1,1
261323,-83.3333333333333,4,2,2,85,0,1
262471,582.524271844661,4,2,2,90,1,1
262471,-83.3333333333333,4,2,2,85,0,1
262907,-83.3333333333333,4,2,2,5,0,1
263053,566.037735849057,4,2,2,90,1,1
263053,-83.3333333333333,4,2,2,85,0,1
263619,582.524271844661,4,2,2,90,1,1
263619,-83.3333333333333,4,2,2,85,0,1
264784,571.428571428572,4,2,2,90,1,1
264784,-83.3333333333333,4,2,2,85,0,1
265355,585.365853658537,4,2,2,90,1,1
265355,-83.3333333333333,4,2,2,85,0,1
268135,-83.3333333333333,4,2,2,5,0,1
268281,573.065902578797,4,2,2,85,1,1
268281,-83.3333333333333,4,2,2,85,0,1
269856,-83.3333333333333,4,2,2,5,0,1
270000,-83.3333333333333,4,2,2,85,0,1
270573,582.524271844661,4,2,2,90,1,1
270573,-83.3333333333333,4,2,2,85,0,1
272320,597.014925373135,4,2,2,90,1,1
272320,-83.3333333333333,4,2,2,85,0,1
274111,576.923076923078,4,2,2,90,1,1
274111,-83.3333333333333,4,2,2,85,0,1
275120,-83.3333333333333,4,2,2,5,0,1
275264,-83.3333333333333,4,2,2,85,0,1
275841,582.524271844661,4,2,2,90,1,1
275841,-83.3333333333333,4,2,2,85,0,1
277442,-83.3333333333333,4,2,2,5,0,1
277588,606.060606060607,4,2,2,90,1,1
277588,-83.3333333333333,4,2,2,85,0,1
279406,592.592592592593,4,2,2,80,1,0
279406,-534.473543559594,4,2,2,80,0,0
279554,-534.473543559594,4,2,2,5,0,0
293331,-100,4,2,1,40,0,0

[Colours]
Combo1 : 199,174,221
Combo2 : 176,227,225
Combo3 : 211,211,211
Combo4 : 207,114,116

[HitObjects]
297,128,13097,6,0,B|168:223|18:56|-96:252|161:410|281:305|90:82|208:-24|298:47,1,629.9999833107,4|0,3:2|0:0,0:0:0:0:
346,64,14222,1,0,3:0:0:0:
346,64,14504,1,0,3:0:0:0:
373,266,14785,2,0,B|331:265|316:195|387:157,1,134.999996423721,2|0,0:0|0:0,0:0:0:0:
397,159,15348,5,0,3:0:0:0:
412,337,15629,2,0,P|358:345|316:320,1,89.9999976158143,0|2,0:0|0:0,0:0:0:0:
232,230,16213,1,0,3:0:0:0:
232,230,16510,1,0,3:0:0:0:
64,310,16796,2,0,B|47:362|96:393|164:378|182:291|88:280|71:203|152:168,1,269.999992847443,2|0,0:0|0:0,0:0:0:0:
217,146,17368,2,0,B|218:176|187:175|140:121|160:80,1,89.9999976158143,2|0,0:0|0:0,0:0:0:0:
63,1,17654,6,0,B|149:-8|205:65|116:94|173:167|266:164|266:164|185:118|170:19|226:-38|276:-49|350:1|282:98,1,629.9999833107,0|0,3:0|0:0,0:0:0:0:
344,137,18796,1,0,3:0:0:0:
344,137,19082,1,0,3:0:0:0:
453,0,19368,2,0,B|406:-6|386:33|426:118,1,134.999996423721,2|0,0:0|0:0,0:0:0:0:
434,114,19939,5,0,3:0:0:0:
300,64,20235,2,0,P|246:47|207:67,1,89.9999976158143,0|2,0:0|0:0,0:0:0:0:
144,239,20828,1,0,3:0:0:0:
215,259,21124,1,0,3:0:0:0:
29,363,21413,1,2,0:0:0:0:
20,347,21703,1,0,3:0:0:0:
197,329,21992,1,2,0:0:0:0:
301,144,22280,6,0,B|403:39|501:240|305:300|238:210|316:40|69:115|146:242,1,503.99998664856,0|0,3:0|0:0,0:0:0:0:
230,258,23436,1,0,3:0:0:0:
230,258,23725,1,0,3:0:0:0:
292,63,24014,2,0,B|356:-2|454:-4|444:116,1,215.999994277954,2|0,0:0|0:0,0:0:0:0:
487,170,24592,5,0,3:0:0:0:
320,259,24883,2,0,B|341:257|369:290|357:235|351:220|351:201|381:150,1,143.999996185303,0|2,0:0|0:0,0:0:0:0:
466,254,25466,1,0,3:0:0:0:
340,356,25758,1,0,3:0:0:0:
204,219,26049,2,0,L|106:214,1,71.9999980926514,2|0,0:0|0:0,0:0:0:0:
115,234,26341,1,0,0:0:0:0:
309,132,26632,2,0,L|211:137,1,71.9999980926514,2|0,0:0|0:0,0:0:0:0:
167,123,26924,6,0,B|252:140|281:32|177:-9|145:70,1,215.999994277954,0|0,3:0|0:0,0:0:0:0:
57,127,27505,2,0,B|19:43|104:74|119:194|18:148|33:242,1,215.999994277954,2|0,0:0|0:0,0:0:0:0:
75,298,28086,1,0,3:0:0:0:
75,298,28378,1,0,3:0:0:0:
227,321,28671,2,0,B|141:297|158:367|87:412|20:360,1,215.999994277954,2|0,0:0|0:0,0:0:0:0:
75,298,29257,5,0,3:0:0:0:
256,247,29551,2,0,B|330:206|383:273|346:349|298:325,1,143.999996185303,0|2,0:0|0:0,0:0:0:0:
227,321,30139,1,0,3:0:0:0:
346,173,30433,1,0,3:0:0:0:
417,265,30727,2,0,L|430:346,1,71.9999980926514,2|0,0:0|0:0,0:0:0:0:
419,359,31021,1,0,3:0:0:0:
495,142,31315,2,0,L|482:223,1,71.9999980926514,2|0,0:0|0:0,0:0:0:0:
493,236,31609,6,0,B|441:173|428:40|488:7,1,215.999994277954,0|0,3:0|0:0,0:0:0:0:
346,12,32190,2,0,B|274:95|217:2|134:-3|130:31,1,215.999994277954,2|0,0:0|0:0,0:0:0:0:
164,104,32771,1,0,3:0:0:0:
164,104,33062,1,0,3:0:0:0:
312,185,33353,2,0,B|366:122|254:117|213:184|259:274,1,215.999994277954,2|0,0:0|0:0,0:0:0:0:
329,262,33945,5,0,3:0:0:0:
172,340,34239,2,0,B|84:331|41:277|59:237,1,143.999996185303,0|2,0:0|0:0,0:0:0:0:
138,182,34827,1,0,3:0:0:0:
272,367,35121,1,0,3:0:0:0:
397,249,35415,2,0,L|473:263,1,71.9999980926514,2|0,0:0|0:0,0:0:0:0:
490,249,35709,1,0,0:0:0:0:
434,78,36003,2,0,L|358:92,1,71.9999980926514,2|0,0:0|0:0,0:0:0:0:
341,78,36297,6,0,B|396:11|523:79|481:162,1,215.999994277954,0|0,3:0|0:0,0:0:0:0:
300,149,36886,2,0,B|256:100|192:105|216:183|109:140|116:55|169:50|208:74|208:96,1,215.999994277954,2|0,0:0|0:0,0:0:0:0:
233,24,37462,1,0,3:0:0:0:
233,24,37751,1,0,3:0:0:0:
226,201,38039,2,0,B|172:270|102:240|139:164|141:164,1,143.999996185303,2|0,0:0|0:0,0:0:0:0:
303,304,38636,5,0,3:0:0:0:
129,315,38930,2,0,B|75:246|5:276|42:352|44:352,1,143.999996185303,0|2,0:0|0:0,0:0:0:0:
242,284,39518,1,0,3:0:0:0:
242,284,39812,2,0,B|311:338|281:408|206:392,1,143.999996185303,0|2,3:0|0:0,0:0:0:0:
309,172,40403,1,0,0:0:0:0:
138,88,40696,2,0,L|143:159,1,71.9999980926514,2|0,3:2|0:0,0:0:0:0:
126,175,40989,6,0,B|66:108|106:-2|207:-32|317:16|271:76|381:152|499:116|498:26,1,566.999967676164,6|0,3:2|0:0,0:0:0:0:
419,20,42157,1,0,3:0:0:0:
419,20,42444,1,0,3:0:0:0:
497,160,42731,2,0,B|561:239|504:339|413:319|420:269|456:236,1,242.999986146927,2|0,0:0|0:0,0:0:0:0:
424,176,43328,5,0,3:0:0:0:
288,259,43623,2,0,B|248:249|288:217|366:246|373:292|331:342,1,161.999990764618,0|2,0:0|0:0,0:0:0:0:
192,361,44213,1,0,3:0:0:0:
250,183,44508,1,0,3:0:0:0:
125,269,44803,2,0,L|44:280,1,80.9999953823091,2|0,0:0|0:0,0:0:0:0:
27,263,45098,1,0,0:0:0:0:
92,87,45393,2,0,L|173:98,1,80.9999953823091,2|0,0:0|0:0,0:0:0:0:
189,80,45689,6,0,B|97:103|70:192|120:241|190:195|180:145,1,242.999986146927,0|0,3:0|0:0,0:0:0:0:
261,129,46277,2,0,B|177:156|122:123|128:79|191:87|92:48|47:90,1,242.999986146927,2|0,0:0|0:0,0:0:0:0:
0,30,46853,1,0,3:0:0:0:
0,30,47142,1,0,3:0:0:0:
10,223,47430,2,0,B|13:272|173:199|102:173|159:101|212:152,1,242.999986146927,2|0,0:0|0:0,0:0:0:0:
189,219,48007,5,0,3:0:0:0:
313,347,48304,2,0,B|355:378|423:363|448:335|399:270|370:322,1,161.999990764618,0|2,0:0|0:0,0:0:0:0:
239,379,48898,1,0,3:0:0:0:
300,189,49195,1,0,3:0:0:0:
406,286,49492,2,0,L|493:275,1,80.9999953823091,2|0,0:0|0:0,0:0:0:0:
498,259,49789,1,0,0:0:0:0:
414,130,50086,2,0,L|327:119,1,80.9999953823091,2|0,0:0|0:0,0:0:0:0:
322,103,50383,6,0,B|392:46|497:69|504:174|453:193,1,242.999986146927,0|0,3:0|0:0,0:0:0:0:
354,241,50965,2,0,B|277:291|289:74|172:285|142:159,1,242.999986146927,2|0,0:0|0:0,0:0:0:0:
211,125,51548,1,0,3:0:0:0:
211,125,51849,1,0,3:0:0:0:
233,278,52151,2,0,B|252:344|245:300|159:342|210:259|99:275,1,161.999990764618,2|0,0:0|0:0,0:0:0:0:
16,380,52724,5,0,3:0:0:0:
16,380,53018,2,0,B|-3:313|3:357|89:315|38:398|149:382,1,161.999990764618,0|2,0:0|0:0,0:0:0:0:
149,182,53606,1,0,3:0:0:0:
0,275,53900,1,0,3:0:0:0:
186,377,54194,2,0,L|203:291,1,80.9999953823091,2|0,0:0|0:0,0:0:0:0:
189,275,54488,1,0,0:0:0:0:
61,132,54782,2,0,L|78:218,1,80.9999953823091,2|0,0:0|0:0,0:0:0:0:
64,234,55077,6,0,B|1:179|43:37|72:139|114:152|177:96,1,242.999986146927,0|0,3:0|0:0,0:0:0:0:
243,27,55653,2,0,B|141:61|179:122|243:141|266:138|254:222,1,242.999986146927,2|0,0:0|0:0,0:0:0:0:
323,152,56244,1,0,3:0:0:0:
323,152,56539,1,0,3:0:0:0:
385,311,56835,2,0,B|289:331|320:222|376:222|437:155|370:114,1,242.999986146927,2|0,0:0|0:0,0:0:0:0:
335,85,57426,5,0,3:0:0:0:
432,254,57715,2,0,B|499:260|483:288|539:273|514:176,1,161.999990764618,0|2,0:0|0:0,0:0:0:0:
389,132,58295,1,0,3:0:0:0:
311,320,58599,1,0,3:0:0:0:
172,344,58893,2,0,L|87:326,1,80.9999953823091,2|0,0:0|0:0,0:0:0:0:
77,302,59187,1,0,0:0:0:0:
209,210,59481,2,0,L|294:192,1,80.9999953823091,2|0,0:0|0:0,0:0:0:0:
323,130,59775,6,0,B|212:30|109:140|183:247|75:262|-13:229|8:158,1,359.999990463257,6|2,3:2|3:2,0:0:0:0:
55,89,60657,1,0,3:0:0:0:
161,269,60951,1,0,3:0:0:0:
161,269,61245,2,0,B|186:303|173:337|140:352,1,89.9999976158143,2|0,0:0|0:0,0:0:0:0:
89,375,61539,1,0,0:0:0:0:
369,338,61833,2,0,B|352:376|316:382|286:361,1,89.9999976158143,2|0,0:0|0:0,0:0:0:0:
241,328,62127,6,0,B|281:286|383:246|386:382|453:399|510:346,1,269.999992847443,0|0,3:0|0:0,0:0:0:0:
458,293,62716,1,2,0:0:0:0:
296,132,63010,1,0,0:0:0:0:
311,143,63154,1,8,3:0:0:0:
361,192,63299,1,4,3:0:0:0:
431,179,63444,1,4,3:0:0:0:
502,167,63589,1,4,3:0:0:0:
262,193,63879,1,2,0:0:0:0:
309,300,64169,1,0,0:0:0:0:
155,361,64459,6,0,B|109:294|214:298|269:343|234:366|322:418|376:333,1,269.999992847443,4|0,3:2|0:0,0:0:0:0:
380,286,65047,1,2,0:0:0:0:
184,236,65341,1,0,3:0:0:0:
184,236,65635,1,0,3:0:0:0:
320,91,65935,2,0,B|352:112|351:129|334:185,1,89.9999976158143,2|0,0:0|0:0,0:0:0:0:
272,182,66235,1,0,0:0:0:0:
107,73,66535,2,0,B|109:34|124:27|181:13,1,89.9999976158143,2|0,0:0|0:0,0:0:0:0:
209,69,66835,6,0,B|174:138|107:139|47:69|91:52|23:11|-135:125|-6:237|58:229,1,359.999990463257,6|2,3:2|0:0,0:0:0:0:
129,273,67736,1,0,3:0:0:0:
144,39,68037,1,0,3:0:0:0:
253,130,68331,2,0,B|270:148|300:147|356:119,1,89.9999976158143,2|0,0:0|0:0,0:0:0:0:
380,62,68625,1,0,0:0:0:0:
248,233,68919,2,0,B|240:256|256:282|309:316,1,89.9999976158143,2|0,0:0|0:0,0:0:0:0:
370,308,69213,6,0,B|489:252|507:132|387:111|340:217|412:240,1,269.999992847443,0|0,3:0|0:0,0:0:0:0:
503,292,69799,1,2,0:0:0:0:
324,369,70093,1,0,0:0:0:0:
306,372,70239,1,8,3:0:0:0:
237,349,70386,1,4,3:0:0:0:
165,359,70533,1,4,3:0:0:0:
93,369,70679,1,4,3:0:0:0:
195,177,70973,1,2,0:0:0:0:
271,249,71266,1,0,0:0:0:0:
47,257,71560,6,0,B|4:170|44:150|87:163|98:80|27:51|-21:68|-25:127|-8:147,1,269.999992847443,4|0,3:2|0:0,0:0:0:0:
108,206,72149,1,2,0:0:0:0:
214,59,72444,1,0,3:0:0:0:
214,59,72739,1,0,3:0:0:0:
357,130,73034,2,0,B|373:163|365:177|307:196,1,89.9999976158143,2|0,0:0|0:0,0:0:0:0:
266,148,73329,1,0,0:0:0:0:
494,207,73624,2,0,B|473:237|457:237|411:196,1,89.9999976158143,2|0,0:0|0:0,0:0:0:0:
432,137,73919,6,0,B|540:142|544:265|461:363|353:261|341:390,1,359.999990463257,6|2,3:2|0:0,0:0:0:0:
233,229,74812,1,0,3:0:0:0:
70,359,75110,1,0,3:0:0:0:
122,177,75407,2,0,B|143:206|140:263|91:269,1,89.9999976158143,2|0,0:0|0:0,0:0:0:0:
49,282,75705,1,0,0:0:0:0:
201,68,76003,2,0,B|187:101|136:127|106:87,1,89.9999976158143,2|0,0:0|0:0,0:0:0:0:
74,57,76301,6,0,B|151:20|267:27|281:120|197:103|259:185,1,269.999992847443,0|0,3:0|0:0,0:0:0:0:
332,129,76896,1,2,0:0:0:0:
248,285,77194,1,0,3:0:0:0:
51,212,77492,1,0,3:0:0:0:
117,341,77789,2,0,B|147:351|171:321|173:280,1,89.9999976158143,2|0,0:0|0:0,0:0:0:0:
129,223,78087,1,0,0:0:0:0:
341,356,78385,2,0,B|364:335|350:299|316:277,1,89.9999976158143,2|0,0:0|0:0,0:0:0:0:
248,285,78683,6,0,B|321:285|387:240|330:199|422:133|478:195,1,269.999992847443,2|0,3:2|0:0,0:0:0:0:
432,265,79277,1,2,0:0:0:0:
267,185,79574,1,0,3:0:0:0:
267,185,79871,1,0,3:0:0:0:
347,12,80168,2,0,B|374:49|380:87|353:96,1,89.9999976158143,2|0,0:0|0:0,0:0:0:0:
294,116,80465,1,0,0:0:0:0:
118,9,80762,2,0,B|136:50|166:75|187:56,1,89.9999976158143,2|0,0:0|0:0,0:0:0:0:
234,15,81065,5,6,3:2:0:0:
72,167,90539,6,0,B|179:242|347:96|202:-101|-51:77|128:210|187:242|249:292|386:214|246:224,1,566.999967676164,6|0,3:2|0:0,0:0:0:0:
193,298,91704,1,0,3:0:0:0:
193,298,91995,1,0,3:0:0:0:
367,254,92286,2,0,B|423:221|458:303|402:360|348:347|344:272|275:323,1,242.999986146927,2|0,0:0|0:0,0:0:0:0:
225,363,92869,5,0,3:0:0:0:
94,271,93160,2,0,B|93:249|41:235|0:273|8:354,1,161.999990764618,0|2,0:0|0:0,0:0:0:0:
153,384,93742,1,0,3:0:0:0:
106,160,94034,1,0,3:0:0:0:
231,230,94325,2,0,L|324:213,1,80.9999953823091,2|0,0:0|0:0,0:0:0:0:
325,195,94616,1,0,0:0:0:0:
488,120,94916,2,0,L|395:103,1,80.9999953823091,2|0,0:0|0:0,0:0:0:0:
394,85,95216,6,0,B|472:45|535:88|528:196|469:149|493:231,1,242.999986146927,0|0,3:0|0:0,0:0:0:0:
512,330,95792,2,0,B|449:262|355:257|338:328|378:382|437:362,1,242.999986146927,2|0,0:0|0:0,0:0:0:0:
420,218,96377,1,0,3:0:0:0:
420,218,96670,1,0,3:0:0:0:
274,311,96962,2,0,B|172:320|235:181|279:245|310:172|267:111,1,242.999986146927,2|0,0:0|0:0,0:0:0:0:
208,94,97529,5,0,3:0:0:0:
360,16,97825,2,0,B|324:63|254:48|274:21|239:-3|213:-4|170:12|168:40,1,161.999990764618,0|2,0:0|3:2,0:0:0:0:
20,68,98417,1,0,3:0:0:0:
154,179,98714,1,0,3:0:0:0:
33,305,99010,2,0,L|23:213,1,80.9999953823091,2|0,3:2|0:0,0:0:0:0:
40,202,99306,1,0,0:0:0:0:
194,378,99603,2,0,L|204:286,1,80.9999953823091,2|0,3:2|0:0,0:0:0:0:
187,275,99899,6,0,B|117:314|101:361|182:386|289:359|316:285,1,242.999986146927,0|0,3:0|0:0,0:0:0:0:
382,264,100481,2,0,B|343:258|338:206|398:193|458:239|453:319|357:327|343:348|374:393|376:398,1,242.999986146927,2|0,0:0|0:0,0:0:0:0:
470,338,101064,1,0,3:0:0:0:
470,338,101355,1,0,3:0:0:0:
299,217,101646,2,0,B|251:136|361:126|395:205|440:150|455:84,1,242.999986146927,2|0,0:0|0:0,0:0:0:0:
421,11,102229,6,0,B|362:2|411:91|514:103|577:65|562:34|539:10|503:33|504:61,1,242.999986146927,0|0,3:0|0:0,0:0:0:0:
510,149,102820,1,2,0:0:0:0:
357,88,103115,1,0,3:0:0:0:
221,230,103411,1,0,3:0:0:0:
160,101,103706,2,0,L|147:13,1,80.9999953823091,2|0,3:2|0:0,0:0:0:0:
166,0,104002,1,0,0:0:0:0:
56,164,104297,2,0,L|43:252,1,80.9999953823091,2|0,0:0|0:0,0:0:0:0:
62,265,104593,6,0,B|142:202|100:103|47:72|7:74|3:135,1,242.999986146927,0|0,3:0|0:0,0:0:0:0:
186,168,105178,2,0,B|253:187|278:119|276:84|346:85|331:143|393:135|431:108,1,242.999986146927,2|0,0:0|0:0,0:0:0:0:
382,47,105763,1,0,3:0:0:0:
382,47,106056,1,0,3:0:0:0:
326,194,106349,2,0,B|295:225|265:296|326:354|379:303|404:204|459:306,1,242.999986146927,2|0,0:0|0:0,0:0:0:0:
419,346,106934,5,0,3:0:0:0:
227,261,107227,2,0,B|189:271|128:273|169:208|98:183|60:232,1,161.999990764618,0|2,3:0|3:2,0:0:0:0:
275,130,107812,1,0,3:0:0:0:
329,376,108105,1,0,3:0:0:0:
92,384,108397,2,0,L|76:297,1,80.9999953823091,2|0,3:2|0:0,0:0:0:0:
93,277,108690,1,0,0:0:0:0:
198,98,108983,2,0,L|182:185,1,80.9999953823091,2|0,3:2|0:0,0:0:0:0:
225,240,109275,6,0,B|294:170|280:143|245:92|182:41|117:89,1,269.999992847443,4|0,1:2|0:0,0:0:0:0:
12,62,109861,2,0,B|-13:50|-41:62|-34:114|45:157|55:-1|109:-31|217:11,1,269.999992847443,10|0,0:0|0:0,0:0:0:0:
246,24,110446,1,2,1:2:0:0:
316,48,110734,1,0,1:0:0:0:
168,187,111022,2,0,B|143:233|191:302|329:293|207:162|412:201,1,269.999992847443,10|0,0:0|0:0,0:0:0:0:
352,291,111599,5,2,1:2:0:0:
107,349,111892,2,0,B|125:283|167:321|180:358|228:358|267:329,1,179.999995231629,2|10,0:0|0:0,0:0:0:0:
240,139,112479,1,0,1:2:0:0:
70,258,112772,1,2,1:2:0:0:
290,372,113065,2,0,B|297:330|283:289|245:275,1,89.9999976158143,10|0,0:0|0:0,0:0:0:0:
200,252,113359,1,2,0:0:0:0:
419,193,113652,2,0,B|386:165|343:157|312:183,1,89.9999976158143,10|0,0:0|0:0,0:0:0:0:
270,210,113946,6,0,B|231:117|309:44|368:93|409:168|408:60|463:86,1,269.999992847443,2|0,1:2|0:0,0:0:0:0:
377,0,114517,2,0,B|265:-8|186:20|196:82|194:108|93:81,1,269.999992847443,10|0,0:0|0:0,0:0:0:0:
73,56,115088,1,2,1:2:0:0:
10,23,115385,1,0,1:0:0:0:
110,202,115660,2,0,B|178:228|186:148|267:160|274:230,1,179.999995231629,10|0,0:0|0:0,0:0:0:0:
121,367,116254,5,0,1:0:0:0:
0,384,116545,2,0,B|-27:359|-22:290|35:329|66:293|63:241|14:219,1,179.999995231629,2|10,0:0|0:0,0:0:0:0:
208,323,117127,1,0,1:0:0:0:
79,135,117419,1,2,1:2:0:0:
301,30,117710,2,0,B|269:51|318:54|267:119,1,89.9999976158143,10|0,0:0|0:0,0:0:0:0:
216,60,118001,1,2,0:0:0:0:
472,136,118292,2,0,B|437:119|459:163|377:151,1,89.9999976158143,10|0,0:0|0:0,0:0:0:0:
403,77,118584,6,0,B|522:81|530:189|381:195|436:288,1,269.999992847443,2|0,1:2|0:0,0:0:0:0:
329,327,119163,2,0,B|276:337|253:265|355:233|368:402|464:376|505:296,1,269.999992847443,10|0,0:0|0:0,0:0:0:0:
504,252,119743,1,2,1:2:0:0:
496,182,120033,1,0,1:2:0:0:
298,94,120323,2,0,B|250:87|317:148|354:159|403:124|405:54,1,179.999995231629,10|0,0:0|0:0,0:0:0:0:
224,0,120902,5,2,1:2:0:0:
250,192,121192,2,0,B|298:185|231:246|194:257|145:222|143:152,1,179.999995231629,2|10,0:0|0:0,0:0:0:0:
298,94,121772,1,0,1:2:0:0:
340,301,122062,1,2,1:2:0:0:
162,361,122352,2,0,B|184:327|156:306|68:348,1,89.9999976158143,10|0,0:0|0:0,0:0:0:0:
50,373,122641,1,2,0:0:0:0:
54,155,122931,2,0,B|35:118|3:132|-4:229,1,89.9999976158143,10|0,0:0|0:0,0:0:0:0:
9,258,123221,6,0,B|99:196|133:77|11:74|7:13|18:3,1,269.999992847443,2|0,1:2|0:0,0:0:0:0:
170,59,123801,2,0,B|226:146|287:37|339:13|410:133|299:144,1,269.999992847443,10|0,0:0|0:0,0:0:0:0:
250,159,124381,1,2,1:2:0:0:
216,222,124670,1,0,1:0:0:0:
359,373,124960,2,0,B|391:389|428:394|447:299|391:214,1,179.999995231629,10|0,0:0|0:0,0:0:0:0:
221,337,125540,5,2,1:2:0:0:
474,226,125830,2,0,B|520:180|414:121|441:231|346:157,1,179.999995231629,2|10,0:0|0:0,0:0:0:0:
247,0,126414,1,0,1:2:0:0:
478,50,126708,1,2,1:2:0:0:
281,122,126993,2,0,B|249:159|236:184|257:216,1,89.9999976158143,10|0,0:0|0:0,0:0:0:0:
304,254,127279,1,2,0:0:0:0:
96,291,127565,2,0,B|112:337|127:360|165:358,1,89.9999976158143,10|0,0:0|0:0,0:0:0:0:
283,346,127862,6,0,B|356:239|457:460|257:466|169:331|223:237|77:298,1,413.999996929169,6|10,1:2|0:2,0:0:0:0:
0,383,128750,1,2,1:2:0:0:
100,170,129046,1,2,1:2:0:0:
100,170,129342,2,0,B|112:123|61:90|38:121,1,103.499999232292,10|0,0:0|0:0,0:0:0:0:
19,196,129638,1,2,0:0:0:0:
225,49,129915,2,0,B|190:15|136:42|151:78,1,103.499999232292,10|0,0:0|0:0,0:0:0:0:
207,132,130226,6,0,B|259:176|328:149|285:125|360:61|444:108|453:181|386:241|331:163,1,310.499997696877,2|0,1:2|0:0,0:0:0:0:
300,54,130807,1,10,0:0:0:0:
499,9,131098,1,2,0:0:0:0:
509,26,131243,1,8,3:0:0:0:
494,97,131388,1,2,0:0:0:0:
502,168,131534,1,8,3:0:0:0:
512,239,131679,1,2,1:2:0:0:
240,367,131970,6,0,B|183:302|355:283|290:409|375:425|453:363|394:314|485:292,1,310.499997696877,10|0,0:0|0:0,0:0:0:0:
504,384,132551,1,2,1:2:0:0:
323,242,132842,2,0,B|356:139|304:194|270:96|367:40,1,206.999998464584,2|10,0:0|0:0,0:0:0:0:
462,299,133423,1,0,1:0:0:0:
227,209,133714,1,2,1:2:0:0:
227,209,134005,2,0,B|192:167|181:136|206:98,1,103.499999232292,10|0,0:0|0:0,0:0:0:0:
252,60,134295,1,2,0:0:0:0:
323,242,134586,2,0,B|342:190|364:165|409:168,1,103.499999232292,10|0,0:0|0:0,0:0:0:0:
465,189,134886,6,0,B|464:247|427:297|338:335|373:243|209:182|137:328|228:411|304:327,1,413.999996929169,2|10,1:2|0:0,0:0:0:0:
268,147,135768,1,2,1:2:0:0:
489,324,136062,1,2,1:2:0:0:
489,324,136356,2,0,B|465:338|438:394|380:330,1,103.499999232292,10|0,0:0|0:0,0:0:0:0:
423,274,136650,1,2,0:0:0:0:
254,381,136944,2,0,B|229:367|167:371|194:289,1,103.499999232292,10|0,0:0|0:0,0:0:0:0:
264,297,137238,6,0,B|306:233|284:162|258:207|220:146|243:70|317:74|339:129|159:156,1,310.499997696877,2|0,1:2|0:0,0:0:0:0:
132,97,137827,1,10,0:0:0:0:
341,167,138121,1,2,0:0:0:0:
356,180,138268,1,8,3:0:0:0:
420,146,138415,1,2,0:0:0:0:
421,73,138562,1,8,3:0:0:0:
423,0,138709,1,2,1:2:0:0:
198,68,139003,6,0,B|162:-18|59:113|95:-89|242:104|287:70|216:-68|423:37,1,310.499997696877,10|0,0:0|0:0,0:0:0:0:
315,84,139591,1,2,1:2:0:0:
179,264,139883,2,0,B|136:284|116:268|78:177|152:91,1,206.999998464584,2|8,1:2|0:0,0:0:0:0:
332,192,140468,1,0,1:2:0:0:
183,360,140761,1,2,1:2:0:0:
183,360,141053,2,0,B|205:383|219:393|294:366,1,103.499999232292,10|0,0:0|0:0,0:0:0:0:
234,304,141346,1,2,0:0:0:0:
408,384,141638,2,0,B|438:376|454:369|468:290,1,103.499999232292,10|0,0:0|0:0,0:0:0:0:
385,311,141931,6,0,B|332:236|388:138|445:196|477:68|377:19|289:60|371:211|199:134,1,413.999996929169,6|10,1:2|0:0,0:0:0:0:
108,27,142815,1,2,1:2:0:0:
31,301,143110,1,2,1:2:0:0:
31,301,143405,2,0,B|50:267|57:244|129:295,1,103.499999232292,10|0,0:0|0:0,0:0:0:0:
130,355,143700,1,2,0:0:0:0:
177,149,143995,2,0,B|215:148|239:143|231:230,1,103.499999232292,8|0,0:0|0:0,0:0:0:0:
179,261,144290,6,0,B|64:161|196:41|280:211|392:74|297:37,1,310.499997696877,2|0,1:2|0:0,0:0:0:0:
324,21,144880,1,10,0:0:0:0:
101,102,145175,1,2,1:2:0:0:
335,209,145470,1,2,1:2:0:0:
335,209,145765,2,0,B|352:249|352:294|299:294,1,103.499999232292,10|0,0:0|0:0,0:0:0:0:
264,232,146060,1,2,0:0:0:0:
487,315,146355,2,0,B|460:349|421:372|395:326,1,103.499999232292,10|0,0:0|0:0,0:0:0:0:
431,265,146650,6,0,B|489:216|512:133|449:80|397:141|325:94|344:28,1,310.499997696877,2|0,1:2|0:0,0:0:0:0:
420,28,147244,1,10,0:0:0:0:
311,293,147541,1,2,1:2:0:0:
192,202,147838,1,2,1:2:0:0:
192,202,148135,2,0,B|164:222|148:238|151:253|187:305,1,103.499999232292,10|0,0:0|0:0,0:0:0:0:
239,349,148432,1,2,0:0:0:0:
358,146,148729,2,0,B|386:166|402:182|399:197|363:249,1,103.499999232292,10|0,0:0|0:0,0:0:0:0:
311,293,149026,5,6,3:2:0:0:
431,348,149348,2,0,L|483:343,1,37.7999978450776
512,274,149960,2,0,L|474:270,1,37.7999978450776
415,365,150572,2,0,L|362:360,1,37.7999978450776
334,291,151184,2,0,L|371:287,1,37.7999978450776
455,256,151755,5,0,0:0:0:0:
346,226,152055,2,0,L|344:175,2,37.7999978450776
361,114,152955,1,0,0:0:0:0:
361,114,153247,2,0,P|352:97|336:86,1,37.7999978450776
270,31,153833,1,0,0:0:0:0:
270,31,154125,6,0,L|264:76,1,37.7999978450776
200,97,154711,2,0,L|195:59,1,37.7999978450776
261,135,155296,2,0,L|255:180,1,37.7999978450776
191,201,155881,1,0,0:0:0:0:
191,201,156174,6,0,L|186:163,1,37.7999978450776
132,113,156759,2,0,P|107:116|91:123,2,37.7999978450776
110,203,157637,1,0,0:0:0:0:
110,203,157930,2,0,B|91:218|84:192|59:204,1,37.7999978450776,2|0,0:0|0:0,0:0:0:0:
28,285,158515,5,0,0:0:0:0:
28,285,158808,2,0,L|25:328,1,37.7999978450776
99,343,159393,2,0,L|117:381,1,37.7999978450776
189,357,159979,2,0,L|224:381,1,37.7999978450776
310,326,160564,1,0,0:0:0:0:
310,326,160857,6,0,L|273:324,1,37.7999978450776
294,251,161445,2,0,P|312:227|315:215,2,37.7999978450776
200,185,162327,1,0,0:0:0:0:
200,185,162621,2,0,B|215:192|229:175|245:178,1,37.7999978450776,2|0,0:0|0:0,0:0:0:0:
317,129,163209,5,0,0:0:0:0:
317,129,163499,2,0,L|320:86,1,37.7999978450776
246,71,164080,2,0,L|227:32,1,37.7999978450776
156,57,164661,2,0,L|120:32,1,37.7999978450776
34,87,165241,1,0,0:0:0:0:
34,87,165532,6,0,L|71:89,1,37.7999978450776
54,174,166113,1,0,0:0:0:0:
54,174,166405,2,0,P|40:202|39:218,2,37.7999978450776
146,227,167283,1,2,0:0:0:0:
175,289,167587,2,0,P|162:295|148:296,1,18.8999989225388,0|0,3:0|0:0,0:0:0:0:
193,303,167891,6,0,B|265:242|350:270|320:330|405:364|464:314,1,251.999985633851,6|2,3:2|0:0,0:0:0:0:
494,93,169059,1,0,3:0:0:0:
494,93,169351,1,0,3:0:0:0:
437,43,169643,2,0,B|407:60|386:86|442:112|443:163|443:214|411:236|383:205,1,188.999989225388,2|0,0:0|0:0,0:0:0:0:
360,163,170227,5,0,3:0:0:0:
239,90,170520,2,0,B|211:70|155:62|115:93|147:146,1,125.999992816925,0|2,0:0|0:0,0:0:0:0:
264,187,171104,1,0,3:0:0:0:
298,17,171396,1,0,3:0:0:0:
298,17,171688,2,0,L|310:87,1,62.9999964084627,2|0,0:0|0:0,0:0:0:0:
331,87,171980,1,0,0:0:0:0:
195,152,172272,2,0,L|183:222,1,62.9999964084627,2|0,0:0|0:0,0:0:0:0:
162,222,172564,6,0,B|217:236|220:271|179:344,1,125.999992816925,0|0,3:0|0:0,0:0:0:0:
47,288,173149,1,2,0:0:0:0:
47,288,173442,2,0,B|-8:274|-11:239|29:165,1,125.999992816925,0|0,0:0|3:0,0:0:0:0:
90,80,174028,1,0,3:0:0:0:
90,80,174321,2,0,L|95:147,1,62.9999964084627,2|0,0:0|0:0,0:0:0:0:
114,157,174614,1,0,0:0:0:0:
176,20,174907,6,0,B|240:58|310:37|297:17|370:23,1,188.999989225388,0|0,3:0|0:0,0:0:0:0:
420,51,175500,1,2,0:0:0:0:
483,222,175797,1,0,3:0:0:0:
432,293,176094,1,0,3:0:0:0:
432,293,176391,2,0,L|424:363,1,62.9999964084627,2|0,0:0|0:0,0:0:0:0:
438,372,176688,1,0,0:0:0:0:
321,280,176985,2,0,L|313:217,1,62.9999964084627,2|0,0:0|0:0,0:0:0:0:
327,201,177282,1,0,3:0:0:0:
282,88,177574,6,0,B|234:66|205:101|212:168,1,125.999992816925,0|2,0:0|0:0,0:0:0:0:
238,266,178158,1,0,0:0:0:0:
130,357,178450,1,0,3:0:0:0:
130,357,178742,1,0,3:0:0:0:
94,255,179034,2,0,B|126:186|171:244|159:301,1,125.999992816925,2|0,0:0|0:0,0:0:0:0:
192,149,179618,5,0,3:0:0:0:
192,149,179909,2,0,B|142:129|136:107|162:11,1,125.999992816925,0|2,0:0|0:0,0:0:0:0:
286,124,180491,1,0,3:0:0:0:
238,266,180783,1,0,3:0:0:0:
238,266,181074,2,0,L|246:343,1,62.9999964084627,2|0,0:0|0:0,0:0:0:0:
230,353,181365,1,0,0:0:0:0:
375,291,181656,2,0,L|383:214,1,62.9999964084627,2|0,0:0|0:0,0:0:0:0:
367,204,181948,6,0,B|374:142|403:100|495:76|515:154|439:176,1,188.999989225388,0|0,3:0|0:0,0:0:0:0:
447,209,182534,1,2,0:0:0:0:
375,291,182827,1,0,0:0:0:0:
502,376,183120,1,0,3:0:0:0:
502,376,183413,1,0,3:0:0:0:
486,301,183706,2,0,B|420:307|447:358|376:365,1,125.999992816925,2|0,0:0|0:0,0:0:0:0:
296,284,184292,5,0,3:0:0:0:
173,374,184584,2,0,B|107:368|134:317|63:310,1,125.999992816925,0|2,0:0|0:0,0:0:0:0:
138,154,185170,1,0,3:0:0:0:
184,299,185462,1,0,3:0:0:0:
184,299,185755,2,0,L|191:225,1,62.9999964084627,2|0,0:0|0:0,0:0:0:0:
207,219,186048,1,0,0:0:0:0:
119,130,186340,2,0,L|112:56,1,62.9999964084627,2|0,0:0|0:0,0:0:0:0:
96,50,186633,6,0,B|57:135|95:181|162:177|218:132,1,188.999989225388,0|0,3:0|0:0,0:0:0:0:
203,92,187218,2,0,B|262:72|316:114|317:146,1,125.999992816925,2|0,0:0|0:0,0:0:0:0:
351,35,187804,1,0,3:0:0:0:
351,35,188096,1,0,3:0:0:0:
436,195,188389,2,0,B|400:174|388:159|416:74,1,125.999992816925,2|0,0:0|0:0,0:0:0:0:
512,279,188980,6,0,B|434:255|371:277|399:336|308:334,1,188.999989225388,0|0,3:0|0:0,0:0:0:0:
321,260,189568,1,2,0:0:0:0:
150,315,189858,1,0,3:0:0:0:
221,369,190153,1,0,3:0:0:0:
221,369,190449,2,0,L|239:284,1,62.9999964084627,2|0,0:0|0:0,0:0:0:0:
227,286,190744,1,0,0:0:0:0:
161,160,191040,2,0,L|179:245,1,62.9999964084627,2|0,0:0|0:0,0:0:0:0:
167,243,191335,6,0,B|123:251|100:229|91:166|96:155,1,125.999992816925,0|0,3:0|0:0,0:0:0:0:
160,61,191920,1,2,0:0:0:0:
239,138,192213,1,0,0:0:0:0:
71,84,192505,1,0,3:0:0:0:
71,84,192798,1,0,3:0:0:0:
232,66,193091,2,0,B|310:34|302:-7|237:7,1,125.999992816925,2|0,0:0|0:0,0:0:0:0:
328,123,193676,5,0,3:0:0:0:
285,244,193969,1,0,0:0:0:0:
430,251,194271,2,0,B|352:219|360:178|425:192,1,125.999992816925,2|0,0:0|3:0,0:0:0:0:
370,338,194862,1,0,3:0:0:0:
370,338,195157,2,0,L|441:356,1,62.9999964084627,2|0,0:0|0:0,0:0:0:0:
456,342,195453,1,0,0:0:0:0:
491,235,195748,2,0,L|420:253,1,62.9999964084627,2|0,0:0|0:0,0:0:0:0:
404,239,196044,6,0,B|374:204|393:167|414:102,1,125.999992816925,0|0,3:0|0:0,0:0:0:0:
503,37,196633,1,2,0:0:0:0:
342,58,196928,1,0,0:0:0:0:
299,155,197223,1,0,3:0:0:0:
299,155,197518,1,0,3:0:0:0:
187,105,197813,2,0,B|133:127|112:89|52:110,1,125.999992816925,2|0,0:0|0:0,0:0:0:0:
24,229,198402,6,0,B|61:171|141:152|159:250|100:254,1,188.999989225388,0|0,3:0|0:0,0:0:0:0:
48,295,198992,1,2,0:0:0:0:
167,361,199287,1,0,3:0:0:0:
232,306,199582,1,0,3:0:0:0:
232,306,199876,2,0,L|223:234,1,62.9999964084627,2|0,0:0|0:0,0:0:0:0:
240,224,200171,1,0,0:0:0:0:
329,177,200466,2,0,L|338:105,1,62.9999964084627,2|0,0:0|0:0,0:0:0:0:
321,95,200761,6,0,B|388:126|456:112|472:56|434:28,1,188.999989225388,0|0,3:0|0:0,0:0:0:0:
371,38,201346,1,2,0:0:0:0:
455,164,201639,1,0,0:0:0:0:
400,267,201948,1,0,3:0:0:0:
400,267,202240,1,0,3:0:0:0:
294,335,202533,2,0,B|357:308|351:370|429:345,1,125.999992816925,2|0,0:0|0:0,0:0:0:0:
236,268,203111,6,0,B|172:246|178:308|115:281,1,125.999992816925,0|0,3:0|0:0,0:0:0:0:
74,215,203702,1,2,0:0:0:0:
164,35,203997,1,0,3:0:0:0:
221,122,204293,1,0,3:0:0:0:
221,122,204588,2,0,L|295:133,1,62.9999964084627,2|0,0:0|0:0,0:0:0:0:
304,117,204884,1,0,0:0:0:0:
428,50,205179,2,0,L|354:61,1,62.9999964084627,2|0,0:0|0:0,0:0:0:0:
345,45,205475,6,0,B|426:6|474:31|513:116,1,188.999989225388,0|0,3:0|0:0,0:0:0:0:
469,155,206066,1,2,0:0:0:0:
351,224,206362,1,0,3:0:0:0:
332,317,206657,1,0,3:0:0:0:
332,317,206953,2,0,L|268:337,1,62.9999964084627,2|0,0:0|0:0,0:0:0:0:
260,360,207248,1,0,0:0:0:0:
406,285,207544,2,0,L|470:305,1,62.9999964084627,2|0,0:0|0:0,0:0:0:0:
478,328,207840,6,0,B|535:254|497:181|393:205|404:118,1,229.499998297691,6|0,3:2|0:0,0:0:0:0:
475,124,208414,1,2,3:2:0:0:
323,43,208701,1,4,3:0:0:0:
269,127,208988,1,4,3:0:0:0:
269,127,209275,2,0,L|181:140,1,76.4999994325638,2|0,3:2|0:0,0:0:0:0:
172,118,209562,1,2,0:0:0:0:
102,32,209849,2,0,L|14:19,1,76.4999994325638,2|0,3:2|0:0,0:0:0:0:
5,41,210136,6,0,B|84:113|88:199|-10:211|-14:139,1,229.499998297691,2|0,3:2|0:0,0:0:0:0:
123,176,210710,1,2,0:0:0:0:
33,351,210997,1,4,3:0:0:0:
123,383,211284,1,4,3:0:0:0:
123,383,211572,2,0,L|131:290,1,76.4999994325638,0|0,3:0|0:0,0:0:0:0:
107,281,211859,1,2,0:0:0:0:
272,195,212146,2,0,L|280:288,1,76.4999994325638,0|0,3:0|0:0,0:0:0:0:
256,297,212433,6,0,B|216:193|269:109|333:204|368:118,1,229.499998297691,0|0,3:0|0:0,0:0:0:0:
385,45,213003,2,0,B|306:65|353:152|444:145|488:61,1,229.499998297691,2|0,3:2|0:0,0:0:0:0:
452,6,213574,1,0,3:0:0:0:
452,6,213860,1,0,3:0:0:0:
502,162,214145,2,0,B|521:242|491:305|430:257,1,152.999998865128,2|0,3:2|0:0,0:0:0:0:
305,168,214716,6,0,B|211:123|122:134|136:238|180:248,1,229.499998297691,0|0,3:0|0:0,0:0:0:0:
240,232,215287,1,0,3:0:0:0:
283,336,215573,1,4,3:0:0:0:
101,359,215858,1,4,3:0:0:0:
101,359,216146,2,0,L|16:336,1,76.4999994325638,2|0,3:2|0:0,0:0:0:0:
15,311,216434,1,2,0:0:0:0:
94,170,216723,2,0,L|179:147,1,76.4999994325638,2|0,3:2|0:0,0:0:0:0:
180,122,217011,6,0,B|160:38|97:6|104:118|-1:116,1,229.499998297691,2|0,3:2|0:0,0:0:0:0:
19,35,217573,1,2,3:0:0:0:
19,35,217854,1,0,3:0:0:0:
47,225,218135,1,4,3:0:0:0:
150,248,218416,1,4,3:0:0:0:
252,143,218697,2,0,B|350:119|302:211|417:188,1,152.999998865128,2|0,3:2|3:0,3:0:0:0:
464,26,219274,5,0,3:3:0:0:
417,102,219556,1,4,2:3:0:0:
510,107,219838,1,0,3:0:0:0:
355,1,220121,1,4,2:3:0:0:
386,191,220403,5,4,3:0:0:0:
231,297,220680,1,4,3:0:0:0:
61,215,220957,1,4,3:0:0:0:
47,26,221234,1,4,3:0:0:0:
199,171,221522,6,0,B|225:135|274:140|274:140|185:120|210:65|129:52|81:120,1,310.499997696877,6|0,1:2|0:0,0:0:0:0:
5,261,222090,2,0,B|62:260|66:314|66:314|42:261|43:116|219:192|96:294,1,310.499997696877,10|0,0:0|0:0,0:0:0:0:
136,316,222659,1,2,1:2:0:0:
199,353,222943,1,0,1:2:0:0:
372,321,223228,2,0,B|398:297|428:297|428:297|386:265|308:319|283:273|283:273|351:287|379:209,1,310.499997696877,10|0,0:0|0:0,0:0:0:0:
298,190,223796,5,2,1:2:0:0:
505,116,224083,2,0,B|477:123|457:189|536:211|495:258|495:258|476:232|452:225,1,206.999998464584,2|10,0:0|0:0,0:0:0:0:
285,274,224657,1,2,1:2:0:0:
385,63,224944,1,2,1:2:0:0:
385,63,225231,2,0,B|364:68|346:48|346:48|304:44|293:107,1,103.499999232292,10|0,0:0|0:0,0:0:0:0:
352,139,225518,1,2,0:0:0:0:
151,80,225805,2,0,B|144:100|118:106|118:106|94:140|143:181,1,103.499999232292,10|0,0:0|0:0,0:0:0:0:
200,146,226092,6,0,B|217:84|119:13|49:60|-3:23|-3:23|24:53|13:129,1,310.499997696877,2|0,1:2|0:0,0:0:0:0:
47,198,226666,2,0,B|46:225|23:243|23:243|10:180|55:115|167:154|113:225|210:215,1,310.499997696877,10|0,0:0|0:0,0:0:0:0:
275,182,227240,1,2,1:2:0:0:
348,201,227528,1,0,1:0:0:0:
444,328,227815,2,0,B|335:338|382:261|275:259|275:259|247:297|263:358|324:354,1,310.499997696877,10|0,0:0|0:0,0:0:0:0:
421,254,228389,5,2,1:2:0:0:
330,129,228676,2,0,B|311:107|288:111|288:111|278:38|338:20|397:45|386:113,1,206.999998464584,2|10,0:0|0:0,0:0:0:0:
329,246,229263,1,0,1:2:0:0:
504,139,229563,1,2,1:2:0:0:
504,139,229851,2,0,B|504:123|504:123|460:135|425:159,1,103.499999232292,10|0,0:0|0:0,0:0:0:0:
489,220,230139,1,2,0:0:0:0:
344,327,230428,2,0,B|344:343|344:343|300:331|265:307,1,103.499999232292,10|0,0:0|0:0,0:0:0:0:
329,246,230716,6,0,B|399:321|346:378|275:374|275:374|248:298|136:323,1,310.499997696877,2|0,1:2|0:0,0:0:0:0:
45,337,231290,2,0,B|3:326|-17:368|42:399|109:379|109:379|146:276|66:307|79:197,1,310.499997696877,10|0,0:0|0:0,0:0:0:0:
114,168,231864,1,2,1:2:0:0:
93,95,232151,1,0,1:0:0:0:
317,72,232438,2,0,B|254:23|294:-9|294:-9|334:44|184:96|219:-7|120:44|120:44|192:63,1,310.499997696877,10|0,0:0|0:0,0:0:0:0:
263,208,233012,6,0,B|277:230|302:231|302:231|263:249|218:212|237:136|257:121|257:121|303:168|371:134,1,310.499997696877,2|0,1:2|0:0,0:0:0:0:
387,81,233586,1,10,0:0:0:0:
323,309,233886,1,0,1:0:0:0:
493,211,234186,1,2,1:2:0:0:
493,211,234486,2,0,B|481:211|466:201|466:201|478:217|497:248|492:294|436:295,1,103.499999232292,10|0,0:0|0:0,0:0:0:0:
429,325,234786,1,2,0:0:0:0:
338,137,235069,2,0,B|332:147|315:155|315:155|335:152|372:152|409:179|382:228,1,103.499999232292,10|0,0:0|0:0,0:0:0:0:
404,248,235353,6,0,B|357:245|347:208|347:208|389:107|455:133|456:134|458:136|534:93|459:30,1,310.499997696877,2|0,1:2|0:0,0:0:0:0:
291,15,235925,2,0,B|310:25|352:16|352:16|300:42|279:94|279:94|208:75|244:13|140:45,1,310.499997696877,10|0,0:0|0:0,0:0:0:0:
115,97,236497,1,2,1:2:0:0:
99,168,236783,1,0,1:0:0:0:
203,293,237069,2,0,B|241:330|279:293|279:293|277:244|212:175|111:230|135:319,1,310.499997696877,10|0,0:2|0:0,0:0:0:0:
165,356,237641,5,2,1:2:0:0:
352,227,237928,2,0,B|397:259|441:234|441:234|460:244|460:244|510:208|495:145,1,206.999998464584,2|10,1:2|0:2,0:0:0:0:
280,142,238508,1,0,1:0:0:0:
387,367,238802,1,2,1:2:0:0:
387,367,239096,2,0,B|416:375|433:339|433:339|475:332|500:370,1,103.499999232292,10|0,0:0|0:0,0:0:0:0:
508,285,239390,1,2,0:0:0:0:
291,314,239673,2,0,B|262:322|245:286|245:286|203:279|178:317,1,103.499999232292,10|0,0:0|0:0,0:0:0:0:
145,218,239956,6,0,B|106:170|124:106|155:132|180:65|127:20|127:20|58:45|73:107,1,323.999981529237,6|0,1:2|0:0,0:0:0:0:
204,165,240527,2,0,B|241:156|266:176|266:176|310:110|345:188|407:183|372:120|372:120|433:124|455:50,1,323.999981529237,10|0,0:0|0:0,0:0:0:0:
376,45,241098,1,2,1:2:0:0:
308,14,241384,1,0,1:0:0:0:
316,228,241670,2,0,B|348:265|333:311|316:300|298:366|345:384|345:384|389:324|445:330|436:354|486:375|524:350|524:305|490:274|449:281|457:279,1,323.999981529237,10|0,0:0|0:0,0:0:0:0:
461,271,242241,5,2,1:2:0:0:
240,367,242527,2,0,B|192:409|142:373|142:373|144:312|185:333|215:316|232:272,1,215.999987686158,2|10,0:0|0:0,0:0:0:0:
263,155,243098,1,0,1:0:0:0:
409,371,243384,1,2,1:2:0:0:
409,371,243670,2,0,B|363:381|363:381|327:364|322:332,1,107.999993843079,10|0,0:0|0:0,0:0:0:0:
390,294,243956,1,2,0:0:0:0:
213,302,244241,2,0,B|181:267|181:267|178:227|203:207,1,107.999993843079,10|0,0:0|0:0,0:0:0:0:
267,243,244527,6,0,B|355:228|398:132|362:68|293:105|293:105|247:27|148:93,1,323.999981529237,2|0,1:2|0:0,0:0:0:0:
101,104,245105,2,0,B|62:76|75:25|75:25|174:15|218:129|127:233,1,323.999981529237,10|0,0:0|0:0,0:0:0:0:
80,184,245683,1,2,1:2:0:0:
36,247,245972,1,0,1:0:0:0:
160,383,246261,2,0,B|207:392|210:392|235:382|228:371|228:371|271:364|285:316|285:316|321:316|351:356,1,215.999987686158,10|0,0:0|0:0,0:0:0:0:
131,283,246839,5,2,1:2:0:0:
284,147,247130,2,0,B|318:138|320:108|320:108|377:135|361:200|317:183|331:250,1,215.999987686158,2|10,0:0|0:0,0:0:0:0:
489,326,247712,1,0,1:0:0:0:
428,74,248004,1,2,1:2:0:0:
428,74,248295,2,0,B|400:94|400:94|378:103|358:84|358:84|319:76|326:27,1,107.999993843079,10|0,0:0|0:0,0:0:0:0:
378,15,248586,1,2,0:0:0:0:
381,254,248877,2,0,B|349:239|349:239|330:225|337:198|337:198|324:160|370:142,1,107.999993843079,10|0,0:0|0:0,0:0:0:0:
414,181,249169,6,0,B|457:195|462:230|462:230|436:288|320:305|358:247|243:208|215:342,1,323.999981529237,2|0,1:2|0:0,0:0:0:0:
147,307,249741,2,0,B|189:316|210:357|210:357|241:294|218:225|178:242|114:191|169:122,1,323.999981529237,10|0,0:0|0:0,0:0:0:0:
216,96,250314,1,2,1:2:0:0:
286,125,250601,1,0,1:0:0:0:
88,252,250887,2,0,B|76:278|35:240|35:240|31:158|103:201|67:76,1,215.999987686158,10|0,0:0|0:0,0:0:0:0:
0,0,251460,5,2,1:2:0:0:
272,56,251747,2,0,B|275:45|307:59|307:59|281:23|208:30|219:84|139:49,1,215.999987686158,2|10,0:0|0:0,0:0:0:0:
248,194,252325,1,0,1:0:0:0:
451,108,252618,1,2,1:2:0:0:
451,108,252911,2,0,B|469:130|469:130|476:174|455:176|435:187|451:222,1,107.999993843079,10|0,0:0|0:0,0:0:0:0:
512,242,253203,1,2,0:0:0:0:
295,264,253486,2,0,B|323:259|323:259|364:275|355:294|355:317|393:321,1,107.999993843079,10|0,0:0|0:0,0:0:0:0:
441,278,253769,6,0,B|430:307|391:298|398:369|398:369|341:337|257:336|261:252|314:281|250:144,1,323.999981529237,2|0,1:2|0:0,0:0:0:0:
162,177,254347,2,0,B|243:169|287:114|231:101|247:12|320:8|320:8|344:55|391:51,1,323.999981529237,10|0,0:0|0:0,0:0:0:0:
440,31,254926,1,2,1:2:0:0:
501,74,255216,1,0,1:2:0:0:
315,156,255505,2,0,B|277:155|261:115|261:115|211:93|178:108|149:156|167:200,1,215.999987686158,10|0,0:0|0:0,0:0:0:0:
215,332,256084,5,2,1:2:0:0:
45,172,256373,2,0,B|81:191|109:208|90:254|90:254|58:258|3:310|62:359,1,215.999987686158,2|10,0:0|0:0,0:0:0:0:
265,231,256952,1,0,1:2:0:0:
72,45,257242,1,2,1:2:0:0:
72,45,257531,2,0,B|48:30|48:30|17:74|41:120,1,107.999993843079,10|0,0:0|0:0,0:0:0:0:
107,114,257821,1,2,0:0:0:0:
261,4,258110,2,0,B|236:17|236:17|258:66|310:68,1,107.999993843079,10|0,0:0|0:0,0:0:0:0:
349,4,258399,6,0,B|457:-46|523:24|511:178|371:145|334:115|354:154|286:198|322:291,1,431.999975372315,6|10,1:2|0:0,0:0:0:0:
168,370,259294,2,0,B|300:249|361:334|328:404|450:425|533:372|485:233|376:224|358:342,1,431.999975372315,2|10,1:2|0:0,0:0:0:0:
189,226,260164,2,0,B|157:202|160:181|175:119,1,107.999993843079,2|0,0:0|0:0,0:0:0:0:
235,76,260454,1,8,0:0:0:0:
44,11,260744,6,0,B|18:45|56:117|176:76|126:4|229:-65|331:33,1,323.999981529237,2|0,1:2|0:0,0:0:0:0:
313,79,261323,1,10,0:0:0:0:
151,222,261610,1,0,1:0:0:0:
132,233,261753,1,8,3:0:0:0:
62,182,261897,1,2,1:2:0:0:
53,97,262040,1,8,3:0:0:0:
44,11,262184,1,2,1:2:0:0:
254,195,262471,6,0,B|303:186|336:290|136:367|188:185|103:111|23:216,1,323.999981529237,10|0,0:0|0:0,0:0:0:0:
28,246,263053,1,2,1:2:0:0:
334,293,263336,2,0,B|274:259|222:289|202:348|221:288|229:377|147:375,1,215.999987686158,2|10,0:0|0:0,0:0:0:0:
314,129,263910,1,0,1:0:0:0:
472,326,264201,1,2,1:2:0:0:
472,326,264492,2,0,B|518:271|504:231|459:235,1,107.999993843079,10|0,0:0|0:0,0:0:0:0:
411,274,264784,1,2,0:0:0:0:
490,138,265069,2,0,B|465:70|423:62|404:103,1,107.999993843079,10|0,0:0|0:0,0:0:0:0:
414,164,265355,6,0,B|321:239|289:116|236:48|132:41|-18:172|166:248|238:186,1,431.999975372315,6|10,1:2|0:0,0:0:0:0:
30,319,266233,2,0,B|-21:346|7:441|149:437|155:310|117:214|27:258|-39:221|77:18,1,431.999975372315,2|10,1:2|0:0,0:0:0:0:
200,277,267111,2,0,B|224:301|240:311|307:241,1,107.999993843079,2|0,0:0|0:0,0:0:0:0:
339,197,267403,1,8,0:0:0:0:
183,56,267696,6,0,B|138:125|49:100|84:-29|175:-59|273:-17|273:81,1,323.999981529237,2|0,1:2|0:0,0:0:0:0:
236,106,268281,1,10,0:0:0:0:
391,261,268567,1,0,1:0:0:0:
411,267,268710,1,10,3:0:0:0:
494,235,268854,1,2,1:2:0:0:
499,148,268997,1,8,3:0:0:0:
504,61,269140,1,2,1:2:0:0:
311,292,269427,6,0,B|263:278|186:286|261:354|160:383|110:335|117:218|3:279,1,323.999981529237,10|0,0:0|0:0,0:0:0:0:
48,340,270000,1,2,1:2:0:0:
182,218,270286,2,0,B|232:160|218:132|158:135|120:67|169:18,1,215.999987686158,2|10,0:0|0:0,0:0:0:0:
8,192,270864,1,0,1:0:0:0:
233,65,271155,1,2,1:2:0:0:
233,65,271446,2,0,B|260:39|309:59|316:133,1,107.999993843079,10|0,0:0|0:0,0:0:0:0:
269,175,271738,1,2,0:0:0:0:
434,94,272029,2,0,B|470:104|477:156|416:199,1,107.999993843079,10|0,0:0|0:0,0:0:0:0:
356,180,272320,6,0,B|265:151|182:246|264:369|375:380|395:267|414:313|403:263|455:238|533:267,1,431.999975372315,6|10,1:2|0:0,0:0:0:0:
208,317,273215,2,0,B|253:352|209:441|70:412|32:300|125:235|197:179|221:257|177:156|224:87|165:17,1,431.999975372315,2|10,1:2|0:0,0:0:0:0:
44,17,274111,2,0,B|15:24|3:55|34:120,1,107.999993843079,2|0,0:0|0:0,0:0:0:0:
109,135,274399,1,8,0:0:0:0:
354,32,274687,6,0,B|403:23|436:127|236:204|304:-17|239:-48|123:53,1,323.999981529237,2|0,1:2|0:0,0:0:0:0:
206,81,275264,1,8,0:0:0:0:
428,143,275553,1,0,1:0:0:0:
310,279,275841,1,2,1:2:0:0:
310,279,276132,2,0,B|278:302|269:337|320:393,1,107.999993843079,10|0,0:0|0:0,0:0:0:0:
369,330,276423,1,2,0:0:0:0:
428,143,276714,2,0,B|431:182|457:207|531:191,1,107.999993843079,10|0,0:0|0:0,0:0:0:0:
501,117,277006,6,0,B|425:161|336:125|437:89|311:-30|180:56,1,323.999981529237,2|0,1:2|0:0,0:0:0:0:
179,93,277588,1,10,0:0:0:0:
229,288,277891,1,0,1:0:0:0:
101,356,278194,1,2,1:2:0:0:
101,356,278497,2,0,B|121:312|160:333|198:372,1,107.999993843079,10|0,0:0|0:0,0:0:0:0:
265,357,278800,1,2,0:0:0:0:
491,225,279103,2,0,B|451:196|428:234|414:287,1,107.999993843079,10|0,0:0|0:0,0:0:0:0:
378,349,279406,6,0,B|442:294|374:195|355:261|310:177|387:97|462:127|462:127|467:235|382:238|266:224|253:144|253:144|298:129|311:42|258:14|219:52|205:100|163:95|125:76|120:28|163:12|312:-82|164:-6|127:48|29:2|121:83|78:106|27:112|21:63|21:63|111:96|85:184|85:184|112:104|206:147|180:213|180:213|188:257|237:262|237:262|173:288|176:351,1,1582.86587450032,6|0,1:2|0:0,0:0:0:0:
292,349,293628,6,0,L|262:345,1,29.9999992052714,2|2,0:0|0:0,0:0:0:0:
