osu file format v14

[General]
AudioFilename: witch.mp3
AudioLeadIn: 0
PreviewTime: 58095
Countdown: 0
SampleSet: None
StackLeniency: 0.7
Mode: 0
LetterboxInBreaks: 1
WidescreenStoryboard: 0

[Editor]
Bookmarks: 90326,102816,215819
DistanceSpacing: 1.2
BeatDivisor: 4
GridSize: 4
TimelineZoom: 1.1

[Metadata]
Title:Burn The Witch
TitleUnicode:Burn The Witch
Artist:Radiohead
ArtistUnicode:Radiohead
Creator:YellowManul
Version:Hard
Source:
Tags:bakari art rock a moon shaped pool xl recordings
BeatmapID:974943
BeatmapSetID:454774

[Difficulty]
HPDrainRate:6
CircleSize:3.8
OverallDifficulty:6
ApproachRate:7.5
SliderMultiplier:1.6
SliderTickRate:1

[Events]
//Background and Video events
0,0,"bg.jpg",0,0
//Break Periods
2,90526,101991
2,142096,147517
//Storyboard Layer 0 (Background)
//Storyboard Layer 1 (Fail)
//Storyboard Layer 2 (Pass)
//Storyboard Layer 3 (Foreground)
//Storyboard Sound Samples

[TimingPoints]
80,402.887359409099,4,2,1,50,1,0
12972,-100,4,3,1,50,0,0
58095,-100,4,3,1,50,0,1
90326,-100,4,3,1,50,0,0
102816,-133.333333333333,4,3,1,50,0,0
103219,-100,4,3,1,50,0,0
148342,-100,4,3,1,50,0,1
174127,-100,4,3,1,50,0,0
209588,402.010050251256,4,3,1,60,1,0

[Colours]
Combo1 : 228,228,203
Combo2 : 172,89,89
Combo3 : 0,159,80

[HitObjects]
80,96,80,5,2,0:0:0:0:
158,41,281,1,2,0:0:0:0:
248,64,482,2,0,P|268:108|264:152,1,80,2|0,0:0|0:0,0:0:0:0:
212,216,885,1,2,0:0:0:0:
380,308,1288,1,2,0:0:0:0:
288,340,1490,6,0,P|244:328|128:352,1,160,2|2,0:0|0:0,0:0:0:0:
56,292,2094,2,0,P|48:252|56:208,1,80,2|0,0:0|0:0,0:0:0:0:
88,124,2497,1,2,0:0:0:0:
156,196,2698,1,0,0:0:0:0:
88,124,2900,2,0,P|136:100|180:100,1,80,2|0,0:0|0:0,0:0:0:0:
256,120,3303,6,0,P|260:168|276:212,1,80,2|2,0:0|0:0,0:0:0:0:
356,244,3705,1,2,0:0:0:0:
416,64,4108,1,2,0:0:0:0:
356,244,4511,5,2,0:0:0:0:
268,288,4713,2,0,P|260:232|276:184,1,80,2|0,0:0|0:0,0:0:0:0:
244,116,5116,1,2,0:0:0:0:
244,116,5317,2,0,P|200:140|176:176,1,80,2|0,0:0|0:0,0:0:0:0:
112,232,5720,2,0,P|75:247|35:246,1,80,2|0,0:0|0:0,0:0:0:0:
60,152,6123,1,2,0:0:0:0:
84,60,6324,1,2,0:0:0:0:
208,92,6526,5,2,0:0:0:0:
164,280,6929,1,2,0:0:0:0:
300,144,7331,1,2,0:0:0:0:
224,204,7533,1,0,0:0:0:0:
312,168,7734,1,2,0:0:0:0:
236,228,7936,6,0,P|196:212|68:248,1,160,2|2,0:0|0:0,0:0:0:0:
96,328,8540,2,0,L|192:324,1,80,2|0,0:0|0:0,0:0:0:0:
272,320,8943,1,2,0:0:0:0:
304,132,9346,1,2,0:0:0:0:
272,320,9749,6,0,L|296:240,1,80,2|2,0:0|0:0,0:0:0:0:
304,132,10152,2,0,P|344:144|384:184,1,80,2|0,0:0|0:0,0:0:0:0:
432,244,10555,1,2,0:0:0:0:
260,332,10957,1,2,0:0:0:0:
196,260,11159,6,0,P|204:184|164:112,1,160,2|2,0:0|0:0,0:0:0:0:
88,56,11763,1,2,0:0:0:0:
32,136,11965,1,0,0:0:0:0:
32,136,12166,2,0,P|28:180|40:224,1,80,2|2,0:0|0:0,0:0:0:0:
140,252,12569,2,0,P|144:208|132:164,1,80,2|2,0:0|0:0,0:0:0:0:
260,100,12972,5,4,0:0:0:0:
260,100,13173,1,0,0:0:0:0:
356,120,13375,2,0,L|344:208,1,80,4|0,0:0|0:0,0:0:0:0:
424,256,13778,2,0,P|376:232|280:276,1,160,10|2,0:0|0:0,0:0:0:0:
216,340,14382,6,0,P|168:364|72:320,1,160,4|8,0:0|0:0,0:0:0:0:
40,236,14986,1,2,0:0:0:0:
232,216,15389,2,0,P|276:208|316:184,1,80,2|4,0:0|0:0,0:0:0:0:
320,96,15792,2,0,P|276:104|236:128,1,80,10|2,0:0|0:0,0:0:0:0:
84,44,16195,5,4,0:0:0:0:
160,220,16598,1,4,0:0:0:0:
168,64,17001,2,0,P|207:60|256:52,2,80,10|0|2,0:0|0:0|0:0,0:0:0:0:
96,128,17605,6,0,P|84:204|132:284,1,160,4|10,0:0|0:0,0:0:0:0:
204,324,18209,1,2,0:0:0:0:
292,268,18411,1,4,0:0:0:0:
388,324,18612,2,0,P|400:288|392:224,1,80,2|4,0:0|0:0,0:0:0:0:
324,160,19015,1,10,0:0:0:0:
404,80,19217,1,2,0:0:0:0:
260,56,19418,5,4,0:0:0:0:
284,256,19821,1,4,0:0:0:0:
260,56,20224,2,0,L|172:52,1,80,10|0,0:0|0:0,0:0:0:0:
88,100,20627,1,2,0:0:0:0:
144,180,20828,6,0,P|188:164|304:184,1,160,4|4,0:0|0:0,0:0:0:0:
376,236,21433,1,4,0:0:0:0:
272,56,21835,2,0,P|272:100|256:148,1,80,2|4,0:0|0:0,0:0:0:0:
216,220,22238,1,10,0:0:0:0:
168,136,22440,1,2,0:0:0:0:
168,136,22641,5,4,0:0:0:0:
324,244,23044,1,4,0:0:0:0:
148,312,23447,2,0,P|108:324|64:320,2,80,10|0|2,0:0|0:0|0:0,0:0:0:0:
96,216,24051,6,0,P|108:172|52:68,1,160,4|4,0:0|0:0,0:0:0:0:
164,64,24656,1,2,0:0:0:0:
264,96,24857,1,4,0:0:0:0:
352,44,25059,2,0,P|364:84|356:140,1,80,2|4,0:0|0:0,0:0:0:0:
260,174,25461,2,0,P|255:132|272:78,1,80,10|2,0:0|0:0,0:0:0:0:
428,172,25864,5,4,0:0:0:0:
280,292,26267,1,4,0:0:0:0:
428,172,26670,2,0,P|384:176|344:168,1,80,10|0,0:0|0:0,0:0:0:0:
264,140,27073,1,2,0:0:0:0:
263,139,27274,6,0,P|185:127|124:175,1,160,4|4,0:0|0:0,0:0:0:0:
212,220,27879,1,4,0:0:0:0:
60,336,28282,2,0,P|64:284|56:244,1,80,2|4,0:0|0:0,0:0:0:0:
104,172,28685,1,10,0:0:0:0:
36,104,28886,1,2,0:0:0:0:
104,172,29087,6,0,P|160:168|192:152,1,80,4|0,0:0|0:0,0:0:0:0:
236,80,29490,1,4,0:0:0:0:
264,272,29893,2,0,L|256:188,2,80,2|0|2,0:0|0:0|0:0,0:0:0:0:
344,324,30497,1,4,0:0:0:0:
408,252,30699,6,0,P|416:208|404:160,1,80,0|10,0:0|0:0,0:0:0:0:
396,80,31102,2,0,P|352:100|324:137,1,80,2|4,0:0|0:0,0:0:0:0:
256,192,31505,1,2,0:0:0:0:
236,80,31706,1,4,0:0:0:0:
152,156,31908,2,0,P|152:212|164:244,1,80,10|2,0:0|0:0,0:0:0:0:
312,296,32310,5,4,0:0:0:0:
136,348,32713,1,4,0:0:0:0:
312,296,33116,1,10,0:0:0:0:
364,216,33318,2,0,P|356:164|336:124,1,80,0|2,0:0|0:0,0:0:0:0:
288,60,33721,6,0,P|244:92|128:72,1,160,4|8,0:0|0:0,0:0:0:0:
60,36,34325,1,4,0:0:0:0:
140,212,34728,2,0,L|224:204,1,80,2|4,0:0|0:0,0:0:0:0:
316,192,35131,1,10,0:0:0:0:
280,280,35332,1,2,0:0:0:0:
376,268,35534,5,4,0:0:0:0:
260,356,35936,1,4,0:0:0:0:
412,236,36339,1,10,0:0:0:0:
364,144,36541,2,0,P|364:104|384:64,1,80,0|2,0:0|0:0,0:0:0:0:
460,56,36944,6,0,P|388:68|308:28,1,160,4|10,0:0|0:0,0:0:0:0:
216,76,37548,2,0,P|212:116|224:160,1,80,4|4,0:0|0:0,0:0:0:0:
188,252,37951,2,0,P|240:256|276:244,2,80,2|4|10,0:0|0:0|0:0,0:0:0:0:
112,168,38555,1,2,0:0:0:0:
160,44,38757,5,4,0:0:0:0:
36,192,39160,1,4,0:0:0:0:
160,44,39562,2,0,P|204:36|248:40,1,80,10|0,0:0|0:0,0:0:0:0:
324,84,39965,1,2,0:0:0:0:
280,168,40167,6,0,P|228:160|140:228,1,160,4|4,0:0|0:0,0:0:0:0:
104,308,40771,1,4,0:0:0:0:
288,260,41174,2,0,P|332:244|360:204,1,80,2|4,0:0|0:0,0:0:0:0:
432,168,41577,2,0,P|444:212|440:252,1,80,10|2,0:0|0:0,0:0:0:0:
348,332,41980,6,0,P|252:348|204:296,1,160,4|4,0:0|0:0,0:0:0:0:
156,108,42786,2,0,P|168:64|200:32,2,80,10|0|2,0:0|0:0|0:0,0:0:0:0:
88,176,43390,6,0,P|136:144|236:176,1,160,4|4,0:0|0:0,0:0:0:0:
316,224,43994,1,4,0:0:0:0:
400,180,44196,2,0,P|404:132|392:88,1,80,4|2,0:0|0:0,0:0:0:0:
320,44,44599,1,4,0:0:0:0:
236,88,44800,2,0,L|228:188,1,80,10|2,0:0|0:0,0:0:0:0:
124,244,45203,6,0,P|84:240|36:264,1,80,4|0,0:0|0:0,0:0:0:0:
136,332,45606,2,0,P|176:316|208:268,1,80,4|0,0:0|0:0,0:0:0:0:
288,328,46009,1,10,0:0:0:0:
148,196,46412,1,2,0:0:0:0:
184,108,46613,6,0,B|224:88|224:88|344:100,1,160,4|4,0:0|0:0,0:0:0:0:
432,116,47217,1,4,0:0:0:0:
360,296,47620,2,0,P|372:248|372:200,1,80,2|4,0:0|0:0,0:0:0:0:
276,236,48023,2,0,P|272:182|264:140,1,80,10|2,0:0|0:0,0:0:0:0:
196,88,48426,5,6,0:0:0:0:
108,128,48627,1,0,0:0:0:0:
148,216,48829,2,0,L|140:296,1,80,6|0,0:0|0:0,0:0:0:0:
228,336,49232,2,0,P|272:320|332:324,1,80,10|0,0:0|0:0,0:0:0:0:
360,240,49635,2,0,L|368:152,1,80,2|4,0:0|0:0,0:0:0:0:
428,84,50038,5,2,0:0:0:0:
332,76,50239,1,10,0:0:0:0:
332,76,50440,2,0,P|284:76|236:52,1,80,2|4,0:0|0:0,0:0:0:0:
164,40,50843,2,0,P|124:44|80:76,1,80,2|4,0:0|0:0,0:0:0:0:
36,144,51246,2,0,P|77:159|124:155,1,80,10|2,0:0|0:0,0:0:0:0:
216,140,51649,5,4,0:0:0:0:
292,196,51851,2,0,P|291:243|280:280,2,80,0|4|2,0:0|0:0|0:0,0:0:0:0:
216,140,52455,1,10,0:0:0:0:
392,60,52858,1,2,0:0:0:0:
460,128,53059,6,0,P|412:200|436:284,1,160,4|10,0:0|0:0,0:0:0:0:
476,352,53664,1,2,0:0:0:0:
312,252,54066,1,2,0:0:0:0:
260,332,54268,1,4,0:0:0:0:
172,288,54469,2,0,P|182:243|188:196,1,80,10|2,0:0|0:0,0:0:0:0:
144,124,54872,5,4,0:0:0:0:
332,76,55275,1,4,0:0:0:0:
144,124,55678,2,0,P|100:108|52:112,1,80,10|0,0:0|0:0,0:0:0:0:
88,204,56081,1,2,0:0:0:0:
156,272,56282,1,4,0:0:0:0:
84,336,56484,5,10,0:0:0:0:
156,272,56685,1,10,0:0:0:0:
252,316,56887,2,0,L|340:312,1,80,2|4,0:0|0:0,0:0:0:0:
376,228,57290,2,0,L|288:224,1,80,2|4,0:0|0:0,0:0:0:0:
244,144,57692,2,0,L|332:140,1,80,10|0,0:0|0:0,0:0:0:0:
400,60,58095,5,12,0:0:0:0:
464,240,58498,1,4,0:0:0:0:
400,60,58901,2,0,P|356:52|308:60,1,80,8|0,0:0|0:0,0:0:0:0:
216,100,59304,1,2,0:0:0:0:
136,48,59505,6,0,P|120:104|176:188,1,160,4|8,0:0|0:0,0:0:0:0:
260,220,60110,1,2,0:0:0:0:
96,316,60513,2,0,P|140:304|192:308,1,80,8|2,0:0|0:0,0:0:0:0:
268,324,60915,2,0,P|312:336|364:332,1,80,10|2,0:0|0:0,0:0:0:0:
432,292,61318,6,0,L|440:208,2,80,2|2|2,0:0|0:0|0:0,0:0:0:0:
392,104,62124,2,0,P|348:88|232:132,1,160,8|2,0:0|0:0,0:0:0:0:
180,192,62728,6,0,P|224:208|340:164,1,160,4|8,0:0|0:0,0:0:0:0:
392,104,63333,1,2,0:0:0:0:
296,292,63736,2,0,L|212:284,1,80,8|4,0:0|0:0,0:0:0:0:
136,340,64139,2,0,P|120:284|132:244,1,80,8|2,0:0|0:0,0:0:0:0:
152,152,64541,5,4,0:0:0:0:
96,72,64743,1,2,0:0:0:0:
52,156,64944,1,4,0:0:0:0:
152,152,65146,1,0,0:0:0:0:
236,100,65347,2,0,P|268:180|244:264,1,160,10|2,0:0|0:0,0:0:0:0:
176,308,65952,6,0,P|224:280|340:296,1,160,4|8,0:0|0:0,0:0:0:0:
412,328,66556,1,2,0:0:0:0:
452,140,66959,2,0,L|436:228,1,80,8|4,0:0|0:0,0:0:0:0:
356,168,67362,2,0,P|352:128|368:84,1,80,8|2,0:0|0:0,0:0:0:0:
280,44,67765,5,12,0:0:0:0:
208,220,68167,1,4,0:0:0:0:
280,44,68570,1,8,0:0:0:0:
192,84,68772,2,0,P|152:96|100:88,1,80,0|2,0:0|0:0,0:0:0:0:
52,168,69175,6,0,P|40:248|80:328,1,160,4|8,0:0|0:0,0:0:0:0:
168,312,69779,1,2,0:0:0:0:
216,228,69980,1,4,0:0:0:0:
192,136,70182,2,0,P|240:136|284:160,1,80,0|2,0:0|0:0,0:0:0:0:
348,200,70585,2,0,L|356:120,1,80,10|2,0:0|0:0,0:0:0:0:
296,268,70988,6,0,L|312:348,2,80,2|2|2,0:0|0:0|0:0,0:0:0:0:
216,320,71592,1,0,0:0:0:0:
124,292,71793,2,0,P|112:208|164:136,1,160,8|2,0:0|0:0,0:0:0:0:
228,88,72398,1,0,0:0:0:0:
308,140,72599,6,0,P|348:136|396:116,2,80,0|8|2,0:0|0:0|0:0,0:0:0:0:
248,216,73204,1,4,0:0:0:0:
248,216,73405,2,0,P|252:256|272:300,2,80,8|4|8,0:0|0:0|0:0,0:0:0:0:
168,164,74009,1,2,0:0:0:0:
84,212,74211,6,0,L|80:296,1,80,4|0,0:0|0:0,0:0:0:0:
160,344,74614,1,0,0:0:0:0:
348,312,75017,1,8,0:0:0:0:
304,228,75218,2,0,P|312:184|336:144,1,80,0|2,0:0|0:0,0:0:0:0:
284,68,75621,6,0,P|216:100|124:80,1,160,0|8,0:0|0:0,0:0:0:0:
48,48,76225,1,2,0:0:0:0:
40,144,76427,1,0,0:0:0:0:
36,236,76628,2,0,P|80:224|128:228,1,80,8|4,0:0|0:0,0:0:0:0:
164,304,77031,2,0,P|196:272|208:232,1,80,8|2,0:0|0:0,0:0:0:0:
176,132,77434,5,12,0:0:0:0:
356,200,77837,1,4,0:0:0:0:
176,132,78240,1,8,0:0:0:0:
248,76,78441,2,0,L|332:72,1,80,0|2,0:0|0:0,0:0:0:0:
440,176,78844,6,0,L|272:183,1,160,4|8,0:0|0:0,0:0:0:0:
184,176,79448,1,2,0:0:0:0:
60,324,79851,2,0,P|56:280|64:240,1,80,2|2,0:0|0:0,0:0:0:0:
40,152,80254,2,0,P|80:152|136:184,1,80,10|2,0:0|0:0,0:0:0:0:
188,232,80657,5,4,0:0:0:0:
276,192,80858,1,2,0:0:0:0:
236,104,81060,2,0,P|280:96|324:108,1,80,2|0,0:0|0:0,0:0:0:0:
392,156,81463,2,0,P|404:212|360:320,1,160,8|2,0:0|0:0,0:0:0:0:
280,340,82067,1,0,0:0:0:0:
188,368,82269,5,0,0:0:0:0:
108,312,82470,1,8,0:0:0:0:
104,224,82671,2,0,P|136:192|180:180,1,80,2|4,0:0|0:0,0:0:0:0:
264,164,83074,1,8,0:0:0:0:
200,92,83276,1,4,0:0:0:0:
292,72,83477,2,0,P|332:96|356:136,1,80,8|2,0:0|0:0,0:0:0:0:
340,220,83880,5,4,0:0:0:0:
432,192,84082,1,2,0:0:0:0:
350,122,84283,2,0,P|311:110|272:113,1,80,4|4,0:0|0:0,0:0:0:0:
180,96,84686,2,0,P|148:164|176:260,1,160,10|2,0:0|0:0,0:0:0:0:
256,280,85290,6,0,P|200:264|108:328,1,160,4|8,0:0|0:0,0:0:0:0:
48,244,85895,1,2,0:0:0:0:
96,60,86297,2,0,L|180:56,1,80,8|4,0:0|0:0,0:0:0:0:
228,136,86700,2,0,L|144:140,1,80,8|2,0:0|0:0,0:0:0:0:
52,148,87103,5,12,0:0:0:0:
104,228,87305,1,0,0:0:0:0:
196,256,87506,2,0,P|248:252|288:236,1,80,4|4,0:0|0:0,0:0:0:0:
312,332,87909,2,0,P|296:248|340:180,1,160,8|2,0:0|0:0,0:0:0:0:
400,120,88513,5,4,0:0:0:0:
308,96,88715,1,0,0:0:0:0:
216,64,88916,1,10,0:0:0:0:
216,64,89118,2,0,L|220:152,1,80,2|0,0:0|0:0,0:0:0:0:
172,228,89520,2,0,P|220:240|264:228,1,80,0|2,0:0|0:0,0:0:0:0:
304,312,89923,1,10,0:0:0:0:
400,320,90125,1,2,0:0:0:0:
436,232,90326,5,0,0:0:0:0:
203,144,102816,6,0,P|210:178|211:216,1,60.0000022888184,10|0,0:0|0:0,0:0:0:0:
212,204,103219,6,0,P|200:248|200:296,1,80,4|0,0:0|0:0,0:0:0:0:
268,352,103622,1,10,0:0:0:0:
408,224,104024,1,10,0:0:0:0:
268,352,104427,1,2,0:0:0:0:
232,264,104629,6,0,P|240:216|232:172,2,80,4|2|10,0:0|0:0|0:0,0:0:0:0:
140,296,105233,1,2,0:0:0:0:
112,108,105636,1,2,0:0:0:0:
176,40,105837,2,0,L|264:48,1,80,4|10,0:0|0:0,0:0:0:0:
344,84,106240,1,0,0:0:0:0:
256,160,106442,5,4,0:0:0:0:
444,208,106845,1,4,0:0:0:0:
256,160,107248,1,10,0:0:0:0:
180,216,107449,2,0,P|176:264|184:304,1,80,2|0,0:0|0:0,0:0:0:0:
264,344,107852,5,4,0:0:0:0:
76,296,108255,1,10,0:0:0:0:
48,204,108456,2,0,L|56:120,1,80,2|4,0:0|0:0,0:0:0:0:
152,108,108859,2,0,L|144:192,1,80,2|4,0:0|0:0,0:0:0:0:
236,160,109262,1,10,0:0:0:0:
200,348,109665,5,4,0:0:0:0:
368,256,110068,1,4,0:0:0:0:
176,260,110471,2,0,P|128:252|88:232,1,80,10|2,0:0|0:0,0:0:0:0:
56,152,110874,1,0,0:0:0:0:
104,68,111075,6,0,B|188:96|268:48,1,160,4|10,0:0|0:0,0:0:0:0:
280,148,111679,1,2,0:0:0:0:
220,324,112082,2,0,P|264:304|312:304,1,80,2|4,0:0|0:0,0:0:0:0:
380,344,112485,2,0,P|388:296|376:256,1,80,10|2,0:0|0:0,0:0:0:0:
412,176,112888,5,4,0:0:0:0:
224,204,113291,1,4,0:0:0:0:
412,176,113694,1,10,0:0:0:0:
352,104,113895,2,0,P|288:100|264:108,1,80,2|2,0:0|0:0,0:0:0:0:
228,188,114298,6,0,P|148:216|80:172,1,160,4|10,0:0|0:0,0:0:0:0:
160,120,114902,1,2,0:0:0:0:
68,288,115305,2,0,P|104:300|144:324,1,80,2|4,0:0|0:0,0:0:0:0:
224,268,115708,2,0,L|228:184,1,80,10|0,0:0|0:0,0:0:0:0:
272,100,116111,5,4,0:0:0:0:
360,140,116313,2,0,P|368:184|360:236,1,80,0|4,0:0|0:0,0:0:0:0:
300,292,116715,1,0,0:0:0:0:
212,248,116917,2,0,P|204:204|212:152,1,80,10|2,0:0|0:0,0:0:0:0:
272,100,117320,1,2,0:0:0:0:
152,64,117521,6,0,P|112:64|64:84,1,80,4|4,0:0|0:0,0:0:0:0:
36,164,117924,1,8,0:0:0:0:
112,224,118125,2,0,L|120:308,1,80,8|4,0:0|0:0,0:0:0:0:
200,252,118528,2,0,L|192:168,1,80,2|6,0:0|0:0,0:0:0:0:
268,112,118931,2,0,L|276:196,1,80,10|2,0:0|0:0,0:0:0:0:
364,232,119334,5,4,0:0:0:0:
208,344,119737,1,6,0:0:0:0:
364,232,120140,1,10,0:0:0:0:
424,156,120341,2,0,P|432:108|420:72,1,80,2|0,0:0|0:0,0:0:0:0:
328,92,120744,6,0,P|276:112|172:68,1,160,4|10,0:0|0:0,0:0:0:0:
88,108,121349,1,2,0:0:0:0:
168,280,121751,2,0,L|164:200,1,80,2|4,0:0|0:0,0:0:0:0:
256,228,122154,2,0,L|260:148,1,80,10|2,0:0|0:0,0:0:0:0:
320,72,122557,5,4,0:0:0:0:
428,232,122960,1,4,0:0:0:0:
364,304,123162,2,0,L|264:296,1,80,4|2,0:0|0:0,0:0:0:0:
220,224,123564,1,4,0:0:0:0:
196,316,123766,1,4,0:0:0:0:
220,224,123967,1,0,0:0:0:0:
180,136,124169,6,0,L|88:140,1,80,4|8,0:0|0:0,0:0:0:0:
40,64,124572,1,0,0:0:0:0:
132,32,124773,1,2,0:0:0:0:
224,68,124975,1,2,0:0:0:0:
284,156,125176,1,6,0:0:0:0:
284,156,125377,2,0,P|328:152|380:124,1,80,2|8,0:0|0:0,0:0:0:0:
352,232,125780,5,4,0:0:0:0:
288,304,125982,2,0,P|248:296|204:300,1,80,0|4,0:0|0:0,0:0:0:0:
144,228,126385,1,0,0:0:0:0:
172,136,126586,2,0,P|180:96|172:52,1,80,8|0,0:0|0:0,0:0:0:0:
84,96,126989,1,0,0:0:0:0:
96,192,127190,6,0,P|144:176|264:200,1,160,2|2,0:0|0:0,0:0:0:0:
328,252,127795,1,0,0:0:0:0:
420,228,127996,1,0,0:0:0:0:
392,136,128198,2,0,L|404:52,1,80,10|4,0:0|0:0,0:0:0:0:
308,68,128601,2,0,L|296:152,1,80,10|2,0:0|0:0,0:0:0:0:
192,80,129003,5,12,0:0:0:0:
108,128,129205,2,0,P|100:184|108:216,2,80,0|4|0,0:0|0:0|0:0,0:0:0:0:
192,172,129809,1,8,0:0:0:0:
264,236,130011,2,0,P|260:280|240:320,1,80,0|2,0:0|0:0,0:0:0:0:
172,348,130414,6,0,P|216:320|336:328,1,160,4|8,0:0|0:0,0:0:0:0:
372,240,131018,1,2,0:0:0:0:
380,144,131219,1,0,0:0:0:0:
352,52,131421,2,0,B|304:60|256:48,1,80,0|2,0:0|0:0,0:0:0:0:
176,44,131824,1,10,0:0:0:0:
152,136,132025,1,2,0:0:0:0:
236,228,132227,5,2,0:0:0:0:
64,140,132629,1,2,0:0:0:0:
236,228,133032,2,0,L|328:220,1,80,8|0,0:0|0:0,0:0:0:0:
372,144,133435,1,2,0:0:0:0:
296,84,133637,6,0,P|240:72|144:132,1,160,4|8,0:0|0:0,0:0:0:0:
96,196,134241,2,0,P|100:244|92:276,2,80,2|0|8,0:0|0:0|0:0,0:0:0:0:
152,118,134845,2,0,P|179:157|188:189,2,80,4|8|2,0:0|0:0|0:0,0:0:0:0:
56,104,135450,5,4,0:0:0:0:
244,68,135853,1,4,0:0:0:0:
56,104,136255,2,0,P|48:156|52:196,1,80,10|0,0:0|0:0,0:0:0:0:
104,264,136658,1,2,0:0:0:0:
180,320,136860,6,0,B|220:336|220:336|352:328,1,160,4|8,0:0|0:0,0:0:0:0:
332,232,137464,2,0,P|328:184|344:148,1,80,2|0,0:0|0:0,0:0:0:0:
412,92,137867,1,8,0:0:0:0:
320,64,138068,2,0,P|276:72|220:56,1,80,4|8,0:0|0:0,0:0:0:0:
152,100,138471,1,2,0:0:0:0:
224,164,138673,5,12,0:0:0:0:
256,192,138874,12,0,141896,0:0:0:0:
172,332,148342,5,12,0:0:0:0:
204,144,148745,1,4,0:0:0:0:
172,332,149148,2,0,L|252:328,1,80,8|0,0:0|0:0,0:0:0:0:
304,248,149551,1,2,0:0:0:0:
216,212,149752,6,0,P|168:212|184:112,1,160,4|8,0:0|0:0,0:0:0:0:
244,72,150356,1,2,0:0:0:0:
328,120,150558,1,0,0:0:0:0:
404,64,150759,2,0,P|424:112|420:152,1,80,0|2,0:0|0:0,0:0:0:0:
368,216,151162,2,0,P|348:264|352:304,1,80,10|2,0:0|0:0,0:0:0:0:
448,340,151565,5,2,0:0:0:0:
356,312,151767,1,2,0:0:0:0:
264,336,151968,2,0,P|220:344|184:332,1,80,2|0,0:0|0:0,0:0:0:0:
116,236,152371,2,0,P|108:192|172:80,1,160,8|2,0:0|0:0,0:0:0:0:
244,52,152975,1,4,0:0:0:0:
320,108,153177,6,0,L|400:116,2,80,0|8|2,0:0|0:0|0:0,0:0:0:0:
240,160,153781,1,0,0:0:0:0:
240,160,153982,2,0,L|160:168,2,80,8|4|8,0:0|0:0|0:0,0:0:0:0:
328,200,154587,1,2,0:0:0:0:
256,320,154788,6,0,L|152:312,1,80,4|2,0:0|0:0,0:0:0:0:
92,264,155191,1,4,0:0:0:0:
176,216,155393,1,0,0:0:0:0:
116,140,155594,2,0,P|192:120|264:176,1,160,10|2,0:0|0:0,0:0:0:0:
336,216,156198,1,4,0:0:0:0:
424,136,156400,6,0,L|416:44,1,80,0|8,0:0|0:0,0:0:0:0:
336,216,156803,2,0,L|344:124,1,80,2|0,0:0|0:0,0:0:0:0:
260,88,157206,2,0,L|252:180,1,80,8|4,0:0|0:0,0:0:0:0:
160,148,157609,2,0,L|168:240,1,80,8|2,0:0|0:0,0:0:0:0:
228,300,158011,5,12,0:0:0:0:
52,228,158414,1,4,0:0:0:0:
228,300,158817,2,0,L|312:296,1,80,8|0,0:0|0:0,0:0:0:0:
372,228,159220,1,2,0:0:0:0:
316,148,159421,6,0,P|224:156|164:100,1,160,4|8,0:0|0:0,0:0:0:0:
84,84,160026,1,2,0:0:0:0:
52,272,160429,2,0,P|96:256|128:256,1,80,0|2,0:0|0:0,0:0:0:0:
204,312,160832,2,0,P|220:264|216:220,1,80,10|2,0:0|0:0,0:0:0:0:
188,144,161234,5,2,0:0:0:0:
280,172,161436,1,2,0:0:0:0:
364,124,161637,2,0,P|376:168|364:220,1,80,2|0,0:0|0:0,0:0:0:0:
328,288,162040,1,8,0:0:0:0:
140,320,162443,1,2,0:0:0:0:
92,236,162645,1,0,0:0:0:0:
120,144,162846,6,0,L|200:136,1,80,0|8,0:0|0:0,0:0:0:0:
248,52,163249,2,0,P|284:88|296:132,1,80,2|4,0:0|0:0,0:0:0:0:
388,184,163652,2,0,P|432:180|472:164,2,80,8|4|8,0:0|0:0|0:0,0:0:0:0:
304,228,164256,1,2,0:0:0:0:
244,328,164458,5,4,0:0:0:0:
156,288,164659,1,0,0:0:0:0:
196,200,164860,2,0,P|188:160|190:121,1,80
112,64,165263,1,8,0:0:0:0:
308,60,165666,2,0,P|320:108|308:160,1,80,2|0,0:0|0:0,0:0:0:0:
360,224,166069,6,0,P|312:232|260:216,1,80,0|8,0:0|0:0,0:0:0:0:
192,196,166472,1,2,0:0:0:0:
124,260,166673,2,0,P|124:304|144:352,2,80,0|8|4,0:0|0:0|0:0,0:0:0:0:
40,212,167278,2,0,P|48:168|36:116,1,80,8|2,0:0|0:0,0:0:0:0:
116,52,167681,6,0,P|152:72|280:52,1,160,12|4,0:0|0:0,0:0:0:0:
352,104,168285,1,0,0:0:0:0:
400,188,168486,2,0,P|404:232|392:276,1,80,8|0,0:0|0:0,0:0:0:0:
304,300,168889,2,0,P|300:256|312:212,1,80,2|4,0:0|0:0,0:0:0:0:
244,124,169292,5,0,0:0:0:0:
164,176,169494,2,0,P|180:228|176:268,1,80,8|2,0:0|0:0,0:0:0:0:
216,340,169897,1,0,0:0:0:0:
304,300,170098,2,0,L|396:296,1,80,2|2,0:0|0:0,0:0:0:0:
436,216,170501,2,0,L|344:212,1,80,10|2,0:0|0:0,0:0:0:0:
308,128,170904,5,4,0:0:0:0:
220,164,171105,1,2,0:0:0:0:
136,116,171307,2,0,P|124:164|136:212,1,80,2|0,0:0|0:0,0:0:0:0:
52,252,171710,2,0,P|88:228|212:252,1,160,8|2,0:0|0:0,0:0:0:0:
256,320,172314,1,0,0:0:0:0:
288,228,172515,5,4,0:0:0:0:
356,185,172718,2,0,P|368:220|356:276,2,80,0|8|2,0:0|0:0|0:0,0:0:0:0:
304,128,173321,2,0,P|348:108|400:120,1,80,8|4,0:0|0:0,0:0:0:0:
468,152,173724,2,0,L|456:252,1,80,8|2,0:0|0:0,0:0:0:0:
408,312,174127,5,4,0:0:0:0:
320,348,174328,2,0,P|280:348|236:332,1,80,2|4,0:0|0:0,0:0:0:0:
148,344,174731,1,4,0:0:0:0:
184,256,174933,2,0,P|196:212|132:116,1,160,10|2,0:0|0:0,0:0:0:0:
56,168,175537,1,4,0:0:0:0:
128,44,175738,6,0,L|212:40,1,80,0|8,0:0|0:0,0:0:0:0:
284,96,176141,1,2,0:0:0:0:
236,180,176343,1,0,0:0:0:0:
320,224,176544,2,0,P|356:212|412:208,2,80,8|4|8,0:0|0:0|0:0,0:0:0:0:
284,316,177148,1,2,0:0:0:0:
232,208,177350,6,0,L|240:116,1,80,12|0,0:0|0:0,0:0:0:0:
148,100,177753,2,0,L|156:192,1,80,4|4,0:0|0:0,0:0:0:0:
88,248,178156,1,8,0:0:0:0:
148,324,178357,2,0,P|192:324|236:308,1,80,0|2,0:0|0:0,0:0:0:0:
272,228,178760,1,4,0:0:0:0:
308,140,178961,6,0,P|348:168|364:212,1,80,0|10,0:0|0:0,0:0:0:0:
384,288,179364,1,2,0:0:0:0:
304,340,179566,2,0,L|204:336,1,80,0|0,0:0|0:0,0:0:0:0:
148,276,179969,1,2,0:0:0:0:
180,184,180170,2,0,P|232:180|268:164,1,80,10|2,0:0|0:0,0:0:0:0:
200,92,180573,6,0,P|124:108|88:196,1,160,6|8,0:0|0:0,0:0:0:0:
44,260,181177,1,2,0:0:0:0:
124,316,181379,2,0,L|208:324,2,80,0|0|2,0:0|0:0|0:0,0:0:0:0:
168,228,181983,1,4,0:0:0:0:
256,192,182185,6,0,P|264:152|256:108,1,80,0|8,0:0|0:0,0:0:0:0:
188,52,182587,2,0,P|148:44|103:52,1,80,2|0,0:0|0:0,0:0:0:0:
76,160,182990,1,0,0:0:0:0:
172,148,183192,1,2,0:0:0:0:
256,192,183393,1,10,0:0:0:0:
356,188,183595,1,2,0:0:0:0:
356,188,183796,6,0,B|348:140|316:120,1,80,2|2,0:0|0:0,0:0:0:0:
324,264,184199,2,0,P|372:268|420:240,1,80,2|0,0:0|0:0,0:0:0:0:
488,292,184602,1,8,0:0:0:0:
304,336,185005,5,0,0:0:0:0:
212,308,185206,1,0,0:0:0:0:
116,304,185408,2,0,P|100:260|104:212,1,80,0|8,0:0|0:0,0:0:0:0:
96,124,185811,1,2,0:0:0:0:
116,304,186213,2,0,L|204:300,1,80,8|4,0:0|0:0,0:0:0:0:
219,208,186616,2,0,L|131:212,1,80,8|2,0:0|0:0,0:0:0:0:
96,124,187019,5,4,0:0:0:0:
172,52,187221,1,2,0:0:0:0:
276,68,187422,1,4,0:0:0:0:
392,220,187825,2,0,L|400:136,1,80,10|0,0:0|0:0,0:0:0:0:
312,100,188228,2,0,L|304:184,1,80,2|4,0:0|0:0,0:0:0:0:
292,276,188631,5,0,0:0:0:0:
184,332,188832,2,0,L|100:324,2,80,8|2|0,0:0|0:0|0:0,0:0:0:0:
176,236,189437,1,8,0:0:0:0:
204,144,189638,1,4,0:0:0:0:
129,80,189839,2,0,P|111:116|108:156,1,80,8|2,0:0|0:0,0:0:0:0:
288,184,190242,6,0,P|336:188|428:128,1,160,12|4,0:0|0:0,0:0:0:0:
288,184,190847,1,0,0:0:0:0:
288,184,191048,2,0,P|280:232|288:280,1,80
220,128,191451,2,0,P|189:165|171:211,1,80,10|4,0:0|0:0,0:0:0:0:
88,284,191854,5,2,0:0:0:0:
52,180,192055,2,0,P|60:123|60:96,2,80,8|2|4,0:0|0:0|0:0,0:0:0:0:
88,284,192660,2,0,L|192:280,1,80,0|2,0:0|0:0,0:0:0:0:
276,312,193063,1,10,0:0:0:0:
384,344,193264,1,2,0:0:0:0:
416,220,193465,6,0,P|416:172|332:88,1,160,2|2,0:0|0:0,0:0:0:0:
236,64,194070,1,0,0:0:0:0:
236,64,194271,2,0,P|228:116|212:144,1,80,10|0,0:0|0:0,0:0:0:0:
104,152,194674,2,0,P|112:100|128:72,1,80,2|0,0:0|0:0,0:0:0:0:
140,219,195077,6,0,P|101:227|64:216,2,80,2|8|2,0:0|0:0|0:0,0:0:0:0:
128,328,195681,1,4,0:0:0:0:
128,328,195883,2,0,L|48:331,2,80,8|6|8,0:0|0:0|0:0,0:0:0:0:
220,364,196487,1,2,0:0:0:0:
280,268,196689,6,0,P|284:220|272:184,1,80,4|0,0:0|0:0,0:0:0:0:
384,164,197091,2,0,P|363:120|335:95,1,80
180,44,197494,1,10,0:0:0:0:
212,152,197696,1,0,0:0:0:0:
100,108,197897,1,2,0:0:0:0:
180,44,198099,1,0,0:0:0:0:
212,152,198300,6,0,P|256:148|304:120,1,80,6|10,0:0|0:0,0:0:0:0:
400,148,198703,2,0,L|388:248,1,80,2|2,0:0|0:0,0:0:0:0:
280,336,199106,2,0,L|292:236,2,80,10|4|10,0:0|0:0|0:0,0:0:0:0:
392,316,199710,1,2,0:0:0:0:
280,336,199912,6,0,P|200:320|104:332,1,160,12|4,0:0|0:0,0:0:0:0:
44,248,200516,1,0,0:0:0:0:
96,128,200717,2,0,L|188:120,1,80,8|0,0:0|0:0,0:0:0:0:
240,32,201120,2,0,P|272:64|284:104,1,80,2|6,0:0|0:0,0:0:0:0:
380,152,201523,6,0,L|460:144,2,80,0|10|2,0:0|0:0|0:0,0:0:0:0:
300,232,202128,1,0,0:0:0:0:
340,336,202329,2,0,P|296:344|252:332,1,80,2|2,0:0|0:0,0:0:0:0:
208,240,202732,1,10,0:0:0:0:
112,296,202933,1,2,0:0:0:0:
64,156,203135,6,0,P|144:148|204:80,1,160,4|0,0:0|0:0,0:0:0:0:
304,124,203739,1,2,0:0:0:0:
304,124,203941,2,0,L|312:208,1,80,10|0,0:0|0:0,0:0:0:0:
424,216,204343,2,0,L|416:132,1,80,2|6,0:0|0:0,0:0:0:0:
480,272,204746,6,0,P|420:260|340:312,1,160,10|10,0:0|0:0,0:0:0:0:
244,372,205351,1,4,0:0:0:0:
172,288,205552,2,0,P|164:248|176:192,1,80,10|4,0:0|0:0,0:0:0:0:
240,124,205955,1,2,0:0:0:0:
136,80,206156,1,2,0:0:0:0:
288,60,206358,6,0,P|312:92|320:136,1,80,4|0,0:0|0:0,0:0:0:0:
260,224,206761,1,4,0:0:0:0:
372,216,206962,1,2,0:0:0:0:
212,288,207164,2,0,P|188:256|180:204,1,80,10|0,0:0|0:0,0:0:0:0:
208,108,207566,2,0,P|251:105|296:88,1,80,10|0,0:0|0:0,0:0:0:0:
404,48,207969,6,0,P|376:112|432:208,1,160,10|10,0:0|0:0,0:0:0:0:
464,288,208574,1,4,0:0:0:0:
352,280,208775,2,0,L|272:276,1,80,10|6,0:0|0:0,0:0:0:0:
176,336,209178,2,0,P|160:296|168:240,1,80,6|0,0:0|0:0,0:0:0:0:
236,128,209588,6,0,P|280:136|376:68,1,160,6|6,0:0|0:0,0:0:0:0:
240,132,210191,1,2,0:0:0:0:
240,132,210392,2,0,P|228:172|240:228,1,80,10|0,0:0|0:0,0:0:0:0:
128,304,210794,2,0,P|140:264|128:208,1,80,10|4,0:0|0:0,0:0:0:0:
72,136,211196,5,10,0:0:0:0:
140,44,211397,1,10,0:0:0:0:
232,108,211598,2,0,P|272:108|312:92,1,80,10|4,0:0|0:0,0:0:0:0:
408,148,212000,1,10,0:0:0:0:
324,224,212201,1,4,0:0:0:0:
380,320,212402,2,0,P|336:336|292:328,1,80,10|2,0:0|0:0,0:0:0:0:
152,352,212804,6,0,P|144:312|156:264,1,80,6|0,0:0|0:0,0:0:0:0:
48,232,213206,1,14,0:0:0:0:
144,176,213407,1,0,0:0:0:0:
32,112,213608,2,0,L|48:32,2,80,10|2|10,0:0|0:0|0:0,0:0:0:0:
124,84,214211,1,4,0:0:0:0:
220,160,214412,6,0,B|204:204|204:204|212:244,1,80,10|10,0:0|0:0,0:0:0:0:
336,284,214814,2,0,B|355:326|355:326|389:349,1,80,10|6,0:0|0:0,0:0:0:0:
436,196,215216,2,0,B|416:153|416:153|382:130,1,80,10|6,0:0|0:0,0:0:0:0:
260,92,215618,1,0,0:0:0:0:
164,220,215819,5,0,0:0:0:0:
