osu file format v14

[General]
AudioFilename: audio.mp3
AudioLeadIn: 0
PreviewTime: 126515
Countdown: 0
SampleSet: Soft
StackLeniency: 0.7
Mode: 0
LetterboxInBreaks: 0
WidescreenStoryboard: 0

[Editor]
Bookmarks: 27192,57025,85428,105971,127229,143664,177248,195111,207259,229410,250132,272997
DistanceSpacing: 1.8
BeatDivisor: 4
GridSize: 16
TimelineZoom: 3.699999

[Metadata]
Title:Airbag
TitleUnicode:Airbag
Artist:Radiohead
ArtistUnicode:Radiohead
Creator:moonpoint
Version:app & moonpoint's .
Source:
Tags:ok computer english art alternative rock app
BeatmapID:4460324
BeatmapSetID:2122619

[Difficulty]
HPDrainRate:5
CircleSize:4
OverallDifficulty:8
ApproachRate:9
SliderMultiplier:1.4
SliderTickRate:2

[Events]
//Background and Video events
0,0,"ok-computer-header.jpg",0,0
//Break Periods
//Storyboard Layer 0 (Background)
//Storyboard Layer 1 (Fail)
//Storyboard Layer 2 (Pass)
//Storyboard Layer 3 (Foreground)
//Storyboard Layer 4 (Overlay)
//Storyboard Sound Samples

[TimingPoints]
1469,357.274708523384,4,2,1,60,1,0
15759,-125,4,2,1,60,0,0
16474,-66.6666666666667,4,2,1,60,0,0
16831,-100,4,2,1,60,0,0
17903,-66.6666666666667,4,2,1,60,0,0
18260,-100,4,2,1,60,0,0
19332,-66.6666666666667,4,2,1,60,0,0
19689,-100,4,2,1,60,0,0
20225,-80,4,2,1,60,0,0
21476,-151.515151515152,4,2,1,60,0,0
23084,-100,4,2,1,60,0,0
25049,-66.6666666666667,4,2,1,60,0,0
25406,-100,4,2,1,60,0,0
25763,-151.515151515152,4,2,1,60,0,0
26478,-100,4,2,1,60,0,0
27192,-80,4,2,1,60,0,0
41126,-151.515151515152,4,2,1,60,0,0
41483,-80,4,2,1,60,0,0
46842,-151.515151515152,4,2,1,60,0,0
47200,-80,4,2,1,60,0,0
52559,-151.515151515152,4,2,1,60,0,0
52916,-80,4,2,1,60,0,0
55060,-66.6666666666667,4,2,1,60,0,0
58275,-200,4,2,1,60,0,0
59347,-80,4,2,1,60,0,0
59704,-66.6666666666667,4,2,1,60,0,0
60240,-100,4,2,1,60,0,0
60776,-57.1428571428571,4,2,1,60,0,0
61491,-57.1428571428571,4,2,1,70,0,0
62741,-80,4,2,1,70,0,0
63634,-66.6666666666667,4,2,1,70,0,0
63992,-80,4,2,1,70,0,0
66492,-66.6666666666667,4,2,1,70,0,0
66850,-133.333333333333,4,2,1,70,0,0
67386,-100,4,2,1,70,0,0
67922,-66.6666666666667,4,2,1,70,0,0
68279,-100,4,2,1,70,0,0
69708,-133.333333333333,4,2,1,70,0,0
72923,-100,4,2,1,50,0,0
73638,-66.6666666666667,4,2,1,50,0,0
74174,-100,4,2,1,50,0,0
75960,-80,4,2,1,50,0,0
77032,-100,4,2,1,50,0,0
77925,-133.333333333333,4,2,1,50,0,0
78640,-80,4,2,1,50,0,0
85428,-1000,4,2,1,50,0,0
92574,-200,4,2,1,50,0,0
92931,-66.6666666666667,4,2,1,60,0,0
93645,-80,4,2,1,60,0,0
94181,-66.6666666666667,4,2,1,60,0,0
96146,-100,4,2,1,60,0,0
96504,-66.6666666666667,4,2,1,60,0,0
107043,-57.1428571428571,4,2,1,60,0,0
107936,-75.187969924812,4,2,1,60,0,0
108472,-100,4,2,1,60,0,0
109723,-66.6666666666667,4,2,1,60,0,0
111152,-100,4,2,1,60,0,0
112402,-80,4,2,1,60,0,0
112581,-66.6666666666667,4,2,1,60,0,0
112938,-100,4,2,1,60,0,0
113653,-80,4,2,1,60,0,0
114189,-100,4,2,1,60,0,0
115439,-133.333333333333,4,2,1,60,0,0
116154,-80,4,2,1,60,0,0
116511,-66.6666666666667,4,2,1,60,0,0
117226,-100,4,2,1,60,0,0
117583,-66.6666666666667,4,2,1,60,0,0
118655,-100,4,2,1,60,0,0
121156,-75.187969924812,4,2,1,60,0,0
121513,-100,4,2,1,60,0,0
122049,-133.333333333333,4,2,1,60,0,0
122763,-100,4,2,1,60,0,0
123656,-66.6666666666667,4,2,1,60,0,0
124014,-100,4,2,1,60,0,0
124728,-75.187969924812,4,2,1,60,0,0
125086,-100,4,2,1,60,0,0
125621,-75.187969924812,4,2,1,60,0,0
127229,-75.187969924812,4,2,1,70,0,0
138662,-75.187969924812,4,2,1,60,0,0
139019,-400,4,2,1,30,0,0
143842,-400,4,2,1,60,0,0
144378,-100,4,2,1,60,0,0
145093,-66.6666666666667,4,2,1,60,0,0
145450,-100,4,2,1,60,0,0
146522,-80,4,2,1,60,0,0
146879,-66.6666666666667,4,2,1,60,0,0
147237,-100,4,2,1,60,0,0
147951,-80,4,2,1,60,0,0
148308,-66.6666666666667,4,2,1,60,0,0
149023,-80,4,2,1,60,0,0
149738,-66.6666666666667,4,2,1,60,0,0
150809,-100,4,2,1,60,0,0
151167,-80,4,2,1,60,0,0
151881,-66.6666666666667,4,2,1,60,0,0
153668,-100,4,2,1,60,0,0
154025,-80,4,2,1,60,0,0
154561,-100,4,2,1,60,0,0
155097,-66.6666666666667,4,2,1,60,0,0
156883,-100,4,2,1,60,0,0
157598,-80,4,2,1,60,0,0
159384,-100,4,2,1,60,0,0
160098,-80,4,2,1,60,0,0
160456,-100,4,2,1,60,0,0
162063,-66.6666666666667,4,2,1,60,0,0
162599,-80,4,2,1,60,0,0
162957,-100,4,2,1,60,0,0
163671,-66.6666666666667,4,2,1,60,0,0
164028,-80,4,2,1,60,0,0
165100,-100,4,2,1,60,0,0
165458,-66.6666666666667,4,2,1,60,0,0
167244,-50,4,2,1,60,0,0
167601,-55.5555555555556,4,2,1,60,0,0
167959,-62.5,4,2,1,60,0,0
168316,-71.4285714285714,4,2,1,60,0,0
169030,-62.5,4,2,1,60,0,0
169209,-55.5555555555556,4,2,1,60,0,0
169388,-50,4,2,1,60,0,0
170817,-66.6666666666667,4,2,1,60,0,0
171174,-80,4,2,1,60,0,0
171889,-66.6666666666667,4,2,1,60,0,0
172603,-80,4,2,1,60,0,0
174389,-66.6666666666667,4,2,1,60,0,0
175819,-100,4,2,1,60,0,0
176533,-66.6666666666667,4,2,1,60,0,0
176890,-80,4,2,1,60,0,0
177248,-66.6666666666667,4,2,1,60,0,0
178677,-66.6666666666667,4,2,1,70,0,0
178855,-57.1428571428571,4,2,1,70,0,0
187251,-80,4,2,1,70,0,0
195469,-66.6666666666667,4,2,1,70,0,0
197970,-80,4,2,1,70,0,0
198327,-66.6666666666667,4,2,1,70,0,0
198684,-80,4,2,1,70,0,0
199041,-66.6666666666667,4,2,1,70,0,0
199756,-57.1428571428571,4,2,1,70,0,0
200113,-80,4,2,1,70,0,0
200471,-66.6666666666667,4,2,1,70,0,0
201185,-57.1428571428571,4,2,1,70,0,0
202257,-66.6666666666667,4,2,1,70,0,0
202614,-80,4,2,1,70,0,0
202971,-57.1428571428571,4,2,1,70,0,0
203686,-100,4,2,1,70,0,0
204043,-66.6666666666667,4,2,1,70,0,0
206544,-66.6666666666667,4,2,1,70,0,0
206901,-80,4,2,1,70,0,0
207259,-80,4,2,1,60,0,0
207437,-80,4,2,1,50,0,0
208152,-80,4,2,1,5,0,0
212261,-80,4,2,1,30,0,0
212975,-80,4,2,1,50,0,0
226909,-100,4,2,1,50,0,0
229410,-100,4,2,1,60,0,0
232268,-80,4,2,1,60,0,0
232625,-66.6666666666667,4,2,1,60,0,0
232804,-57.1428571428571,4,2,1,60,0,0
233697,-80,4,2,1,60,0,0
234054,-66.6666666666667,4,2,1,60,0,0
234233,-57.1428571428571,4,2,1,60,0,0
235126,-66.6666666666667,4,2,1,60,0,0
235841,-100,4,2,1,60,0,0
236019,-80,4,2,1,60,0,0
237448,-100,4,2,1,60,0,0
237984,-66.6666666666667,4,2,1,60,0,0
238342,-80,4,2,1,60,0,0
238699,-100,4,2,1,60,0,0
239235,-57.1428571428571,4,2,1,60,0,0
239949,-100,4,2,1,60,0,0
240843,-66.6666666666667,4,2,1,60,0,0
241200,-80,4,2,1,60,0,0
242272,-100,4,2,1,60,0,0
242986,-66.6666666666667,4,2,1,60,0,0
243343,-80,4,2,1,60,0,0
245130,-66.6666666666667,4,2,1,60,0,0
245308,-80,4,2,1,60,0,0
246023,-57.1428571428571,4,2,1,60,0,0
246916,-80,4,2,1,60,0,0
247363,-66.6666666666667,4,2,1,60,0,0
247988,-80,4,2,1,60,0,0
248345,-66.6666666666667,4,2,1,60,0,0
252990,-40,4,2,1,70,0,0
253526,-66.6666666666667,4,2,1,70,0,0
254240,-40,4,2,1,70,0,0
254598,-66.6666666666667,4,2,1,70,0,0
259242,-40,4,2,1,70,0,0
261386,-66.6666666666667,4,2,1,70,0,0
261564,-40,4,2,1,70,0,0
262636,-66.6666666666667,4,2,1,70,0,0
262994,-40,4,2,1,70,0,0
264244,-66.6666666666667,4,2,1,70,0,0
264423,-40,4,2,1,70,0,0
265137,-50,4,2,1,70,0,0
265852,-40,4,2,1,70,0,0
267460,-100,4,2,1,70,0,0
268531,-66.6666666666667,4,2,1,70,0,0
268710,-40,4,2,1,70,0,0
269067,-66.6666666666667,4,2,1,70,0,0
272283,-50,4,2,1,70,0,0
272640,-100,4,2,1,70,0,0
272819,-200,4,2,1,70,0,0
272997,-555.555555555556,4,2,1,60,0,0
273087,-555.555555555556,4,1,1,5,0,0
284519,-555.555555555556,4,2,1,5,0,0
284668,-200,4,1,1,15,0,0

[Colours]
Combo1 : 220,222,222
Combo2 : 152,160,220

[HitObjects]
292,292,14777,5,2,0:3:0:0:
292,292,14866,2,0,L|250:291,1,35,8|0,0:0|0:0,0:0:0:0:
187,257,15045,2,0,L|146:254,1,35,10|0,0:0|0:0,0:0:0:0:
401,240,15224,1,8,0:0:0:0:
381,149,15402,1,8,0:3:0:0:
432,325,15581,1,8,0:0:0:0:
255,193,15759,6,0,P|258:149|269:71,1,112,6|0,1:2|0:0,0:0:0:0:
183,106,16295,1,0,1:2:0:0:
417,62,16474,2,0,L|474:55,1,52.5000020027161,8|0,0:2|0:0,0:0:0:0:
409,44,16831,2,0,L|479:-1,1,70,10|0,0:2|1:2,0:0:0:0:
268,83,17189,5,0,0:0:0:0:
196,27,17367,2,0,P|162:25|117:27,1,70,0|0,1:2|0:0,0:0:0:0:
282,0,17724,1,0,1:2:0:0:
96,129,17903,2,0,L|24:141,1,52.5000020027161,10|0,0:2|0:0,0:0:0:0:
104,138,18260,2,0,L|58:202,1,70,8|0,0:2|0:0,0:0:0:0:
171,197,18528,1,0,0:0:0:0:
171,197,18618,5,2,1:2:0:0:
244,180,18796,1,0,0:0:0:0:
318,197,18975,1,0,0:0:0:0:
392,188,19154,1,0,1:2:0:0:
270,297,19332,2,0,L|218:304,1,52.5000020027161,8|0,0:2|0:0,0:0:0:0:
274,320,19690,2,0,L|208:343,1,70,10|0,0:2|1:2,0:0:0:0:
150,269,20047,5,0,0:0:0:0:
342,354,20225,2,0,P|385:345|436:330,1,87.5,0|0,1:2|0:0,0:0:0:0:
270,297,20583,1,0,1:2:0:0:
195,345,20761,1,10,0:2:0:0:
212,186,20940,1,8,0:0:0:0:
359,241,21119,1,8,0:2:0:0:
488,192,21297,1,8,0:0:0:0:
401,153,21476,6,0,P|356:147|235:76,1,184.799999436035,6|8,1:2|0:2,0:0:0:0:
227,265,22548,2,0,P|203:263|178:246,1,46.1999998590088,8|0,0:2|1:2,0:0:0:0:
195,177,22905,1,0,0:0:0:0:
303,236,23084,2,0,P|324:239|356:250,1,35,8|0,0:0|0:0,0:0:0:0:
279,345,23262,1,4,0:0:0:0:
26,359,23620,5,8,0:2:0:0:
26,359,23798,1,8,0:0:0:0:
33,223,23977,1,2,0:3:0:0:
29,78,24155,1,8,0:0:0:0:
174,0,24334,5,0,1:2:0:0:
168,74,24513,1,0,0:0:0:0:
175,151,24691,1,0,0:0:0:0:
168,228,24870,1,0,1:2:0:0:
358,206,25049,2,0,L|432:196,1,52.5000020027161,8|0,0:2|0:0,0:0:0:0:
347,192,25406,2,0,L|403:133,1,70,8|0,0:2|1:2,0:0:0:0:
249,249,25763,6,0,P|257:208|272:107,1,138.599999577026,0|0,0:0|1:2,0:0:0:0:
179,190,26478,2,0,L|172:152,1,35,10|0,0:2|0:0,0:0:0:0:
112,235,26656,2,0,L|72:220,1,35
1,192,26835,1,10,0:2:0:0:
252,23,27192,1,4,1:2:0:0:
256,192,27282,12,0,29157,1:2:0:0:
163,174,29336,6,0,P|89:167|49:223,1,131.25,10|0,0:2|0:0,0:0:0:0:
46,216,29693,2,0,L|13:123,1,87.5,8|0,0:2|0:0,0:0:0:0:
10,331,30050,6,0,B|82:294|108:363|182:363,1,175,2|0,1:2|0:0,0:0:0:0:
266,308,30586,1,0,1:2:0:0:
429,380,30765,2,0,P|445:345|449:280,1,87.5,8|0,0:2|0:0,0:0:0:0:
271,366,31122,2,0,L|250:312,1,43.75,8|0,0:2|0:0,0:0:0:0:
337,284,31301,1,0,1:2:0:0:
506,97,31658,5,0,1:2:0:0:
479,130,31837,5,0,0:0:0:0:
422,141,32015,5,0,1:2:0:0:
359,108,32194,6,0,P|341:44|338:-14,1,87.5,8|0,0:2|0:0,0:0:0:0:
206,177,32551,2,0,P|188:113|185:55,1,87.5,8|0,0:2|0:0,0:0:0:0:
210,47,32819,1,0,0:0:0:0:
241,36,32909,5,4,1:2:0:0:
75,8,33087,2,0,L|64:77,1,43.75,2|0,0:0|0:0,0:0:0:0:
2,81,33266,2,0,B|-20:129|-20:129|9:152|37:192,1,131.25
27,203,33623,2,0,B|69:191|77:200|124:181,1,87.5,10|0,0:2|0:0,0:0:0:0:
279,132,33980,6,0,P|304:134|321:121,1,43.75,10|0,0:2|0:0,0:0:0:0:
384,169,34159,2,0,B|382:256|311:240|317:362,1,175,2|0,1:2|1:2,0:0:0:0:
421,293,34695,1,2,0:0:0:0:
286,209,34874,5,0,1:2:0:0:
218,250,35052,2,0,P|204:299|196:351,1,87.5,8|0,0:2|0:0,0:0:0:0:
67,195,35410,2,0,B|113:297|53:278|46:400,1,175,8|0,0:2|1:2,0:0:0:0:
50,361,37196,6,0,P|79:326|46:278,1,87.5,2|0,0:0|1:2,0:0:0:0:
175,384,37553,2,0,P|204:349|178:222,1,175,2|10,0:0|0:2,0:0:0:0:
0,132,38089,5,0,0:0:0:0:
91,195,38268,2,0,L|44:212,1,43.75,10|0,0:2|0:0,0:0:0:0:
155,160,38446,1,0,0:0:0:0:
274,216,38625,6,0,B|366:195|349:258|466:231,1,175,6|0,1:2|0:0,0:0:0:0:
393,136,39161,1,0,1:2:0:0:
457,94,39340,2,0,B|484:64|484:64|484:1,1,87.5,8|0,0:2|0:0,0:0:0:0:
318,99,39697,2,0,B|331:52,2,43.75,8|0|0,0:2|0:0|1:2,0:0:0:0:
152,165,40054,5,0,0:0:0:0:
236,183,40233,1,0,1:2:0:0:
152,165,40411,1,0,0:0:0:0:
236,183,40590,1,0,1:2:0:0:
60,221,40769,5,8,0:2:0:0:
389,149,41126,2,0,P|419:169|467:167,1,69.2999997885132,8|0,0:2|0:0,0:0:0:0:
512,207,41484,5,0,1:2:0:0:
256,192,41573,12,0,43448,1:2:0:0:
292,297,43627,5,2,0:0:0:0:
348,247,43806,5,8,0:2:0:0:
347,146,43984,5,10,0:2:0:0:
254,83,44163,5,8,0:0:0:0:
135,146,44341,6,0,P|139:239|125:348,1,175,4|0,1:2|0:0,0:0:0:0:
193,373,44877,1,0,1:2:0:0:
340,314,45056,2,0,B|374:337|374:337|453:325,1,87.5,8|0,0:2|0:0,0:0:0:0:
481,196,45413,2,0,B|447:223|447:223|393:204,1,87.5,8|0,0:2|1:2,0:0:0:0:
100,237,45771,5,0,0:0:0:0:
266,263,45949,1,0,1:2:0:0:
109,248,46128,1,0,0:0:0:0:
198,131,46306,1,0,1:2:0:0:
277,270,46485,6,0,L|343:296,1,43.75,10|0,0:2|0:0,0:0:0:0:
301,247,46842,2,0,P|337:247|382:228,1,69.2999997885132,10|0,0:2|0:0,0:0:0:0:
504,292,47200,5,4,1:2:0:0:
72,231,47557,1,2,0:0:0:0:
128,304,47736,1,2,1:2:0:0:
203,142,47914,2,0,P|173:150|92:166,1,87.5,8|0,0:2|0:0,0:0:0:0:
212,330,48271,1,8,0:2:0:0:
294,283,48450,1,0,1:2:0:0:
203,142,48629,5,0,0:0:0:0:
124,268,48807,1,0,1:2:0:0:
311,305,48986,1,0,0:0:0:0:
366,211,49165,1,0,1:2:0:0:
252,237,49343,5,8,0:2:0:0:
295,315,49522,5,0,0:0:0:0:
403,332,49701,5,8,0:2:0:0:
512,259,49879,5,0,1:0:0:0:
512,259,49969,1,0,0:0:0:0:
512,259,50058,2,0,B|484:169|545:181|509:67,1,175,6|2,1:2|0:0,0:0:0:0:
367,54,50594,1,2,1:2:0:0:
310,108,50772,6,0,B|298:149|298:149|320:206,1,87.5,8|2,0:2|0:0,0:0:0:0:
431,100,51130,2,0,B|447:58|447:58|435:17,2,87.5,8|2|0,0:2|1:2|0:0,0:0:0:0:
254,43,51666,1,0,1:2:0:0:
187,83,51844,2,0,P|186:153|173:205,1,87.5,0|0,0:0|1:2,0:0:0:0:
30,236,52202,6,0,L|14:285,1,43.75,8|0,0:2|0:0,0:0:0:0:
469,211,52559,2,0,P|466:255|439:283,1,69.2999997885132,8|0,0:2|0:0,0:0:0:0:
253,344,52916,5,4,1:2:0:0:
253,344,54345,2,0,P|310:368|385:345,1,131.25,2|0,0:0|0:0,0:0:0:0:
401,313,54702,2,0,L|388:250,1,43.75,2|0,0:0|0:0,0:0:0:0:
168,371,54881,5,0,1:2:0:0:
318,292,55060,2,0,B|301:193|393:213|374:79,1,210.000008010865,10|10,0:2|0:2,0:0:0:0:
140,226,55596,2,0,B|124:240|124:240|45:251,1,52.5000020027161
5,200,55774,5,6,1:2:0:0:
43,113,55953,5,2,0:0:0:0:
127,130,56132,5,2,0:0:0:0:
211,45,56310,5,2,1:2:0:0:
353,87,56489,6,0,L|518:135,1,157.500006008148,10|0,0:2|0:0,0:0:0:0:
504,130,56846,2,0,P|509:188|511:252,1,105.000004005432,8|0,0:2|1:2,0:0:0:0:
8,254,57918,2,0,P|3:196|1:132,1,105.000004005432,8|0,0:2|0:0,0:0:0:0:
254,130,58275,2,0,P|256:153|256:177,1,35,8|8,0:2|0:0,0:0:0:0:
153,159,58632,5,2,1:2:0:0:
73,106,58811,5,2,0:0:0:0:
198,70,58990,5,2,0:0:0:0:
251,202,59168,5,2,1:2:0:0:
340,149,59347,2,0,P|393:147|488:110,1,131.25,10|0,0:2|0:0,0:0:0:0:
454,96,59704,2,0,L|433:164,1,52.5000020027161,8|0,0:2|0:0,0:0:0:0:
410,249,59883,1,0,1:2:0:0:
256,192,60062,5,0,0:0:0:0:
190,243,60240,2,0,P|141:259|141:344,1,140,0|0,1:2|1:2,0:0:0:0:
389,339,60776,2,0,P|450:336|511:336,1,122.500001168251,10|8,0:2|0:0,0:0:0:0:
313,368,61133,1,10,0:2:0:0:
299,220,61312,1,8,0:3:0:0:
298,77,61491,1,4,1:2:0:0:
319,81,61669,5,2,0:0:0:0:
302,97,61848,1,0,0:0:0:0:
291,57,62027,1,2,1:2:0:0:
363,112,62205,1,8,0:2:0:0:
240,157,62384,1,0,0:0:0:0:
157,17,62562,1,8,0:2:0:0:
5,50,62741,6,0,P|71:46|125:130,1,175,2|0,1:2|1:2,0:0:0:0:
197,166,63277,1,0,0:0:0:0:
0,192,63456,1,0,1:2:0:0:
258,224,63634,2,0,L|327:215,1,52.5000020027161,8|0,0:2|0:0,0:0:0:0:
244,237,63992,2,0,B|312:248|312:248|342:305,1,131.25,10|0,0:2|0:0,0:0:0:0:
399,249,64349,5,0,1:2:0:0:
395,52,64527,1,0,0:0:0:0:
380,60,64885,1,0,1:2:0:0:
411,239,65063,1,8,0:2:0:0:
426,230,65421,1,8,0:2:0:0:
361,69,65599,1,2,1:2:0:0:
500,206,65778,5,0,0:0:0:0:
394,148,65957,1,0,1:2:0:0:
288,100,66135,1,0,0:0:0:0:
368,172,66314,1,0,1:2:0:0:
185,80,66492,2,0,P|185:51|188:27,1,52.5000020027161,10|0,0:2|0:0,0:0:0:0:
326,299,66850,2,0,P|336:336|330:374,1,78.7500030040742,10|0,0:2|0:0,0:0:0:0:
227,340,67207,5,4,1:2:0:0:
434,382,67386,2,0,P|468:353|473:241,1,140,2|2,0:0|1:2,0:0:0:0:
315,293,67922,1,8,0:2:0:0:
205,219,68100,1,0,0:0:0:0:
297,306,68279,2,0,P|306:285|300:228,1,70,10|2,0:2|1:2,0:0:0:0:
395,202,68636,5,0,0:0:0:0:
237,347,68815,2,0,P|174:367|102:363,1,140,0|0,1:2|1:2,0:0:0:0:
256,139,69351,1,8,0:2:0:0:
256,139,69708,2,0,P|257:109|257:74,1,52.5000020027161,10|2,0:2|0:0,0:0:0:0:
255,267,70065,5,0,1:2:0:0:
250,234,70244,1,0,0:0:0:0:
275,262,70423,1,0,0:0:0:0:
226,243,70601,1,0,1:2:0:0:
272,231,70780,1,8,0:2:0:0:
231,279,70958,1,0,0:0:0:0:
251,151,71137,1,8,0:2:0:0:
259,359,71316,1,0,1:2:0:0:
357,171,71494,5,0,0:0:0:0:
507,274,71673,1,10,1:2:0:0:
431,308,71852,1,8,0:3:0:0:
428,119,72030,1,8,0:3:0:0:
499,178,72209,1,8,0:2:0:0:
197,234,72388,5,8,0:3:0:0:
254,110,72566,5,10,0:3:0:0:
324,218,72745,5,8,0:0:0:0:
69,230,72923,6,0,P|31:215|18:117,1,140,4|0,1:2|0:0,0:0:0:0:
89,91,73459,1,0,1:2:0:0:
288,162,73638,2,0,L|339:172,1,52.5000020027161,8|0,0:2|0:0,0:0:0:0:
278,175,73995,2,0,L|312:214,1,52.5000020027161,8|0,0:2|0:0,0:0:0:0:
159,296,74174,6,0,P|150:163|259:86,1,280,2|0,1:2|1:2,0:0:0:0:
300,120,74978,1,0,0:0:0:0:
269,158,75067,1,8,0:2:0:0:
246,26,75246,1,8,0:0:0:0:
382,129,75424,1,0,0:0:0:0:
252,244,75603,1,8,0:2:0:0:
349,225,75782,5,0,1:2:0:0:
416,298,75960,2,0,P|461:290|496:266,2,87.5,0|0|0,0:0|0:0|1:2,0:0:0:0:
356,365,76496,2,0,P|303:350|253:356,1,87.5,8|0,0:2|0:0,0:0:0:0:
220,54,76853,1,8,0:2:0:0:
291,105,77032,2,0,P|274:163|67:215,1,280,2|0,1:2|1:2,0:0:0:0:
51,322,77925,2,0,P|19:314|-8:312,1,52.5000020027161,0|8,0:0|0:0,0:0:0:0:
115,373,78283,1,8,0:2:0:0:
105,203,78461,1,8,0:0:0:0:
99,47,78640,1,2,1:2:0:0:
246,228,78818,5,2,0:0:0:0:
293,40,78997,2,0,P|303:57|305:101,1,43.75,2|0,0:0|0:0,0:0:0:0:
257,140,79176,1,2,1:2:0:0:
395,164,79354,2,0,P|444:134|492:145,1,87.5,10|0,0:2|0:0,0:0:0:0:
298,340,79712,2,0,P|275:354|204:345,1,87.5,8|0,0:2|1:2,0:0:0:0:
386,333,80069,1,0,0:0:0:0:
330,266,80248,2,0,P|319:243|326:192,1,43.75,0|0,1:2|0:0,0:0:0:0:
356,102,80426,1,0,0:0:0:0:
286,156,80605,1,0,1:2:0:0:
61,118,80783,2,0,P|37:95|65:19,1,87.5,8|0,0:2|0:0,0:0:0:0:
78,248,81141,2,0,P|116:236|141:254,1,43.75,2|0,0:3|0:0,0:0:0:0:
180,298,81319,1,8,0:0:0:0:
259,21,81498,2,0,P|272:62|233:137,1,131.25,4|0,1:2|0:0,0:0:0:0:
194,198,81855,1,0,0:0:0:0:
30,187,82034,1,0,1:2:0:0:
248,262,82213,2,0,P|260:243|278:231,1,43.75,8|0,0:2|0:0,0:0:0:0:
352,223,82391,1,0,0:0:0:0:
380,31,82570,2,0,P|395:48|448:72,1,43.75,8|0,0:2|0:0,0:0:0:0:
491,59,82748,1,0,1:2:0:0:
303,10,82927,1,0,0:0:0:0:
342,214,83106,2,0,P|383:242|456:230,1,87.5,0|0,1:2|0:0,0:0:0:0:
481,299,83463,1,0,1:2:0:0:
266,204,83642,2,0,P|228:175|134:191,1,131.25,8|0,0:2|0:0,0:0:0:0:
320,147,83999,1,0,0:0:0:0:
123,279,84178,2,0,P|143:296|193:298,1,43.75,8|0,0:0|0:0,0:0:0:0:
255,362,84356,5,0,0:0:0:0:
255,362,84535,1,0,0:0:0:0:
255,362,84714,1,0,0:0:0:0:
333,364,85071,5,0,0:0:0:0:
411,361,85428,6,0,L|453:361,1,42
384,336,86857,2,0,L|393:335,1,7
453,354,87214,6,0,L|411:361,1,42
376,359,89001,2,0,L|386:347,1,14
414,317,90073,6,0,L|423:360,1,42
444,352,92038,2,0,L|439:347,2,7,0|2|0,0:0|0:0|0:0,0:0:0:0:
395,359,92574,6,0,P|386:345|389:314,1,35,2|0,0:0|0:0,0:0:0:0:
399,320,92842,1,0,0:0:0:0:
469,298,92931,6,0,P|477:190|509:72,1,210.000008010865,4|0,1:2|0:0,0:0:0:0:
381,2,93467,1,0,1:2:0:0:
449,135,93645,2,0,B|435:213|459:147|439:258,1,87.5,8|0,0:2|0:0,0:0:0:0:
208,287,94003,2,0,B|189:286|189:286|209:307,1,43.75,8|0,0:2|0:0,0:0:0:0:
293,369,94181,6,0,B|276:363|415:376|377:229|319:205,1,210.000008010865,0|8,1:2|0:0,0:0:0:0:
57,268,94717,2,0,B|17:295|27:346|92:368,1,105.000004005432,0|0,0:0|1:2,0:0:0:0:
280,283,95074,5,0,1:2:0:0:
119,162,95253,5,8,0:0:0:0:
267,74,95432,5,8,0:2:0:0:
239,208,95610,5,8,0:0:0:0:
351,182,95789,5,0,1:2:0:0:
418,201,95968,2,0,L|487:219,1,52.5000020027161
399,214,96146,2,0,L|406:254,1,35,2|0,0:0|0:0,0:0:0:0:
361,278,96325,1,0,1:2:0:0:
468,81,96504,6,0,B|453:101|453:101|251:164,1,210.000008010865,8|8,0:2|0:2,0:0:0:0:
479,241,97039,1,0,1:2:0:0:
221,229,97218,6,0,P|166:229|105:199,1,105.000004005432,0|0,0:0|1:2,0:0:0:0:
308,347,97575,2,0,L|204:364,1,105.000004005432,0|0,0:0|1:2,0:0:0:0:
23,142,97933,5,8,0:2:0:0:
479,241,98290,2,0,L|493:325,1,52.5000020027161,8|0,0:2|0:0,0:0:0:0:
479,241,98469,2,0,L|528:299,1,52.5000020027161
429,187,98647,6,0,P|378:217|329:213,1,105.000004005432,6|0,1:2|0:0,0:0:0:0:
311,196,98915,1,0,0:0:0:0:
311,196,99004,2,0,P|286:200|276:178,1,52.5000020027161,2|0,0:0|0:0,0:0:0:0:
245,111,99183,2,0,P|220:115|210:93,1,52.5000020027161,2|0,1:2|0:0,0:0:0:0:
103,17,99362,6,0,L|130:239,1,210.000008010865,8|8,0:2|0:2,0:0:0:0:
7,335,99898,1,2,1:2:0:0:
87,379,100076,6,0,L|69:270,1,105.000004005432,0|0,0:0|1:2,0:0:0:0:
286,279,100434,2,0,P|311:329|225:372,1,157.500006008148
198,349,100791,5,8,0:2:0:0:
128,225,100970,1,0,0:0:0:0:
149,225,101059,1,0,0:0:0:0:
168,213,101148,1,0,0:0:0:0:
377,230,101327,5,8,0:0:0:0:
304,94,101505,2,0,B|350:63|241:-30|261:367,1,315.000012016297,0|0,1:2|1:2,0:0:0:0:
400,219,102220,1,8,0:2:0:0:
377,230,102577,2,0,L|358:298,1,52.5000020027161,8|0,0:2|0:0,0:0:0:0:
309,180,102756,6,0,L|290:248,1,52.5000020027161,0|0,1:2|0:0,0:0:0:0:
213,255,102935,2,0,P|166:294|107:284,1,105.000004005432,2|0,0:0|1:2,0:0:0:0:
81,292,103202,1,0,0:0:0:0:
45,256,103292,2,0,B|42:210|3:211|15:144,1,105.000004005432,2|0,0:0|1:2,0:0:0:0:
281,55,103649,6,0,L|292:-5,1,52.5000020027161,10|0,0:2|0:0,0:0:0:0:
230,31,103828,2,0,L|239:82,1,52.5000020027161
147,41,104006,6,0,B|296:83|205:42|353:84,2,210.000008010865,10|6|0,0:2|1:2|0:0,0:0:0:0:
11,189,104900,1,0,1:2:0:0:
2,200,105078,1,8,0:2:0:0:
95,167,105257,1,0,0:0:0:0:
177,257,105435,6,0,L|189:344,1,52.5000020027161,8|0,0:2|0:0,0:0:0:0:
113,289,105614,2,0,B|121:342|148:323|203:387,1,105.000004005432,0|0,1:2|0:0,0:0:0:0:
381,267,105971,2,0,B|355:261|355:261|313:281,1,52.5000020027161,0|0,1:2|0:0,0:0:0:0:
372,337,106150,2,0,P|310:306|272:262,1,105.000004005432,0|0,0:0|1:2,0:0:0:0:
276,77,106507,5,8,0:2:0:0:
350,153,106686,1,0,0:0:0:0:
337,160,106775,1,0,0:0:0:0:
335,143,106865,1,0,0:0:0:0:
452,10,107043,2,0,L|512:0,1,61.2500005841255,8|0,0:2|0:0,0:0:0:0:
360,44,107222,5,0,1:2:0:0:
276,77,107400,5,0,0:0:0:0:
190,87,107579,5,0,0:0:0:0:
119,52,107758,5,0,1:2:0:0:
220,164,107936,2,0,P|232:208|238:255,1,93.0999961643983,8|0,0:2|0:0,0:0:0:0:
119,52,108294,5,8,0:2:0:0:
141,152,108472,2,0,P|125:189|63:283,1,140,0|0,1:2|1:2,0:0:0:0:
18,212,109008,2,0,P|60:207|100:203,1,70,0|0,0:0|1:2,0:0:0:0:
396,192,109365,1,10,0:2:0:0:
376,211,109455,2,0,L|296:202,1,70
276,134,109723,2,0,L|371:274,1,157.500006008148,10|0,0:2|0:0,0:0:0:0:
389,346,110080,5,4,1:2:0:0:
135,315,110437,1,0,0:0:0:0:
9,359,110616,1,0,1:2:0:0:
263,338,110795,2,0,P|279:306|301:233,1,105.000004005432,8|0,0:2|0:0,0:0:0:0:
245,333,111152,1,8,0:2:0:0:
217,200,111330,2,0,P|206:147|160:53,1,140,0|0,1:2|1:2,0:0:0:0:
381,184,111866,2,0,P|415:193|455:200,1,70,0|0,0:0|1:2,0:0:0:0:
304,233,112224,1,10,0:2:0:0:
421,110,112402,2,0,P|410:85|398:59,1,43.75
336,103,112581,2,0,P|416:117|466:120,1,105.000004005432,2|8,0:0|0:2,0:0:0:0:
144,230,112938,6,0,P|63:202|9:157,1,140,0|0,1:2|0:0,0:0:0:0:
149,316,113474,1,0,1:2:0:0:
187,48,113653,2,0,P|168:84|175:137,1,87.5,8|0,0:2|0:0,0:0:0:0:
407,135,114010,1,8,0:2:0:0:
250,121,114189,1,0,1:2:0:0:
250,121,114546,6,0,P|251:168|254:276,1,140,0|0,1:2|1:2,0:0:0:0:
325,294,114993,1,0,0:0:0:0:
325,294,115082,1,8,0:2:0:0:
156,332,115260,1,2,0:0:0:0:
432,361,115439,2,0,L|504:375,1,52.5000020027161,10|2,0:2|0:0,0:0:0:0:
359,369,115707,1,0,0:0:0:0:
359,369,115797,5,4,1:2:0:0:
472,292,115975,1,0,0:0:0:0:
290,217,116154,2,0,P|284:195|280:174,1,43.75
380,180,116332,2,0,P|403:188|428:197,1,43.75,2|0,1:2|0:0,0:0:0:0:
361,260,116511,2,0,P|232:251|176:246,1,157.500006008148,8|0,0:2|0:0,0:0:0:0:
280,326,116868,1,10,0:2:0:0:
179,141,117047,1,2,1:2:0:0:
103,187,117226,6,0,P|68:190|33:185,1,70,0|8,0:0|1:2,0:0:0:0:
256,1,117583,2,0,P|312:47|297:165,1,157.500006008148
390,166,117940,1,8,0:2:0:0:
178,244,118119,1,8,0:0:0:0:
237,91,118297,1,0,0:0:0:0:
237,91,118476,2,0,L|183:86,1,52.5000020027161,8|0,0:2|0:0,0:0:0:0:
275,293,118655,6,0,L|428:310,1,140,4|0,1:2|0:0,0:0:0:0:
473,257,119101,1,0,0:0:0:0:
473,257,119191,1,0,1:2:0:0:
469,40,119369,1,8,0:2:0:0:
392,229,119726,5,8,0:2:0:0:
387,42,119905,1,2,1:2:0:0:
316,190,120084,5,2,0:0:0:0:
237,192,120262,1,0,1:2:0:0:
159,194,120441,1,2,0:0:0:0:
94,147,120620,1,0,1:2:0:0:
9,291,120798,2,0,P|44:291|77:310,1,70,8|2,0:2|0:0,0:0:0:0:
260,268,121156,2,0,P|271:315|201:376,1,139.649994246598,2|0,0:3|0:0,0:0:0:0:
179,303,121513,2,0,P|213:287|250:286,1,70,2|0,1:2|0:0,0:0:0:0:
327,103,121870,1,2,0:0:0:0:
411,281,122049,2,0,P|441:289|477:316,2,52.5000020027161,0|8|0,1:2|0:2|0:0,0:0:0:0:
306,342,122585,5,8,0:2:0:0:
214,357,122763,2,0,P|169:307|183:241,1,140,0|0,1:2|1:2,0:0:0:0:
183,241,123478,1,0,1:2:0:0:
262,96,123656,2,0,L|251:27,1,52.5000020027161,8|0,0:2|0:0,0:0:0:0:
273,103,124014,2,0,L|284:15,1,70,8|0,0:2|0:0,0:0:0:0:
168,120,124371,6,0,P|127:133|82:130,1,70,0|0,1:2|0:0,0:0:0:0:
331,178,124728,2,0,P|353:168|375:164,1,46.5499980821992
443,193,124907,1,0,1:2:0:0:
210,236,125086,2,0,P|185:282|210:380,1,140,8|8,0:2|0:2,0:0:0:0:
371,311,125621,2,0,P|394:264|366:128,1,186.199992328797,0|0,1:2|1:2,0:0:0:0:
258,14,126157,5,0,0:0:0:0:
164,83,126336,1,0,1:2:0:0:
52,22,126515,1,10,0:2:0:0:
185,77,126693,1,0,0:0:0:0:
161,105,126783,1,0,0:0:0:0:
150,67,126872,1,2,0:0:0:0:
175,226,127051,1,8,0:2:0:0:
251,190,127229,2,0,L|266:253,1,46.5499980821992,4|2,1:2|0:0,0:0:0:0:
356,232,127408,6,0,P|341:282|380:342,1,93.0999961643983,2|0,0:0|0:0,0:0:0:0:
191,356,127676,2,0,B|147:358|151:380|67:322,1,93.0999961643983
57,320,127944,1,8,0:2:0:0:
57,320,128033,1,0,0:0:0:0:
27,338,128122,1,0,3:0:0:0:
66,353,128212,1,0,0:0:0:0:
101,344,128301,1,8,0:2:0:0:
123,213,128480,6,0,B|193:181|210:287|294:261,1,186.199992328797,2|0,1:2|1:2,0:0:0:0:
455,245,128926,1,0,0:0:0:0:
506,219,129016,2,0,B|458:257|396:203,1,93.0999961643983,0|0,0:0|1:2,0:0:0:0:
264,27,129373,2,0,L|304:180,1,139.649994246598,8|0,0:2|0:0,0:0:0:0:
269,21,129730,2,0,L|320:131,1,93.0999961643983,10|0,0:2|0:0,0:0:0:0:
84,31,130087,2,0,P|58:77|135:141,1,139.649994246598,0|0,1:2|0:0,0:0:0:0:
156,93,130445,1,0,0:0:0:0:
13,155,130623,5,0,1:2:0:0:
89,23,130802,2,0,L|140:133,1,93.0999961643983,8|0,0:2|0:0,0:0:0:0:
66,63,131159,2,0,P|80:133|117:173,1,93.0999961643983,8|2,0:2|1:2,0:0:0:0:
248,198,131516,5,0,0:0:0:0:
172,177,131695,1,0,1:2:0:0:
331,194,131874,5,0,0:0:0:0:
172,177,132052,1,0,1:2:0:0:
202,285,132231,6,0,P|133:281|78:349,1,139.649994246598,10|0,0:2|0:0,0:0:0:0:
208,294,132588,2,0,P|146:310|120:345,1,93.0999961643983,10|0,0:2|0:0,0:0:0:0:
192,372,132856,1,0,0:0:0:0:
192,372,132946,2,0,L|256:380,1,46.5499980821992,4|0,1:2|0:0,0:0:0:0:
325,339,133124,6,0,B|352:364|318:339|423:294,1,93.0999961643983,2|0,0:0|0:0,0:0:0:0:
446,254,133392,2,0,B|447:228|592:28|499:531|410:425|441:273,1,325.849986575394,2|10,0:0|0:2,0:0:0:0:
204,154,134196,6,0,B|226:166|243:144|243:144|286:232|381:237,1,186.199992328797,2|0,1:2|1:2,0:0:0:0:
204,154,134732,2,0,B|177:162|162:129|162:129|204:159|221:207,1,139.649994246598
252,262,135089,6,0,B|245:278|245:278|246:290|246:290|230:329,1,46.5499980821992,8|0,0:2|0:0,0:0:0:0:
252,50,135447,2,0,L|274:-17,1,46.5499980821992,10|0,0:2|0:0,0:0:0:0:
287,35,135625,2,0,L|334:-7,1,46.5499980821992,2|0,0:0|0:0,0:0:0:0:
231,285,135804,6,0,P|146:298|41:390,1,186.199992328797,4|0,1:2|0:0,0:0:0:0:
226,178,136340,1,0,1:2:0:0:
360,223,136518,2,0,L|466:259,1,93.0999961643983,8|0,0:2|0:0,0:0:0:0:
131,166,136876,2,0,B|107:172|107:172|52:139,1,46.5499980821992,8|0,0:2|0:0,0:0:0:0:
32,152,137054,5,0,1:2:0:0:
174,96,137233,5,8,0:3:0:0:
281,97,137412,5,10,1:2:0:0:
356,141,137590,5,8,0:3:0:0:
356,141,137769,5,8,0:3:0:0:
356,141,137947,5,8,0:2:0:0:
356,141,138126,5,8,0:3:0:0:
423,115,138305,5,10,0:3:0:0:
512,169,138483,5,8,0:0:0:0:
512,280,138662,5,6,1:2:0:0:
33,312,139019,6,0,P|23:339|28:348,6,35
103,338,141342,5,0,0:0:0:0:
159,290,141520,1,0,0:0:0:0:
90,266,141699,1,0,0:0:0:0:
33,312,141877,6,0,P|23:339|28:348,5,35
116,376,143842,5,8,0:0:0:0:
250,290,144021,1,8,0:0:0:0:
126,184,144200,1,10,0:2:0:0:
340,269,144378,2,0,L|392:257,1,35,2|0,1:2|0:0,0:0:0:0:
340,269,144736,2,0,P|363:225|374:185,1,70,0|0,0:0|1:0,0:0:0:0:
252,33,145093,2,0,L|257:85,1,52.5000020027161,8|0,0:0|0:0,0:0:0:0:
259,28,145450,2,0,L|279:97,1,70,8|2,0:0|1:2,0:0:0:0:
204,99,145718,1,0,0:0:0:0:
196,99,145807,5,0,0:0:0:0:
272,233,145986,1,0,1:0:0:0:
197,176,146165,1,0,0:0:0:0:
343,217,146343,1,0,1:0:0:0:
248,341,146522,2,0,P|200:351|145:350,1,87.5,10|0,0:2|0:0,0:0:0:0:
313,379,146790,1,0,0:0:0:0:
330,368,146879,2,0,P|380:354|432:349,1,105.000004005432,10|0,0:0|0:0,0:0:0:0:
496,290,147147,1,0,0:0:0:0:
478,283,147237,6,0,P|463:238|450:137,1,140,2|0,1:2|0:0,0:0:0:0:
256,193,147772,1,0,1:0:0:0:
390,283,147951,2,0,B|354:254|354:254|304:259,1,87.5,8|0,0:0|0:0,0:0:0:0:
108,174,148308,2,0,P|165:158|209:126,1,105.000004005432,8|0,0:0|1:0,0:0:0:0:
261,77,148576,1,0,0:0:0:0:
250,69,148666,1,2,0:0:0:0:
433,38,148844,1,0,1:0:0:0:
173,64,149023,6,0,L|65:30,1,87.5,2|0,0:3|1:0,0:0:0:0:
124,33,149291,1,0,0:0:0:0:
118,72,149380,1,8,0:0:0:0:
79,328,149559,1,8,0:0:0:0:
15,263,149738,2,0,L|177:243,1,157.500006008148,2|2,0:3|0:0,0:0:0:0:
257,192,150095,5,2,1:2:0:0:
257,192,150452,1,0,0:0:0:0:
256,111,150631,1,0,1:0:0:0:
313,276,150809,2,0,P|347:301|410:323,1,105,10|0,0:0|0:0,0:0:0:0:
411,291,151167,2,0,P|399:293|361:318,1,43.75,10|0,0:0|0:0,0:0:0:0:
345,384,151345,1,0,1:0:0:0:
210,257,151524,2,0,P|206:311|205:371,1,87.5,2|0,0:0|1:0,0:0:0:0:
363,209,151881,2,0,P|369:146|372:52,1,157.500006008148,2|0,0:3|0:0,0:0:0:0:
445,82,152238,1,8,0:0:0:0:
289,50,152417,1,8,0:0:0:0:
181,103,152596,1,2,0:0:0:0:
75,51,152774,1,8,0:0:0:0:
75,51,152953,5,0,1:0:0:0:
257,241,153489,1,0,1:0:0:0:
333,232,153668,2,0,P|369:227|406:214,1,70,8|0,0:0|0:0,0:0:0:0:
150,265,154025,2,0,P|114:275|70:307,1,87.5,10|0,0:0|1:0,0:0:0:0:
215,175,154382,1,0,0:0:0:0:
156,282,154561,2,0,P|137:323|134:369,1,70,0|2,1:0|0:0,0:0:0:0:
117,195,154918,1,0,1:0:0:0:
265,371,155097,2,0,P|319:372|440:300,1,157.500006008148,8|0,0:0|0:0,0:0:0:0:
471,272,155454,2,0,L|406:250,1,52.5000020027161,10|0,0:0|0:0,0:0:0:0:
310,217,155633,2,0,L|378:197,1,52.5000020027161,2|0,1:3|0:0,0:0:0:0:
509,153,155811,5,2,1:2:0:0:
329,74,156168,1,2,0:0:0:0:
329,74,156258,1,0,0:0:0:0:
329,74,156347,1,0,1:0:0:0:
231,182,156526,2,0,L|163:169,1,52.5000020027161,10|0,0:0|0:0,0:0:0:0:
138,58,156704,2,0,L|191:68,1,52.5000020027161
216,206,156883,2,0,L|117:219,1,70,10|0,0:2|1:0,0:0:0:0:
305,162,157240,5,0,0:0:0:0:
72,94,157419,1,0,1:0:0:0:
172,296,157598,2,0,P|215:311|311:302,1,131.25
375,325,157955,1,8,0:0:0:0:
350,70,158133,1,8,0:0:0:0:
177,156,158312,2,0,P|225:183|322:197,1,131.25,2|0,0:0|0:0,0:0:0:0:
366,235,158669,5,2,1:2:0:0:
492,204,159027,1,2,0:0:0:0:
492,204,159116,1,0,0:0:0:0:
492,204,159205,1,0,1:0:0:0:
303,145,159384,2,0,P|247:155|167:182,1,140,10|10,0:0|0:0,0:0:0:0:
197,277,159920,1,0,1:0:0:0:
302,129,160098,2,0,P|249:116|152:103,1,131.25,4|0,1:2|0:0,0:0:0:0:
106,66,160456,2,0,P|114:43|105:5,1,35,2|0,0:3|0:0,0:0:0:0:
49,176,160634,1,0,1:0:0:0:
200,50,160813,5,8,0:0:0:0:
58,250,160992,1,8,0:0:0:0:
284,137,161170,1,10,0:3:0:0:
119,302,161349,1,8,0:0:0:0:
347,348,161528,6,0,P|396:332|458:240,1,140,2|0,1:2|0:0,0:0:0:0:
474,299,161974,1,0,0:0:0:0:
440,312,162063,2,0,P|415:303|394:287,1,52.5000020027161,0|0,1:0|0:0,0:0:0:0:
251,193,162242,2,0,L|269:128,1,52.5000020027161,8|0,0:0|0:0,0:0:0:0:
234,191,162599,2,0,L|242:86,1,87.5,8|0,0:0|1:2,0:0:0:0:
214,288,162957,2,0,L|209:329,1,35,2|0,0:0|0:0,0:0:0:0:
154,148,163135,1,0,1:0:0:0:
14,228,163314,2,0,P|82:202|105:197,1,70,0|0,0:0|1:0,0:0:0:0:
346,167,163671,2,0,L|418:173,1,52.5000020027161,8|0,0:2|0:0,0:0:0:0:
342,154,164028,2,0,P|420:142|478:136,1,131.25,10|0,0:0|0:0,0:0:0:0:
361,76,164386,5,2,1:2:0:0:
267,105,164564,5,0,0:0:0:0:
267,105,164654,1,0,0:0:0:0:
267,105,164743,1,0,0:0:0:0:
203,29,164922,5,0,1:0:0:0:
284,228,165100,2,0,P|288:267|250:321,1,105,8|0,0:0|0:0,0:0:0:0:
199,377,165458,2,0,P|140:367|100:325,1,105.000004005432,8|0,0:0|1:0,0:0:0:0:
115,267,165726,1,0,0:0:0:0:
125,252,165815,2,0,P|148:232|198:226,1,52.5000020027161,2|0,0:0|0:0,0:0:0:0:
177,331,165994,2,0,P|163:351|117:370,1,52.5000020027161,0|0,1:0|0:0,0:0:0:0:
61,310,166172,2,0,P|36:291|21:257,1,52.5000020027161
108,110,166351,1,0,1:0:0:0:
278,199,166529,1,8,0:0:0:0:
185,257,166708,1,0,0:0:0:0:
151,240,166797,1,0,0:0:0:0:
157,204,166887,1,0,0:0:0:0:
256,35,167065,1,8,0:0:0:0:
407,224,167244,6,0,P|448:198|469:152,1,70,2|0,1:2|0:0,0:0:0:0:
401,234,167601,2,0,P|428:251|479:263,1,62.9999980773926
389,232,167959,2,0,P|390:263|408:304,1,56,10|0,0:0|0:0,0:0:0:0:
375,224,168316,2,0,P|356:227|320:246,1,48.9999985046387,8|0,0:0|0:0,0:0:0:0:
265,302,168494,1,0,1:0:0:0:
265,302,168673,1,2,0:0:0:0:
273,167,168852,6,0,P|287:143|290:108,1,48.9999985046387,0|0,1:0|0:0,0:0:0:0:
192,121,169030,2,0,P|181:98|148:70,1,56,2|0,0:0|0:0,0:0:0:0:
92,165,169209,2,0,P|55:181|30:210,1,62.9999980773926,0|0,1:0|0:0,0:0:0:0:
135,279,169388,2,0,P|131:313|144:356,1,70,10|0,0:0|0:0,0:0:0:0:
363,339,169566,1,8,0:0:0:0:
179,206,169745,1,10,0:0:0:0:
417,258,169924,1,8,0:0:0:0:
256,73,170102,5,2,1:2:0:0:
342,116,170281,1,0,0:0:0:0:
320,30,170459,1,0,0:0:0:0:
410,79,170638,1,0,1:0:0:0:
177,14,170817,2,0,L|81:21,1,52.5000020027161,10|0,0:0|0:0,0:0:0:0:
181,24,171174,2,0,P|130:39|88:49,1,87.5,10|0,0:0|1:0,0:0:0:0:
0,0,171531,5,0,0:0:0:0:
184,118,171710,2,0,L|227:118,1,43.75,8|0,0:0|0:0,0:0:0:0:
276,50,171889,2,0,P|258:112|226:207,1,157.500006008148,2|0,0:0|0:0,0:0:0:0:
291,244,172246,5,8,0:0:0:0:
151,244,172424,1,8,0:0:0:0:
46,191,172603,2,0,P|64:253|87:332,1,131.25,2|0,0:3|0:0,0:0:0:0:
160,320,172960,5,2,1:2:0:0:
256,320,173139,1,0,0:0:0:0:
256,320,173228,1,0,0:0:0:0:
256,320,173318,1,2,0:0:0:0:
352,320,173496,1,0,1:0:0:0:
432,128,173675,5,10,0:0:0:0:
352,128,173854,1,0,0:0:0:0:
352,128,173943,1,0,0:0:0:0:
352,128,174032,1,10,0:2:0:0:
272,128,174211,1,0,1:0:0:0:
339,217,174389,6,0,P|357:213|403:207,1,52.5000020027161,4|0,0:2|0:0,0:0:0:0:
129,278,174568,1,8,1:2:0:0:
393,282,174747,2,0,P|442:296|528:325,1,105.000004005432,2|0,0:3|1:0,0:0:0:0:
448,376,175015,1,0,0:0:0:0:
448,376,175104,1,8,0:0:0:0:
464,193,175283,1,8,0:0:0:0:
478,25,175461,1,2,0:0:0:0:
459,188,175640,1,8,0:0:0:0:
283,144,175819,6,0,P|261:80|258:5,1,140,2|2,1:2|0:0,0:0:0:0:
359,108,176354,1,0,1:0:0:0:
203,202,176533,2,0,L|192:253,1,52.5000020027161,10|0,0:0|0:0,0:0:0:0:
193,198,176890,2,0,L|148:287,1,87.5,10|0,0:0|1:0,0:0:0:0:
345,382,177248,6,0,L|287:369,1,52.5000020027161,4|0,0:2|0:0,0:0:0:0:
169,343,177426,2,0,L|227:330,1,52.5000020027161,8|0,1:2|0:0,0:0:0:0:
322,302,177605,1,2,0:3:0:0:
256,256,177784,1,0,1:0:0:0:
255,31,177962,5,8,0:0:0:0:
255,31,178052,1,0,0:0:0:0:
255,31,178141,1,8,0:0:0:0:
255,183,178319,1,10,0:3:0:0:
257,354,178498,1,8,0:0:0:0:
257,354,178587,2,2,L|263:400,2,26.2500010013581,2|2|6,0:0|0:0|1:2,0:0:0:0:
142,288,178855,6,0,P|80:331|18:299,1,122.500001168251,2|0,0:0|0:0,0:0:0:0:
409,245,179213,1,2,1:2:0:0:
445,222,179302,1,0,0:0:0:0:
372,188,179391,2,0,B|345:286|414:277|393:396,1,183.750001752377,8|0,0:2|0:0,0:0:0:0:
328,379,179749,2,0,B|299:368|299:368|349:310,1,61.2500005841255,8|0,0:2|0:0,0:0:0:0:
512,296,179927,6,0,B|492:348|405:411|418:237,1,183.750001752377,2|0,1:2|0:0,0:0:0:0:
469,193,180284,5,8,0:2:0:0:
305,229,180463,2,0,P|323:241|350:209,1,61.2500005841255,2|0,0:0|0:0,0:0:0:0:
392,245,180642,2,0,L|362:162,1,61.2500005841255,2|0,1:2|0:0,0:0:0:0:
303,31,180820,5,8,0:2:0:0:
261,227,180999,1,8,0:0:0:0:
358,360,181178,5,2,0:3:0:0:
298,206,181356,1,8,0:0:0:0:
483,101,181535,5,0,1:2:0:0:
298,206,181892,5,0,0:0:0:0:
484,303,182071,1,0,1:2:0:0:
458,112,182250,2,0,P|445:179|441:243,1,122.500001168251,8|0,0:2|0:0,0:0:0:0:
211,149,182607,2,0,P|206:210|194:270,1,122.500001168251,8|2,0:2|1:2,0:0:0:0:
223,311,182875,1,0,0:0:0:0:
270,307,182964,5,0,0:0:0:0:
53,222,183143,1,0,1:2:0:0:
121,307,183321,1,0,0:0:0:0:
147,374,183500,1,0,1:2:0:0:
332,224,183679,6,0,L|360:285,1,61.2500005841255,10|0,0:2|0:0,0:0:0:0:
332,224,183857,2,0,P|388:281|450:319,1,122.500001168251,8|14,0:0|0:2,0:0:0:0:
422,304,184125,1,0,0:0:0:0:
422,304,184215,2,2,L|435:344,2,30.6250002920628
486,267,184393,5,4,1:2:0:0:
291,230,184572,2,0,P|270:164|262:96,1,122.500001168251,2|0,0:0|0:0,0:0:0:0:
188,84,184929,2,0,P|182:113|194:141,1,61.2500005841255,2|0,1:2|0:0,0:0:0:0:
355,34,185108,2,0,B|423:-44|558:123|403:132|444:3,1,245.000002336502,10|10,0:0|0:2,0:0:0:0:
54,169,185644,6,0,B|161:169|124:297|186:169|285:268,2,245.000002336502,2|0|0,1:2|1:2|1:2,0:0:0:0:
386,71,186537,1,8,0:2:0:0:
143,0,186894,6,0,L|115:70,1,61.2500005841255,10|0,0:2|0:0,0:0:0:0:
179,92,187073,2,2,L|170:142,2,30.6250002920628
242,140,187251,6,0,L|217:345,1,175,0|0,1:2|0:0,0:0:0:0:
312,207,187787,2,0,L|307:322,1,87.5,0|8,1:2|0:2,0:0:0:0:
383,246,188323,2,0,L|394:320,1,43.75,8|0,0:2|0:0,0:0:0:0:
462,297,188502,5,0,1:2:0:0:
506,238,188680,1,0,0:0:0:0:
444,190,188859,1,10,1:2:0:0:
337,266,189038,5,2,0:0:0:0:
474,313,189216,1,0,1:2:0:0:
512,163,189395,1,8,0:2:0:0:
292,284,189574,5,0,0:0:0:0:
292,284,189663,1,0,0:0:0:0:
292,284,189752,1,2,0:0:0:0:
340,105,189931,1,8,0:0:0:0:
409,216,190110,5,4,1:2:0:0:
392,291,190288,1,0,0:0:0:0:
467,271,190467,1,0,0:0:0:0:
233,219,190645,5,0,1:0:0:0:
57,279,190824,2,0,L|38:323,1,43.75,8|0,0:0|0:0,0:0:0:0:
57,279,191181,2,0,L|-3:192,1,87.5,8|0,0:0|1:0,0:0:0:0:
57,279,191539,2,0,P|116:276|151:227,1,87.5,0|0,0:0|1:0,0:0:0:0:
350,313,191896,2,0,L|415:404,1,87.5,8|0,0:0|1:0,0:0:0:0:
301,299,192253,1,8,0:0:0:0:
500,171,192610,6,0,P|523:137|442:51,1,175,12|0,0:0|1:2,0:0:0:0:
326,275,193146,2,0,L|327:354,1,43.75
358,335,193325,2,0,L|375:268,1,43.75
478,380,193504,2,0,P|449:338|461:299,1,87.5,0|8,1:0|0:0,0:0:0:0:
244,365,194040,6,0,P|223:364|224:319,1,43.75,8|0,0:0|0:0,0:0:0:0:
161,356,194218,2,0,P|141:323|155:289,1,43.75,0|0,1:0|0:0,0:0:0:0:
67,222,194397,5,0,0:0:0:0:
192,259,194575,1,2,1:2:0:0:
254,215,194754,1,0,0:0:0:0:
316,235,194933,1,0,1:0:0:0:
470,124,195111,5,10,0:0:0:0:
296,47,195290,1,0,0:0:0:0:
188,111,195469,2,0,L|143:57,1,52.5000020027161,12|0,0:0|0:0,0:0:0:0:
81,70,195647,1,0,0:0:0:0:
291,191,195826,5,4,1:2:0:0:
220,188,196005,1,2,0:0:0:0:
367,186,196183,1,0,0:0:0:0:
148,178,196362,1,2,1:2:0:0:
437,208,196540,1,8,0:2:0:0:
76,196,196719,1,0,0:0:0:0:
361,177,196898,1,8,0:2:0:0:
158,168,197076,1,2,1:2:0:0:
232,338,197255,6,0,P|294:340|405:342,1,157.500006008148,2|0,0:0|0:0,0:0:0:0:
443,286,197612,1,0,0:0:0:0:
443,286,197791,1,0,1:2:0:0:
220,212,197970,2,0,L|207:274,1,43.75,8|0,0:2|0:0,0:0:0:0:
285,257,198148,1,0,0:0:0:0:
277,214,198238,1,0,0:0:0:0:
227,205,198327,2,0,L|105:225,1,105.000004005432,10|8,0:2|0:0,0:0:0:0:
365,47,198684,2,0,L|378:105,1,43.75,0|0,1:2|0:0,0:0:0:0:
306,118,198863,2,0,L|255:100,1,43.75
295,22,199041,2,0,L|507:51,1,210.000008010865,0|8,0:0|0:2,0:0:0:0:
503,50,199756,6,0,L|352:65,1,122.500001168251,8|2,0:2|1:2,0:0:0:0:
33,110,200113,2,0,P|77:118|121:125,1,87.5,0|0,0:0|1:2,0:0:0:0:
278,246,200471,2,0,L|216:262,1,52.5000020027161
156,236,200649,2,0,L|176:165,1,52.5000020027161,0|0,1:2|0:0,0:0:0:0:
225,9,200828,1,10,0:2:0:0:
361,152,201006,1,0,0:0:0:0:
361,152,201096,1,0,0:0:0:0:
361,151,201185,2,0,P|336:156|327:122,1,61.2500005841255,10|0,0:2|0:0,0:0:0:0:
400,91,201364,2,0,L|481:85,1,61.2500005841255
193,89,201542,5,4,1:2:0:0:
203,290,201721,1,2,0:0:0:0:
203,290,202078,1,2,1:2:0:0:
416,278,202257,2,0,L|474:273,1,52.5000020027161,8|0,0:2|0:0,0:0:0:0:
412,268,202614,2,0,L|514:234,1,87.5,10|2,0:2|1:2,0:0:0:0:
396,352,202882,1,0,0:0:0:0:
396,352,202971,2,0,P|336:337|318:158,1,245.000002336502
255,91,203507,1,0,1:2:0:0:
204,252,203686,2,0,P|170:277|129:293,1,70,8|0,0:2|0:0,0:0:0:0:
316,167,204043,2,0,P|363:151|484:153,1,157.500006008148,10|0,0:2|0:0,0:0:0:0:
511,87,204401,5,0,1:2:0:0:
444,46,204579,1,0,0:0:0:0:
380,68,204758,1,0,0:0:0:0:
308,61,204936,1,0,1:2:0:0:
235,82,205115,1,8,0:2:0:0:
171,53,205294,1,0,0:0:0:0:
102,78,205472,1,8,0:2:0:0:
27,65,205651,1,0,1:2:0:0:
51,252,205830,5,0,0:0:0:0:
146,215,206008,1,10,1:2:0:0:
240,275,206187,1,2,0:0:0:0:
304,231,206366,1,0,1:0:0:0:
376,244,206544,2,0,L|430:243,1,52.5000020027161,8|0,0:0|0:0,0:0:0:0:
371,253,206901,2,0,L|455:304,1,87.5,8|2,0:0|0:0,0:0:0:0:
466,309,207169,1,0,0:0:0:0:
458,298,207259,5,6,1:2:0:0:
484,255,207437,1,0,0:0:0:0:
371,253,207616,1,0,0:0:0:0:
361,275,207973,1,2,0:0:0:0:
361,275,208063,1,0,0:0:0:0:
256,192,208152,12,0,212261,0:0:0:0:
22,216,212975,5,0,1:2:0:0:
265,156,213154,2,0,L|231:288,1,131.25,8|0,0:0|0:0,0:0:0:0:
232,283,213511,5,0,1:2:0:0:
54,88,213690,2,0,L|20:220,1,131.25,8|0,0:2|0:0,0:0:0:0:
21,215,214047,2,0,L|34:164,2,43.75,8|0|0,0:2|0:0|1:2,0:0:0:0:
490,216,218692,5,0,1:2:0:0:
247,156,218871,2,0,L|281:288,1,131.25,8|0,0:0|0:0,0:0:0:0:
280,283,219228,5,0,1:2:0:0:
458,88,219407,2,0,L|492:220,1,131.25,8|0,0:2|0:0,0:0:0:0:
491,215,219764,2,0,L|478:164,2,43.75,8|0|0,0:2|0:0|1:2,0:0:0:0:
346,244,220121,1,0,0:0:0:0:
351,322,220299,6,0,P|276:306|191:362,1,175,0|0,1:2|1:2,0:0:0:0:
250,166,220835,1,8,0:2:0:0:
272,87,221014,1,0,0:0:0:0:
290,17,221192,2,0,P|291:109|296:134,1,87.5,8|8,0:2|0:0,0:0:0:0:
249,54,221460,1,0,0:0:0:0:
249,54,221506,6,0,P|247:64|254:79,1,21.875,2|0,0:0|0:0,0:0:0:0:
256,192,221639,12,4,223023,0:0:0:0:
67,219,224408,6,0,L|137:230,1,43.75,0|0,1:2|0:0,0:0:0:0:
296,295,224587,2,0,P|221:295|175:251,1,131.25,10|0,0:0|0:0,0:0:0:0:
110,225,224944,6,0,L|67:219,1,43.75,0|0,1:2|0:0,0:0:0:0:
180,260,225122,2,0,P|231:298|296:295,1,131.25,10|0,0:2|0:0,0:0:0:0:
355,248,225480,2,0,P|346:156|338:126,1,87.5,10|0,0:2|1:2,0:0:0:0:
347,161,226016,2,0,P|353:204|355:248,1,87.5
355,248,226552,6,0,P|355:219|352:189,1,43.75
347,160,226730,2,0,P|350:182|353:204,1,43.75
423,338,226909,6,2,B|200:452|-106:290|26:66|138:12,1,700,2|2,0:2|0:0,0:0:0:0:
122,56,228874,1,0,0:0:0:0:
122,56,229052,1,0,0:0:0:0:
122,56,229410,5,8,0:0:0:0:
100,8,229588,1,8,0:0:0:0:
151,172,229767,1,8,0:0:0:0:
102,338,229946,1,8,0:0:0:0:
248,290,230124,5,6,1:2:0:0:
116,258,230303,1,10,0:0:0:0:
73,124,230482,1,0,0:0:0:0:
116,258,230660,1,0,1:2:0:0:
288,185,230839,2,0,P|347:179|446:187,1,140,10|8,0:2|0:2,0:0:0:0:
486,137,231285,1,0,0:0:0:0:
491,133,231374,1,2,1:2:0:0:
410,102,231553,6,0,P|375:83|346:58,1,70,0|0,0:0|1:2,0:0:0:0:
493,219,231911,1,0,0:0:0:0:
316,148,232089,1,0,1:2:0:0:
484,22,232268,2,0,P|427:46|327:47,1,131.25,8|0,0:2|0:0,0:0:0:0:
284,73,232625,2,0,P|255:55|233:12,1,78.7500030040742,10|0,0:2|0:0,0:0:0:0:
256,9,232804,2,0,P|255:50|238:86,1,61.2500005841255,10|0,0:3|0:0,0:0:0:0:
255,192,232983,5,0,1:2:0:0:
160,222,233161,1,10,0:0:0:0:
93,172,233340,1,0,0:0:0:0:
6,197,233518,1,0,1:2:0:0:
155,356,233697,2,0,P|197:341|229:253,1,131.25,10|0,0:2|0:0,0:0:0:0:
28,288,234054,2,0,P|57:301|109:287,1,78.7500030040742,10|0,0:2|0:0,0:0:0:0:
79,269,234233,2,0,P|64:300|62:329,1,61.2500005841255,2|0,1:2|0:0,0:0:0:0:
284,353,234412,5,0,0:0:0:0:
453,351,234590,1,0,1:2:0:0:
453,351,234948,1,0,1:2:0:0:
221,288,235126,2,0,P|222:231|221:108,1,157.500006008148,8|0,0:2|0:0,0:0:0:0:
220,53,235483,1,8,0:2:0:0:
220,53,235662,1,8,0:3:0:0:
305,263,235841,6,0,P|315:229|322:216,1,35,6|0,1:2|0:0,0:0:0:0:
342,132,236019,2,0,P|360:95|404:14,1,131.25,10|0,0:0|0:0,0:0:0:0:
271,170,236377,5,0,1:2:0:0:
497,100,236555,1,10,0:2:0:0:
497,100,236913,1,10,0:2:0:0:
497,100,237002,1,0,0:0:0:0:
497,100,237091,1,0,1:2:0:0:
248,34,237270,6,0,P|223:44|188:44,1,43.75,2|0,0:0|0:0,0:0:0:0:
116,99,237448,2,0,P|152:106|194:195,1,140,2|0,1:2|1:2,0:0:0:0:
107,360,237984,2,0,L|40:348,1,52.5000020027161,8|0,0:2|0:0,0:0:0:0:
117,349,238342,2,0,L|56:266,1,87.5,8|8,0:2|0:3,0:0:0:0:
274,145,238699,6,0,L|291:102,1,35,2|0,1:2|0:0,0:0:0:0:
293,224,238878,6,0,L|333:247,1,35,10|0,0:0|0:0,0:0:0:0:
213,202,239056,6,0,L|170:212,1,35,2|0,0:0|0:0,0:0:0:0:
372,160,239235,6,0,P|402:166|439:202,1,61.2500005841255,2|0,1:2|0:0,0:0:0:0:
227,301,239413,6,0,P|191:320|164:319,1,61.2500005841255,10|0,0:2|0:0,0:0:0:0:
189,114,239592,6,0,P|165:92|151:58,1,61.2500005841255,2|0,0:0|0:0,0:0:0:0:
429,52,239771,5,10,0:2:0:0:
487,278,239949,2,0,P|470:308|370:344,1,140,2|0,1:2|1:2,0:0:0:0:
127,339,240664,2,0,P|97:323|79:300,1,52.5,0|0,1:2|0:0,0:0:0:0:
143,300,240843,2,0,P|119:320|38:335,1,105.000004005432,10|0,0:2|0:0,0:0:0:0:
284,98,241200,2,0,P|325:84|374:86,1,87.5,8|8,0:2|0:3,0:0:0:0:
420,142,241468,1,0,0:0:0:0:
411,151,241557,5,6,1:2:0:0:
255,0,241736,1,10,0:0:0:0:
278,168,241914,5,0,0:0:0:0:
99,147,242093,1,0,1:2:0:0:
278,168,242272,2,0,P|282:203|276:284,1,105,10|0,0:2|0:0,0:0:0:0:
272,354,242629,1,10,0:2:0:0:
272,354,242808,1,0,1:2:0:0:
55,227,242986,6,0,L|120:236,1,52.5000020027161
141,301,243165,2,0,L|194:294,1,52.5000020027161,0|0,1:2|0:0,0:0:0:0:
79,140,243343,2,0,P|108:135|225:118,1,131.25,2|0,0:3|0:0,0:0:0:0:
265,58,243701,1,8,0:2:0:0:
236,254,243879,1,8,0:0:0:0:
340,164,244058,2,0,P|369:169|486:186,1,131.25,2|0,0:3|0:0,0:0:0:0:
471,109,244415,5,2,1:2:0:0:
323,236,244594,1,10,0:0:0:0:
198,150,244773,1,0,0:0:0:0:
110,210,244951,1,0,1:2:0:0:
204,49,245130,6,0,L|226:-7,1,52.5000020027161,8|0,0:2|0:0,0:0:0:0:
212,61,245487,2,0,L|304:43,1,87.5,8|2,0:2|1:2,0:0:0:0:
374,88,245755,1,0,0:0:0:0:
397,80,245844,1,0,0:0:0:0:
185,159,246023,6,0,P|183:187|231:208,1,61.2500005841255,0|0,1:2|0:0,0:0:0:0:
256,125,246202,1,2,0:3:0:0:
51,89,246380,1,0,1:2:0:0:
133,24,246559,5,8,0:2:0:0:
97,188,246738,1,8,0:0:0:0:
68,348,246916,2,0,P|104:339|157:327,1,87.5,2|8,0:0|0:0,0:0:0:0:
489,288,247273,5,4,1:2:0:0:
489,288,247363,2,0,P|464:334|320:330,1,210.000008010865
311,258,247809,1,0,1:2:0:0:
131,161,247988,2,0,P|182:189|222:178,1,87.5,8|0,0:2|0:0,0:0:0:0:
256,1,248345,2,0,P|228:7|183:19,1,52.5000020027161,8|0,0:2|0:0,0:0:0:0:
360,53,248524,1,0,1:2:0:0:
118,80,248703,5,0,0:0:0:0:
370,178,248881,1,2,1:2:0:0:
370,178,248971,1,0,0:0:0:0:
370,178,249060,2,0,P|418:178|492:176,1,105.000004005432,2|0,0:3|1:2,0:0:0:0:
347,42,249417,5,8,0:2:0:0:
222,117,249596,5,8,0:0:0:0:
304,238,249774,5,2,0:3:0:0:
255,358,249953,5,8,0:0:0:0:
255,358,250132,5,2,1:2:0:0:
208,238,250311,5,10,0:0:0:0:
290,117,250489,5,0,0:0:0:0:
165,42,250668,5,0,1:2:0:0:
17,159,250846,6,0,P|-3:237|3:318,1,157.500006008148,8|0,0:2|0:0,0:0:0:0:
33,291,251204,2,0,P|26:317|51:371,1,52.5000020027161,8|0,0:2|0:0,0:0:0:0:
105,321,251382,1,0,1:2:0:0:
327,255,251561,6,0,P|397:253|426:216,1,105.000004005432,0|2,0:0|1:2,0:0:0:0:
252,93,251918,1,2,0:3:0:0:
252,93,252096,1,0,1:2:0:0:
327,255,252275,1,8,0:2:0:0:
387,35,252454,1,8,0:0:0:0:
163,103,252633,2,0,P|137:156|146:243,1,105.000004005432,2|8,0:3|0:0,0:0:0:0:
157,231,252901,1,0,0:0:0:0:
204,232,252990,6,0,B|201:258|201:258|184:273,10,43.75,6|0|0|0|8|0|0|0|0|0|0,1:2|0:0|0:0|0:0|0:0|0:0|0:0|0:0|0:0|0:0|0:0,0:0:0:0:
90,269,253526,2,0,L|79:340,1,52.5000020027161,0|0,1:2|0:0,0:0:0:0:
151,353,253704,6,0,L|147:385,1,26.2500010013581,8|0,0:2|0:0,0:0:0:0:
357,281,254062,6,0,L|348:337,1,52.5000020027161,10|0,0:2|0:0,0:0:0:0:
419,371,254240,2,0,P|429:349|443:371,6,43.75,0|0|0|0|0|0|0,1:2|0:0|0:0|0:0|0:0|0:0|0:0,0:0:0:0:
348,332,254598,6,0,L|278:315,1,52.5000020027161,0|0,1:2|0:0,0:0:0:0:
219,353,254776,2,0,P|186:267|198:204,1,157.500006008148,2|0,0:3|0:0,0:0:0:0:
257,157,255134,6,0,B|241:133|241:133|271:14,1,105.000004005432,10|8,0:2|0:0,0:0:0:0:
382,248,255491,1,2,0:3:0:0:
382,248,255669,1,8,0:0:0:0:
136,163,255848,6,0,P|120:186|121:220,1,52.5000020027161,2|0,1:2|0:0,0:0:0:0:
317,206,256027,1,8,0:0:0:0:
48,225,256384,6,0,P|55:248|76:272,1,52.5000020027161,0|0,1:2|0:0,0:0:0:0:
257,157,256563,1,8,0:2:0:0:
336,79,256920,6,0,L|326:161,1,52.5000020027161,10|0,0:2|0:0,0:0:0:0:
72,269,257099,2,0,P|118:294|185:284,1,105.000004005432,0|0,1:2|0:0,0:0:0:0:
196,277,257367,2,0,L|186:233,1,26.2500010013581
230,278,257456,2,0,L|222:310,2,26.2500010013581,0|0|0,1:0|0:0|0:0,0:0:0:0:
383,356,257634,6,0,B|408:309|408:309|394:236,1,105.000004005432,2|0,0:3|1:2,0:0:0:0:
123,97,257992,5,10,0:2:0:0:
260,182,258170,1,8,0:0:0:0:
386,107,258349,1,2,0:3:0:0:
156,189,258528,1,8,0:0:0:0:
295,0,258706,6,0,L|291:44,1,26.2500010013581,6|0,1:2|0:0,0:0:0:0:
217,29,259064,6,0,L|213:73,1,26.2500010013581,2|0,0:0|0:0,0:0:0:0:
316,102,259242,2,0,L|323:164,1,43.75,2|0,1:2|0:0,0:0:0:0:
41,236,259689,6,0,L|34:175,2,43.75,2|0|10,0:0|0:0|0:2,0:0:0:0:
474,318,260135,2,0,L|469:361,1,43.75,2|0,0:0|0:0,0:0:0:0:
387,384,260314,5,0,1:2:0:0:
266,315,260493,1,2,0:3:0:0:
287,151,260671,2,0,L|294:96,2,43.75,2|0|0,1:0|0:0|0:0,0:0:0:0:
57,9,260850,5,10,0:2:0:0:
178,78,261029,1,8,0:0:0:0:
157,242,261207,1,2,0:3:0:0:
72,295,261386,2,0,L|137:270,1,52.5000020027161,8|0,0:0|0:0,0:0:0:0:
318,180,261564,6,0,B|341:170|341:170|367:178,4,43.75,2|0|0|0|8,1:2|0:0|0:0|0:0|0:0,0:0:0:0:
257,222,261922,2,0,L|269:287,2,43.75,2|0|0,0:0|0:0|0:0,0:0:0:0:
217,195,262100,2,0,L|205:130,2,43.75,2|0|0,1:2|0:0|0:0,0:0:0:0:
157,242,262279,5,8,0:2:0:0:
318,180,262458,2,0,L|364:162,2,43.75,2|0|0,0:0|0:0|0:0,0:0:0:0:
379,213,262636,2,0,L|498:243,1,105.000004005432,10|0,0:2|1:2,0:0:0:0:
110,284,262994,6,0,L|156:266,2,43.75,2|0|0,0:0|0:0|0:0,0:0:0:0:
28,255,263172,5,0,1:2:0:0:
61,162,263351,2,0,L|101:144,2,43.75,2|0|0,0:3|0:0|0:0,0:0:0:0:
182,108,263529,2,0,L|231:89,2,43.75,2|0|0,1:2|0:0|0:0,0:0:0:0:
337,203,263708,5,10,0:2:0:0:
448,269,263887,1,8,0:0:0:0:
421,140,264065,1,2,0:3:0:0:
277,39,264244,2,0,P|271:65|266:99,1,52.5000020027161,8|0,0:0|0:0,0:0:0:0:
168,191,264423,6,0,P|165:211|174:247,1,43.75,6|0,1:2|0:0,0:0:0:0:
373,314,264780,6,0,P|376:292|373:270,2,43.75,2|0|0,0:0|0:0|0:0,0:0:0:0:
301,337,264959,2,0,P|297:358|300:380,2,43.75,2|0|0,1:2|0:0|0:0,0:0:0:0:
232,307,265137,6,0,P|217:197|244:100,1,210,8|0,0:2|0:0,0:0:0:0:
278,39,265495,2,0,L|293:149,1,70,10|0,0:2|0:0,0:0:0:0:
168,191,265673,2,0,P|157:171|180:131,1,70,0|0,1:2|0:0,0:0:0:0:
332,239,265852,6,0,L|389:245,2,43.75,2|0|0,0:0|0:0|0:0,0:0:0:0:
434,303,266030,5,0,1:2:0:0:
316,367,266209,2,0,L|259:373,2,43.75,2|0|0,0:3|0:0|0:0,0:0:0:0:
232,307,266388,2,0,L|238:250,2,43.75,2|0|0,1:2|0:0|0:0,0:0:0:0:
168,365,266566,5,10,0:2:0:0:
69,309,266745,1,8,0:0:0:0:
50,188,266924,1,2,0:3:0:0:
132,61,267102,1,8,0:0:0:0:
311,8,267281,6,0,L|316:68,1,43.75,2|0,1:2|0:0,0:0:0:0:
387,23,267460,2,0,P|387:131|402:383,1,350,8|10,0:0|0:0,0:0:0:0:
243,46,268531,6,0,L|247:91,2,26.2500010013581,2|0|0,1:2|0:0|0:0,0:0:0:0:
311,8,268710,6,0,L|316:68,4,43.75,2|0|0|0|0,0:0|0:0|0:0|0:0|1:2,0:0:0:0:
383,130,269067,6,0,P|440:136|494:107,1,105.000004005432,2|0,0:3|1:2,0:0:0:0:
259,264,269425,1,10,0:2:0:0:
146,239,269603,1,8,0:0:0:0:
65,278,269781,1,2,0:3:0:0:
90,146,269960,5,8,0:0:0:0:
236,383,270139,2,0,L|352:364,1,105.000004005432,6|8,1:2|0:0,0:0:0:0:
500,291,270496,6,0,L|495:324,6,26.2500010013581,2|0|0|0|0|0|0,0:0|0:0|0:0|0:0|1:2|0:0|0:0,0:0:0:0:
426,317,270854,2,0,P|412:264|440:208,1,105.000004005432,8|0,0:2|0:0,0:0:0:0:
330,116,271211,6,0,P|321:155|204:175,1,157.500006008148,10|0,0:2|0:0,0:0:0:0:
197,159,271568,2,0,L|207:116,2,26.2500010013581
107,62,271746,5,0,1:2:0:0:
25,58,271925,6,0,L|43:131,1,52.5000020027161,2|0,0:3|0:0,0:0:0:0:
193,15,272104,6,0,L|175:88,1,52.5000020027161,0|0,1:2|0:0,0:0:0:0:
299,90,272283,6,0,L|287:193,1,70,10|0,0:2|0:0,0:0:0:0:
397,189,272461,6,0,L|411:287,1,70,8|0,0:0|0:0,0:0:0:0:
471,300,272640,6,0,L|462:347,1,35,2|0,0:3|0:0,0:0:0:0:
508,348,272819,6,0,L|513:379,1,17.5,8|0,0:0|0:0,0:0:0:0:
498,378,272997,6,0,P|518:276|11:137,1,812.700019841309,2|0,1:2|0:0,0:0:0:0:
52,198,284668,2,0,L|53:226,1,23.3333333333333
