osu file format v14

[General]
AudioFilename: audio.mp3
AudioLeadIn: 0
PreviewTime: 126515
Countdown: 0
SampleSet: Soft
StackLeniency: 0.7
Mode: 0
LetterboxInBreaks: 0
WidescreenStoryboard: 1

[Editor]
DistanceSpacing: 1.9
BeatDivisor: 4
GridSize: 16
TimelineZoom: 2.4

[Metadata]
Title:Airbag
TitleUnicode:Airbag
Artist:Radiohead
ArtistUnicode:Radiohead
Creator:moonpoint
Version:Insane
Source:
Tags:ok computer english art alternative rock app
BeatmapID:4461463
BeatmapSetID:2122619

[Difficulty]
HPDrainRate:5
CircleSize:4
OverallDifficulty:7
ApproachRate:8.5
SliderMultiplier:1.6
SliderTickRate:1

[Events]
//Background and Video events
0,0,"ok-computer-header.jpg",0,0
//Break Periods
2,85449,91541
2,138862,143167
2,207458,228735
//Storyboard Layer 0 (Background)
//Storyboard Layer 1 (Fail)
//Storyboard Layer 2 (Pass)
//Storyboard Layer 3 (Foreground)
//Storyboard Layer 4 (Overlay)
//Storyboard Sound Samples

[TimingPoints]
1469,357.274708523384,4,2,1,60,1,0
15759,-125,4,2,1,60,0,0
17010,-111.111111111111,4,2,1,60,0,0
18439,-100,4,2,1,60,0,0
19332,-90.9090909090909,4,2,1,60,0,0
20225,-100,4,2,1,60,0,0
21476,-125,4,2,1,60,0,0
23977,-100,4,2,1,60,0,0
24334,-125,4,2,1,60,0,0
26120,-100,4,2,1,60,0,0
26835,-83.3333333333333,4,2,1,60,0,0
27192,-100,4,2,1,60,0,0
31301,-90.9090909090909,4,2,1,60,0,0
31837,-100,4,2,1,60,0,0
32551,-111.111111111111,4,2,1,60,0,0
32909,-100,4,2,1,60,0,0
33623,-83.3333333333333,4,2,1,60,0,0
34159,-100,4,2,1,60,0,0
36481,-83.3333333333333,4,2,1,60,0,0
37375,-90.9090909090909,4,2,1,60,0,0
37911,-83.3333333333333,4,2,1,60,0,0
39876,-100,4,2,1,60,0,0
40769,-83.3333333333333,4,2,1,60,0,0
41126,-90.9090909090909,4,2,1,60,0,0
42198,-100,4,2,1,60,0,0
42734,-90.9090909090909,4,2,1,60,0,0
43270,-100,4,2,1,60,0,0
45056,-83.3333333333333,4,2,1,60,0,0
45949,-100,4,2,1,60,0,0
46842,-111.111111111111,4,2,1,60,0,0
48450,-100,4,2,1,60,0,0
52559,-111.111111111111,4,2,1,60,0,0
53452,-83.3333333333333,4,2,1,60,0,0
54702,-100,4,2,1,60,0,0
55060,-90.9090909090909,4,2,1,60,0,0
57025,-100,4,2,1,60,0,0
61491,-90.9090909090909,4,2,1,70,0,0
62027,-83.3333333333333,4,2,1,70,0,0
65599,-90.9090909090909,4,2,1,70,0,0
66850,-83.3333333333333,4,2,1,70,0,0
67743,-100,4,2,1,70,0,0
68458,-83.3333333333333,4,2,1,70,0,0
70423,-100,4,2,1,70,0,0
71316,-90.9090909090909,4,2,1,70,0,0
72923,-111.111111111111,4,2,1,50,0,0
74174,-90.9090909090909,4,2,1,50,0,0
75424,-100,4,2,1,50,0,0
77032,-90.9090909090909,4,2,1,50,0,0
78640,-100,4,2,1,50,0,0
84356,-125,4,2,1,50,0,0
85071,-166.666666666667,4,2,1,50,0,0
85428,-200,4,2,1,50,0,0
92216,-142.857142857143,4,2,1,50,0,0
92574,-90.9090909090909,4,2,1,50,0,0
92931,-90.9090909090909,4,2,1,60,0,0
93645,-100,4,2,1,60,0,0
95968,-111.111111111111,4,2,1,60,0,0
97575,-100,4,2,1,60,0,0
98290,-90.9090909090909,4,2,1,60,0,0
99183,-100,4,2,1,60,0,0
105614,-90.9090909090909,4,2,1,60,0,0
106150,-100,4,2,1,60,0,0
107936,-83.3333333333333,4,2,1,60,0,0
109455,-100,4,2,1,60,0,0
109723,-83.3333333333333,4,2,1,60,0,0
110795,-90.9090909090909,4,2,1,60,0,0
111330,-100,4,2,1,60,0,0
112581,-83.3333333333333,4,2,1,60,0,0
112938,-100,4,2,1,60,0,0
114546,-111.111111111111,4,2,1,60,0,0
115082,-83.3333333333333,4,2,1,60,0,0
115975,-100,4,2,1,60,0,0
117404,-83.3333333333333,4,2,1,60,0,0
118655,-100,4,2,1,60,0,0
120798,-83.3333333333333,4,2,1,60,0,0
121156,-100,4,2,1,60,0,0
122763,-111.111111111111,4,2,1,60,0,0
123656,-90.9090909090909,4,2,1,60,0,0
124728,-100,4,2,1,60,0,0
125086,-83.3333333333333,4,2,1,60,0,0
125621,-100,4,2,1,60,0,0
126872,-83.3333333333333,4,2,1,60,0,0
127229,-83.3333333333333,4,2,1,70,0,0
127765,-90.9090909090909,4,2,1,70,0,0
128480,-83.3333333333333,4,2,1,70,0,0
130266,-100,4,2,1,70,0,0
131338,-90.9090909090909,4,2,1,70,0,0
131874,-100,4,2,1,70,0,0
132588,-83.3333333333333,4,2,1,70,0,0
133660,-90.9090909090909,4,2,1,70,0,0
134196,-83.3333333333333,4,2,1,70,0,0
134732,-100,4,2,1,70,0,0
135447,-90.9090909090909,4,2,1,70,0,0
136161,-100,4,2,1,70,0,0
136518,-83.3333333333333,4,2,1,70,0,0
138662,-83.3333333333333,4,2,1,60,0,0
139019,-83.3333333333333,4,2,1,30,0,0
143842,-83.3333333333333,4,2,1,60,0,0
144378,-125,4,2,1,60,0,0
149023,-100,4,2,1,60,0,0
149738,-125,4,2,1,60,0,0
162242,-83.3333333333333,4,2,1,60,0,0
164028,-100,4,2,1,60,0,0
165100,-83.3333333333333,4,2,1,60,0,0
165815,-100,4,2,1,60,0,0
170817,-83.3333333333333,4,2,1,60,0,0
171710,-100,4,2,1,60,0,0
173675,-83.3333333333333,4,2,1,60,0,0
174568,-100,4,2,1,60,0,0
176533,-83.3333333333333,4,2,1,60,0,0
177605,-100,4,2,1,60,0,0
178677,-100,4,2,1,70,0,0
179213,-83.3333333333333,4,2,1,70,0,0
179927,-76.9230769230769,4,2,1,70,0,0
180463,-100,4,2,1,70,0,0
182250,-83.3333333333333,4,2,1,70,0,0
183321,-90.9090909090909,4,2,1,70,0,0
184036,-83.3333333333333,4,2,1,70,0,0
184929,-90.9090909090909,4,2,1,70,0,0
185644,-83.3333333333333,4,2,1,70,0,0
188680,-100,4,2,1,70,0,0
189038,-83.3333333333333,4,2,1,70,0,0
192610,-100,4,2,1,70,0,0
193682,-83.3333333333333,4,2,1,70,0,0
195469,-71.4285714285714,4,2,1,70,0,0
195826,-83.3333333333333,4,2,1,70,0,0
197076,-76.9230769230769,4,2,1,70,0,0
197612,-90.9090909090909,4,2,1,70,0,0
200471,-100,4,2,1,70,0,0
201185,-83.3333333333333,4,2,1,70,0,0
201721,-100,4,2,1,70,0,0
201900,-90.9090909090909,4,2,1,70,0,0
202971,-83.3333333333333,4,2,1,70,0,0
204043,-100,4,2,1,70,0,0
207080,-83.3333333333333,4,2,1,70,0,0
207259,-83.3333333333333,4,2,1,60,0,0
207437,-83.3333333333333,4,2,1,50,0,0
208152,-83.3333333333333,4,2,1,5,0,0
212261,-83.3333333333333,4,2,1,30,0,0
212975,-83.3333333333333,4,2,1,50,0,0
229410,-83.3333333333333,4,2,1,60,0,0
230303,-100,4,2,1,60,0,0
232268,-83.3333333333333,4,2,1,60,0,0
233161,-100,4,2,1,60,0,0
234054,-83.3333333333333,4,2,1,60,0,0
236019,-90.9090909090909,4,2,1,60,0,0
237627,-100,4,2,1,60,0,0
238699,-83.3333333333333,4,2,1,60,0,0
239413,-100,4,2,1,60,0,0
241736,-83.3333333333333,4,2,1,60,0,0
242986,-100,4,2,1,60,0,0
244594,-90.9090909090909,4,2,1,60,0,0
245666,-76.9230769230769,4,2,1,60,0,0
246916,-100,4,2,1,60,0,0
247273,-90.9090909090909,4,2,1,60,0,0
247988,-83.3333333333333,4,2,1,60,0,0
248881,-100,4,2,1,60,0,0
250310,-90.9090909090909,4,2,1,60,0,0
250846,-83.3333333333333,4,2,1,60,0,0
251918,-90.9090909090909,4,2,1,60,0,0
252633,-83.3333333333333,4,2,1,60,0,0
252990,-83.3333333333333,4,2,1,70,0,0
253169,-100,4,2,1,70,0,0
253704,-83.3333333333333,4,2,1,70,0,0
254776,-100,4,2,1,70,0,0
255491,-90.9090909090909,4,2,1,70,0,0
257634,-83.3333333333333,4,2,1,70,0,0
258349,-90.9090909090909,4,2,1,70,0,0
258885,-100,4,2,1,70,0,0
259421,-83.3333333333333,4,2,1,70,0,0
264065,-100,4,2,1,70,0,0
265137,-83.3333333333333,4,2,1,70,0,0
267460,-100,4,2,1,70,0,0
268353,-83.3333333333333,4,2,1,70,0,0
270139,-100,4,2,1,70,0,0
272997,-500,4,2,1,60,0,0
273087,-500,4,1,1,5,0,0
284668,-500,4,2,1,15,0,0

[Colours]
Combo1 : 220,222,222
Combo2 : 151,157,215

[HitObjects]
313,357,14866,5,8,0:0:0:0:
313,357,14956,1,0,0:0:0:0:
313,357,15045,1,10,0:0:0:0:
155,358,15224,1,8,0:0:0:0:
312,248,15402,2,0,P|277:269|237:273,1,80,8|8,0:3|0:0,0:0:0:0:
188,130,15759,6,0,P|223:88|352:95,1,192,6|0,1:2|1:2,0:0:0:0:
153,19,16474,1,8,0:2:0:0:
153,19,16831,1,10,0:2:0:0:
111,94,17010,2,0,P|81:111|39:113,2,71.9999978027344,0|0|0,1:2|0:0|1:2,0:0:0:0:
236,220,17546,2,0,P|258:179|258:148,1,71.9999978027344,0|0,0:0|1:2,0:0:0:0:
110,291,17903,1,10,0:2:0:0:
110,291,18260,1,8,0:2:0:0:
51,238,18439,2,0,L|51:189,1,40
185,289,18618,6,0,P|251:288|294:288,1,80,2|0,1:2|0:0,0:0:0:0:
370,176,18975,2,0,P|330:176|290:177,1,80,0|0,0:0|1:2,0:0:0:0:
492,264,19332,2,0,P|491:315|390:370,1,176.000005371094,8|10,0:2|0:2,0:0:0:0:
205,358,19868,1,0,1:2:0:0:
344,298,20047,5,0,0:0:0:0:
190,253,20225,1,0,1:2:0:0:
190,253,20404,1,0,0:0:0:0:
294,92,20761,1,10,0:2:0:0:
394,240,20940,1,8,0:0:0:0:
250,298,21119,1,8,0:2:0:0:
224,119,21297,1,8,0:0:0:0:
395,165,21476,6,0,P|432:154|416:11,2,192,6|0|8,1:2|1:2|0:2,0:0:0:0:
104,193,22905,1,0,0:0:0:0:
53,259,23084,1,0,1:2:0:0:
140,267,23262,2,0,P|177:268|208:271,1,64,2|2,0:3|1:3,0:0:0:0:
431,118,23620,1,8,0:2:0:0:
491,239,23798,1,8,0:0:0:0:
353,228,23977,2,0,P|302:226|252:222,1,80,2|8,0:3|0:0,0:0:0:0:
254,2,24334,6,0,P|255:46|254:133,2,128,0|0|8,1:2|0:0|0:2,0:0:0:0:
255,297,25406,1,8,0:2:0:0:
309,231,25585,2,0,P|347:220|425:275,1,128,0|0,1:2|1:2,0:0:0:0:
206,202,26120,2,0,P|163:214|75:152,1,160,0|10,0:0|0:2,0:0:0:0:
147,46,26656,1,0,0:0:0:0:
320,153,26835,2,0,P|362:130|390:88,1,95.9999970703126,10|2,0:2|0:0,0:0:0:0:
181,294,27192,6,0,P|127:285|0:282,1,160,4|0,1:2|0:0,0:0:0:0:
193,132,27728,1,0,1:2:0:0:
121,197,27907,2,0,P|63:205|21:196,1,80,8|0,0:2|0:0,0:0:0:0:
266,264,28264,1,8,0:2:0:0:
278,174,28443,2,0,P|286:125|374:39,1,160,0|0,1:2|1:2,0:0:0:0:
412,121,28979,2,0,P|454:123|493:125,1,80,0|0,0:0|1:2,0:0:0:0:
332,254,29336,5,10,0:2:0:0:
435,293,29515,1,0,0:0:0:0:
374,193,29693,1,8,0:2:0:0:
368,313,29872,1,0,0:0:0:0:
251,261,30050,5,2,1:2:0:0:
251,261,30408,1,0,0:0:0:0:
258,179,30586,1,0,1:2:0:0:
189,315,30765,2,0,P|150:335|106:338,1,80,8|0,0:2|0:0,0:0:0:0:
279,333,31122,1,8,0:2:0:0:
185,208,31301,2,0,P|169:167|189:40,1,176.000005371094,0|0,1:2|1:2,0:0:0:0:
323,40,31837,2,0,P|346:94|345:143,1,80,0|0,0:0|1:2,0:0:0:0:
84,114,32194,1,8,0:2:0:0:
84,114,32551,2,0,P|82:153|85:225,1,107.999996704102,8|0,0:2|0:0,0:0:0:0:
149,270,32909,6,0,L|231:269,2,80,4|2|0,1:2|0:0|0:0,0:0:0:0:
91,316,33445,1,0,1:2:0:0:
272,200,33623,2,0,P|317:228|328:279,1,95.9999970703126,10|0,0:2|0:0,0:0:0:0:
186,192,33980,1,10,0:2:0:0:
338,348,34159,2,0,P|385:338|426:236,1,160,2|0,1:2|1:2,0:0:0:0:
469,88,34695,2,0,P|471:128|473:168,1,80,2|0,0:0|1:2,0:0:0:0:
299,128,35052,1,8,0:2:0:0:
369,29,35231,1,0,0:0:0:0:
383,145,35410,1,8,0:2:0:0:
297,51,35588,1,0,0:0:0:0:
463,82,35767,5,0,1:2:0:0:
463,82,36124,2,0,P|461:39|458:0,1,80,0|0,0:0|1:2,0:0:0:0:
406,155,36481,2,0,P|363:175|315:175,1,95.9999970703126,8|0,0:2|0:0,0:0:0:0:
146,121,36839,2,0,P|188:100|236:100,1,95.9999970703126,8|0,0:2|1:2,0:0:0:0:
299,47,37196,5,2,0:0:0:0:
82,15,37375,2,0,P|69:62|70:113,2,88.000002685547,0|2|0,1:2|0:0|1:2,0:0:0:0:
238,183,37911,2,0,P|201:227|71:239,2,191.999994140625,10|10|6,0:2|0:2|1:2,0:0:0:0:
307,228,38804,1,0,0:0:0:0:
336,93,38982,1,0,0:0:0:0:
375,171,39161,1,0,1:2:0:0:
257,102,39340,1,8,0:2:0:0:
257,102,39697,5,8,0:2:0:0:
306,204,39876,2,0,P|251:204|169:125,1,160,0|0,1:2|1:2,0:0:0:0:
266,286,40411,2,0,P|274:321|265:373,1,80,0|0,0:0|1:2,0:0:0:0:
376,276,40769,2,0,P|454:276|505:275,1,95.9999970703126,8|0,0:2|0:0,0:0:0:0:
385,140,41126,2,0,P|286:141|243:141,1,132.00000402832,8|0,0:2|0:0,0:0:0:0:
167,141,41483,1,0,1:2:0:0:
167,141,41841,5,0,0:0:0:0:
263,140,42019,1,0,1:2:0:0:
117,84,42198,2,0,P|79:61|46:24,1,80,8|0,0:2|0:0,0:0:0:0:
120,197,42555,1,8,0:2:0:0:
230,78,42734,2,0,P|277:52|404:39,1,176.000005371094,0|8,1:2|1:2,0:0:0:0:
407,189,43270,2,0,P|460:187|495:186,1,80,0|0,0:0|1:2,0:0:0:0:
261,178,43627,5,2,0:0:0:0:
355,272,43806,1,8,0:2:0:0:
198,222,43984,1,10,0:2:0:0:
308,335,44163,1,8,0:0:0:0:
125,328,44341,1,4,1:2:0:0:
125,328,44699,6,0,P|82:333|39:328,1,80,0|0,0:0|1:2,0:0:0:0:
176,254,45056,2,0,P|148:215|146:155,1,95.9999970703126,8|0,0:2|0:0,0:0:0:0:
266,58,45413,2,0,P|294:97|296:157,1,95.9999970703126,8|0,0:2|1:2,0:0:0:0:
401,261,45771,1,0,0:0:0:0:
309,285,45949,2,0,P|282:252|301:141,1,160,0|0,1:2|1:2,0:0:0:0:
485,192,46485,1,10,0:2:0:0:
209,36,46842,6,0,P|198:71|211:155,1,107.999996704102,10|0,0:2|0:0,0:0:0:0:
281,237,47200,1,4,1:2:0:0:
15,213,47557,5,2,0:0:0:0:
25,125,47736,1,2,1:2:0:0:
92,245,47914,1,8,0:2:0:0:
139,173,48093,1,0,0:0:0:0:
146,333,48271,1,8,0:2:0:0:
247,219,48450,2,0,P|252:283|248:379,2,160,0|0|0,1:2|1:2|1:2,0:0:0:0:
230,10,49343,1,8,0:2:0:0:
319,18,49522,1,0,0:0:0:0:
309,106,49701,1,8,0:2:0:0:
221,100,49879,1,0,1:0:0:0:
386,72,50058,6,0,P|417:65|486:27,1,80,6|0,1:2|0:0,0:0:0:0:
261,163,50415,1,2,0:0:0:0:
355,179,50594,1,2,1:2:0:0:
166,200,50772,2,0,P|123:211|80:230,1,80,8|2,0:2|0:0,0:0:0:0:
300,339,51130,1,8,0:2:0:0:
184,357,51308,2,0,P|189:314|298:265,1,160,2|0,1:2|1:2,0:0:0:0:
461,243,51844,1,0,0:0:0:0:
461,243,52202,5,8,0:2:0:0:
461,361,52380,1,0,0:0:0:0:
371,238,52559,2,0,P|354:205|368:94,1,143.999995605469,8|4,0:2|1:2,0:0:0:0:
370,103,53452,1,0,1:2:0:0:
260,226,53631,2,0,P|209:242|156:237,1,95.9999970703126,8|0,0:2|0:0,0:0:0:0:
32,72,53988,2,0,P|83:56|136:61,1,95.9999970703126,8|0,0:2|1:2,0:0:0:0:
321,43,54345,5,2,0:0:0:0:
207,11,54524,1,0,1:2:0:0:
234,128,54702,2,0,P|279:130|319:123,1,80,2|0,0:0|1:2,0:0:0:0:
497,7,55060,2,0,P|442:30|316:29,1,176.000005371094,10|10,0:2|0:2,0:0:0:0:
210,261,55774,5,6,1:2:0:0:
228,132,55953,1,2,0:0:0:0:
326,269,56132,1,2,0:0:0:0:
331,140,56310,1,2,1:2:0:0:
166,193,56489,2,0,P|121:220|113:338,1,176.000005371094,10|8,0:2|0:2,0:0:0:0:
238,353,57025,2,0,P|282:351|398:344,1,160,0|0,1:2|1:2,0:0:0:0:
375,243,57561,2,0,P|419:239|479:234,1,80,0|0,0:0|1:2,0:0:0:0:
256,192,57918,5,8,0:2:0:0:
356,141,58097,1,0,0:0:0:0:
256,192,58275,2,0,P|212:186|180:169,1,80,8|8,0:2|0:0,0:0:0:0:
120,21,58632,5,2,1:2:0:0:
230,99,58811,1,2,0:0:0:0:
129,115,58990,1,2,0:0:0:0:
220,8,59168,1,2,1:2:0:0:
309,58,59347,2,0,P|322:96|303:232,1,160,10|8,0:2|0:2,0:0:0:0:
112,217,59883,1,0,1:2:0:0:
112,217,60240,5,0,1:2:0:0:
49,161,60419,1,0,0:0:0:0:
69,285,60597,1,0,1:2:0:0:
177,269,60776,5,10,0:2:0:0:
162,143,60955,1,8,0:0:0:0:
276,264,61133,5,10,0:2:0:0:
279,132,61312,1,8,0:3:0:0:
416,196,61491,6,0,P|463:170|481:115,1,88.000002685547,4|2,1:2|0:0,0:0:0:0:
497,270,61848,1,0,0:0:0:0:
327,122,62027,2,0,B|223:101|240:184|128:152,1,191.999994140625,2|0,1:2|0:0,0:0:0:0:
317,234,62562,1,8,0:2:0:0:
75,107,62741,2,0,P|76:56|191:0,1,191.999994140625,2|0,1:2|1:2,0:0:0:0:
124,237,63277,2,0,P|63:236|9:235,1,95.9999970703126,0|0,0:0|1:2,0:0:0:0:
270,114,63634,2,0,P|209:113|155:112,1,95.9999970703126,8|0,0:2|0:0,0:0:0:0:
363,339,63992,2,0,P|302:338|248:337,1,95.9999970703126,10|0,0:2|0:0,0:0:0:0:
67,357,64349,1,0,1:2:0:0:
67,357,64706,5,0,0:0:0:0:
30,211,64885,1,0,1:2:0:0:
177,263,65063,1,8,0:2:0:0:
6,300,65242,1,0,0:0:0:0:
121,198,65421,1,8,0:2:0:0:
216,336,65599,6,0,P|245:347|314:352,2,88.000002685547,2|0|0,1:2|0:0|1:2,0:0:0:0:
256,192,66135,2,0,P|301:155|427:151,1,176.000005371094,0|10,0:0|0:2,0:0:0:0:
459,252,66671,1,0,0:0:0:0:
361,22,66850,2,0,P|422:40|494:104,1,143.999995605469,10|0,0:2|0:0,0:0:0:0:
494,172,67207,1,4,1:2:0:0:
494,172,67564,5,0,0:0:0:0:
335,202,67743,2,0,P|256:192|186:153,1,160,2|0,1:2|0:0,0:0:0:0:
94,201,68279,1,10,0:2:0:0:
213,52,68458,2,0,B|276:28|329:38|318:89|409:77,1,191.999994140625,2|0,1:2|1:2,0:0:0:0:
412,242,68993,2,0,P|464:240|519:235,1,95.9999970703126,0|0,0:0|1:2,0:0:0:0:
288,150,69351,2,0,P|335:153|383:155,1,95.9999970703126,8|0,0:2|0:0,0:0:0:0:
153,309,69708,2,0,P|200:307|248:303,1,95.9999970703126,10|2,0:2|0:0,0:0:0:0:
357,368,70065,1,0,1:2:0:0:
357,368,70423,6,0,P|357:337|373:286,1,80,0|0,0:0|1:2,0:0:0:0:
210,141,70780,1,8,0:2:0:0:
303,244,70958,1,0,0:0:0:0:
207,236,71137,1,8,0:2:0:0:
332,99,71316,2,0,P|304:57|180:37,1,176.000005371094,0|10,1:2|1:2,0:0:0:0:
75,163,71852,5,8,0:3:0:0:
221,105,72030,1,8,0:3:0:0:
84,76,72209,1,8,0:2:0:0:
208,18,72388,1,8,0:3:0:0:
154,171,72566,1,10,0:3:0:0:
306,188,72745,1,8,0:0:0:0:
164,305,72923,2,0,P|118:312|40:179,2,215.999993408203,4|0|8,1:2|1:2|0:2,0:0:0:0:
293,249,74174,2,0,P|350:245|494:242,1,176.000005371094,2|0,1:2|1:2,0:0:0:0:
470,366,74710,1,2,0:3:0:0:
470,366,75067,5,8,0:2:0:0:
392,312,75246,1,8,0:0:0:0:
474,240,75424,2,0,P|484:194|486:154,1,80,0|8,0:0|0:2,0:0:0:0:
306,285,75782,2,0,P|266:293|221:296,2,80,0|0|0,1:2|0:0|0:0,0:0:0:0:
368,232,76318,1,0,1:2:0:0:
247,384,76496,2,0,P|203:374|94:321,1,160,8|8,0:2|0:2,0:0:0:0:
219,161,77032,2,0,P|271:178|293:310,1,176.000005371094,2|0,1:2|1:2,0:0:0:0:
167,274,77568,1,0,0:0:0:0:
167,274,77925,5,0,0:0:0:0:
213,339,78104,1,8,0:0:0:0:
344,247,78283,1,8,0:2:0:0:
210,181,78461,1,8,0:0:0:0:
422,190,78640,6,0,P|430:153|437:102,2,80,2|2|2,1:2|0:0|0:0,0:0:0:0:
330,253,79176,1,2,1:2:0:0:
343,126,79354,2,0,P|336:96|315:43,1,80,10|0,0:2|0:0,0:0:0:0:
245,108,79712,1,8,0:2:0:0:
169,205,79890,2,0,P|111:215|60:205,2,80,0|0|0,1:2|0:0|1:2,0:0:0:0:
273,203,80426,2,0,P|260:242|231:277,1,80,0|0,0:0|1:2,0:0:0:0:
120,98,80783,1,8,0:2:0:0:
239,115,80962,1,0,0:0:0:0:
176,217,81141,2,0,P|140:237|78:248,1,80,2|8,0:3|0:0,0:0:0:0:
325,123,81498,6,0,P|376:100|493:89,1,160,4|0,1:2|0:0,0:0:0:0:
328,199,82034,1,0,1:2:0:0:
445,254,82213,2,0,P|487:275|518:300,1,80,8|0,0:2|0:0,0:0:0:0:
221,163,82570,1,8,0:2:0:0:
260,241,82748,2,0,P|274:278|279:334,1,80,0|0,1:2|0:0,0:0:0:0:
166,230,83106,1,0,1:2:0:0:
100,296,83284,2,0,P|58:305|9:305,1,80,0|0,0:0|1:2,0:0:0:0:
42,58,83642,1,8,0:2:0:0:
156,76,83820,1,0,0:0:0:0:
94,173,83999,1,0,0:0:0:0:
130,0,84178,1,8,0:0:0:0:
300,97,84356,6,0,P|301:132|300:163,2,64
296,99,85071,2,0,P|296:126|298:163,1,47.9999985351563
317,337,92216,6,0,P|292:350|259:354,1,55.9999982910157,2|0,0:0|0:0,0:0:0:0:
109,221,92574,2,0,P|145:259|245:281,1,132.00000402832,2|0,0:0|0:0,0:0:0:0:
369,260,92931,1,4,1:2:0:0:
369,260,93288,5,0,0:0:0:0:
354,113,93467,1,0,1:2:0:0:
439,238,93645,2,0,P|473:258|511:271,1,80,8|0,0:2|0:0,0:0:0:0:
290,203,94003,1,8,0:2:0:0:
426,126,94181,2,0,P|441:77|347:18,1,160,0|0,1:2|1:2,0:0:0:0:
194,85,94717,2,0,P|139:88|100:87,1,80,0|0,0:0|1:2,0:0:0:0:
258,11,95074,1,0,1:2:0:0:
310,92,95253,1,8,0:0:0:0:
185,13,95432,1,8,0:2:0:0:
341,26,95610,1,8,0:0:0:0:
246,158,95789,5,0,1:2:0:0:
352,177,95968,2,0,P|357:221|355:327,1,143.999995605469,0|0,0:0|1:2,0:0:0:0:
157,341,96504,1,8,0:2:0:0:
157,341,96861,1,8,0:2:0:0:
153,187,97039,1,0,1:2:0:0:
203,258,97218,5,0,0:0:0:0:
86,307,97397,1,0,1:2:0:0:
75,195,97575,2,0,P|72:149|78:90,1,80,0|0,0:0|1:2,0:0:0:0:
275,181,97933,1,8,0:2:0:0:
275,181,98290,2,0,P|327:192|457:181,1,176.000005371094,8|6,0:2|1:2,0:0:0:0:
170,164,99004,5,2,0:0:0:0:
298,106,99183,2,0,P|300:56|298:17,2,80,2|8|0,1:2|0:2|0:0,0:0:0:0:
98,138,99719,1,8,0:2:0:0:
279,237,99898,2,0,P|313:209|340:171,1,80,2|0,1:2|0:0,0:0:0:0:
413,192,100255,5,0,1:2:0:0:
233,147,100434,2,0,P|199:175|172:213,1,80,0|0,0:0|1:2,0:0:0:0:
254,366,100791,1,8,0:2:0:0:
359,356,100970,1,0,0:0:0:0:
359,356,101059,1,0,0:0:0:0:
359,356,101148,1,0,0:0:0:0:
291,244,101327,1,8,0:0:0:0:
157,331,101505,1,0,1:2:0:0:
157,331,102041,5,0,1:2:0:0:
48,337,102220,2,0,P|43:279|48:236,1,80,8|0,0:2|0:0,0:0:0:0:
234,184,102577,2,0,P|239:242|234:285,1,80,8|0,0:2|1:2,0:0:0:0:
134,238,102935,1,2,0:0:0:0:
254,364,103113,2,0,P|319:367|418:326,1,160,0|0,1:2|1:2,0:0:0:0:
405,98,103649,5,10,0:2:0:0:
260,40,103828,1,0,0:0:0:0:
310,144,104006,1,10,0:2:0:0:
332,70,104185,1,0,0:0:0:0:
185,123,104364,2,0,P|176:164|197:302,2,160,6|0|8,1:2|0:0|0:2,0:0:0:0:
191,124,105435,5,8,0:2:0:0:
299,286,105614,2,0,P|322:246|337:192,1,88.000002685547,0|0,1:2|0:0,0:0:0:0:
269,143,105971,1,0,1:2:0:0:
400,262,106150,2,0,P|437:258|488:232,1,80,0|0,0:0|1:2,0:0:0:0:
268,367,106507,1,8,0:2:0:0:
303,283,106686,1,0,0:0:0:0:
303,283,106775,1,0,0:0:0:0:
303,283,106865,1,0,0:0:0:0:
175,352,107043,1,8,0:2:0:0:
240,212,107222,5,0,1:2:0:0:
157,265,107400,2,0,P|92:248|-7:241,1,160,0|0,0:0|1:2,0:0:0:0:
167,163,107936,2,0,P|199:138|216:62,1,95.9999970703126,8|0,0:2|0:0,0:0:0:0:
345,221,108294,2,0,P|313:246|296:322,1,95.9999970703126,8|0,0:2|1:2,0:0:0:0:
372,370,108651,1,0,0:0:0:0:
452,363,108830,1,0,1:2:0:0:
452,363,109187,5,0,1:2:0:0:
441,177,109365,1,10,0:2:0:0:
441,177,109455,2,0,P|456:219|448:257,1,80
387,303,109723,2,0,P|322:300|208:294,1,143.999995605469,10|0,0:2|0:0,0:0:0:0:
165,292,110080,1,4,1:2:0:0:
326,93,110437,5,0,0:0:0:0:
196,124,110616,1,0,1:2:0:0:
346,192,110795,2,0,P|388:191|440:170,1,88.000002685547,8|0,0:2|0:0,0:0:0:0:
202,208,111152,1,8,0:2:0:0:
250,70,111330,2,0,P|225:29|113:15,1,160,0|0,1:2|1:2,0:0:0:0:
79,102,111866,2,0,P|38:103|-4:103,1,80,0|0,0:0|1:2,0:0:0:0:
189,253,112224,5,10,0:2:0:0:
168,124,112402,1,0,0:0:0:0:
293,186,112581,2,0,P|341:187|403:178,1,95.9999970703126,2|8,0:0|0:2,0:0:0:0:
177,268,112938,2,0,P|220:284|369:293,1,160,0|0,1:2|0:0,0:0:0:0:
307,84,113474,1,0,1:2:0:0:
154,196,113653,1,8,0:2:0:0:
154,196,114010,1,8,0:2:0:0:
301,268,114189,1,0,1:2:0:0:
92,254,114367,5,0,0:0:0:0:
170,338,114546,2,0,P|137:359|27:370,1,143.999995605469,0|0,1:2|1:2,0:0:0:0:
206,258,115082,2,0,P|250:242|298:241,1,95.9999970703126,8|2,0:2|0:0,0:0:0:0:
147,94,115439,2,0,P|102:110|54:111,1,95.9999970703126,10|2,0:2|0:0,0:0:0:0:
40,189,115796,5,4,1:2:0:0:
158,14,115975,2,0,P|209:3|281:82,1,160,0|2,0:0|1:2,0:0:0:0:
280,294,116511,1,8,0:2:0:0:
280,294,116868,1,10,0:2:0:0:
169,296,117047,1,2,1:2:0:0:
326,360,117226,5,0,0:0:0:0:
217,232,117404,2,0,P|204:187|218:142,2,95.9999970703126,8|0|0,1:2|0:0|1:2,0:0:0:0:
453,279,117940,1,8,0:2:0:0:
429,112,118119,1,8,0:0:0:0:
293,198,118297,1,0,0:0:0:0:
393,212,118476,1,8,0:2:0:0:
366,43,118655,2,0,P|307:39|174:43,2,160,4|0|8,1:2|0:0|0:2,0:0:0:0:
372,47,119726,2,0,P|331:66|285:67,1,80,8|2,0:2|1:2,0:0:0:0:
160,187,120084,5,2,0:0:0:0:
121,100,120262,1,0,1:2:0:0:
256,134,120441,2,0,P|256:182|255:222,1,80,2|0,0:0|1:2,0:0:0:0:
400,317,120798,2,0,P|350:339|280:340,1,95.9999970703126,8|2,0:2|0:0,0:0:0:0:
162,367,121156,2,0,P|122:348|88:269,1,120,2|0,0:3|0:0,0:0:0:0:
218,308,121513,5,2,1:2:0:0:
271,184,121691,1,0,0:0:0:0:
188,219,121870,1,2,0:0:0:0:
304,265,122049,1,0,1:2:0:0:
265,97,122227,1,8,0:2:0:0:
265,97,122585,5,8,0:2:0:0:
97,163,122763,2,0,P|75:131|89:10,2,143.999995605469,0|0|0,1:2|1:2|1:2,0:0:0:0:
136,274,123656,2,0,P|179:280|229:268,1,88.000002685547,8|0,0:2|0:0,0:0:0:0:
376,110,124014,2,0,P|333:104|283:116,1,88.000002685547,8|0,0:2|0:0,0:0:0:0:
201,190,124371,1,0,1:2:0:0:
449,167,124728,6,0,P|465:210|465:246,1,80,0|0,0:0|1:2,0:0:0:0:
280,360,125086,2,0,P|259:300|351:227,1,191.999994140625,8|8,0:2|0:2,0:0:0:0:
460,153,125621,2,0,P|397:148|288:151,1,160,0|0,1:2|1:2,0:0:0:0:
229,103,126157,1,0,0:0:0:0:
229,103,126336,1,0,1:2:0:0:
36,193,126515,5,10,0:2:0:0:
162,154,126693,1,0,0:0:0:0:
162,154,126783,1,0,0:0:0:0:
162,154,126872,2,0,P|167:227|171:275,1,95.9999970703126,2|8,0:0|0:2,0:0:0:0:
356,266,127229,5,4,1:2:0:0:
268,241,127408,1,2,0:0:0:0:
290,330,127586,1,0,0:0:0:0:
462,179,127765,6,0,B|379:191|382:122|298:129,1,176.000005371094,2|0,1:2|0:0,0:0:0:0:
442,257,128301,1,8,0:2:0:0:
200,176,128480,2,0,P|161:212|142:349,1,191.999994140625,2|0,1:2|1:2,0:0:0:0:
358,281,129016,2,0,P|358:226|356:172,1,95.9999970703126,0|0,0:0|1:2,0:0:0:0:
234,346,129373,2,0,P|234:291|232:237,1,95.9999970703126,8|0,0:2|0:0,0:0:0:0:
477,343,129730,2,0,P|477:288|479:234,1,95.9999970703126,10|0,0:2|0:0,0:0:0:0:
269,114,130087,5,0,1:2:0:0:
276,240,130266,2,0,P|230:252|101:242,1,160,0|0,0:0|1:2,0:0:0:0:
124,33,130802,1,8,0:2:0:0:
80,315,131159,5,8,0:2:0:0:
19,178,131338,2,0,P|64:170|146:172,1,88.000002685547,2|0,1:2|0:0,0:0:0:0:
243,317,131695,5,0,1:2:0:0:
346,256,131874,2,0,P|365:297|370:336,1,80,0|0,0:0|1:2,0:0:0:0:
368,72,132231,5,10,0:2:0:0:
471,193,132410,1,0,0:0:0:0:
258,235,132588,2,0,P|245:178|265:74,1,143.999995605469,10|0,0:2|0:0,0:0:0:0:
252,15,132946,1,4,1:2:0:0:
129,155,133124,1,2,0:0:0:0:
234,130,133303,1,0,0:0:0:0:
70,56,133482,1,2,1:2:0:0:
7,204,133660,6,0,P|48:245|185:248,1,176.000005371094,8|10,0:2|0:2,0:0:0:0:
322,354,134196,2,0,P|399:303|406:212,1,191.999994140625,2|0,1:2|1:2,0:0:0:0:
333,112,134732,2,0,P|294:82|255:81,1,80,0|0,0:0|1:2,0:0:0:0:
193,292,135089,1,8,0:2:0:0:
330,269,135268,1,0,0:0:0:0:
229,146,135447,2,0,P|181:145|97:147,1,132.00000402832,10|0,0:2|0:0,0:0:0:0:
261,61,135804,5,4,1:2:0:0:
261,61,136161,2,0,P|262:22|259:-20,1,80,0|0,0:0|1:2,0:0:0:0:
345,182,136518,2,0,P|389:154|452:144,1,95.9999970703126,8|0,0:2|0:0,0:0:0:0:
171,201,136876,2,0,P|151:248|167:306,1,95.9999970703126,8|0,0:2|1:2,0:0:0:0:
412,298,137233,5,8,0:3:0:0:
264,192,137412,1,10,1:2:0:0:
254,367,137590,1,8,0:3:0:0:
254,367,137947,5,8,0:2:0:0:
397,270,138126,1,8,0:3:0:0:
264,192,138305,1,10,0:3:0:0:
455,213,138483,1,8,0:0:0:0:
355,41,138662,1,6,1:2:0:0:
257,272,143842,5,8,0:0:0:0:
271,117,144021,1,8,0:0:0:0:
95,154,144200,5,10,0:2:0:0:
41,237,144378,2,0,P|79:281|166:288,2,128,2|0|8,1:2|0:0|0:0,0:0:0:0:
41,237,145450,1,8,0:0:0:0:
42,103,145629,1,2,1:2:0:0:
214,215,145807,1,0,0:0:0:0:
191,131,145986,1,0,1:0:0:0:
141,188,146165,2,0,P|138:223|136:254,1,64,0|0,0:0|1:0,0:0:0:0:
256,319,146522,1,10,0:2:0:0:
479,319,146879,1,10,0:0:0:0:
326,278,147237,6,0,P|302:248|396:155,1,192,2|0,1:2|1:0,0:0:0:0:
142,151,147951,1,8,0:0:0:0:
443,197,148308,1,8,0:0:0:0:
405,73,148487,1,0,1:0:0:0:
282,219,148666,5,2,0:0:0:0:
294,98,148844,1,0,1:0:0:0:
188,149,149023,2,0,P|146:145|91:140,1,80,2|0,0:3|1:0,0:0:0:0:
221,265,149380,5,8,0:0:0:0:
66,277,149559,1,8,0:0:0:0:
156,163,149738,2,0,P|203:171|222:174,1,64,2|8,0:3|0:0,0:0:0:0:
256,112,150005,1,2,0:0:0:0:
256,112,150095,1,2,1:2:0:0:
478,96,150452,5,0,0:0:0:0:
402,99,150631,2,0,P|364:100|326:102,2,64,0|10|0,1:0|0:0|0:0,0:0:0:0:
301,223,151167,2,0,P|269:224|237:226,1,64,10|0,0:0|1:0,0:0:0:0:
482,309,151524,1,2,0:0:0:0:
383,296,151703,1,0,1:0:0:0:
448,224,151881,1,2,0:3:0:0:
274,352,152238,5,8,0:0:0:0:
146,321,152417,1,8,0:0:0:0:
249,225,152596,1,2,0:0:0:0:
146,321,152774,1,8,0:0:0:0:
37,234,152953,6,0,P|19:199|101:85,1,192,0|0,1:0|1:0,0:0:0:0:
258,82,153668,1,8,0:0:0:0:
258,82,154025,1,10,0:0:0:0:
208,22,154203,2,0,P|183:47|168:80,1,64,0|0,1:0|0:0,0:0:0:0:
256,227,154561,1,0,1:0:0:0:
312,171,154739,2,0,P|270:155|230:154,1,64,2|0,0:0|1:0,0:0:0:0:
99,222,155097,1,8,0:0:0:0:
313,307,155454,1,10,0:0:0:0:
394,313,155633,1,2,1:3:0:0:
255,368,155811,6,0,P|193:367|104:348,2,128,2|2|10,1:2|0:0|0:0,0:0:0:0:
306,181,156883,1,10,0:2:0:0:
203,229,157062,2,0,P|233:241|268:245,1,64,0|0,1:0|0:0,0:0:0:0:
169,126,157419,1,0,1:0:0:0:
355,99,157598,2,0,P|353:147|344:194,1,96
262,176,157955,5,8,0:0:0:0:
243,29,158133,1,8,0:0:0:0:
447,42,158312,2,0,P|445:90|436:137,1,96,2|0,0:0|0:0,0:0:0:0:
351,125,158669,1,2,1:2:0:0:
351,125,159027,6,0,P|306:126|281:125,1,64,2|0,0:0|1:0,0:0:0:0:
196,199,159384,2,0,P|230:197|263:199,1,64,10|0,0:0|0:0,0:0:0:0:
435,296,159741,2,0,P|401:298|368:296,1,64,10|0,0:0|1:0,0:0:0:0:
242,370,160098,5,4,1:2:0:0:
158,332,160277,1,0,1:0:0:0:
239,277,160456,2,0,P|244:246|246:214,1,64,2|0,0:3|1:0,0:0:0:0:
180,40,160813,5,8,0:0:0:0:
307,159,160992,1,8,0:0:0:0:
111,130,161170,1,10,0:3:0:0:
224,254,161349,1,8,0:0:0:0:
36,295,161528,1,2,1:2:0:0:
36,295,161885,6,0,P|66:273|76:247,1,64,0|0,0:0|1:0,0:0:0:0:
181,147,162242,2,0,P|196:195|225:232,1,95.9999970703126,8|0,0:0|0:0,0:0:0:0:
369,309,162599,2,0,P|395:266|397:222,1,95.9999970703126,8|0,0:0|1:2,0:0:0:0:
487,199,162957,1,2,0:0:0:0:
373,151,163135,1,0,1:0:0:0:
322,259,163314,1,0,0:0:0:0:
373,151,163493,1,0,1:0:0:0:
203,127,163671,1,8,0:2:0:0:
203,127,164028,2,0,P|196:81|206:-3,1,120,10|0,0:0|0:0,0:0:0:0:
300,7,164386,1,2,1:2:0:0:
300,7,164743,5,0,0:0:0:0:
283,92,164922,1,0,1:0:0:0:
122,67,165100,2,0,P|67:57|39:29,1,95.9999970703126,8|0,0:0|0:0,0:0:0:0:
195,161,165458,2,0,P|210:198|208:260,1,95.9999970703126,8|0,0:0|1:0,0:0:0:0:
381,278,165815,2,0,P|356:349|281:359,1,160,2|0,0:0|0:0,0:0:0:0:
167,360,166351,5,0,1:0:0:0:
295,192,166529,1,8,0:0:0:0:
209,253,166708,1,0,0:0:0:0:
209,253,166797,1,0,0:0:0:0:
209,253,166887,1,0,0:0:0:0:
288,64,167065,1,8,0:0:0:0:
203,137,167244,1,2,1:2:0:0:
203,137,167601,5,0,0:0:0:0:
203,137,167959,5,10,0:0:0:0:
203,137,168316,5,8,0:0:0:0:
412,217,168673,5,2,0:0:0:0:
347,250,168852,1,0,1:0:0:0:
420,146,169030,1,2,0:0:0:0:
468,268,169209,1,0,1:0:0:0:
336,158,169388,5,10,0:0:0:0:
507,190,169566,1,8,0:0:0:0:
391,325,169745,1,10,0:0:0:0:
336,158,169924,1,8,0:0:0:0:
256,241,170102,1,2,1:2:0:0:
256,241,170459,2,0,P|210:240|168:239,1,80,0|0,0:0|1:0,0:0:0:0:
353,149,170817,6,0,P|406:126|438:53,1,95.9999970703126,10|0,0:0|0:0,0:0:0:0:
186,106,171174,2,0,P|159:61|160:6,1,95.9999970703126,10|0,0:0|1:0,0:0:0:0:
278,68,171531,1,0,0:0:0:0:
170,197,171710,2,0,P|120:194|91:182,2,80,8|2|0,0:0|0:0|1:0,0:0:0:0:
309,222,172246,5,8,0:0:0:0:
194,117,172424,1,8,0:0:0:0:
148,273,172603,2,0,P|188:292|270:300,1,120,2|0,0:3|0:0,0:0:0:0:
314,240,172960,1,2,1:2:0:0:
281,313,173318,6,0,P|247:338|195:353,1,80,2|0,0:0|1:0,0:0:0:0:
283,74,173675,2,0,P|330:93|371:117,1,95.9999970703126,10|0,0:0|0:0,0:0:0:0:
144,206,174032,2,0,P|110:161|102:108,1,95.9999970703126,10|0,0:2|1:0,0:0:0:0:
110,300,174389,5,4,0:2:0:0:
262,332,174568,1,8,1:2:0:0:
251,173,174747,2,0,P|248:123|242:69,1,80,2|0,0:3|1:0,0:0:0:0:
213,254,175104,5,8,0:0:0:0:
381,136,175283,1,8,0:0:0:0:
391,340,175461,1,2,0:0:0:0:
213,254,175640,1,8,0:0:0:0:
325,241,175819,1,2,1:2:0:0:
325,241,176176,6,0,P|367:246|413:246,1,80,2|0,0:0|1:0,0:0:0:0:
489,103,176533,2,0,P|442:127|384:141,1,95.9999970703126,10|0,0:0|0:0,0:0:0:0:
275,19,176890,2,0,P|339:41|380:46,1,95.9999970703126,10|0,0:0|1:0,0:0:0:0:
386,163,177248,5,4,0:2:0:0:
177,135,177426,1,8,1:2:0:0:
386,163,177605,2,0,P|432:170|472:175,1,80,2|0,0:3|1:0,0:0:0:0:
266,218,177962,1,8,0:0:0:0:
291,81,178141,5,8,0:0:0:0:
104,58,178319,1,10,0:3:0:0:
170,234,178498,1,8,0:0:0:0:
105,156,178677,5,4,1:2:0:0:
7,151,178856,1,2,0:0:0:0:
50,238,179034,1,0,0:0:0:0:
242,121,179213,6,0,B|216:223|293:211|268:323,1,191.999994140625,2|0,1:2|0:0,0:0:0:0:
155,243,179749,1,8,0:2:0:0:
365,96,179927,2,0,P|454:138|456:237,1,207.999990478516,2|8,1:2|0:2,0:0:0:0:
350,297,180463,2,0,P|348:339|346:381,1,80,2|2,0:0|1:2,0:0:0:0:
182,153,180820,1,8,0:2:0:0:
103,232,180999,1,8,0:0:0:0:
43,108,181178,2,0,P|43:66|45:15,1,80,2|8,0:3|0:0,0:0:0:0:
255,62,181535,1,0,1:2:0:0:
255,62,181892,6,0,P|257:110|256:147,1,80,0|0,0:0|1:2,0:0:0:0:
186,355,182250,2,0,P|201:300|332:264,1,191.999994140625,8|8,0:2|0:2,0:0:0:0:
501,321,182785,1,2,1:2:0:0:
381,346,182964,1,0,0:0:0:0:
370,200,183143,1,0,1:2:0:0:
496,242,183321,2,0,P|446:260|399:265,1,88.000002685547,0|0,0:0|1:2,0:0:0:0:
260,66,183679,1,10,0:2:0:0:
396,104,183857,1,8,0:0:0:0:
228,184,184036,2,0,P|202:258|231:368,1,191.999994140625,14|4,0:2|1:2,0:0:0:0:
221,373,184750,5,0,0:0:0:0:
371,286,184929,2,0,P|331:301|287:304,1,88.000002685547,2|8,1:2|0:2,0:0:0:0:
177,265,185286,1,0,0:0:0:0:
370,178,185465,1,10,0:2:0:0:
236,28,185644,2,0,B|212:123|295:128|257:229,1,191.999994140625,2|0,1:2|1:2,0:0:0:0:
115,367,186180,2,0,P|55:345|43:208,1,191.999994140625,0|8,0:0|0:2,0:0:0:0:
180,180,186715,1,0,0:0:0:0:
119,277,186894,1,10,0:2:0:0:
84,125,187073,1,2,0:0:0:0:
261,191,187251,1,0,1:2:0:0:
261,191,187609,5,0,0:0:0:0:
158,103,187787,1,0,1:2:0:0:
201,273,187966,2,0,P|248:289|296:289,1,95.9999970703126,8|0,0:2|0:0,0:0:0:0:
385,72,188323,2,0,P|338:56|290:56,1,95.9999970703126,8|0,0:2|1:2,0:0:0:0:
433,171,188680,6,0,P|423:216|394:248,1,80,0|10,0:0|1:2,0:0:0:0:
229,348,189038,2,0,P|179:313|150:182,1,191.999994140625,2|8,0:0|0:2,0:0:0:0:
230,123,189574,1,0,0:0:0:0:
230,123,189663,1,0,0:0:0:0:
230,123,189752,1,2,0:0:0:0:
74,227,189931,1,8,0:0:0:0:
146,51,190110,1,4,1:2:0:0:
146,51,190467,5,0,0:0:0:0:
54,16,190645,1,0,1:0:0:0:
125,135,190824,1,8,0:0:0:0:
288,65,191003,1,0,0:0:0:0:
125,135,191181,1,8,0:0:0:0:
368,139,191360,2,0,P|373:199|363:272,1,95.9999970703126,0|0,1:0|0:0,0:0:0:0:
271,150,191717,1,0,1:0:0:0:
347,324,191896,1,8,0:0:0:0:
163,291,192075,1,0,1:0:0:0:
261,244,192253,1,8,0:0:0:0:
261,244,192610,2,0,P|210:258|96:264,1,160,12|0,0:0|1:2,0:0:0:0:
261,244,193325,6,0,P|307:232|350:234,1,80,0|0,0:0|1:0,0:0:0:0:
135,185,193682,2,0,P|97:178|44:148,1,95.9999970703126,8|0,0:0|0:0,0:0:0:0:
295,316,194040,2,0,P|332:341|365:385,1,95.9999970703126,8|0,0:0|1:0,0:0:0:0:
312,89,194397,1,0,0:0:0:0:
201,234,194575,1,2,1:2:0:0:
346,176,194754,1,0,0:0:0:0:
168,150,194933,1,0,1:0:0:0:
297,253,195111,1,10,0:0:0:0:
297,253,195469,2,0,P|350:275|424:279,1,111.999996582031,12|0,0:0|0:0,0:0:0:0:
284,103,195826,5,4,1:2:0:0:
404,27,196005,2,0,P|429:80|418:123,1,95.9999970703126,2|0,0:0|0:0,0:0:0:0:
227,186,196362,2,0,B|127:195|145:126|46:138,1,191.999994140625,2|0,1:2|0:0,0:0:0:0:
160,73,196898,1,8,0:2:0:0:
16,246,197076,2,0,P|26:343|121:357,1,207.999990478516,2|0,1:2|1:2,0:0:0:0:
230,297,197612,2,0,P|228:251|226:207,1,88.000002685547,0|0,0:0|1:2,0:0:0:0:
477,353,197970,1,8,0:2:0:0:
394,320,198148,1,0,0:0:0:0:
394,320,198238,1,0,0:0:0:0:
394,320,198327,1,10,0:2:0:0:
256,367,198506,1,8,0:0:0:0:
267,148,198684,1,0,1:2:0:0:
267,148,199041,5,0,0:0:0:0:
269,272,199220,1,0,1:2:0:0:
162,144,199399,1,8,0:2:0:0:
195,300,199577,1,0,0:0:0:0:
55,153,199756,1,8,0:2:0:0:
135,358,199935,1,2,1:2:0:0:
278,262,200113,5,0,0:0:0:0:
172,217,200292,1,0,1:2:0:0:
237,367,200471,2,0,P|280:364|326:340,1,80,0|0,0:0|1:2,0:0:0:0:
470,201,200828,1,10,0:2:0:0:
470,201,201185,2,0,P|422:154|321:134,1,143.999995605469,10|0,0:2|0:0,0:0:0:0:
260,146,201542,1,4,1:2:0:0:
357,49,201721,5,2,0:0:0:0:
249,232,201900,2,0,P|202:258|80:262,1,176.000005371094,0|8,0:0|0:2,0:0:0:0:
82,262,202614,1,10,0:2:0:0:
67,60,202793,1,2,1:2:0:0:
252,118,202971,2,0,P|252:173|234:224,1,95.9999970703126,0|0,0:0|1:2,0:0:0:0:
316,43,203329,2,0,P|380:20|433:13,1,95.9999970703126,0|0,0:0|1:2,0:0:0:0:
333,198,203686,1,8,0:2:0:0:
492,208,203865,1,0,0:0:0:0:
333,198,204043,2,0,P|323:251|341:363,1,160,10|0,0:2|1:2,0:0:0:0:
329,354,204758,5,0,0:0:0:0:
190,365,204936,1,0,1:2:0:0:
403,306,205115,1,8,0:2:0:0:
403,306,205472,5,8,0:2:0:0:
223,279,205651,1,0,1:2:0:0:
349,238,205830,1,0,0:0:0:0:
226,101,206009,5,10,1:2:0:0:
363,144,206188,1,2,0:0:0:0:
225,193,206366,1,0,1:0:0:0:
321,78,206544,5,8,0:0:0:0:
157,145,206723,1,0,0:0:0:0:
321,207,206902,1,8,0:0:0:0:
74,145,207080,6,0,P|75:210|77:253,1,95.9999970703126,2|6,0:0|1:2,0:0:0:0:
156,197,229410,5,8,0:0:0:0:
310,216,229588,1,8,0:0:0:0:
198,133,229767,5,8,0:0:0:0:
408,111,229946,1,8,0:0:0:0:
248,58,230124,5,6,1:2:0:0:
330,139,230303,2,0,P|333:180|334:304,1,160,10|0,0:0|1:2,0:0:0:0:
203,262,230839,1,10,0:2:0:0:
203,262,231196,2,0,P|201:212|202:175,1,80,8|2,0:2|1:2,0:0:0:0:
257,334,231553,2,0,P|223:355|170:357,2,80,0|0|0,0:0|1:2|0:0,0:0:0:0:
124,256,232089,1,0,1:2:0:0:
279,344,232268,2,0,P|335:368|405:366,1,95.9999970703126,8|0,0:2|0:0,0:0:0:0:
430,149,232625,2,0,P|382:155|339:176,1,95.9999970703126,10|10,0:2|0:3,0:0:0:0:
314,254,232983,5,0,1:2:0:0:
221,109,233161,2,0,P|153:129|126:231,1,160,10|0,0:0|1:2,0:0:0:0:
23,30,233697,1,8,0:2:0:0:
23,30,234054,2,0,P|76:46|95:81,1,95.9999970703126,10|2,0:2|1:2,0:0:0:0:
178,249,234412,5,0,0:0:0:0:
78,269,234590,1,0,1:2:0:0:
110,174,234769,1,0,0:0:0:0:
416,196,235126,1,8,0:2:0:0:
416,196,235483,1,8,0:2:0:0:
342,283,235662,1,8,0:3:0:0:
340,123,235841,5,6,1:2:0:0:
508,191,236019,2,0,P|510:245|506:372,1,176.000005371094,10|0,0:0|1:2,0:0:0:0:
315,235,236555,2,0,P|316:290|318:334,1,88.000002685547,10|0,0:2|0:0,0:0:0:0:
201,182,236913,1,10,0:2:0:0:
188,369,237091,1,0,1:2:0:0:
24,233,237270,1,2,0:0:0:0:
29,327,237448,1,2,1:2:0:0:
114,276,237627,2,0,P|114:234|113:191,1,80,0|0,0:0|1:2,0:0:0:0:
256,304,237984,5,8,0:2:0:0:
257,48,238342,1,8,0:2:0:0:
354,183,238520,5,8,0:3:0:0:
240,198,238699,1,2,1:2:0:0:
364,104,238878,2,0,P|297:104|208:13,1,191.999994140625,10|0,0:0|1:2,0:0:0:0:
106,155,239413,2,0,P|152:136|191:141,1,80,10|0,0:2|0:0,0:0:0:0:
343,260,239771,1,8,0:2:0:0:
257,338,239949,2,0,P|199:348|100:296,2,160,0|0|0,1:2|1:2|1:2,0:0:0:0:
248,181,240843,1,10,0:2:0:0:
325,263,241021,1,0,0:0:0:0:
411,193,241200,2,0,P|451:193|496:193,1,80,8|8,0:2|0:3,0:0:0:0:
315,21,241557,5,6,1:2:0:0:
427,47,241736,2,0,P|378:109|270:124,1,191.999994140625,10|0,0:0|1:2,0:0:0:0:
62,122,242272,1,10,0:2:0:0:
62,122,242629,5,10,0:2:0:0:
12,234,242808,1,0,1:2:0:0:
194,93,242986,2,0,P|209:53|218:14,1,80,0|0,0:0|1:2,0:0:0:0:
192,278,243343,2,0,P|142:309|66:320,1,120,2|0,0:3|0:0,0:0:0:0:
89,242,243701,1,8,0:2:0:0:
279,330,243879,1,8,0:0:0:0:
147,184,244058,2,0,P|114:142|104:96,2,80,2|8|2,0:3|0:0|1:2,0:0:0:0:
347,295,244594,6,0,P|395:283|490:179,1,176.000005371094,10|0,0:0|1:2,0:0:0:0:
359,57,245130,1,8,0:2:0:0:
359,57,245487,1,8,0:2:0:0:
173,57,245666,2,0,P|235:54|302:58,1,103.999995239258,2|0,1:2|0:0,0:0:0:0:
359,133,246023,1,0,1:2:0:0:
258,194,246202,1,2,0:3:0:0:
258,194,246559,5,8,0:2:0:0:
410,290,246738,1,8,0:0:0:0:
255,375,246916,2,0,P|204:378|139:374,1,80,2|8,0:0|0:0,0:0:0:0:
106,243,247273,6,0,P|157:273|365:284,1,264.000008056641,6|0,1:2|1:2,0:0:0:0:
164,373,247988,2,0,P|108:372|51:341,1,95.9999970703126,8|0,0:2|0:0,0:0:0:0:
155,168,248345,2,0,P|211:169|268:200,1,95.9999970703126,8|0,0:2|1:2,0:0:0:0:
404,106,248703,5,0,0:0:0:0:
489,213,248881,2,0,P|489:253|479:298,2,80,2|2|0,1:2|0:3|1:2,0:0:0:0:
324,34,249417,1,8,0:2:0:0:
290,220,249596,1,8,0:0:0:0:
391,129,249774,1,2,0:3:0:0:
225,73,249953,1,8,0:0:0:0:
290,220,250132,5,2,1:2:0:0:
163,310,250310,2,0,P|109:301|62:197,1,176.000005371094,10|0,0:0|1:2,0:0:0:0:
223,374,250846,2,0,P|269:345|295:295,1,95.9999970703126,8|0,0:2|0:0,0:0:0:0:
207,99,251204,2,0,P|161:128|135:178,1,95.9999970703126,8|0,0:2|1:2,0:0:0:0:
402,230,251561,1,0,0:0:0:0:
240,255,251739,1,2,1:2:0:0:
341,111,251918,2,0,P|389:91|444:89,1,88.000002685547,2|0,0:3|1:2,0:0:0:0:
300,33,252275,5,8,0:2:0:0:
208,174,252454,1,8,0:0:0:0:
369,235,252633,2,0,P|421:227|476:191,1,95.9999970703126,2|8,0:3|0:0,0:0:0:0:
391,316,252990,5,6,1:2:0:0:
160,228,253169,2,0,P|153:266|172:387,1,160,8|0,0:0|1:2,0:0:0:0:
5,194,253704,2,0,P|41:231|95:252,1,95.9999970703126,8|0,0:2|0:0,0:0:0:0:
212,62,254062,2,0,P|176:99|122:120,1,95.9999970703126,10|0,0:2|1:2,0:0:0:0:
61,87,254419,1,0,0:0:0:0:
155,236,254598,1,0,1:2:0:0:
274,175,254776,2,0,P|327:170|402:172,1,120,2|0,0:3|0:0,0:0:0:0:
428,100,255134,5,10,0:2:0:0:
332,311,255312,1,8,0:0:0:0:
230,271,255491,2,0,P|176:272|133:271,1,88.000002685547,2|8,0:3|0:0,0:0:0:0:
93,201,255848,5,2,1:2:0:0:
169,370,256027,1,8,0:0:0:0:
169,370,256384,1,0,1:2:0:0:
217,155,256563,1,8,0:2:0:0:
22,193,256741,1,0,0:0:0:0:
156,248,256920,1,10,0:2:0:0:
193,67,257099,1,0,1:2:0:0:
389,219,257277,5,0,0:0:0:0:
297,148,257456,1,0,1:2:0:0:
285,316,257634,2,0,P|338:324|439:300,1,143.999995605469,2|0,0:3|0:0,0:0:0:0:
479,242,257992,1,10,0:2:0:0:
422,63,258170,1,8,0:0:0:0:
312,218,258349,2,0,P|367:236|407:235,1,88.000002685547,2|8,0:3|0:0,0:0:0:0:
437,171,258706,5,6,1:2:0:0:
211,192,258885,2,0,P|210:263|220:358,1,160,8|0,0:0|1:2,0:0:0:0:
259,95,259421,2,0,P|300:70|347:66,1,95.9999970703126,8|0,0:2|0:0,0:0:0:0:
478,232,259778,2,0,P|436:256|389:260,1,95.9999970703126,10|0,0:2|1:2,0:0:0:0:
200,125,260135,5,0,0:0:0:0:
328,165,260314,1,0,1:2:0:0:
328,165,260403,1,0,0:0:0:0:
328,165,260493,1,2,0:3:0:0:
234,239,260671,1,0,1:2:0:0:
228,57,260850,5,10,0:2:0:0:
305,238,261029,1,8,0:0:0:0:
102,225,261207,2,0,P|75:196|55:141,1,95.9999970703126,2|8,0:3|0:0,0:0:0:0:
23,270,261564,5,2,1:2:0:0:
9,50,261743,1,8,0:0:0:0:
9,50,262100,1,0,1:2:0:0:
74,164,262279,2,0,P|107:197|153:211,1,95.9999970703126,8|0,0:2|0:0,0:0:0:0:
293,57,262636,2,0,P|259:23|213:9,1,95.9999970703126,10|0,0:2|1:2,0:0:0:0:
165,72,262994,1,0,0:0:0:0:
381,8,263172,2,0,P|401:50|394:116,1,95.9999970703126,0|2,1:2|0:3,0:0:0:0:
255,195,263529,1,0,1:2:0:0:
255,195,263619,1,0,0:0:0:0:
255,195,263708,1,10,0:2:0:0:
291,42,263887,1,8,0:0:0:0:
470,127,264065,2,0,P|470:172|470:236,1,80,2|8,0:3|0:0,0:0:0:0:
334,154,264423,5,6,1:2:0:0:
409,308,264601,2,0,P|371:333|254:364,1,160,8|0,0:0|1:2,0:0:0:0:
142,217,265137,2,0,P|224:252|263:256,1,95.9999970703126,8|0,0:2|0:0,0:0:0:0:
278,86,265495,1,10,0:2:0:0:
278,86,265584,1,0,0:0:0:0:
278,86,265673,1,0,1:2:0:0:
275,178,265852,5,0,0:0:0:0:
198,27,266030,1,0,1:2:0:0:
242,265,266209,2,0,P|295:263|346:237,1,95.9999970703126,2|0,0:3|1:2,0:0:0:0:
157,293,266566,1,10,0:2:0:0:
220,126,266745,1,8,0:0:0:0:
185,368,266924,2,0,P|148:375|77:366,1,95.9999970703126,2|8,0:3|0:0,0:0:0:0:
149,175,267281,5,2,1:2:0:0:
341,123,267460,2,0,P|351:182|339:290,1,160,8|0,0:0|1:2,0:0:0:0:
70,195,267995,1,8,0:2:0:0:
70,195,268353,2,0,P|64:142|77:90,1,95.9999970703126,10|0,0:2|1:2,0:0:0:0:
277,56,268710,1,0,0:0:0:0:
164,155,268889,1,0,1:2:0:0:
141,17,269067,1,2,0:3:0:0:
232,334,269425,5,10,0:2:0:0:
329,162,269603,1,8,0:0:0:0:
363,351,269782,1,2,0:3:0:0:
219,216,269960,1,8,0:0:0:0:
397,263,270139,5,6,1:2:0:0:
395,74,270318,2,0,P|458:93|484:188,1,160,8|0,0:0|1:2,0:0:0:0:
257,190,270854,1,8,0:2:0:0:
257,190,271211,1,10,0:2:0:0:
254,29,271390,1,0,1:2:0:0:
56,154,271568,5,0,0:0:0:0:
160,67,271747,1,0,1:2:0:0:
120,196,271925,5,2,0:3:0:0:
93,34,272104,1,0,1:2:0:0:
407,203,272283,5,10,0:2:0:0:
303,116,272462,1,8,0:0:0:0:
343,245,272640,5,2,0:3:0:0:
370,83,272819,1,8,0:0:0:0:
187,309,272997,6,0,B|61:299|18:282|13:148|116:97|258:135|308:197|316:293|293:325|230:348|202:311|131:313|78:293|43:314,1,672,2|0,1:2|0:0,0:0:0:0:
