osu file format v14

[General]
AudioFilename: 01 - Radiohead - 15 Step.MP3
AudioLeadIn: 0
PreviewTime: 190607
Countdown: 1
SampleSet: Soft
StackLeniency: 1
Mode: 3
LetterboxInBreaks: 1
SpecialStyle: 0
WidescreenStoryboard: 0

[Editor]
Bookmarks: 22264,41321,73084,98494,117552,142962,158844,190607,206488
DistanceSpacing: 0.8
BeatDivisor: 2
GridSize: 32
TimelineZoom: 1.5

[Metadata]
Title:15 Step
TitleUnicode:15 Step
Artist:Radiohead
ArtistUnicode:Radiohead
Creator:Percyqaz
Version:Step
Source:
Tags:
BeatmapID:1352018
BeatmapSetID:637261

[Difficulty]
HPDrainRate:7
CircleSize:4
OverallDifficulty:7
ApproachRate:10
SliderMultiplier:1.50000000596046
SliderTickRate:0.5

[Events]
//Background and Video events
0,0,"in-rainbows.jpg",0,0
//Break Periods
//Storyboard Layer 0 (Background)
//Storyboard Layer 1 (Fail)
//Storyboard Layer 2 (Pass)
//Storyboard Layer 3 (Foreground)
//Storyboard Sound Samples

[TimingPoints]
30.1207917342278,317.628374801482,5,2,0,45,1,0

[Colours]
Combo1 : 255,0,255
Combo2 : 5,240,5
Combo3 : 5,5,240
Combo4 : 240,5,5
Combo5 : 255,255,0

[HitObjects]
64,192,30,5,0,0:0:0:0:
448,192,30,1,0,0:0:0:0:
320,192,30,1,0,0:0:0:0:
192,192,30,1,0,0:0:0:0:
448,192,347,1,0,0:0:0:0:
64,192,347,1,0,0:0:0:0:
320,192,506,1,0,0:0:0:0:
64,192,665,1,0,0:0:0:0:
448,192,665,1,0,0:0:0:0:
192,192,824,1,0,0:0:0:0:
448,192,983,1,0,0:0:0:0:
64,192,983,1,0,0:0:0:0:
64,192,1300,1,0,0:0:0:0:
448,192,1300,1,0,0:0:0:0:
448,192,1618,1,0,0:0:0:0:
320,192,1618,1,0,0:0:0:0:
192,192,1618,1,0,0:0:0:0:
64,192,1618,1,0,0:0:0:0:
64,192,1935,1,0,0:0:0:0:
448,192,1935,1,0,0:0:0:0:
192,192,2094,1,0,0:0:0:0:
64,192,2412,1,0,0:0:0:0:
448,192,2412,1,0,0:0:0:0:
320,192,2571,1,0,0:0:0:0:
64,192,2888,1,0,0:0:0:0:
448,192,2888,1,0,0:0:0:0:
448,192,3206,1,0,0:0:0:0:
320,192,3206,1,0,0:0:0:0:
192,192,3206,1,0,0:0:0:0:
64,192,3206,1,0,0:0:0:0:
448,192,3524,1,0,0:0:0:0:
64,192,3524,1,0,0:0:0:0:
320,192,3682,1,0,0:0:0:0:
448,192,3841,1,0,0:0:0:0:
64,192,3841,1,0,0:0:0:0:
192,192,4000,1,0,0:0:0:0:
64,192,4159,1,0,0:0:0:0:
448,192,4159,1,0,0:0:0:0:
448,192,4476,1,0,0:0:0:0:
64,192,4476,1,0,0:0:0:0:
64,192,4794,1,0,0:0:0:0:
192,192,4794,1,0,0:0:0:0:
320,192,4794,1,0,0:0:0:0:
448,192,4794,1,0,0:0:0:0:
448,192,5112,1,0,0:0:0:0:
64,192,5112,1,0,0:0:0:0:
192,192,5270,1,0,0:0:0:0:
448,192,5588,1,0,0:0:0:0:
64,192,5588,1,0,0:0:0:0:
320,192,5747,1,0,0:0:0:0:
64,192,6065,1,0,0:0:0:0:
448,192,6065,1,0,0:0:0:0:
64,192,6382,1,0,0:0:0:0:
192,192,6382,1,0,0:0:0:0:
320,192,6382,1,0,0:0:0:0:
448,192,6382,1,0,0:0:0:0:
448,192,6700,1,0,0:0:0:0:
64,192,6700,1,0,0:0:0:0:
320,192,6859,1,0,0:0:0:0:
64,192,7017,1,0,0:0:0:0:
448,192,7017,1,0,0:0:0:0:
192,192,7176,1,0,0:0:0:0:
64,192,7335,1,0,0:0:0:0:
448,192,7335,1,0,0:0:0:0:
448,192,7653,1,0,0:0:0:0:
64,192,7653,1,0,0:0:0:0:
64,192,7970,1,0,0:0:0:0:
192,192,7970,1,0,0:0:0:0:
320,192,7970,1,0,0:0:0:0:
448,192,7970,1,0,0:0:0:0:
64,192,8288,1,0,0:0:0:0:
448,192,8288,1,0,0:0:0:0:
192,192,8447,1,0,0:0:0:0:
448,192,8764,1,0,0:0:0:0:
64,192,8764,1,0,0:0:0:0:
320,192,8923,1,0,0:0:0:0:
64,192,9241,1,0,0:0:0:0:
448,192,9241,1,0,0:0:0:0:
448,192,9558,1,0,0:0:0:0:
320,192,9558,1,0,0:0:0:0:
192,192,9558,1,0,0:0:0:0:
64,192,9558,1,0,0:0:0:0:
448,192,9876,128,0,10194:0:0:0:0:
64,192,9876,1,0,0:0:0:0:
320,192,9876,1,0,0:0:0:0:
192,192,10194,128,0,10511:0:0:0:0:
320,192,10194,1,0,0:0:0:0:
64,192,10194,1,0,0:0:0:0:
64,192,10353,1,0,0:0:0:0:
64,192,10511,1,0,0:0:0:0:
448,192,10511,1,0,0:0:0:0:
320,192,10511,128,0,10829:0:0:0:0:
448,192,10670,1,0,0:0:0:0:
64,192,10829,128,0,11147:0:0:0:0:
192,192,10829,1,0,0:0:0:0:
448,192,10829,1,0,0:0:0:0:
192,192,11147,128,0,11464:0:0:0:0:
320,192,11147,1,0,0:0:0:0:
448,192,11147,1,0,0:0:0:0:
64,192,11464,128,0,11623:0:0:0:0:
320,192,11464,1,0,0:0:0:0:
448,192,11464,1,0,0:0:0:0:
320,192,11623,128,0,11941:0:0:0:0:
448,192,11623,1,0,0:0:0:0:
448,192,11782,1,0,0:0:0:0:
64,192,11782,1,0,0:0:0:0:
448,192,11941,128,0,12099:0:0:0:0:
64,192,11941,1,0,0:0:0:0:
192,192,12099,128,0,12417:0:0:0:0:
64,192,12099,1,0,0:0:0:0:
320,192,12099,1,0,0:0:0:0:
64,192,12417,128,0,12735:0:0:0:0:
448,192,12417,1,0,0:0:0:0:
320,192,12417,1,0,0:0:0:0:
320,192,12735,1,0,0:0:0:0:
448,192,12735,1,0,0:0:0:0:
192,192,12735,1,0,0:0:0:0:
448,192,13052,128,0,13370:0:0:0:0:
320,192,13052,1,0,0:0:0:0:
64,192,13052,1,0,0:0:0:0:
64,192,13211,1,0,0:0:0:0:
192,192,13370,128,0,13688:0:0:0:0:
64,192,13370,1,0,0:0:0:0:
320,192,13370,1,0,0:0:0:0:
320,192,13529,1,0,0:0:0:0:
448,192,13688,128,0,14005:0:0:0:0:
320,192,13688,1,0,0:0:0:0:
64,192,13688,1,0,0:0:0:0:
64,192,14005,128,0,14323:0:0:0:0:
320,192,14005,1,0,0:0:0:0:
192,192,14005,1,0,0:0:0:0:
192,192,14323,128,0,14641:0:0:0:0:
320,192,14323,1,0,0:0:0:0:
448,192,14323,1,0,0:0:0:0:
320,192,14641,128,0,14799:0:0:0:0:
64,192,14641,1,0,0:0:0:0:
448,192,14641,1,0,0:0:0:0:
448,192,14799,128,0,15117:0:0:0:0:
64,192,14799,1,0,0:0:0:0:
64,192,15117,128,0,15276:0:0:0:0:
192,192,15117,1,0,0:0:0:0:
320,192,15276,128,0,15832:0:0:0:0:
448,192,15276,1,0,0:0:0:0:
192,192,15276,1,0,0:0:0:0:
448,192,15593,1,0,0:0:0:0:
64,192,15593,1,0,0:0:0:0:
448,192,15911,1,0,0:0:0:0:
320,192,15911,1,0,0:0:0:0:
64,192,15911,1,0,0:0:0:0:
192,192,15911,1,0,0:0:0:0:
448,192,16229,128,0,16546:0:0:0:0:
64,192,16229,1,0,0:0:0:0:
320,192,16229,1,0,0:0:0:0:
192,192,16546,128,0,16864:0:0:0:0:
64,192,16546,1,0,0:0:0:0:
320,192,16546,1,0,0:0:0:0:
320,192,16705,1,0,0:0:0:0:
64,192,16864,128,0,17182:0:0:0:0:
320,192,16864,1,0,0:0:0:0:
448,192,16864,1,0,0:0:0:0:
448,192,17023,1,0,0:0:0:0:
320,192,17182,128,0,17499:0:0:0:0:
448,192,17182,1,0,0:0:0:0:
192,192,17182,1,0,0:0:0:0:
448,192,17499,128,0,17817:0:0:0:0:
64,192,17499,1,0,0:0:0:0:
192,192,17499,1,0,0:0:0:0:
64,192,17817,128,0,17976:0:0:0:0:
320,192,17817,1,0,0:0:0:0:
192,192,17817,1,0,0:0:0:0:
192,192,17976,128,0,18293:0:0:0:0:
320,192,17976,1,0,0:0:0:0:
448,192,18293,128,0,18452:0:0:0:0:
64,192,18293,1,0,0:0:0:0:
320,192,18452,128,0,19087:0:0:0:0:
64,192,18452,1,0,0:0:0:0:
192,192,18452,1,0,0:0:0:0:
64,192,18770,1,0,0:0:0:0:
448,192,18770,1,0,0:0:0:0:
64,192,19087,1,0,0:0:0:0:
448,192,19087,1,0,0:0:0:0:
320,192,19405,1,0,0:0:0:0:
192,192,19405,128,0,19723:0:0:0:0:
64,192,19564,1,0,0:0:0:0:
448,192,19723,128,0,20040:0:0:0:0:
320,192,19881,1,0,0:0:0:0:
64,192,20040,1,0,0:0:0:0:
192,192,20040,128,0,20358:0:0:0:0:
64,192,20199,1,0,0:0:0:0:
64,192,20358,1,0,0:0:0:0:
448,192,20358,128,0,20675:0:0:0:0:
320,192,20358,1,0,0:0:0:0:
320,192,20675,1,0,0:0:0:0:
64,192,20675,1,0,0:0:0:0:
192,192,20675,128,0,20993:0:0:0:0:
320,192,20993,128,0,21152:0:0:0:0:
448,192,20993,1,0,0:0:0:0:
64,192,21152,128,0,21470:0:0:0:0:
192,192,21152,1,0,0:0:0:0:
448,192,21311,1,0,0:0:0:0:
448,192,21470,128,0,21628:0:0:0:0:
320,192,21470,1,0,0:0:0:0:
192,192,21628,128,0,22264:0:0:0:0:
64,192,21628,1,0,0:0:0:0:
320,192,21628,1,0,0:0:0:0:
320,192,21787,1,0,0:0:0:0:
448,192,21946,1,0,0:0:0:0:
64,192,21946,1,0,0:0:0:0:
448,192,22264,1,0,0:0:0:0:
320,192,22264,1,0,0:0:0:0:
64,192,22264,1,0,0:0:0:0:
448,192,22422,1,0,0:0:0:0:
192,192,22422,1,0,0:0:0:0:
448,192,22581,1,0,0:0:0:0:
64,192,22581,1,0,0:0:0:0:
192,192,22581,1,0,0:0:0:0:
64,192,22740,1,0,0:0:0:0:
320,192,22740,1,0,0:0:0:0:
448,192,22899,1,0,0:0:0:0:
64,192,22899,1,0,0:0:0:0:
192,192,22899,1,0,0:0:0:0:
448,192,23058,1,0,0:0:0:0:
448,192,23216,1,0,0:0:0:0:
64,192,23216,1,0,0:0:0:0:
320,192,23216,1,0,0:0:0:0:
192,192,23375,1,0,0:0:0:0:
64,192,23534,1,0,0:0:0:0:
448,192,23534,1,0,0:0:0:0:
448,192,23852,1,0,0:0:0:0:
320,192,23852,1,0,0:0:0:0:
64,192,23852,1,0,0:0:0:0:
64,192,24169,1,0,0:0:0:0:
192,192,24169,1,0,0:0:0:0:
192,192,24328,1,0,0:0:0:0:
320,192,24328,1,0,0:0:0:0:
448,192,24328,1,0,0:0:0:0:
192,192,24487,1,0,0:0:0:0:
64,192,24487,1,0,0:0:0:0:
448,192,24487,1,0,0:0:0:0:
448,192,24646,1,0,0:0:0:0:
64,192,24805,1,0,0:0:0:0:
448,192,24805,1,0,0:0:0:0:
320,192,24805,1,0,0:0:0:0:
64,192,24963,1,0,0:0:0:0:
192,192,24963,1,0,0:0:0:0:
448,192,25122,1,0,0:0:0:0:
64,192,25122,1,0,0:0:0:0:
448,192,25440,1,0,0:0:0:0:
320,192,25440,1,0,0:0:0:0:
64,192,25440,1,0,0:0:0:0:
448,192,25758,1,0,0:0:0:0:
320,192,25758,1,0,0:0:0:0:
320,192,25916,1,0,0:0:0:0:
64,192,25916,1,0,0:0:0:0:
192,192,25916,1,0,0:0:0:0:
320,192,26075,1,0,0:0:0:0:
64,192,26075,1,0,0:0:0:0:
448,192,26075,1,0,0:0:0:0:
64,192,26234,1,0,0:0:0:0:
64,192,26393,1,0,0:0:0:0:
448,192,26393,1,0,0:0:0:0:
192,192,26393,1,0,0:0:0:0:
320,192,26552,1,0,0:0:0:0:
448,192,26552,1,0,0:0:0:0:
64,192,26710,1,0,0:0:0:0:
448,192,26710,1,0,0:0:0:0:
64,192,27028,1,0,0:0:0:0:
448,192,27028,1,0,0:0:0:0:
192,192,27028,1,0,0:0:0:0:
64,192,27346,1,0,0:0:0:0:
192,192,27346,1,0,0:0:0:0:
320,192,27504,1,0,0:0:0:0:
448,192,27504,1,0,0:0:0:0:
192,192,27504,1,0,0:0:0:0:
64,192,27663,1,0,0:0:0:0:
448,192,27663,1,0,0:0:0:0:
192,192,27663,1,0,0:0:0:0:
448,192,27822,1,0,0:0:0:0:
448,192,27981,1,0,0:0:0:0:
64,192,27981,1,0,0:0:0:0:
192,192,27981,1,0,0:0:0:0:
64,192,28140,1,0,0:0:0:0:
192,192,28140,1,0,0:0:0:0:
64,192,28299,1,0,0:0:0:0:
448,192,28299,1,0,0:0:0:0:
448,192,28616,1,0,0:0:0:0:
320,192,28616,1,0,0:0:0:0:
64,192,28616,1,0,0:0:0:0:
64,192,28934,128,0,29251:0:0:0:0:
192,192,28934,1,0,0:0:0:0:
320,192,29093,1,0,0:0:0:0:
448,192,29093,1,0,0:0:0:0:
192,192,29093,1,0,0:0:0:0:
320,192,29251,128,0,29569:0:0:0:0:
192,192,29251,1,0,0:0:0:0:
448,192,29251,1,0,0:0:0:0:
192,192,29410,1,0,0:0:0:0:
64,192,29569,128,0,29887:0:0:0:0:
192,192,29569,1,0,0:0:0:0:
448,192,29569,1,0,0:0:0:0:
448,192,29728,1,0,0:0:0:0:
320,192,29887,128,0,30204:0:0:0:0:
192,192,29887,1,0,0:0:0:0:
448,192,29887,1,0,0:0:0:0:
448,192,30204,128,0,30522:0:0:0:0:
192,192,30204,1,0,0:0:0:0:
64,192,30204,1,0,0:0:0:0:
192,192,30363,1,0,0:0:0:0:
192,192,30522,128,0,30681:0:0:0:0:
64,192,30522,1,0,0:0:0:0:
320,192,30522,1,0,0:0:0:0:
320,192,30681,128,0,30998:0:0:0:0:
64,192,30681,1,0,0:0:0:0:
448,192,30681,1,0,0:0:0:0:
64,192,30998,128,0,31157:0:0:0:0:
448,192,30998,1,0,0:0:0:0:
192,192,31157,128,0,31792:0:0:0:0:
320,192,31157,1,0,0:0:0:0:
448,192,31157,1,0,0:0:0:0:
320,192,31316,1,0,0:0:0:0:
64,192,31475,1,0,0:0:0:0:
320,192,31475,1,0,0:0:0:0:
448,192,31792,1,0,0:0:0:0:
64,192,31792,1,0,0:0:0:0:
320,192,31792,1,0,0:0:0:0:
192,192,32110,1,0,0:0:0:0:
448,192,32110,1,0,0:0:0:0:
320,192,32110,128,0,32428:0:0:0:0:
192,192,32269,1,0,0:0:0:0:
64,192,32269,1,0,0:0:0:0:
448,192,32269,1,0,0:0:0:0:
448,192,32428,1,0,0:0:0:0:
64,192,32428,1,0,0:0:0:0:
192,192,32428,128,0,32745:0:0:0:0:
64,192,32587,1,0,0:0:0:0:
64,192,32745,1,0,0:0:0:0:
320,192,32745,1,0,0:0:0:0:
448,192,32745,128,0,33063:0:0:0:0:
320,192,32904,1,0,0:0:0:0:
192,192,32904,1,0,0:0:0:0:
64,192,33063,1,0,0:0:0:0:
192,192,33063,128,0,33381:0:0:0:0:
64,192,33381,1,0,0:0:0:0:
448,192,33381,1,0,0:0:0:0:
320,192,33381,128,0,33698:0:0:0:0:
192,192,33698,128,0,33857:0:0:0:0:
448,192,33698,1,0,0:0:0:0:
64,192,33857,128,0,34175:0:0:0:0:
320,192,33857,1,0,0:0:0:0:
448,192,33857,1,0,0:0:0:0:
448,192,34016,1,0,0:0:0:0:
192,192,34016,1,0,0:0:0:0:
320,192,34175,128,0,34333:0:0:0:0:
192,192,34175,1,0,0:0:0:0:
64,192,34333,1,0,0:0:0:0:
192,192,34333,1,0,0:0:0:0:
448,192,34333,128,0,34889:0:0:0:0:
192,192,34492,1,0,0:0:0:0:
64,192,34492,1,0,0:0:0:0:
64,192,34651,1,0,0:0:0:0:
320,192,34651,1,0,0:0:0:0:
64,192,34969,1,0,0:0:0:0:
192,192,34969,1,0,0:0:0:0:
448,192,34969,1,0,0:0:0:0:
192,192,35128,1,0,0:0:0:0:
64,192,35286,1,0,0:0:0:0:
448,192,35286,128,0,35604:0:0:0:0:
320,192,35286,1,0,0:0:0:0:
320,192,35445,1,0,0:0:0:0:
192,192,35445,1,0,0:0:0:0:
64,192,35445,1,0,0:0:0:0:
192,192,35604,128,0,35922:0:0:0:0:
64,192,35604,1,0,0:0:0:0:
320,192,35604,1,0,0:0:0:0:
64,192,35763,1,0,0:0:0:0:
320,192,35922,128,0,36239:0:0:0:0:
64,192,35922,1,0,0:0:0:0:
448,192,35922,1,0,0:0:0:0:
192,192,36080,1,0,0:0:0:0:
64,192,36239,128,0,36557:0:0:0:0:
192,192,36239,1,0,0:0:0:0:
448,192,36239,1,0,0:0:0:0:
192,192,36557,128,0,36875:0:0:0:0:
320,192,36557,1,0,0:0:0:0:
448,192,36557,1,0,0:0:0:0:
448,192,36875,128,0,37033:0:0:0:0:
320,192,36875,1,0,0:0:0:0:
64,192,36875,1,0,0:0:0:0:
320,192,37033,128,0,37351:0:0:0:0:
64,192,37033,1,0,0:0:0:0:
192,192,37033,1,0,0:0:0:0:
64,192,37351,128,0,37510:0:0:0:0:
448,192,37351,1,0,0:0:0:0:
192,192,37510,128,0,37827:0:0:0:0:
320,192,37510,1,0,0:0:0:0:
448,192,37510,1,0,0:0:0:0:
320,192,37669,1,0,0:0:0:0:
448,192,37669,1,0,0:0:0:0:
64,192,37827,1,0,0:0:0:0:
448,192,37827,1,0,0:0:0:0:
320,192,37827,1,0,0:0:0:0:
192,192,38145,1,0,0:0:0:0:
448,192,38145,1,0,0:0:0:0:
64,192,38145,128,0,38463:0:0:0:0:
320,192,38463,1,0,0:0:0:0:
192,192,38463,128,0,38621:0:0:0:0:
448,192,38621,128,0,38939:0:0:0:0:
320,192,38780,1,0,0:0:0:0:
192,192,38939,128,0,39098:0:0:0:0:
64,192,39098,128,0,39416:0:0:0:0:
320,192,39416,1,0,0:0:0:0:
448,192,39416,128,0,39733:0:0:0:0:
320,192,39733,1,0,0:0:0:0:
192,192,39733,128,0,40051:0:0:0:0:
64,192,39733,1,0,0:0:0:0:
448,192,40051,128,0,40210:0:0:0:0:
64,192,40210,128,0,40527:0:0:0:0:
448,192,40368,1,0,0:0:0:0:
448,192,40527,128,0,40686:0:0:0:0:
320,192,40686,128,0,41321:0:0:0:0:
64,192,40686,1,0,0:0:0:0:
192,192,40686,1,0,0:0:0:0:
64,192,40845,1,0,0:0:0:0:
192,192,40845,1,0,0:0:0:0:
192,192,41004,1,0,0:0:0:0:
448,192,41321,1,0,0:0:0:0:
64,192,41321,1,0,0:0:0:0:
192,192,41321,128,0,41639:0:0:0:0:
448,192,41639,1,0,0:0:0:0:
64,192,41639,1,0,0:0:0:0:
320,192,41798,128,0,42115:0:0:0:0:
192,192,41798,1,0,0:0:0:0:
448,192,41957,1,0,0:0:0:0:
64,192,41957,1,0,0:0:0:0:
192,192,42115,1,0,0:0:0:0:
192,192,42274,128,0,42592:0:0:0:0:
448,192,42274,1,0,0:0:0:0:
64,192,42274,1,0,0:0:0:0:
320,192,42274,1,0,0:0:0:0:
320,192,42433,1,0,0:0:0:0:
448,192,42433,1,0,0:0:0:0:
448,192,42592,128,0,42909:0:0:0:0:
64,192,42592,1,0,0:0:0:0:
320,192,42592,1,0,0:0:0:0:
64,192,42909,128,0,43227:0:0:0:0:
320,192,42909,1,0,0:0:0:0:
192,192,43227,1,0,0:0:0:0:
448,192,43227,1,0,0:0:0:0:
320,192,43386,128,0,43704:0:0:0:0:
192,192,43386,1,0,0:0:0:0:
64,192,43386,1,0,0:0:0:0:
64,192,43545,1,0,0:0:0:0:
64,192,43704,1,0,0:0:0:0:
448,192,43704,1,0,0:0:0:0:
320,192,43862,128,0,44498:0:0:0:0:
64,192,43862,1,0,0:0:0:0:
192,192,43862,1,0,0:0:0:0:
64,192,44021,1,0,0:0:0:0:
192,192,44021,1,0,0:0:0:0:
448,192,44180,1,0,0:0:0:0:
64,192,44180,1,0,0:0:0:0:
448,192,44498,128,0,44815:0:0:0:0:
64,192,44498,1,0,0:0:0:0:
64,192,44815,1,0,0:0:0:0:
320,192,44815,1,0,0:0:0:0:
64,192,44974,128,0,45292:0:0:0:0:
320,192,44974,1,0,0:0:0:0:
192,192,45133,1,0,0:0:0:0:
448,192,45133,1,0,0:0:0:0:
320,192,45292,1,0,0:0:0:0:
192,192,45450,128,0,45768:0:0:0:0:
448,192,45450,1,0,0:0:0:0:
64,192,45450,1,0,0:0:0:0:
320,192,45450,1,0,0:0:0:0:
320,192,45609,1,0,0:0:0:0:
448,192,45609,1,0,0:0:0:0:
448,192,45768,128,0,46086:0:0:0:0:
64,192,45768,1,0,0:0:0:0:
320,192,45768,1,0,0:0:0:0:
64,192,46086,128,0,46403:0:0:0:0:
320,192,46086,1,0,0:0:0:0:
448,192,46403,1,0,0:0:0:0:
192,192,46403,1,0,0:0:0:0:
320,192,46562,128,0,46880:0:0:0:0:
64,192,46562,1,0,0:0:0:0:
448,192,46562,1,0,0:0:0:0:
192,192,46562,1,0,0:0:0:0:
64,192,46721,1,0,0:0:0:0:
64,192,46880,1,0,0:0:0:0:
448,192,46880,1,0,0:0:0:0:
448,192,47039,128,0,47356:0:0:0:0:
192,192,47039,1,0,0:0:0:0:
64,192,47039,1,0,0:0:0:0:
64,192,47197,1,0,0:0:0:0:
192,192,47197,1,0,0:0:0:0:
192,192,47356,128,0,47674:0:0:0:0:
320,192,47356,1,0,0:0:0:0:
64,192,47356,1,0,0:0:0:0:
448,192,47674,128,0,47992:0:0:0:0:
64,192,47674,1,0,0:0:0:0:
64,192,47992,1,0,0:0:0:0:
320,192,47992,1,0,0:0:0:0:
192,192,48150,128,0,48468:0:0:0:0:
320,192,48150,1,0,0:0:0:0:
64,192,48309,1,0,0:0:0:0:
448,192,48309,1,0,0:0:0:0:
64,192,48468,1,0,0:0:0:0:
320,192,48627,128,0,48944:0:0:0:0:
64,192,48627,1,0,0:0:0:0:
448,192,48627,1,0,0:0:0:0:
192,192,48627,1,0,0:0:0:0:
64,192,48786,1,0,0:0:0:0:
192,192,48786,1,0,0:0:0:0:
64,192,48944,128,0,49262:0:0:0:0:
448,192,48944,1,0,0:0:0:0:
192,192,48944,1,0,0:0:0:0:
320,192,49262,128,0,49580:0:0:0:0:
448,192,49262,1,0,0:0:0:0:
64,192,49580,1,0,0:0:0:0:
448,192,49580,1,0,0:0:0:0:
64,192,49738,128,0,50056:0:0:0:0:
448,192,49738,1,0,0:0:0:0:
192,192,49738,1,0,0:0:0:0:
448,192,50056,1,0,0:0:0:0:
192,192,50056,1,0,0:0:0:0:
192,192,50215,128,0,50850:0:0:0:0:
448,192,50215,1,0,0:0:0:0:
320,192,50215,1,0,0:0:0:0:
320,192,50374,1,0,0:0:0:0:
448,192,50374,1,0,0:0:0:0:
64,192,50533,1,0,0:0:0:0:
320,192,50533,1,0,0:0:0:0:
64,192,50850,128,0,51168:0:0:0:0:
448,192,51168,1,0,0:0:0:0:
192,192,51168,1,0,0:0:0:0:
192,192,51327,128,0,51644:0:0:0:0:
448,192,51327,1,0,0:0:0:0:
448,192,51485,1,0,0:0:0:0:
64,192,51485,1,0,0:0:0:0:
64,192,51644,1,0,0:0:0:0:
448,192,51803,1,0,0:0:0:0:
192,192,51803,1,0,0:0:0:0:
64,192,51803,1,0,0:0:0:0:
320,192,51803,128,0,52121:0:0:0:0:
64,192,51962,1,0,0:0:0:0:
192,192,51962,1,0,0:0:0:0:
192,192,52121,128,0,52438:0:0:0:0:
64,192,52121,1,0,0:0:0:0:
448,192,52121,1,0,0:0:0:0:
448,192,52438,128,0,52756:0:0:0:0:
320,192,52438,1,0,0:0:0:0:
64,192,52756,1,0,0:0:0:0:
320,192,52756,1,0,0:0:0:0:
320,192,52915,128,0,53232:0:0:0:0:
64,192,52915,1,0,0:0:0:0:
448,192,52915,1,0,0:0:0:0:
192,192,52915,1,0,0:0:0:0:
64,192,53074,1,0,0:0:0:0:
448,192,53232,1,0,0:0:0:0:
64,192,53232,1,0,0:0:0:0:
192,192,53391,128,0,53709:0:0:0:0:
320,192,53391,1,0,0:0:0:0:
448,192,53391,1,0,0:0:0:0:
320,192,53550,1,0,0:0:0:0:
448,192,53550,1,0,0:0:0:0:
320,192,53709,128,0,54026:0:0:0:0:
448,192,53709,1,0,0:0:0:0:
64,192,53709,1,0,0:0:0:0:
64,192,54026,128,0,54344:0:0:0:0:
448,192,54026,1,0,0:0:0:0:
448,192,54344,1,0,0:0:0:0:
192,192,54344,1,0,0:0:0:0:
448,192,54503,128,0,54821:0:0:0:0:
192,192,54503,1,0,0:0:0:0:
64,192,54662,1,0,0:0:0:0:
320,192,54662,1,0,0:0:0:0:
320,192,54821,1,0,0:0:0:0:
64,192,54979,1,0,0:0:0:0:
192,192,54979,1,0,0:0:0:0:
320,192,54979,128,0,55297:0:0:0:0:
64,192,55138,1,0,0:0:0:0:
192,192,55138,1,0,0:0:0:0:
192,192,55297,128,0,55615:0:0:0:0:
64,192,55297,1,0,0:0:0:0:
448,192,55297,1,0,0:0:0:0:
448,192,55615,128,0,55932:0:0:0:0:
320,192,55615,1,0,0:0:0:0:
64,192,55932,1,0,0:0:0:0:
320,192,55932,1,0,0:0:0:0:
64,192,56091,128,0,56409:0:0:0:0:
192,192,56091,1,0,0:0:0:0:
448,192,56091,1,0,0:0:0:0:
192,192,56250,1,0,0:0:0:0:
448,192,56409,1,0,0:0:0:0:
192,192,56409,1,0,0:0:0:0:
320,192,56567,1,0,0:0:0:0:
448,192,56567,1,0,0:0:0:0:
192,192,56567,128,0,56885:0:0:0:0:
320,192,56726,1,0,0:0:0:0:
448,192,56726,1,0,0:0:0:0:
320,192,56885,128,0,57203:0:0:0:0:
64,192,56885,1,0,0:0:0:0:
448,192,56885,1,0,0:0:0:0:
64,192,57203,128,0,57520:0:0:0:0:
448,192,57203,1,0,0:0:0:0:
448,192,57520,1,0,0:0:0:0:
192,192,57520,1,0,0:0:0:0:
192,192,57679,128,0,57997:0:0:0:0:
448,192,57679,1,0,0:0:0:0:
448,192,57838,1,0,0:0:0:0:
64,192,57838,1,0,0:0:0:0:
64,192,57997,1,0,0:0:0:0:
64,192,58156,1,0,0:0:0:0:
192,192,58156,1,0,0:0:0:0:
448,192,58156,128,0,58473:0:0:0:0:
64,192,58314,1,0,0:0:0:0:
192,192,58314,1,0,0:0:0:0:
192,192,58473,128,0,58791:0:0:0:0:
64,192,58473,1,0,0:0:0:0:
320,192,58473,1,0,0:0:0:0:
320,192,58791,128,0,59108:0:0:0:0:
64,192,58791,1,0,0:0:0:0:
448,192,59108,1,0,0:0:0:0:
64,192,59108,1,0,0:0:0:0:
320,192,59267,128,0,59585:0:0:0:0:
192,192,59267,1,0,0:0:0:0:
448,192,59267,1,0,0:0:0:0:
192,192,59426,1,0,0:0:0:0:
64,192,59585,1,0,0:0:0:0:
448,192,59585,1,0,0:0:0:0:
320,192,59744,1,0,0:0:0:0:
448,192,59744,1,0,0:0:0:0:
192,192,59744,128,0,60061:0:0:0:0:
320,192,59903,1,0,0:0:0:0:
448,192,59903,1,0,0:0:0:0:
448,192,60061,128,0,60379:0:0:0:0:
64,192,60061,1,0,0:0:0:0:
320,192,60061,1,0,0:0:0:0:
320,192,60379,128,0,60697:0:0:0:0:
64,192,60379,1,0,0:0:0:0:
448,192,60697,1,0,0:0:0:0:
64,192,60697,1,0,0:0:0:0:
64,192,60855,128,0,61173:0:0:0:0:
448,192,60855,1,0,0:0:0:0:
192,192,61014,1,0,0:0:0:0:
448,192,61014,1,0,0:0:0:0:
192,192,61173,1,0,0:0:0:0:
64,192,61332,1,0,0:0:0:0:
192,192,61332,1,0,0:0:0:0:
448,192,61332,128,0,61650:0:0:0:0:
64,192,61491,1,0,0:0:0:0:
192,192,61491,1,0,0:0:0:0:
192,192,61650,128,0,61967:0:0:0:0:
320,192,61650,1,0,0:0:0:0:
64,192,61650,1,0,0:0:0:0:
448,192,61967,128,0,62285:0:0:0:0:
64,192,61967,1,0,0:0:0:0:
64,192,62285,1,0,0:0:0:0:
320,192,62285,1,0,0:0:0:0:
64,192,62444,128,0,62761:0:0:0:0:
192,192,62444,1,0,0:0:0:0:
448,192,62444,1,0,0:0:0:0:
448,192,62602,1,0,0:0:0:0:
448,192,62761,1,0,0:0:0:0:
192,192,62761,1,0,0:0:0:0:
320,192,62920,1,0,0:0:0:0:
448,192,62920,1,0,0:0:0:0:
64,192,62920,128,0,63079:0:0:0:0:
320,192,63079,1,0,0:0:0:0:
448,192,63079,1,0,0:0:0:0:
192,192,63079,128,0,63238:0:0:0:0:
320,192,63238,128,0,63555:0:0:0:0:
64,192,63238,1,0,0:0:0:0:
448,192,63238,1,0,0:0:0:0:
64,192,63555,128,0,63873:0:0:0:0:
448,192,63555,1,0,0:0:0:0:
448,192,63873,1,0,0:0:0:0:
192,192,63873,1,0,0:0:0:0:
448,192,64032,128,0,64349:0:0:0:0:
320,192,64032,1,0,0:0:0:0:
192,192,64032,1,0,0:0:0:0:
320,192,64191,1,0,0:0:0:0:
320,192,64349,1,0,0:0:0:0:
64,192,64349,1,0,0:0:0:0:
192,192,64508,1,0,0:0:0:0:
64,192,64508,1,0,0:0:0:0:
320,192,64508,128,0,64826:0:0:0:0:
448,192,64508,1,0,0:0:0:0:
64,192,64667,1,0,0:0:0:0:
192,192,64667,1,0,0:0:0:0:
192,192,64826,128,0,65143:0:0:0:0:
448,192,64826,1,0,0:0:0:0:
64,192,64826,1,0,0:0:0:0:
320,192,65143,128,0,65461:0:0:0:0:
64,192,65143,1,0,0:0:0:0:
448,192,65461,1,0,0:0:0:0:
64,192,65461,1,0,0:0:0:0:
192,192,65620,128,0,65938:0:0:0:0:
320,192,65620,1,0,0:0:0:0:
64,192,65620,1,0,0:0:0:0:
64,192,65779,1,0,0:0:0:0:
64,192,65938,1,0,0:0:0:0:
448,192,65938,1,0,0:0:0:0:
448,192,66096,1,0,0:0:0:0:
320,192,66096,1,0,0:0:0:0:
64,192,66096,128,0,66414:0:0:0:0:
320,192,66255,1,0,0:0:0:0:
448,192,66255,1,0,0:0:0:0:
448,192,66414,128,0,66732:0:0:0:0:
192,192,66414,1,0,0:0:0:0:
192,192,66573,1,0,0:0:0:0:
64,192,66732,1,0,0:0:0:0:
320,192,66732,128,0,67049:0:0:0:0:
448,192,67049,1,0,0:0:0:0:
64,192,67049,1,0,0:0:0:0:
192,192,67208,1,0,0:0:0:0:
64,192,67208,128,0,67526:0:0:0:0:
448,192,67208,1,0,0:0:0:0:
192,192,67367,1,0,0:0:0:0:
192,192,67526,1,0,0:0:0:0:
320,192,67526,1,0,0:0:0:0:
64,192,67684,1,0,0:0:0:0:
192,192,67684,1,0,0:0:0:0:
448,192,67684,128,0,68002:0:0:0:0:
64,192,67843,1,0,0:0:0:0:
192,192,67843,1,0,0:0:0:0:
192,192,68002,128,0,68320:0:0:0:0:
320,192,68002,1,0,0:0:0:0:
64,192,68002,1,0,0:0:0:0:
448,192,68320,1,0,0:0:0:0:
64,192,68320,128,0,68637:0:0:0:0:
448,192,68637,1,0,0:0:0:0:
192,192,68637,1,0,0:0:0:0:
320,192,68796,128,0,69114:0:0:0:0:
192,192,68796,1,0,0:0:0:0:
448,192,68796,1,0,0:0:0:0:
64,192,68955,1,0,0:0:0:0:
64,192,69114,1,0,0:0:0:0:
448,192,69114,1,0,0:0:0:0:
320,192,69273,1,0,0:0:0:0:
448,192,69273,1,0,0:0:0:0:
192,192,69273,128,0,69590:0:0:0:0:
320,192,69431,1,0,0:0:0:0:
448,192,69431,1,0,0:0:0:0:
448,192,69590,128,0,69908:0:0:0:0:
64,192,69590,1,0,0:0:0:0:
320,192,69590,1,0,0:0:0:0:
192,192,69908,128,0,70225:0:0:0:0:
320,192,69908,1,0,0:0:0:0:
448,192,70225,1,0,0:0:0:0:
64,192,70225,1,0,0:0:0:0:
448,192,70384,128,0,70702:0:0:0:0:
320,192,70384,1,0,0:0:0:0:
192,192,70384,1,0,0:0:0:0:
192,192,70543,1,0,0:0:0:0:
64,192,70702,1,0,0:0:0:0:
320,192,70702,1,0,0:0:0:0:
64,192,70861,1,0,0:0:0:0:
192,192,70861,1,0,0:0:0:0:
320,192,70861,128,0,71178:0:0:0:0:
64,192,71020,1,0,0:0:0:0:
192,192,71020,1,0,0:0:0:0:
64,192,71178,128,0,71496:0:0:0:0:
448,192,71178,1,0,0:0:0:0:
192,192,71178,1,0,0:0:0:0:
192,192,71496,128,0,71814:0:0:0:0:
320,192,71496,1,0,0:0:0:0:
448,192,71814,1,0,0:0:0:0:
64,192,71814,1,0,0:0:0:0:
448,192,71972,128,0,72290:0:0:0:0:
192,192,71972,1,0,0:0:0:0:
320,192,71972,1,0,0:0:0:0:
64,192,72131,1,0,0:0:0:0:
64,192,72290,1,0,0:0:0:0:
320,192,72290,1,0,0:0:0:0:
448,192,72449,1,0,0:0:0:0:
320,192,72449,1,0,0:0:0:0:
64,192,72449,128,0,73084:0:0:0:0:
320,192,72608,1,0,0:0:0:0:
448,192,72608,1,0,0:0:0:0:
192,192,72767,1,0,0:0:0:0:
448,192,72767,1,0,0:0:0:0:
448,192,73084,128,0,73561:0:0:0:0:
320,192,73084,1,0,0:0:0:0:
64,192,73402,1,0,0:0:0:0:
320,192,73402,1,0,0:0:0:0:
192,192,73561,128,0,74037:0:0:0:0:
320,192,73561,1,0,0:0:0:0:
64,192,73719,1,0,0:0:0:0:
448,192,73719,1,0,0:0:0:0:
448,192,73878,1,0,0:0:0:0:
64,192,74037,128,0,74355:0:0:0:0:
448,192,74037,1,0,0:0:0:0:
320,192,74037,1,0,0:0:0:0:
320,192,74196,1,0,0:0:0:0:
448,192,74196,1,0,0:0:0:0:
448,192,74355,128,0,74672:0:0:0:0:
192,192,74355,1,0,0:0:0:0:
192,192,74672,128,0,75149:0:0:0:0:
64,192,74672,1,0,0:0:0:0:
64,192,74990,1,0,0:0:0:0:
448,192,74990,1,0,0:0:0:0:
448,192,75149,128,0,75625:0:0:0:0:
320,192,75149,1,0,0:0:0:0:
64,192,75149,1,0,0:0:0:0:
64,192,75308,1,0,0:0:0:0:
320,192,75466,1,0,0:0:0:0:
192,192,75466,1,0,0:0:0:0:
320,192,75625,128,0,75943:0:0:0:0:
64,192,75625,1,0,0:0:0:0:
192,192,75625,1,0,0:0:0:0:
64,192,75784,1,0,0:0:0:0:
192,192,75784,1,0,0:0:0:0:
64,192,75943,128,0,76260:0:0:0:0:
448,192,75943,1,0,0:0:0:0:
448,192,76260,128,0,76737:0:0:0:0:
320,192,76260,1,0,0:0:0:0:
64,192,76578,1,0,0:0:0:0:
320,192,76578,1,0,0:0:0:0:
192,192,76737,128,0,77213:0:0:0:0:
320,192,76737,1,0,0:0:0:0:
64,192,76737,1,0,0:0:0:0:
448,192,76896,1,0,0:0:0:0:
64,192,76896,1,0,0:0:0:0:
64,192,77055,1,0,0:0:0:0:
64,192,77213,128,0,77531:0:0:0:0:
448,192,77213,1,0,0:0:0:0:
320,192,77213,1,0,0:0:0:0:
320,192,77372,1,0,0:0:0:0:
448,192,77372,1,0,0:0:0:0:
320,192,77531,128,0,77849:0:0:0:0:
192,192,77531,1,0,0:0:0:0:
448,192,77849,1,0,0:0:0:0:
192,192,77849,128,0,78325:0:0:0:0:
64,192,78166,1,0,0:0:0:0:
320,192,78166,1,0,0:0:0:0:
448,192,78325,128,0,78801:0:0:0:0:
320,192,78325,1,0,0:0:0:0:
64,192,78325,1,0,0:0:0:0:
192,192,78484,1,0,0:0:0:0:
64,192,78643,1,0,0:0:0:0:
320,192,78643,1,0,0:0:0:0:
320,192,78801,128,0,79119:0:0:0:0:
64,192,78801,1,0,0:0:0:0:
192,192,78801,1,0,0:0:0:0:
64,192,78960,1,0,0:0:0:0:
192,192,78960,1,0,0:0:0:0:
64,192,79119,128,0,79437:0:0:0:0:
448,192,79119,1,0,0:0:0:0:
320,192,79437,128,0,79913:0:0:0:0:
192,192,79437,1,0,0:0:0:0:
448,192,79754,1,0,0:0:0:0:
192,192,79754,1,0,0:0:0:0:
64,192,79913,128,0,80390:0:0:0:0:
192,192,79913,1,0,0:0:0:0:
448,192,80072,1,0,0:0:0:0:
192,192,80072,1,0,0:0:0:0:
448,192,80231,1,0,0:0:0:0:
192,192,80390,128,0,80707:0:0:0:0:
320,192,80390,1,0,0:0:0:0:
448,192,80390,1,0,0:0:0:0:
320,192,80548,1,0,0:0:0:0:
448,192,80548,1,0,0:0:0:0:
448,192,80707,128,0,81025:0:0:0:0:
64,192,80707,1,0,0:0:0:0:
64,192,81025,128,0,81501:0:0:0:0:
192,192,81025,1,0,0:0:0:0:
192,192,81342,1,0,0:0:0:0:
448,192,81342,1,0,0:0:0:0:
448,192,81501,128,0,81978:0:0:0:0:
192,192,81501,1,0,0:0:0:0:
320,192,81501,1,0,0:0:0:0:
192,192,81660,1,0,0:0:0:0:
64,192,81819,1,0,0:0:0:0:
320,192,81819,1,0,0:0:0:0:
320,192,81978,128,0,82295:0:0:0:0:
64,192,81978,1,0,0:0:0:0:
192,192,81978,1,0,0:0:0:0:
64,192,82137,1,0,0:0:0:0:
192,192,82137,1,0,0:0:0:0:
192,192,82295,128,0,82613:0:0:0:0:
448,192,82295,1,0,0:0:0:0:
320,192,82613,128,0,83089:0:0:0:0:
448,192,82613,1,0,0:0:0:0:
448,192,82772,1,0,0:0:0:0:
64,192,82931,1,0,0:0:0:0:
448,192,82931,1,0,0:0:0:0:
64,192,83089,128,0,83566:0:0:0:0:
192,192,83089,1,0,0:0:0:0:
448,192,83248,1,0,0:0:0:0:
192,192,83248,1,0,0:0:0:0:
448,192,83407,1,0,0:0:0:0:
192,192,83566,128,0,83884:0:0:0:0:
320,192,83566,1,0,0:0:0:0:
448,192,83566,1,0,0:0:0:0:
320,192,83725,1,0,0:0:0:0:
448,192,83725,1,0,0:0:0:0:
448,192,83884,128,0,84201:0:0:0:0:
64,192,83884,1,0,0:0:0:0:
64,192,84201,128,0,84678:0:0:0:0:
320,192,84201,1,0,0:0:0:0:
192,192,84519,1,0,0:0:0:0:
448,192,84519,1,0,0:0:0:0:
320,192,84678,128,0,85154:0:0:0:0:
192,192,84678,1,0,0:0:0:0:
448,192,84678,1,0,0:0:0:0:
192,192,84836,1,0,0:0:0:0:
64,192,84995,1,0,0:0:0:0:
448,192,84995,1,0,0:0:0:0:
448,192,85154,128,0,85472:0:0:0:0:
64,192,85154,1,0,0:0:0:0:
192,192,85154,1,0,0:0:0:0:
64,192,85313,1,0,0:0:0:0:
192,192,85313,1,0,0:0:0:0:
64,192,85472,128,0,85789:0:0:0:0:
320,192,85472,1,0,0:0:0:0:
320,192,85789,128,0,86266:0:0:0:0:
448,192,85789,1,0,0:0:0:0:
64,192,86107,1,0,0:0:0:0:
448,192,86107,1,0,0:0:0:0:
64,192,86266,128,0,86742:0:0:0:0:
192,192,86266,1,0,0:0:0:0:
448,192,86266,1,0,0:0:0:0:
448,192,86425,1,0,0:0:0:0:
192,192,86425,1,0,0:0:0:0:
320,192,86583,1,0,0:0:0:0:
320,192,86742,1,0,0:0:0:0:
448,192,86742,1,0,0:0:0:0:
192,192,86742,128,0,87060:0:0:0:0:
448,192,86901,1,0,0:0:0:0:
320,192,86901,1,0,0:0:0:0:
448,192,87060,128,0,87377:0:0:0:0:
64,192,87060,1,0,0:0:0:0:
64,192,87377,128,0,87854:0:0:0:0:
192,192,87377,1,0,0:0:0:0:
448,192,87695,1,0,0:0:0:0:
192,192,87695,1,0,0:0:0:0:
320,192,87854,128,0,88330:0:0:0:0:
448,192,87854,1,0,0:0:0:0:
192,192,87854,1,0,0:0:0:0:
64,192,88013,1,0,0:0:0:0:
192,192,88171,1,0,0:0:0:0:
64,192,88330,1,0,0:0:0:0:
192,192,88330,1,0,0:0:0:0:
448,192,88330,128,0,88648:0:0:0:0:
192,192,88489,1,0,0:0:0:0:
64,192,88489,1,0,0:0:0:0:
192,192,88648,128,0,88966:0:0:0:0:
320,192,88648,1,0,0:0:0:0:
320,192,88966,128,0,89442:0:0:0:0:
448,192,88966,1,0,0:0:0:0:
64,192,89124,1,0,0:0:0:0:
64,192,89283,1,0,0:0:0:0:
448,192,89283,1,0,0:0:0:0:
192,192,89442,128,0,89918:0:0:0:0:
448,192,89442,1,0,0:0:0:0:
64,192,89442,1,0,0:0:0:0:
448,192,89601,1,0,0:0:0:0:
64,192,89760,1,0,0:0:0:0:
320,192,89918,1,0,0:0:0:0:
448,192,89918,1,0,0:0:0:0:
64,192,89918,128,0,90236:0:0:0:0:
448,192,90077,1,0,0:0:0:0:
320,192,90077,1,0,0:0:0:0:
448,192,90236,128,0,90554:0:0:0:0:
192,192,90236,1,0,0:0:0:0:
192,192,90554,128,0,91030:0:0:0:0:
64,192,90554,1,0,0:0:0:0:
448,192,90871,1,0,0:0:0:0:
64,192,90871,1,0,0:0:0:0:
448,192,91030,128,0,91507:0:0:0:0:
320,192,91030,1,0,0:0:0:0:
64,192,91030,1,0,0:0:0:0:
320,192,91189,1,0,0:0:0:0:
64,192,91348,1,0,0:0:0:0:
320,192,91348,1,0,0:0:0:0:
64,192,91507,1,0,0:0:0:0:
192,192,91507,1,0,0:0:0:0:
320,192,91507,128,0,91824:0:0:0:0:
192,192,91665,1,0,0:0:0:0:
64,192,91665,1,0,0:0:0:0:
64,192,91824,128,0,92142:0:0:0:0:
448,192,91824,1,0,0:0:0:0:
192,192,91983,1,0,0:0:0:0:
448,192,92142,128,0,92618:0:0:0:0:
320,192,92142,1,0,0:0:0:0:
64,192,92459,1,0,0:0:0:0:
320,192,92459,1,0,0:0:0:0:
192,192,92618,128,0,93095:0:0:0:0:
320,192,92618,1,0,0:0:0:0:
64,192,92618,1,0,0:0:0:0:
64,192,92777,1,0,0:0:0:0:
448,192,92777,1,0,0:0:0:0:
320,192,92936,1,0,0:0:0:0:
320,192,93095,1,0,0:0:0:0:
448,192,93095,1,0,0:0:0:0:
64,192,93095,128,0,93412:0:0:0:0:
448,192,93254,1,0,0:0:0:0:
320,192,93254,1,0,0:0:0:0:
320,192,93412,128,0,93730:0:0:0:0:
192,192,93412,1,0,0:0:0:0:
192,192,93730,128,0,94206:0:0:0:0:
448,192,93730,1,0,0:0:0:0:
448,192,94048,1,0,0:0:0:0:
64,192,94048,1,0,0:0:0:0:
448,192,94206,128,0,94683:0:0:0:0:
320,192,94206,1,0,0:0:0:0:
64,192,94206,1,0,0:0:0:0:
320,192,94365,1,0,0:0:0:0:
320,192,94524,1,0,0:0:0:0:
64,192,94524,1,0,0:0:0:0:
192,192,94683,1,0,0:0:0:0:
64,192,94683,1,0,0:0:0:0:
320,192,94683,128,0,95001:0:0:0:0:
64,192,94842,1,0,0:0:0:0:
192,192,94842,1,0,0:0:0:0:
64,192,95001,128,0,95318:0:0:0:0:
448,192,95001,1,0,0:0:0:0:
320,192,95318,128,0,95795:0:0:0:0:
192,192,95318,1,0,0:0:0:0:
192,192,95477,1,0,0:0:0:0:
64,192,95636,1,0,0:0:0:0:
448,192,95636,1,0,0:0:0:0:
64,192,95795,128,0,96271:0:0:0:0:
192,192,95795,1,0,0:0:0:0:
448,192,95795,1,0,0:0:0:0:
448,192,95953,1,0,0:0:0:0:
192,192,95953,1,0,0:0:0:0:
320,192,96112,1,0,0:0:0:0:
320,192,96271,1,0,0:0:0:0:
448,192,96271,1,0,0:0:0:0:
192,192,96271,128,0,96589:0:0:0:0:
320,192,96430,1,0,0:0:0:0:
448,192,96430,1,0,0:0:0:0:
448,192,96589,128,0,96906:0:0:0:0:
64,192,96589,1,0,0:0:0:0:
64,192,96906,128,0,97383:0:0:0:0:
320,192,96906,1,0,0:0:0:0:
192,192,97224,1,0,0:0:0:0:
448,192,97224,1,0,0:0:0:0:
320,192,97383,128,0,97859:0:0:0:0:
192,192,97383,1,0,0:0:0:0:
448,192,97383,1,0,0:0:0:0:
448,192,97542,1,0,0:0:0:0:
448,192,97700,1,0,0:0:0:0:
64,192,97700,1,0,0:0:0:0:
192,192,97859,1,0,0:0:0:0:
64,192,97859,1,0,0:0:0:0:
448,192,97859,128,0,98177:0:0:0:0:
64,192,98018,1,0,0:0:0:0:
192,192,98018,1,0,0:0:0:0:
192,192,98177,128,0,98494:0:0:0:0:
320,192,98177,1,0,0:0:0:0:
320,192,98336,1,0,0:0:0:0:
448,192,98494,1,0,0:0:0:0:
64,192,98494,1,0,0:0:0:0:
320,192,98812,1,0,0:0:0:0:
448,192,98812,1,0,0:0:0:0:
192,192,99130,1,0,0:0:0:0:
448,192,99130,1,0,0:0:0:0:
320,192,99288,1,0,0:0:0:0:
448,192,99288,1,0,0:0:0:0:
192,192,99447,1,0,0:0:0:0:
64,192,99447,1,0,0:0:0:0:
192,192,99606,1,0,0:0:0:0:
64,192,99606,1,0,0:0:0:0:
64,192,99765,1,0,0:0:0:0:
448,192,99765,1,0,0:0:0:0:
64,192,100083,1,0,0:0:0:0:
192,192,100083,1,0,0:0:0:0:
192,192,100241,1,0,0:0:0:0:
320,192,100400,1,0,0:0:0:0:
448,192,100400,1,0,0:0:0:0:
192,192,100718,1,0,0:0:0:0:
320,192,100877,1,0,0:0:0:0:
448,192,100877,1,0,0:0:0:0:
64,192,101035,1,0,0:0:0:0:
192,192,101035,1,0,0:0:0:0:
192,192,101194,1,0,0:0:0:0:
64,192,101194,1,0,0:0:0:0:
64,192,101353,1,0,0:0:0:0:
448,192,101353,1,0,0:0:0:0:
320,192,101512,1,0,0:0:0:0:
192,192,101671,1,0,0:0:0:0:
448,192,101671,1,0,0:0:0:0:
192,192,101988,1,0,0:0:0:0:
64,192,101988,1,0,0:0:0:0:
320,192,102147,1,0,0:0:0:0:
64,192,102465,1,0,0:0:0:0:
192,192,102465,1,0,0:0:0:0:
320,192,102624,1,0,0:0:0:0:
448,192,102624,1,0,0:0:0:0:
448,192,102782,1,0,0:0:0:0:
320,192,102782,1,0,0:0:0:0:
448,192,102941,1,0,0:0:0:0:
64,192,102941,1,0,0:0:0:0:
192,192,103100,1,0,0:0:0:0:
320,192,103259,1,0,0:0:0:0:
448,192,103259,1,0,0:0:0:0:
64,192,103576,1,0,0:0:0:0:
192,192,103576,1,0,0:0:0:0:
320,192,103735,1,0,0:0:0:0:
448,192,103894,1,0,0:0:0:0:
64,192,104053,1,0,0:0:0:0:
192,192,104053,1,0,0:0:0:0:
320,192,104212,1,0,0:0:0:0:
448,192,104212,1,0,0:0:0:0:
448,192,104371,1,0,0:0:0:0:
320,192,104371,1,0,0:0:0:0:
448,192,104529,1,0,0:0:0:0:
64,192,104529,1,0,0:0:0:0:
64,192,104847,1,0,0:0:0:0:
192,192,104847,1,0,0:0:0:0:
320,192,105165,1,0,0:0:0:0:
448,192,105165,1,0,0:0:0:0:
320,192,105323,128,0,105641:0:0:0:0:
192,192,105323,1,0,0:0:0:0:
64,192,105482,1,0,0:0:0:0:
64,192,105641,1,0,0:0:0:0:
448,192,105641,1,0,0:0:0:0:
192,192,105800,128,0,106117:0:0:0:0:
320,192,105800,1,0,0:0:0:0:
64,192,106117,128,0,106435:0:0:0:0:
448,192,106117,1,0,0:0:0:0:
320,192,106276,1,0,0:0:0:0:
192,192,106276,1,0,0:0:0:0:
192,192,106435,1,0,0:0:0:0:
448,192,106435,1,0,0:0:0:0:
320,192,106594,1,0,0:0:0:0:
448,192,106594,1,0,0:0:0:0:
448,192,106753,1,0,0:0:0:0:
320,192,106753,1,0,0:0:0:0:
64,192,106912,128,0,107229:0:0:0:0:
448,192,107070,1,0,0:0:0:0:
320,192,107070,1,0,0:0:0:0:
192,192,107388,128,0,107706:0:0:0:0:
64,192,107706,128,0,108023:0:0:0:0:
320,192,107706,1,0,0:0:0:0:
448,192,107706,1,0,0:0:0:0:
448,192,108023,1,0,0:0:0:0:
192,192,108023,1,0,0:0:0:0:
64,192,108341,1,0,0:0:0:0:
448,192,108341,1,0,0:0:0:0:
448,192,108500,128,0,108817:0:0:0:0:
320,192,108500,1,0,0:0:0:0:
192,192,108659,1,0,0:0:0:0:
64,192,108817,1,0,0:0:0:0:
320,192,108817,1,0,0:0:0:0:
320,192,108976,128,0,109294:0:0:0:0:
192,192,108976,1,0,0:0:0:0:
64,192,108976,1,0,0:0:0:0:
64,192,109135,1,0,0:0:0:0:
192,192,109135,1,0,0:0:0:0:
192,192,109294,128,0,109611:0:0:0:0:
448,192,109294,1,0,0:0:0:0:
64,192,109294,1,0,0:0:0:0:
64,192,109611,1,0,0:0:0:0:
448,192,109611,1,0,0:0:0:0:
448,192,109770,1,0,0:0:0:0:
64,192,109770,1,0,0:0:0:0:
64,192,109929,1,0,0:0:0:0:
448,192,109929,1,0,0:0:0:0:
192,192,110088,128,0,110405:0:0:0:0:
320,192,110088,1,0,0:0:0:0:
448,192,110088,1,0,0:0:0:0:
448,192,110247,1,0,0:0:0:0:
320,192,110247,1,0,0:0:0:0:
64,192,110405,1,0,0:0:0:0:
448,192,110405,1,0,0:0:0:0:
320,192,110564,128,0,110882:0:0:0:0:
192,192,110564,1,0,0:0:0:0:
64,192,110564,1,0,0:0:0:0:
64,192,110723,1,0,0:0:0:0:
192,192,110723,1,0,0:0:0:0:
192,192,110882,128,0,111200:0:0:0:0:
64,192,110882,1,0,0:0:0:0:
448,192,110882,1,0,0:0:0:0:
320,192,111041,1,0,0:0:0:0:
448,192,111041,1,0,0:0:0:0:
64,192,111200,1,0,0:0:0:0:
448,192,111200,1,0,0:0:0:0:
64,192,111358,1,0,0:0:0:0:
448,192,111358,1,0,0:0:0:0:
64,192,111517,1,0,0:0:0:0:
320,192,111517,1,0,0:0:0:0:
448,192,111676,1,0,0:0:0:0:
320,192,111676,128,0,111994:0:0:0:0:
448,192,111835,1,0,0:0:0:0:
64,192,111835,1,0,0:0:0:0:
192,192,111994,1,0,0:0:0:0:
192,192,112152,128,0,112470:0:0:0:0:
448,192,112152,1,0,0:0:0:0:
320,192,112311,1,0,0:0:0:0:
448,192,112311,1,0,0:0:0:0:
64,192,112470,128,0,112788:0:0:0:0:
320,192,112470,1,0,0:0:0:0:
448,192,112629,1,0,0:0:0:0:
320,192,112629,1,0,0:0:0:0:
192,192,112788,1,0,0:0:0:0:
192,192,112947,1,0,0:0:0:0:
448,192,112947,1,0,0:0:0:0:
448,192,113105,1,0,0:0:0:0:
64,192,113105,1,0,0:0:0:0:
64,192,113264,128,0,113582:0:0:0:0:
192,192,113264,1,0,0:0:0:0:
320,192,113423,1,0,0:0:0:0:
448,192,113423,1,0,0:0:0:0:
192,192,113582,1,0,0:0:0:0:
448,192,113582,1,0,0:0:0:0:
192,192,113741,128,0,114058:0:0:0:0:
320,192,113899,1,0,0:0:0:0:
64,192,114058,128,0,114376:0:0:0:0:
448,192,114058,1,0,0:0:0:0:
192,192,114376,1,0,0:0:0:0:
448,192,114376,1,0,0:0:0:0:
192,192,114535,1,0,0:0:0:0:
448,192,114535,1,0,0:0:0:0:
448,192,114693,1,0,0:0:0:0:
64,192,114693,1,0,0:0:0:0:
448,192,114852,128,0,115170:0:0:0:0:
320,192,114852,1,0,0:0:0:0:
64,192,115011,1,0,0:0:0:0:
320,192,115011,1,0,0:0:0:0:
64,192,115170,1,0,0:0:0:0:
320,192,115170,1,0,0:0:0:0:
320,192,115329,128,0,115646:0:0:0:0:
192,192,115329,1,0,0:0:0:0:
448,192,115329,1,0,0:0:0:0:
448,192,115488,1,0,0:0:0:0:
64,192,115488,1,0,0:0:0:0:
192,192,115646,128,0,115964:0:0:0:0:
64,192,115646,1,0,0:0:0:0:
448,192,115646,1,0,0:0:0:0:
320,192,115805,1,0,0:0:0:0:
448,192,115805,1,0,0:0:0:0:
320,192,115964,1,0,0:0:0:0:
448,192,115964,1,0,0:0:0:0:
320,192,116123,1,0,0:0:0:0:
64,192,116123,1,0,0:0:0:0:
64,192,116282,1,0,0:0:0:0:
448,192,116282,1,0,0:0:0:0:
448,192,116440,128,0,116758:0:0:0:0:
320,192,116440,1,0,0:0:0:0:
64,192,116599,1,0,0:0:0:0:
192,192,116599,1,0,0:0:0:0:
64,192,116758,1,0,0:0:0:0:
320,192,116758,1,0,0:0:0:0:
192,192,116917,128,0,117234:0:0:0:0:
320,192,116917,1,0,0:0:0:0:
320,192,117076,1,0,0:0:0:0:
64,192,117234,128,0,117552:0:0:0:0:
448,192,117234,1,0,0:0:0:0:
192,192,117393,1,0,0:0:0:0:
320,192,117393,1,0,0:0:0:0:
192,192,117552,1,0,0:0:0:0:
320,192,117552,1,0,0:0:0:0:
448,192,117552,128,0,118029:0:0:0:0:
64,192,117870,1,0,0:0:0:0:
320,192,117870,1,0,0:0:0:0:
192,192,118029,128,0,118505:0:0:0:0:
320,192,118029,1,0,0:0:0:0:
64,192,118187,1,0,0:0:0:0:
448,192,118187,1,0,0:0:0:0:
448,192,118346,1,0,0:0:0:0:
64,192,118505,128,0,118823:0:0:0:0:
448,192,118505,1,0,0:0:0:0:
320,192,118505,1,0,0:0:0:0:
320,192,118664,1,0,0:0:0:0:
448,192,118664,1,0,0:0:0:0:
448,192,118823,128,0,119140:0:0:0:0:
192,192,118823,1,0,0:0:0:0:
192,192,119140,128,0,119617:0:0:0:0:
64,192,119140,1,0,0:0:0:0:
64,192,119458,1,0,0:0:0:0:
448,192,119458,1,0,0:0:0:0:
448,192,119617,128,0,120093:0:0:0:0:
320,192,119617,1,0,0:0:0:0:
64,192,119617,1,0,0:0:0:0:
64,192,119776,1,0,0:0:0:0:
320,192,119934,1,0,0:0:0:0:
192,192,119934,1,0,0:0:0:0:
320,192,120093,128,0,120411:0:0:0:0:
64,192,120093,1,0,0:0:0:0:
192,192,120093,1,0,0:0:0:0:
64,192,120252,1,0,0:0:0:0:
192,192,120252,1,0,0:0:0:0:
64,192,120411,128,0,120728:0:0:0:0:
448,192,120411,1,0,0:0:0:0:
448,192,120728,128,0,121205:0:0:0:0:
320,192,120728,1,0,0:0:0:0:
64,192,121046,1,0,0:0:0:0:
320,192,121046,1,0,0:0:0:0:
192,192,121205,128,0,121681:0:0:0:0:
320,192,121205,1,0,0:0:0:0:
64,192,121205,1,0,0:0:0:0:
448,192,121364,1,0,0:0:0:0:
64,192,121364,1,0,0:0:0:0:
64,192,121522,1,0,0:0:0:0:
64,192,121681,128,0,121999:0:0:0:0:
448,192,121681,1,0,0:0:0:0:
320,192,121681,1,0,0:0:0:0:
320,192,121840,1,0,0:0:0:0:
448,192,121840,1,0,0:0:0:0:
320,192,121999,128,0,122317:0:0:0:0:
192,192,121999,1,0,0:0:0:0:
448,192,122317,1,0,0:0:0:0:
192,192,122317,128,0,122793:0:0:0:0:
64,192,122634,1,0,0:0:0:0:
320,192,122634,1,0,0:0:0:0:
448,192,122793,128,0,123269:0:0:0:0:
320,192,122793,1,0,0:0:0:0:
64,192,122793,1,0,0:0:0:0:
192,192,122952,1,0,0:0:0:0:
64,192,123111,1,0,0:0:0:0:
320,192,123111,1,0,0:0:0:0:
320,192,123269,128,0,123587:0:0:0:0:
64,192,123269,1,0,0:0:0:0:
192,192,123269,1,0,0:0:0:0:
64,192,123428,1,0,0:0:0:0:
192,192,123428,1,0,0:0:0:0:
64,192,123587,128,0,123905:0:0:0:0:
448,192,123587,1,0,0:0:0:0:
320,192,123905,128,0,124381:0:0:0:0:
192,192,123905,1,0,0:0:0:0:
448,192,124222,1,0,0:0:0:0:
192,192,124222,1,0,0:0:0:0:
64,192,124381,128,0,124858:0:0:0:0:
192,192,124381,1,0,0:0:0:0:
448,192,124540,1,0,0:0:0:0:
192,192,124540,1,0,0:0:0:0:
448,192,124699,1,0,0:0:0:0:
192,192,124858,128,0,125175:0:0:0:0:
320,192,124858,1,0,0:0:0:0:
448,192,124858,1,0,0:0:0:0:
320,192,125016,1,0,0:0:0:0:
448,192,125016,1,0,0:0:0:0:
448,192,125175,128,0,125493:0:0:0:0:
64,192,125175,1,0,0:0:0:0:
64,192,125493,128,0,125969:0:0:0:0:
192,192,125493,1,0,0:0:0:0:
192,192,125810,1,0,0:0:0:0:
448,192,125810,1,0,0:0:0:0:
448,192,125969,128,0,126446:0:0:0:0:
192,192,125969,1,0,0:0:0:0:
320,192,125969,1,0,0:0:0:0:
192,192,126128,1,0,0:0:0:0:
64,192,126287,1,0,0:0:0:0:
320,192,126287,1,0,0:0:0:0:
320,192,126446,128,0,126763:0:0:0:0:
64,192,126446,1,0,0:0:0:0:
192,192,126446,1,0,0:0:0:0:
64,192,126605,1,0,0:0:0:0:
192,192,126605,1,0,0:0:0:0:
192,192,126763,128,0,127081:0:0:0:0:
448,192,126763,1,0,0:0:0:0:
320,192,127081,128,0,127557:0:0:0:0:
448,192,127081,1,0,0:0:0:0:
448,192,127240,1,0,0:0:0:0:
64,192,127399,1,0,0:0:0:0:
448,192,127399,1,0,0:0:0:0:
64,192,127557,128,0,128034:0:0:0:0:
192,192,127557,1,0,0:0:0:0:
448,192,127716,1,0,0:0:0:0:
192,192,127716,1,0,0:0:0:0:
448,192,127875,1,0,0:0:0:0:
192,192,128034,128,0,128351:0:0:0:0:
320,192,128034,1,0,0:0:0:0:
448,192,128034,1,0,0:0:0:0:
320,192,128193,1,0,0:0:0:0:
448,192,128193,1,0,0:0:0:0:
448,192,128351,128,0,128669:0:0:0:0:
64,192,128351,1,0,0:0:0:0:
192,192,128510,1,0,0:0:0:0:
64,192,128669,128,0,129146:0:0:0:0:
320,192,128669,1,0,0:0:0:0:
192,192,128987,1,0,0:0:0:0:
448,192,128987,1,0,0:0:0:0:
320,192,129146,128,0,129622:0:0:0:0:
192,192,129146,1,0,0:0:0:0:
448,192,129146,1,0,0:0:0:0:
192,192,129304,1,0,0:0:0:0:
64,192,129463,1,0,0:0:0:0:
448,192,129463,1,0,0:0:0:0:
448,192,129622,128,0,129940:0:0:0:0:
64,192,129622,1,0,0:0:0:0:
192,192,129622,1,0,0:0:0:0:
64,192,129781,1,0,0:0:0:0:
192,192,129781,1,0,0:0:0:0:
64,192,129940,128,0,130257:0:0:0:0:
320,192,129940,1,0,0:0:0:0:
192,192,130098,1,0,0:0:0:0:
448,192,130098,1,0,0:0:0:0:
320,192,130257,128,0,130734:0:0:0:0:
448,192,130257,1,0,0:0:0:0:
192,192,130416,1,0,0:0:0:0:
64,192,130575,1,0,0:0:0:0:
448,192,130575,1,0,0:0:0:0:
64,192,130734,128,0,131210:0:0:0:0:
192,192,130734,1,0,0:0:0:0:
448,192,130734,1,0,0:0:0:0:
448,192,130893,1,0,0:0:0:0:
192,192,130893,1,0,0:0:0:0:
320,192,131051,1,0,0:0:0:0:
320,192,131210,1,0,0:0:0:0:
448,192,131210,1,0,0:0:0:0:
192,192,131210,128,0,131528:0:0:0:0:
448,192,131369,1,0,0:0:0:0:
320,192,131369,1,0,0:0:0:0:
448,192,131528,128,0,131845:0:0:0:0:
64,192,131528,1,0,0:0:0:0:
64,192,131845,128,0,132322:0:0:0:0:
192,192,131845,1,0,0:0:0:0:
320,192,132004,1,0,0:0:0:0:
448,192,132163,1,0,0:0:0:0:
192,192,132163,1,0,0:0:0:0:
320,192,132322,128,0,132798:0:0:0:0:
448,192,132322,1,0,0:0:0:0:
192,192,132322,1,0,0:0:0:0:
64,192,132481,1,0,0:0:0:0:
192,192,132639,1,0,0:0:0:0:
64,192,132798,1,0,0:0:0:0:
192,192,132798,1,0,0:0:0:0:
448,192,132798,128,0,133116:0:0:0:0:
192,192,132957,1,0,0:0:0:0:
64,192,132957,1,0,0:0:0:0:
192,192,133116,128,0,133434:0:0:0:0:
320,192,133116,1,0,0:0:0:0:
320,192,133434,128,0,133910:0:0:0:0:
448,192,133434,1,0,0:0:0:0:
64,192,133592,1,0,0:0:0:0:
64,192,133751,1,0,0:0:0:0:
448,192,133751,1,0,0:0:0:0:
192,192,133910,128,0,134386:0:0:0:0:
448,192,133910,1,0,0:0:0:0:
64,192,133910,1,0,0:0:0:0:
448,192,134069,1,0,0:0:0:0:
64,192,134228,1,0,0:0:0:0:
320,192,134386,1,0,0:0:0:0:
448,192,134386,1,0,0:0:0:0:
64,192,134386,128,0,134704:0:0:0:0:
448,192,134545,1,0,0:0:0:0:
320,192,134545,1,0,0:0:0:0:
448,192,134704,128,0,135022:0:0:0:0:
192,192,134704,1,0,0:0:0:0:
192,192,135022,128,0,135498:0:0:0:0:
64,192,135022,1,0,0:0:0:0:
448,192,135339,1,0,0:0:0:0:
64,192,135339,1,0,0:0:0:0:
448,192,135498,128,0,135975:0:0:0:0:
320,192,135498,1,0,0:0:0:0:
64,192,135498,1,0,0:0:0:0:
320,192,135657,1,0,0:0:0:0:
64,192,135816,1,0,0:0:0:0:
320,192,135816,1,0,0:0:0:0:
64,192,135975,1,0,0:0:0:0:
192,192,135975,1,0,0:0:0:0:
320,192,135975,128,0,136292:0:0:0:0:
192,192,136133,1,0,0:0:0:0:
64,192,136133,1,0,0:0:0:0:
64,192,136292,128,0,136610:0:0:0:0:
448,192,136292,1,0,0:0:0:0:
192,192,136451,1,0,0:0:0:0:
448,192,136610,128,0,137086:0:0:0:0:
320,192,136610,1,0,0:0:0:0:
64,192,136927,1,0,0:0:0:0:
320,192,136927,1,0,0:0:0:0:
192,192,137086,128,0,137563:0:0:0:0:
320,192,137086,1,0,0:0:0:0:
64,192,137086,1,0,0:0:0:0:
64,192,137245,1,0,0:0:0:0:
448,192,137245,1,0,0:0:0:0:
320,192,137404,1,0,0:0:0:0:
320,192,137563,1,0,0:0:0:0:
448,192,137563,1,0,0:0:0:0:
64,192,137563,128,0,137880:0:0:0:0:
448,192,137722,1,0,0:0:0:0:
320,192,137722,1,0,0:0:0:0:
320,192,137880,128,0,138198:0:0:0:0:
192,192,137880,1,0,0:0:0:0:
192,192,138198,128,0,138674:0:0:0:0:
448,192,138198,1,0,0:0:0:0:
448,192,138516,1,0,0:0:0:0:
64,192,138516,1,0,0:0:0:0:
448,192,138674,128,0,139151:0:0:0:0:
320,192,138674,1,0,0:0:0:0:
64,192,138674,1,0,0:0:0:0:
320,192,138833,1,0,0:0:0:0:
320,192,138992,1,0,0:0:0:0:
64,192,138992,1,0,0:0:0:0:
192,192,139151,1,0,0:0:0:0:
64,192,139151,1,0,0:0:0:0:
320,192,139151,128,0,139468:0:0:0:0:
64,192,139310,1,0,0:0:0:0:
192,192,139310,1,0,0:0:0:0:
64,192,139468,128,0,139786:0:0:0:0:
448,192,139468,1,0,0:0:0:0:
320,192,139786,128,0,140263:0:0:0:0:
192,192,139786,1,0,0:0:0:0:
192,192,139945,1,0,0:0:0:0:
64,192,140104,1,0,0:0:0:0:
448,192,140104,1,0,0:0:0:0:
64,192,140263,128,0,140739:0:0:0:0:
192,192,140263,1,0,0:0:0:0:
448,192,140263,1,0,0:0:0:0:
448,192,140421,1,0,0:0:0:0:
192,192,140421,1,0,0:0:0:0:
320,192,140580,1,0,0:0:0:0:
320,192,140739,1,0,0:0:0:0:
448,192,140739,1,0,0:0:0:0:
192,192,140739,128,0,141057:0:0:0:0:
320,192,140898,1,0,0:0:0:0:
448,192,140898,1,0,0:0:0:0:
448,192,141057,128,0,141374:0:0:0:0:
64,192,141057,1,0,0:0:0:0:
64,192,141374,128,0,141851:0:0:0:0:
320,192,141374,1,0,0:0:0:0:
192,192,141692,1,0,0:0:0:0:
448,192,141692,1,0,0:0:0:0:
320,192,141851,128,0,142327:0:0:0:0:
192,192,141851,1,0,0:0:0:0:
448,192,141851,1,0,0:0:0:0:
448,192,142010,1,0,0:0:0:0:
448,192,142168,1,0,0:0:0:0:
64,192,142168,1,0,0:0:0:0:
192,192,142327,1,0,0:0:0:0:
64,192,142327,1,0,0:0:0:0:
448,192,142327,128,0,142645:0:0:0:0:
64,192,142486,1,0,0:0:0:0:
192,192,142486,1,0,0:0:0:0:
192,192,142645,128,0,142962:0:0:0:0:
320,192,142645,1,0,0:0:0:0:
320,192,142804,128,0,142962:0:0:0:0:
448,192,142962,1,0,0:0:0:0:
64,192,142962,1,0,0:0:0:0:
