osu file format v14

[General]
AudioFilename: audio.mp3
AudioLeadIn: 0
PreviewTime: 31829
Countdown: 0
SampleSet: Normal
StackLeniency: 0.7
Mode: 3
LetterboxInBreaks: 0
SkinPreference:Polaris v4
SpecialStyle: 0
WidescreenStoryboard: 1

[Editor]
DistanceSpacing: 1
BeatDivisor: 4
GridSize: 4
TimelineZoom: 2

[Metadata]
Title:Renge Danced Like a Butterfly
TitleUnicode:Renge Danced Like a Butterfly
Artist:Radio wind
ArtistUnicode:Radio wind
Creator:Polarni
Version:Normal?!?
Source:Non Non Biyori
Tags:Nyanpasu Butterfly Danced Biyori Non
BeatmapID:1406712
BeatmapSetID:663533

[Difficulty]
HPDrainRate:6
CircleSize:4
OverallDifficulty:7
ApproachRate:5
SliderMultiplier:1.5
SliderTickRate:1

[Events]
//Background and Video events
0,0,"a39d96460bb4538b2215cb97e381963c--non-non-biyori-live.jpg",0,0
//Break Periods
//Storyboard Layer 0 (Background)
//Storyboard Layer 1 (Fail)
//Storyboard Layer 2 (Pass)
//Storyboard Layer 3 (Foreground)
//Storyboard Sound Samples

[TimingPoints]
771,352.941176470588,4,2,0,100,1,0
3594,-100,4,3,0,80,0,0
14888,-100,4,2,0,100,0,0
43123,-100,4,3,0,80,0,0
54418,-100,4,2,0,100,0,0
77006,-100,4,1,0,100,0,0
81241,-100,4,2,0,100,0,0
82653,-100,4,1,0,100,0,0
86888,-100,4,2,0,100,0,0
88300,-100,4,3,0,80,0,1
99594,-100,4,1,0,100,0,0

[HitObjects]
320,192,771,128,8,1476:0:0:0:0:
64,192,1476,128,8,2182:0:0:0:0:
448,192,2182,128,8,2888:0:0:0:0:
192,192,2888,1,8,0:0:0:0:
448,192,3065,1,2,0:0:0:0:
320,192,3153,1,2,0:0:0:0:
192,192,3241,1,2,0:0:0:0:
192,192,3594,1,4,0:0:0:0:
64,192,3770,1,4,0:0:0:0:
320,192,3947,1,4,0:0:0:0:
448,192,4123,1,4,0:0:0:0:
320,192,4300,1,4,0:0:0:0:
64,192,4476,1,4,0:0:0:0:
192,192,4653,1,4,0:0:0:0:
320,192,4829,1,4,0:0:0:0:
64,192,5006,1,8,0:0:0:0:
192,192,5182,1,8,0:0:0:0:
448,192,5359,1,8,0:0:0:0:
320,192,5535,1,8,0:0:0:0:
448,192,5712,1,8,0:0:0:0:
192,192,5888,1,8,0:0:0:0:
448,192,6065,1,8,0:0:0:0:
64,192,6241,1,8,0:0:0:0:
448,192,6418,1,4,0:0:0:0:
192,192,6594,1,4,0:0:0:0:
320,192,6770,1,4,0:0:0:0:
64,192,6947,1,4,0:0:0:0:
320,192,7123,1,4,0:0:0:0:
448,192,7300,1,4,0:0:0:0:
192,192,7476,1,4,0:0:0:0:
64,192,7653,1,4,0:0:0:0:
320,192,7829,1,8,0:0:0:0:
192,192,8006,1,8,0:0:0:0:
448,192,8182,1,8,0:0:0:0:
320,192,8359,1,8,0:0:0:0:
64,192,8535,1,8,0:0:0:0:
192,192,8712,1,8,0:0:0:0:
320,192,8888,1,8,0:0:0:0:
64,192,9065,1,8,0:0:0:0:
192,192,9241,1,4,0:0:0:0:
448,192,9418,1,4,0:0:0:0:
320,192,9594,1,4,0:0:0:0:
192,192,9770,1,4,0:0:0:0:
64,192,9947,1,4,0:0:0:0:
448,192,10123,1,4,0:0:0:0:
192,192,10300,1,4,0:0:0:0:
320,192,10476,1,4,0:0:0:0:
64,192,10653,1,8,0:0:0:0:
320,192,10829,1,8,0:0:0:0:
192,192,11006,1,8,0:0:0:0:
448,192,11182,1,8,0:0:0:0:
64,192,11359,1,10,0:0:0:0:
320,192,11535,1,10,0:0:0:0:
192,192,11712,1,10,0:0:0:0:
448,192,11888,1,10,0:0:0:0:
64,192,12065,1,4,0:0:0:0:
320,192,12241,1,4,0:0:0:0:
192,192,12418,1,4,0:0:0:0:
448,192,12594,1,4,0:0:0:0:
64,192,12770,1,4,0:0:0:0:
192,192,12947,1,4,0:0:0:0:
320,192,13123,1,4,0:0:0:0:
192,192,13300,1,4,0:0:0:0:
448,192,13476,1,8,0:0:0:0:
64,192,13653,1,8,0:0:0:0:
192,192,13829,1,8,0:0:0:0:
320,192,14006,1,8,0:0:0:0:
192,192,14182,1,8,0:0:0:0:
320,192,14359,1,8,0:0:0:0:
448,192,14535,1,8,0:0:0:0:
320,192,14712,1,8,0:0:0:0:
448,192,14888,1,4,0:0:0:0:
192,192,14888,1,0,0:0:0:0:
64,192,15241,1,8,0:0:0:0:
320,192,15594,1,0,0:0:0:0:
192,192,15947,1,8,0:0:0:0:
448,192,16300,1,0,0:0:0:0:
64,192,16300,1,0,0:0:0:0:
192,192,16653,1,8,0:0:0:0:
320,192,17006,1,0,0:0:0:0:
64,192,17359,1,8,0:0:0:0:
448,192,17712,1,0,0:0:0:0:
192,192,17712,1,0,0:0:0:0:
320,192,18065,1,8,0:0:0:0:
64,192,18418,1,0,0:0:0:0:
448,192,18770,1,8,0:0:0:0:
64,192,19123,1,8,0:0:0:0:
192,192,19300,1,8,0:0:0:0:
448,192,19476,1,8,0:0:0:0:
64,192,19653,1,8,0:0:0:0:
448,192,19829,1,8,0:0:0:0:
192,192,20006,1,8,0:0:0:0:
320,192,20182,1,8,0:0:0:0:
192,192,20359,1,8,0:0:0:0:
64,192,20535,128,0,20888:0:0:0:0:
320,192,20888,128,2,21241:0:0:0:0:
192,192,21241,128,0,21594:0:0:0:0:
448,192,21594,128,2,21947:0:0:0:0:
64,192,21947,1,0,0:0:0:0:
320,192,22300,1,2,0:0:0:0:
192,192,22653,1,0,0:0:0:0:
448,192,23006,1,2,0:0:0:0:
64,192,23359,1,0,0:0:0:0:
320,192,23712,1,2,0:0:0:0:
192,192,24065,1,0,0:0:0:0:
320,192,24418,1,2,0:0:0:0:
64,192,24770,1,0,0:0:0:0:
320,192,25123,1,2,0:0:0:0:
192,192,25476,1,0,0:0:0:0:
448,192,25829,1,2,0:0:0:0:
64,192,26182,1,0,0:0:0:0:
320,192,26535,1,2,0:0:0:0:
448,192,26888,1,0,0:0:0:0:
192,192,27241,1,2,0:0:0:0:
448,192,27594,1,0,0:0:0:0:
192,192,27947,1,2,0:0:0:0:
320,192,28300,1,0,0:0:0:0:
64,192,28653,1,2,0:0:0:0:
448,192,29006,128,0,29359:0:0:0:0:
320,192,29359,128,2,29712:0:0:0:0:
192,192,29712,128,0,30065:0:0:0:0:
64,192,30065,128,2,30418:0:0:0:0:
448,192,30418,128,0,30770:0:0:0:0:
320,192,30770,128,2,31123:0:0:0:0:
192,192,31123,128,0,31476:0:0:0:0:
64,192,31476,128,2,31829:0:0:0:0:
192,192,31829,1,4,0:0:0:0:
320,192,32182,1,8,0:0:0:0:
64,192,32535,1,0,0:0:0:0:
320,192,32888,1,8,0:0:0:0:
448,192,33241,1,0,0:0:0:0:
192,192,33594,1,8,0:0:0:0:
64,192,33947,1,0,0:0:0:0:
448,192,34300,1,8,0:0:0:0:
64,192,34653,128,4,35006:0:0:0:0:
192,192,35006,128,2,35359:0:0:0:0:
320,192,35359,128,0,35712:0:0:0:0:
448,192,35712,128,2,36065:0:0:0:0:
192,192,36065,1,0,0:0:0:0:
320,192,36418,1,2,0:0:0:0:
192,192,36770,1,0,0:0:0:0:
448,192,37123,1,2,0:0:0:0:
64,192,37476,1,4,0:0:0:0:
320,192,37829,1,8,0:0:0:0:
64,192,38182,1,0,0:0:0:0:
448,192,38535,1,8,0:0:0:0:
64,192,38888,1,0,0:0:0:0:
320,192,39241,1,8,0:0:0:0:
192,192,39594,1,0,0:0:0:0:
64,192,39947,1,8,0:0:0:0:
192,192,40300,1,4,0:0:0:0:
448,192,40653,1,2,0:0:0:0:
320,192,41006,1,0,0:0:0:0:
64,192,41359,1,2,0:0:0:0:
448,192,41712,1,0,0:0:0:0:
64,192,42065,1,2,0:0:0:0:
192,192,42418,1,0,0:0:0:0:
448,192,42770,1,4,0:0:0:0:
64,192,43123,1,4,0:0:0:0:
192,192,43300,1,4,0:0:0:0:
320,192,43476,1,4,0:0:0:0:
448,192,43653,1,4,0:0:0:0:
320,192,43829,1,4,0:0:0:0:
192,192,44006,1,4,0:0:0:0:
64,192,44182,1,4,0:0:0:0:
192,192,44359,1,4,0:0:0:0:
320,192,44535,1,8,0:0:0:0:
64,192,44712,1,8,0:0:0:0:
448,192,44888,1,8,0:0:0:0:
320,192,45065,1,8,0:0:0:0:
64,192,45241,1,8,0:0:0:0:
192,192,45418,1,8,0:0:0:0:
64,192,45594,1,8,0:0:0:0:
448,192,45770,1,8,0:0:0:0:
64,192,45947,1,4,0:0:0:0:
320,192,46123,1,4,0:0:0:0:
192,192,46300,1,4,0:0:0:0:
448,192,46476,1,4,0:0:0:0:
64,192,46653,1,4,0:0:0:0:
192,192,46829,1,4,0:0:0:0:
320,192,47006,1,4,0:0:0:0:
64,192,47182,1,4,0:0:0:0:
192,192,47359,1,8,0:0:0:0:
448,192,47535,1,8,0:0:0:0:
320,192,47712,1,8,0:0:0:0:
64,192,47888,1,8,0:0:0:0:
448,192,48065,1,8,0:0:0:0:
192,192,48241,1,8,0:0:0:0:
320,192,48418,1,8,0:0:0:0:
192,192,48594,1,8,0:0:0:0:
320,192,48770,1,4,0:0:0:0:
64,192,48947,1,4,0:0:0:0:
448,192,49123,1,4,0:0:0:0:
320,192,49300,1,4,0:0:0:0:
64,192,49476,1,4,0:0:0:0:
448,192,49653,1,4,0:0:0:0:
64,192,49829,1,4,0:0:0:0:
320,192,50006,1,4,0:0:0:0:
192,192,50182,1,8,0:0:0:0:
448,192,50359,1,8,0:0:0:0:
192,192,50535,1,8,0:0:0:0:
320,192,50712,1,8,0:0:0:0:
64,192,50888,1,8,0:0:0:0:
448,192,51065,1,8,0:0:0:0:
192,192,51241,1,8,0:0:0:0:
320,192,51418,1,8,0:0:0:0:
64,192,51594,1,4,0:0:0:0:
320,192,51770,1,4,0:0:0:0:
192,192,51947,1,4,0:0:0:0:
448,192,52123,1,4,0:0:0:0:
64,192,52300,1,4,0:0:0:0:
192,192,52476,1,4,0:0:0:0:
448,192,52653,1,4,0:0:0:0:
64,192,52829,1,4,0:0:0:0:
320,192,53006,1,8,0:0:0:0:
192,192,53182,1,8,0:0:0:0:
64,192,53359,1,8,0:0:0:0:
192,192,53535,1,8,0:0:0:0:
320,192,53712,1,8,0:0:0:0:
448,192,53888,1,8,0:0:0:0:
320,192,54065,1,8,0:0:0:0:
192,192,54241,1,8,0:0:0:0:
448,192,54418,1,4,0:0:0:0:
192,192,54770,1,2,0:0:0:0:
448,192,55123,1,0,0:0:0:0:
320,192,55476,1,2,0:0:0:0:
64,192,55829,1,0,0:0:0:0:
320,192,56182,1,2,0:0:0:0:
192,192,56535,1,0,0:0:0:0:
448,192,56888,1,2,0:0:0:0:
64,192,57241,1,0,0:0:0:0:
320,192,57594,1,2,0:0:0:0:
448,192,57947,1,0,0:0:0:0:
64,192,58300,1,2,0:0:0:0:
192,192,58653,1,0,0:0:0:0:
448,192,59006,1,2,0:0:0:0:
320,192,59359,1,0,0:0:0:0:
64,192,59712,1,2,0:0:0:0:
448,192,60065,1,0,0:0:0:0:
192,192,60418,1,2,0:0:0:0:
448,192,60770,1,0,0:0:0:0:
64,192,61123,1,2,0:0:0:0:
320,192,61476,1,0,0:0:0:0:
192,192,61829,1,2,0:0:0:0:
448,192,62182,1,0,0:0:0:0:
192,192,62535,1,2,0:0:0:0:
64,192,62888,128,0,63241:0:0:0:0:
192,192,63241,128,2,63594:0:0:0:0:
320,192,63594,128,0,63947:0:0:0:0:
448,192,63947,128,2,64300:0:0:0:0:
64,192,64300,128,0,64653:0:0:0:0:
192,192,64653,128,2,65006:0:0:0:0:
448,192,65006,1,0,0:0:0:0:
320,192,65182,1,0,0:0:0:0:
192,192,65359,1,2,0:0:0:0:
64,192,65535,1,0,0:0:0:0:
448,192,65712,1,4,0:0:0:0:
320,192,66065,1,2,0:0:0:0:
64,192,66418,1,0,0:0:0:0:
320,192,66770,1,2,0:0:0:0:
448,192,67123,1,0,0:0:0:0:
192,192,67476,1,2,0:0:0:0:
64,192,67829,1,0,0:0:0:0:
448,192,68182,1,2,0:0:0:0:
64,192,68535,128,0,68888:0:0:0:0:
192,192,68888,128,2,69241:0:0:0:0:
320,192,69241,128,0,69594:0:0:0:0:
448,192,69594,128,2,69947:0:0:0:0:
320,192,69947,1,0,0:0:0:0:
192,192,70300,1,2,0:0:0:0:
448,192,70653,1,0,0:0:0:0:
64,192,71006,1,2,0:0:0:0:
320,192,71359,1,0,0:0:0:0:
64,192,71712,1,2,0:0:0:0:
448,192,72065,1,0,0:0:0:0:
192,192,72418,1,2,0:0:0:0:
448,192,72770,1,0,0:0:0:0:
64,192,73123,1,2,0:0:0:0:
320,192,73476,1,0,0:0:0:0:
192,192,73829,1,2,0:0:0:0:
64,192,74182,1,0,0:0:0:0:
320,192,74535,1,8,0:0:0:0:
448,192,74888,1,0,0:0:0:0:
192,192,75241,1,8,0:0:0:0:
320,192,75594,1,0,0:0:0:0:
64,192,75947,1,8,0:0:0:0:
192,192,76300,1,0,0:0:0:0:
448,192,76653,1,8,0:0:0:0:
192,192,77006,1,8,0:0:0:0:
320,192,77182,128,8,77712:0:0:0:0:
192,192,77712,128,0,78065:0:0:0:0:
64,192,78065,128,8,78594:0:0:0:0:
320,192,78594,128,8,79123:0:0:0:0:
64,192,79123,128,0,79476:0:0:0:0:
448,192,79476,128,8,80006:0:0:0:0:
192,192,80006,128,8,80535:0:0:0:0:
320,192,80535,128,0,80888:0:0:0:0:
64,192,80888,128,8,81241:0:0:0:0:
320,192,81241,1,0,0:0:0:0:
448,192,81594,1,0,0:0:0:0:
64,192,81947,1,4,0:0:0:0:
320,192,82300,1,0,0:0:0:0:
192,192,82653,1,8,0:0:0:0:
320,192,82829,128,8,83359:0:0:0:0:
64,192,83359,128,0,83712:0:0:0:0:
448,192,83712,128,8,84241:0:0:0:0:
192,192,84241,128,8,84770:0:0:0:0:
320,192,84770,128,0,85123:0:0:0:0:
64,192,85123,128,8,85653:0:0:0:0:
448,192,85653,128,8,86182:0:0:0:0:
192,192,86182,128,0,86535:0:0:0:0:
320,192,86535,128,8,86888:0:0:0:0:
64,192,86888,1,0,0:0:0:0:
320,192,87241,1,0,0:0:0:0:
192,192,87594,1,4,0:0:0:0:
448,192,87947,1,0,0:0:0:0:
64,192,88300,1,4,0:0:0:0:
192,192,88476,1,4,0:0:0:0:
320,192,88653,1,4,0:0:0:0:
448,192,88829,1,4,0:0:0:0:
320,192,89006,1,4,0:0:0:0:
192,192,89182,1,4,0:0:0:0:
64,192,89359,1,4,0:0:0:0:
192,192,89535,1,4,0:0:0:0:
448,192,89712,1,8,0:0:0:0:
192,192,89888,1,8,0:0:0:0:
64,192,90065,1,8,0:0:0:0:
320,192,90241,1,8,0:0:0:0:
192,192,90418,1,8,0:0:0:0:
448,192,90594,1,8,0:0:0:0:
64,192,90770,1,8,0:0:0:0:
320,192,90947,1,8,0:0:0:0:
448,192,91123,1,4,0:0:0:0:
192,192,91300,1,4,0:0:0:0:
64,192,91476,1,4,0:0:0:0:
448,192,91653,1,4,0:0:0:0:
192,192,91829,1,4,0:0:0:0:
320,192,92006,1,4,0:0:0:0:
64,192,92182,1,4,0:0:0:0:
320,192,92359,1,4,0:0:0:0:
448,192,92535,1,8,0:0:0:0:
192,192,92712,1,8,0:0:0:0:
64,192,92888,1,8,0:0:0:0:
320,192,93065,1,8,0:0:0:0:
192,192,93241,1,8,0:0:0:0:
448,192,93418,1,8,0:0:0:0:
64,192,93594,1,8,0:0:0:0:
320,192,93770,1,8,0:0:0:0:
448,192,93947,1,4,0:0:0:0:
192,192,94123,1,4,0:0:0:0:
320,192,94300,1,4,0:0:0:0:
64,192,94476,1,4,0:0:0:0:
448,192,94653,1,4,0:0:0:0:
192,192,94829,1,4,0:0:0:0:
448,192,95006,1,4,0:0:0:0:
64,192,95182,1,4,0:0:0:0:
320,192,95359,1,8,0:0:0:0:
64,192,95535,1,8,0:0:0:0:
192,192,95712,1,8,0:0:0:0:
448,192,95888,1,8,0:0:0:0:
320,192,96065,1,8,0:0:0:0:
64,192,96241,1,8,0:0:0:0:
192,192,96418,1,8,0:0:0:0:
320,192,96594,1,8,0:0:0:0:
192,192,96770,1,4,0:0:0:0:
448,192,96947,1,4,0:0:0:0:
320,192,97123,1,4,0:0:0:0:
192,192,97300,1,4,0:0:0:0:
320,192,97476,1,4,0:0:0:0:
64,192,97653,1,4,0:0:0:0:
448,192,97829,1,4,0:0:0:0:
192,192,98006,1,4,0:0:0:0:
320,192,98182,1,4,0:0:0:0:
192,192,98359,1,8,0:0:0:0:
320,192,98535,1,8,0:0:0:0:
64,192,98712,1,8,0:0:0:0:
448,192,98888,1,8,0:0:0:0:
64,192,99065,1,8,0:0:0:0:
192,192,99241,1,8,0:0:0:0:
320,192,99418,1,8,0:0:0:0:
192,192,99594,1,0,0:0:0:0:
320,192,99947,1,2,0:0:0:0:
64,192,100300,1,0,0:0:0:0:
448,192,100653,1,2,0:0:0:0:
192,192,101006,1,0,0:0:0:0:
64,192,101359,1,2,0:0:0:0:
320,192,101712,128,4,102418:0:0:0:0:
