osu file format v14

[General]
AudioFilename: audio.mp3
AudioLeadIn: 0
PreviewTime: 31829
Countdown: 0
SampleSet: Soft
StackLeniency: 0.7
Mode: 3
LetterboxInBreaks: 0
SpecialStyle: 0
WidescreenStoryboard: 1

[Editor]
DistanceSpacing: 1
BeatDivisor: 4
GridSize: 4
TimelineZoom: 2.4

[Metadata]
Title:Renge Danced Like a Butterfly
TitleUnicode:Renge Danced Like a Butterfly
Artist:Radio wind
ArtistUnicode:Radio wind
Creator:Polarni
Version:Extra?!?
Source:Non Non Biyori
Tags:Nyanpasu Butterfly Danced Biyori Non
BeatmapID:2049274
BeatmapSetID:663533

[Difficulty]
HPDrainRate:8.5
CircleSize:4
OverallDifficulty:8.5
ApproachRate:5
SliderMultiplier:1.5
SliderTickRate:1

[Events]
//Background and Video events
0,0,"a39d96460bb4538b2215cb97e381963c--non-non-biyori-live.jpg",0,0
//Break Periods
//Storyboard Layer 0 (Background)
//Storyboard Layer 1 (Fail)
//Storyboard Layer 2 (Pass)
//Storyboard Layer 3 (Foreground)
//Storyboard Sound Samples

[TimingPoints]
771,352.941176470588,4,2,0,100,1,0
88300,-100,4,2,0,100,0,1
99594,-100,4,2,0,100,0,0

[HitObjects]
320,192,771,5,0,0:0:0:0:
448,192,947,1,0,0:0:0:0:
192,192,947,1,0,0:0:0:0:
192,192,1123,1,0,0:0:0:0:
448,192,1123,1,0,0:0:0:0:
320,192,1300,1,0,0:0:0:0:
64,192,1476,128,0,2006:0:0:0:0:
192,192,1829,1,0,0:0:0:0:
448,192,2006,1,0,0:0:0:0:
320,192,2006,1,0,0:0:0:0:
64,192,2182,1,0,0:0:0:0:
192,192,2359,1,0,0:0:0:0:
320,192,2535,1,0,0:0:0:0:
64,192,2535,1,0,0:0:0:0:
320,192,2712,1,0,0:0:0:0:
64,192,2712,1,0,0:0:0:0:
192,192,2888,1,0,0:0:0:0:
64,192,3065,1,0,0:0:0:0:
320,192,3153,1,0,0:0:0:0:
192,192,3241,1,0,0:0:0:0:
64,192,3241,128,0,3594:0:0:0:0:
448,192,3241,1,4,0:0:0:0:
320,192,3594,1,0,0:0:0:0:
192,192,3594,1,0,0:0:0:0:
448,192,3682,1,0,0:0:0:0:
320,192,3770,1,0,0:0:0:0:
192,192,3859,1,0,0:0:0:0:
64,192,3947,1,0,0:0:0:0:
448,192,3947,1,0,0:0:0:0:
320,192,4035,1,0,0:0:0:0:
192,192,4123,1,0,0:0:0:0:
64,192,4212,1,0,0:0:0:0:
192,192,4300,1,0,0:0:0:0:
448,192,4300,1,0,0:0:0:0:
320,192,4388,1,0,0:0:0:0:
192,192,4476,1,0,0:0:0:0:
64,192,4565,1,0,0:0:0:0:
192,192,4653,1,0,0:0:0:0:
448,192,4653,1,0,0:0:0:0:
320,192,4741,1,0,0:0:0:0:
192,192,4829,1,0,0:0:0:0:
64,192,4918,1,0,0:0:0:0:
192,192,5006,1,0,0:0:0:0:
448,192,5006,1,0,0:0:0:0:
64,192,5094,1,0,0:0:0:0:
192,192,5182,1,0,0:0:0:0:
64,192,5270,1,0,0:0:0:0:
192,192,5359,1,0,0:0:0:0:
320,192,5359,1,0,0:0:0:0:
448,192,5447,1,0,0:0:0:0:
320,192,5535,1,0,0:0:0:0:
448,192,5623,1,0,0:0:0:0:
320,192,5712,1,0,0:0:0:0:
192,192,5712,1,0,0:0:0:0:
64,192,5800,1,0,0:0:0:0:
192,192,5888,1,0,0:0:0:0:
320,192,5976,1,0,0:0:0:0:
448,192,6065,1,0,0:0:0:0:
64,192,6065,1,0,0:0:0:0:
192,192,6153,1,0,0:0:0:0:
320,192,6241,1,0,0:0:0:0:
448,192,6329,1,0,0:0:0:0:
320,192,6418,1,0,0:0:0:0:
192,192,6418,1,0,0:0:0:0:
64,192,6506,1,0,0:0:0:0:
448,192,6594,1,0,0:0:0:0:
64,192,6682,1,0,0:0:0:0:
448,192,6770,1,0,0:0:0:0:
320,192,6770,1,0,0:0:0:0:
192,192,6859,1,0,0:0:0:0:
320,192,6947,1,0,0:0:0:0:
192,192,7035,1,0,0:0:0:0:
320,192,7123,1,0,0:0:0:0:
64,192,7123,1,0,0:0:0:0:
192,192,7212,1,0,0:0:0:0:
320,192,7300,1,0,0:0:0:0:
448,192,7388,1,0,0:0:0:0:
320,192,7476,1,0,0:0:0:0:
192,192,7476,1,0,0:0:0:0:
64,192,7565,1,0,0:0:0:0:
192,192,7653,1,0,0:0:0:0:
320,192,7741,1,0,0:0:0:0:
448,192,7829,1,0,0:0:0:0:
64,192,7829,128,0,8182:0:0:0:0:
320,192,7918,1,0,0:0:0:0:
192,192,8006,1,0,0:0:0:0:
320,192,8094,1,0,0:0:0:0:
192,192,8182,1,0,0:0:0:0:
448,192,8182,128,0,8535:0:0:0:0:
320,192,8270,1,0,0:0:0:0:
192,192,8359,1,0,0:0:0:0:
320,192,8447,1,0,0:0:0:0:
192,192,8535,1,0,0:0:0:0:
64,192,8535,128,0,9241:0:0:0:0:
320,192,8623,1,0,0:0:0:0:
192,192,8712,1,0,0:0:0:0:
320,192,8800,1,0,0:0:0:0:
448,192,8888,1,0,0:0:0:0:
192,192,8888,1,0,0:0:0:0:
320,192,8976,1,0,0:0:0:0:
192,192,9065,1,0,0:0:0:0:
448,192,9153,1,0,0:0:0:0:
192,192,9241,1,0,0:0:0:0:
320,192,9241,1,0,0:0:0:0:
448,192,9329,1,0,0:0:0:0:
192,192,9418,1,0,0:0:0:0:
448,192,9506,1,0,0:0:0:0:
64,192,9594,1,0,0:0:0:0:
320,192,9594,1,0,0:0:0:0:
192,192,9682,1,0,0:0:0:0:
448,192,9770,1,0,0:0:0:0:
64,192,9859,1,0,0:0:0:0:
320,192,9947,1,0,0:0:0:0:
192,192,9947,1,0,0:0:0:0:
448,192,10035,1,0,0:0:0:0:
64,192,10123,1,0,0:0:0:0:
192,192,10212,1,0,0:0:0:0:
320,192,10300,1,0,0:0:0:0:
64,192,10300,1,0,0:0:0:0:
192,192,10388,1,0,0:0:0:0:
64,192,10476,1,0,0:0:0:0:
448,192,10565,1,0,0:0:0:0:
320,192,10653,1,0,0:0:0:0:
64,192,10653,1,0,0:0:0:0:
192,192,10741,1,0,0:0:0:0:
320,192,10829,1,0,0:0:0:0:
448,192,10918,1,0,0:0:0:0:
64,192,11006,1,0,0:0:0:0:
320,192,11006,1,0,0:0:0:0:
192,192,11094,1,0,0:0:0:0:
320,192,11182,1,0,0:0:0:0:
448,192,11270,1,0,0:0:0:0:
320,192,11359,1,0,0:0:0:0:
192,192,11359,1,0,0:0:0:0:
448,192,11447,1,0,0:0:0:0:
320,192,11535,1,0,0:0:0:0:
192,192,11623,1,0,0:0:0:0:
448,192,11712,1,0,0:0:0:0:
320,192,11712,1,0,0:0:0:0:
64,192,11800,1,0,0:0:0:0:
192,192,11888,1,0,0:0:0:0:
320,192,11976,1,0,0:0:0:0:
64,192,12065,1,0,0:0:0:0:
192,192,12065,1,0,0:0:0:0:
320,192,12153,1,0,0:0:0:0:
448,192,12241,1,0,0:0:0:0:
192,192,12329,1,0,0:0:0:0:
64,192,12418,1,0,0:0:0:0:
320,192,12418,1,0,0:0:0:0:
192,192,12506,1,0,0:0:0:0:
448,192,12594,1,0,0:0:0:0:
320,192,12682,1,0,0:0:0:0:
64,192,12770,1,0,0:0:0:0:
192,192,12770,1,0,0:0:0:0:
320,192,12859,1,0,0:0:0:0:
192,192,12947,1,0,0:0:0:0:
64,192,13035,1,0,0:0:0:0:
448,192,13123,1,0,0:0:0:0:
320,192,13123,1,0,0:0:0:0:
192,192,13212,1,0,0:0:0:0:
64,192,13300,1,0,0:0:0:0:
448,192,13388,1,0,0:0:0:0:
192,192,13476,1,0,0:0:0:0:
64,192,13476,128,0,13829:0:0:0:0:
448,192,13565,1,0,0:0:0:0:
320,192,13653,1,0,0:0:0:0:
448,192,13741,1,0,0:0:0:0:
320,192,13829,128,0,14182:0:0:0:0:
192,192,13829,1,0,0:0:0:0:
448,192,13918,1,0,0:0:0:0:
192,192,14006,1,0,0:0:0:0:
448,192,14094,1,0,0:0:0:0:
64,192,14182,128,0,14535:0:0:0:0:
192,192,14182,1,0,0:0:0:0:
448,192,14270,1,0,0:0:0:0:
320,192,14359,1,0,0:0:0:0:
192,192,14447,1,0,0:0:0:0:
320,192,14535,128,0,14712:0:0:0:0:
448,192,14535,1,0,0:0:0:0:
192,192,14623,1,0,0:0:0:0:
64,192,14712,1,0,0:0:0:0:
192,192,14800,1,0,0:0:0:0:
448,192,14888,128,0,15241:0:0:0:0:
64,192,14888,1,0,0:0:0:0:
320,192,15065,1,0,0:0:0:0:
192,192,15241,128,0,15418:0:0:0:0:
64,192,15418,1,0,0:0:0:0:
320,192,15594,128,0,15947:0:0:0:0:
192,192,15594,1,0,0:0:0:0:
448,192,15770,1,0,0:0:0:0:
192,192,15947,128,0,16123:0:0:0:0:
64,192,15947,1,0,0:0:0:0:
448,192,16123,1,0,0:0:0:0:
64,192,16300,128,0,16653:0:0:0:0:
192,192,16300,1,0,0:0:0:0:
320,192,16476,1,0,0:0:0:0:
192,192,16653,128,0,16829:0:0:0:0:
448,192,16653,1,0,0:0:0:0:
320,192,16829,1,0,0:0:0:0:
448,192,17006,128,0,17359:0:0:0:0:
192,192,17006,1,0,0:0:0:0:
64,192,17182,1,0,0:0:0:0:
192,192,17359,128,0,17535:0:0:0:0:
320,192,17359,1,0,0:0:0:0:
64,192,17535,1,0,0:0:0:0:
320,192,17712,128,0,18065:0:0:0:0:
192,192,17712,1,0,0:0:0:0:
64,192,17888,1,0,0:0:0:0:
448,192,18065,128,0,18241:0:0:0:0:
192,192,18065,1,0,0:0:0:0:
64,192,18241,1,0,0:0:0:0:
64,192,18418,128,0,18770:0:0:0:0:
192,192,18418,1,0,0:0:0:0:
320,192,18594,1,0,0:0:0:0:
448,192,18770,128,0,18947:0:0:0:0:
192,192,18770,1,0,0:0:0:0:
320,192,18947,1,0,0:0:0:0:
448,192,19123,1,0,0:0:0:0:
192,192,19212,1,0,0:0:0:0:
64,192,19300,1,0,0:0:0:0:
192,192,19388,1,0,0:0:0:0:
64,192,19476,1,0,0:0:0:0:
192,192,19565,1,0,0:0:0:0:
64,192,19653,1,0,0:0:0:0:
192,192,19741,1,0,0:0:0:0:
64,192,19829,1,0,0:0:0:0:
320,192,19829,1,0,0:0:0:0:
192,192,19918,1,0,0:0:0:0:
448,192,19918,1,0,0:0:0:0:
64,192,20006,1,0,0:0:0:0:
320,192,20006,1,0,0:0:0:0:
192,192,20094,1,0,0:0:0:0:
448,192,20094,1,0,0:0:0:0:
64,192,20182,1,0,0:0:0:0:
320,192,20182,1,0,0:0:0:0:
192,192,20270,1,0,0:0:0:0:
448,192,20270,1,0,0:0:0:0:
64,192,20359,1,0,0:0:0:0:
320,192,20359,1,0,0:0:0:0:
192,192,20447,1,0,0:0:0:0:
448,192,20447,1,0,0:0:0:0:
320,192,20535,1,0,0:0:0:0:
64,192,20535,128,0,20712:0:0:0:0:
448,192,20712,128,0,20888:0:0:0:0:
320,192,20888,128,0,21065:0:0:0:0:
192,192,20888,1,0,0:0:0:0:
64,192,21065,128,0,21241:0:0:0:0:
192,192,21241,128,0,21418:0:0:0:0:
448,192,21241,1,0,0:0:0:0:
64,192,21418,128,0,21594:0:0:0:0:
192,192,21594,1,0,0:0:0:0:
320,192,21594,128,0,21770:0:0:0:0:
448,192,21770,128,0,21947:0:0:0:0:
64,192,21947,1,0,0:0:0:0:
320,192,21947,128,0,22300:0:0:0:0:
192,192,22123,1,0,0:0:0:0:
448,192,22300,128,0,22476:0:0:0:0:
64,192,22300,1,0,0:0:0:0:
320,192,22476,128,0,22653:0:0:0:0:
64,192,22653,128,0,22829:0:0:0:0:
192,192,22653,1,0,0:0:0:0:
320,192,22829,128,0,23359:0:0:0:0:
448,192,23006,1,0,0:0:0:0:
192,192,23006,1,0,0:0:0:0:
64,192,23182,1,0,0:0:0:0:
192,192,23359,1,0,0:0:0:0:
448,192,23359,128,0,23535:0:0:0:0:
64,192,23535,128,0,23712:0:0:0:0:
192,192,23712,128,0,23888:0:0:0:0:
320,192,23712,1,0,0:0:0:0:
448,192,23888,128,0,24065:0:0:0:0:
320,192,24065,128,0,24418:0:0:0:0:
192,192,24065,1,0,0:0:0:0:
64,192,24241,1,0,0:0:0:0:
448,192,24418,1,0,0:0:0:0:
192,192,24418,128,0,24770:0:0:0:0:
320,192,24594,1,0,0:0:0:0:
448,192,24770,1,0,0:0:0:0:
64,192,24770,128,0,24947:0:0:0:0:
192,192,24947,128,0,25123:0:0:0:0:
448,192,25123,128,0,25300:0:0:0:0:
320,192,25123,1,0,0:0:0:0:
64,192,25300,128,0,25476:0:0:0:0:
192,192,25476,128,0,25653:0:0:0:0:
320,192,25476,1,0,0:0:0:0:
448,192,25653,128,0,25829:0:0:0:0:
320,192,25829,1,0,0:0:0:0:
192,192,25829,128,0,26006:0:0:0:0:
448,192,26006,128,0,26182:0:0:0:0:
320,192,26182,128,0,26359:0:0:0:0:
64,192,26182,1,0,0:0:0:0:
448,192,26359,128,0,26535:0:0:0:0:
192,192,26535,1,0,0:0:0:0:
64,192,26535,128,0,26712:0:0:0:0:
320,192,26712,128,0,26888:0:0:0:0:
448,192,26888,128,0,27065:0:0:0:0:
192,192,26888,1,0,0:0:0:0:
64,192,27065,128,0,27241:0:0:0:0:
192,192,27241,1,0,0:0:0:0:
320,192,27241,128,0,27418:0:0:0:0:
64,192,27418,128,0,27594:0:0:0:0:
192,192,27594,128,0,27770:0:0:0:0:
320,192,27594,1,0,0:0:0:0:
448,192,27770,128,0,27947:0:0:0:0:
64,192,27947,128,0,28123:0:0:0:0:
320,192,27947,1,0,0:0:0:0:
448,192,28123,128,0,28300:0:0:0:0:
320,192,28300,128,0,28476:0:0:0:0:
192,192,28300,1,0,0:0:0:0:
64,192,28476,128,0,28653:0:0:0:0:
448,192,28653,1,0,0:0:0:0:
192,192,28653,128,0,28829:0:0:0:0:
64,192,28829,128,0,29006:0:0:0:0:
448,192,29006,128,0,29182:0:0:0:0:
192,192,29006,1,0,0:0:0:0:
64,192,29182,128,0,29359:0:0:0:0:
192,192,29359,128,0,29535:0:0:0:0:
320,192,29359,1,0,0:0:0:0:
448,192,29535,128,0,29712:0:0:0:0:
64,192,29712,128,0,29888:0:0:0:0:
320,192,29712,1,0,0:0:0:0:
192,192,29888,128,0,30065:0:0:0:0:
320,192,30065,1,0,0:0:0:0:
448,192,30065,128,0,30241:0:0:0:0:
64,192,30241,128,0,30418:0:0:0:0:
320,192,30418,1,0,0:0:0:0:
192,192,30418,128,0,30594:0:0:0:0:
448,192,30506,1,0,0:0:0:0:
64,192,30594,128,0,30770:0:0:0:0:
192,192,30682,1,0,0:0:0:0:
320,192,30770,128,0,30947:0:0:0:0:
448,192,30770,1,0,0:0:0:0:
64,192,30859,1,0,0:0:0:0:
192,192,30947,128,0,31123:0:0:0:0:
320,192,31035,1,0,0:0:0:0:
64,192,31123,128,0,31300:0:0:0:0:
448,192,31123,1,0,0:0:0:0:
192,192,31212,1,0,0:0:0:0:
320,192,31300,128,0,31476:0:0:0:0:
448,192,31388,1,0,0:0:0:0:
192,192,31476,1,0,0:0:0:0:
64,192,31476,128,0,31653:0:0:0:0:
320,192,31565,1,0,0:0:0:0:
448,192,31653,128,0,31829:0:0:0:0:
320,192,31741,1,0,0:0:0:0:
192,192,31829,1,0,0:0:0:0:
64,192,31829,1,0,0:0:0:0:
320,192,32006,1,0,0:0:0:0:
64,192,32182,1,0,0:0:0:0:
320,192,32182,1,0,0:0:0:0:
192,192,32359,1,0,0:0:0:0:
64,192,32535,1,0,0:0:0:0:
448,192,32535,1,0,0:0:0:0:
320,192,32712,1,0,0:0:0:0:
192,192,32888,1,0,0:0:0:0:
448,192,32888,1,0,0:0:0:0:
64,192,33065,1,0,0:0:0:0:
320,192,33241,1,0,0:0:0:0:
192,192,33241,1,0,0:0:0:0:
448,192,33418,1,0,0:0:0:0:
192,192,33594,1,0,0:0:0:0:
320,192,33594,1,0,0:0:0:0:
320,192,33770,1,0,0:0:0:0:
192,192,33947,1,0,0:0:0:0:
64,192,33947,1,0,0:0:0:0:
448,192,34123,1,0,0:0:0:0:
320,192,34300,1,0,0:0:0:0:
64,192,34300,1,0,0:0:0:0:
192,192,34476,1,0,0:0:0:0:
320,192,34653,1,0,0:0:0:0:
448,192,34653,128,0,34829:0:0:0:0:
64,192,34829,128,0,35006:0:0:0:0:
192,192,35006,128,0,35182:0:0:0:0:
320,192,35006,1,0,0:0:0:0:
448,192,35182,128,0,35359:0:0:0:0:
320,192,35359,128,0,35535:0:0:0:0:
64,192,35359,1,0,0:0:0:0:
448,192,35535,128,0,35712:0:0:0:0:
64,192,35712,1,0,0:0:0:0:
192,192,35712,128,0,35888:0:0:0:0:
448,192,35888,128,0,36065:0:0:0:0:
192,192,36065,1,0,0:0:0:0:
64,192,36065,128,0,36241:0:0:0:0:
448,192,36241,128,0,36418:0:0:0:0:
320,192,36418,128,0,36594:0:0:0:0:
192,192,36418,1,0,0:0:0:0:
64,192,36594,128,0,36770:0:0:0:0:
192,192,36770,128,0,37476:0:0:0:0:
448,192,36770,1,0,0:0:0:0:
320,192,36947,1,0,0:0:0:0:
448,192,37123,1,0,0:0:0:0:
64,192,37123,1,0,0:0:0:0:
320,192,37300,1,0,0:0:0:0:
448,192,37476,1,0,0:0:0:0:
64,192,37476,1,0,0:0:0:0:
192,192,37653,1,0,0:0:0:0:
192,192,37829,1,0,0:0:0:0:
64,192,37829,1,0,0:0:0:0:
320,192,38006,1,0,0:0:0:0:
448,192,38182,1,0,0:0:0:0:
192,192,38182,1,0,0:0:0:0:
64,192,38359,1,0,0:0:0:0:
320,192,38535,1,0,0:0:0:0:
448,192,38535,1,0,0:0:0:0:
192,192,38712,1,0,0:0:0:0:
64,192,38888,1,0,0:0:0:0:
320,192,38888,1,0,0:0:0:0:
448,192,39065,1,0,0:0:0:0:
320,192,39241,1,0,0:0:0:0:
192,192,39241,1,0,0:0:0:0:
192,192,39418,1,0,0:0:0:0:
448,192,39594,1,0,0:0:0:0:
320,192,39594,1,0,0:0:0:0:
64,192,39770,1,0,0:0:0:0:
192,192,39947,1,0,0:0:0:0:
448,192,39947,1,0,0:0:0:0:
64,192,40123,1,0,0:0:0:0:
320,192,40300,128,0,40476:0:0:0:0:
192,192,40300,1,0,0:0:0:0:
448,192,40476,128,0,40653:0:0:0:0:
192,192,40653,128,0,40829:0:0:0:0:
320,192,40653,1,0,0:0:0:0:
64,192,40829,128,0,41006:0:0:0:0:
448,192,41006,128,0,41182:0:0:0:0:
192,192,41006,1,0,0:0:0:0:
64,192,41182,128,0,41359:0:0:0:0:
192,192,41359,1,0,0:0:0:0:
320,192,41359,128,0,41535:0:0:0:0:
64,192,41535,128,0,41712:0:0:0:0:
320,192,41712,1,0,0:0:0:0:
192,192,41712,128,0,41888:0:0:0:0:
64,192,41888,128,0,42065:0:0:0:0:
320,192,42065,128,0,42241:0:0:0:0:
448,192,42065,1,0,0:0:0:0:
192,192,42241,128,0,42418:0:0:0:0:
448,192,42418,128,0,43123:0:0:0:0:
64,192,42418,1,0,0:0:0:0:
192,192,42594,1,0,0:0:0:0:
64,192,42770,1,0,0:0:0:0:
320,192,42770,128,0,43123:0:0:0:0:
192,192,42947,1,0,0:0:0:0:
64,192,43123,1,0,0:0:0:0:
192,192,43212,1,0,0:0:0:0:
320,192,43300,1,0,0:0:0:0:
448,192,43388,1,0,0:0:0:0:
320,192,43476,1,0,0:0:0:0:
192,192,43476,1,0,0:0:0:0:
64,192,43565,1,0,0:0:0:0:
192,192,43653,1,0,0:0:0:0:
320,192,43741,1,0,0:0:0:0:
448,192,43829,1,0,0:0:0:0:
64,192,43829,1,0,0:0:0:0:
192,192,43918,1,0,0:0:0:0:
64,192,44006,1,0,0:0:0:0:
448,192,44094,1,0,0:0:0:0:
320,192,44182,1,0,0:0:0:0:
64,192,44182,1,0,0:0:0:0:
192,192,44270,1,0,0:0:0:0:
64,192,44359,1,0,0:0:0:0:
320,192,44447,1,0,0:0:0:0:
448,192,44535,1,0,0:0:0:0:
192,192,44535,1,0,0:0:0:0:
64,192,44623,1,0,0:0:0:0:
448,192,44712,1,0,0:0:0:0:
64,192,44800,1,0,0:0:0:0:
448,192,44888,1,0,0:0:0:0:
320,192,44888,1,0,0:0:0:0:
64,192,44976,1,0,0:0:0:0:
448,192,45065,1,0,0:0:0:0:
320,192,45153,1,0,0:0:0:0:
64,192,45241,1,0,0:0:0:0:
192,192,45241,1,0,0:0:0:0:
320,192,45329,1,0,0:0:0:0:
192,192,45418,1,0,0:0:0:0:
64,192,45506,1,0,0:0:0:0:
448,192,45594,1,0,0:0:0:0:
320,192,45594,1,0,0:0:0:0:
64,192,45682,1,0,0:0:0:0:
192,192,45770,1,0,0:0:0:0:
448,192,45859,1,0,0:0:0:0:
320,192,45947,1,0,0:0:0:0:
64,192,45947,1,0,0:0:0:0:
192,192,46035,1,0,0:0:0:0:
448,192,46123,1,0,0:0:0:0:
64,192,46212,1,0,0:0:0:0:
192,192,46300,1,0,0:0:0:0:
320,192,46300,1,0,0:0:0:0:
448,192,46388,1,0,0:0:0:0:
64,192,46476,1,0,0:0:0:0:
192,192,46565,1,0,0:0:0:0:
64,192,46653,1,0,0:0:0:0:
320,192,46653,1,0,0:0:0:0:
192,192,46741,1,0,0:0:0:0:
64,192,46829,1,0,0:0:0:0:
320,192,46918,1,0,0:0:0:0:
64,192,47006,1,0,0:0:0:0:
192,192,47006,1,0,0:0:0:0:
448,192,47094,1,0,0:0:0:0:
320,192,47182,1,0,0:0:0:0:
448,192,47270,1,0,0:0:0:0:
64,192,47359,1,0,0:0:0:0:
192,192,47359,128,0,47535:0:0:0:0:
448,192,47447,1,0,0:0:0:0:
320,192,47535,128,0,47712:0:0:0:0:
192,192,47623,1,0,0:0:0:0:
448,192,47712,128,0,47888:0:0:0:0:
64,192,47712,1,0,0:0:0:0:
320,192,47800,1,0,0:0:0:0:
192,192,47888,128,0,48065:0:0:0:0:
64,192,47976,1,0,0:0:0:0:
320,192,48065,128,0,48770:0:0:0:0:
448,192,48065,1,0,0:0:0:0:
64,192,48153,1,0,0:0:0:0:
192,192,48241,1,0,0:0:0:0:
64,192,48329,1,0,0:0:0:0:
192,192,48418,1,0,0:0:0:0:
448,192,48418,1,0,0:0:0:0:
64,192,48506,1,0,0:0:0:0:
192,192,48594,1,0,0:0:0:0:
448,192,48682,1,0,0:0:0:0:
192,192,48770,1,0,0:0:0:0:
448,192,48859,1,0,0:0:0:0:
320,192,48947,1,0,0:0:0:0:
64,192,49035,1,0,0:0:0:0:
192,192,49123,1,0,0:0:0:0:
448,192,49123,1,0,0:0:0:0:
64,192,49212,1,0,0:0:0:0:
192,192,49300,1,0,0:0:0:0:
448,192,49388,1,0,0:0:0:0:
320,192,49476,1,0,0:0:0:0:
64,192,49476,1,0,0:0:0:0:
192,192,49565,1,0,0:0:0:0:
448,192,49653,1,0,0:0:0:0:
320,192,49741,1,0,0:0:0:0:
448,192,49829,1,0,0:0:0:0:
192,192,49829,1,0,0:0:0:0:
320,192,49918,1,0,0:0:0:0:
192,192,50006,1,0,0:0:0:0:
64,192,50094,1,0,0:0:0:0:
192,192,50182,1,0,0:0:0:0:
448,192,50182,1,0,0:0:0:0:
320,192,50270,1,0,0:0:0:0:
192,192,50359,1,0,0:0:0:0:
64,192,50447,1,0,0:0:0:0:
320,192,50535,1,0,0:0:0:0:
192,192,50535,1,0,0:0:0:0:
448,192,50623,1,0,0:0:0:0:
320,192,50712,1,0,0:0:0:0:
448,192,50800,1,0,0:0:0:0:
320,192,50888,1,0,0:0:0:0:
64,192,50888,1,0,0:0:0:0:
192,192,50976,1,0,0:0:0:0:
320,192,51065,1,0,0:0:0:0:
448,192,51153,1,0,0:0:0:0:
320,192,51241,1,0,0:0:0:0:
64,192,51241,1,0,0:0:0:0:
192,192,51329,1,0,0:0:0:0:
320,192,51418,1,0,0:0:0:0:
448,192,51506,1,0,0:0:0:0:
192,192,51594,1,0,0:0:0:0:
64,192,51594,1,0,0:0:0:0:
320,192,51682,1,0,0:0:0:0:
448,192,51770,1,0,0:0:0:0:
320,192,51859,1,0,0:0:0:0:
192,192,51947,1,0,0:0:0:0:
448,192,51947,1,0,0:0:0:0:
320,192,52035,1,0,0:0:0:0:
448,192,52123,1,0,0:0:0:0:
192,192,52212,1,0,0:0:0:0:
64,192,52300,1,0,0:0:0:0:
320,192,52300,1,0,0:0:0:0:
192,192,52388,1,0,0:0:0:0:
320,192,52476,1,0,0:0:0:0:
448,192,52565,1,0,0:0:0:0:
320,192,52653,1,0,0:0:0:0:
64,192,52653,1,0,0:0:0:0:
192,192,52741,1,0,0:0:0:0:
64,192,52829,1,0,0:0:0:0:
192,192,52918,1,0,0:0:0:0:
448,192,53006,128,0,53182:0:0:0:0:
64,192,53006,1,0,0:0:0:0:
192,192,53094,1,0,0:0:0:0:
320,192,53182,128,0,53359:0:0:0:0:
192,192,53270,1,0,0:0:0:0:
64,192,53359,128,0,53535:0:0:0:0:
448,192,53359,1,0,0:0:0:0:
192,192,53447,1,0,0:0:0:0:
448,192,53535,128,0,53712:0:0:0:0:
192,192,53623,1,0,0:0:0:0:
320,192,53712,128,0,54065:0:0:0:0:
64,192,53712,1,0,0:0:0:0:
448,192,53800,1,0,0:0:0:0:
192,192,53888,1,0,0:0:0:0:
64,192,53976,1,0,0:0:0:0:
192,192,54065,1,0,0:0:0:0:
448,192,54065,128,0,54418:0:0:0:0:
64,192,54153,1,0,0:0:0:0:
192,192,54241,1,0,0:0:0:0:
320,192,54329,1,0,0:0:0:0:
64,192,54418,1,0,0:0:0:0:
192,192,54418,128,0,54594:0:0:0:0:
448,192,54594,128,0,54770:0:0:0:0:
320,192,54770,128,0,54947:0:0:0:0:
64,192,54770,1,0,0:0:0:0:
192,192,54947,128,0,55123:0:0:0:0:
448,192,55123,128,0,55300:0:0:0:0:
64,192,55123,1,0,0:0:0:0:
320,192,55300,128,0,55476:0:0:0:0:
192,192,55476,1,0,0:0:0:0:
64,192,55476,128,0,55653:0:0:0:0:
320,192,55653,128,0,55829:0:0:0:0:
64,192,55829,1,0,0:0:0:0:
192,192,55829,128,0,56006:0:0:0:0:
320,192,56006,128,0,56182:0:0:0:0:
64,192,56182,128,0,56359:0:0:0:0:
448,192,56182,1,0,0:0:0:0:
192,192,56359,128,0,56535:0:0:0:0:
448,192,56535,128,0,56712:0:0:0:0:
320,192,56535,1,0,0:0:0:0:
192,192,56712,128,0,56888:0:0:0:0:
64,192,56888,1,0,0:0:0:0:
320,192,56888,128,0,57065:0:0:0:0:
192,192,57065,128,0,57241:0:0:0:0:
64,192,57241,1,0,0:0:0:0:
320,192,57241,128,0,57594:0:0:0:0:
192,192,57418,1,0,0:0:0:0:
64,192,57594,128,0,57770:0:0:0:0:
448,192,57594,1,0,0:0:0:0:
320,192,57770,128,0,57947:0:0:0:0:
192,192,57947,128,0,58123:0:0:0:0:
448,192,57947,1,0,0:0:0:0:
64,192,58123,128,0,58300:0:0:0:0:
448,192,58300,1,0,0:0:0:0:
320,192,58300,128,0,58476:0:0:0:0:
64,192,58476,128,0,58653:0:0:0:0:
448,192,58476,128,0,58829:0:0:0:0:
192,192,58653,1,0,0:0:0:0:
320,192,58829,128,0,59006:0:0:0:0:
64,192,59006,128,0,59182:0:0:0:0:
192,192,59006,1,0,0:0:0:0:
448,192,59182,128,0,59359:0:0:0:0:
320,192,59359,128,0,59888:0:0:0:0:
192,192,59359,1,0,0:0:0:0:
64,192,59535,1,0,0:0:0:0:
448,192,59712,1,0,0:0:0:0:
192,192,59712,1,0,0:0:0:0:
64,192,59888,128,0,60065:0:0:0:0:
448,192,60065,1,0,0:0:0:0:
192,192,60065,128,0,60241:0:0:0:0:
320,192,60241,128,0,60418:0:0:0:0:
64,192,60418,128,0,60594:0:0:0:0:
448,192,60418,1,0,0:0:0:0:
192,192,60594,128,0,60770:0:0:0:0:
320,192,60770,1,0,0:0:0:0:
448,192,60770,128,0,61123:0:0:0:0:
192,192,60947,128,0,61123:0:0:0:0:
64,192,61123,1,0,0:0:0:0:
320,192,61123,128,0,61300:0:0:0:0:
192,192,61300,1,0,0:0:0:0:
448,192,61300,128,0,61476:0:0:0:0:
320,192,61476,1,0,0:0:0:0:
64,192,61476,128,0,61653:0:0:0:0:
448,192,61653,128,0,61829:0:0:0:0:
192,192,61829,128,0,62006:0:0:0:0:
320,192,61829,1,0,0:0:0:0:
64,192,62006,128,0,62182:0:0:0:0:
320,192,62182,128,0,62359:0:0:0:0:
448,192,62182,1,0,0:0:0:0:
192,192,62359,128,0,62535:0:0:0:0:
64,192,62535,1,0,0:0:0:0:
320,192,62535,128,0,62888:0:0:0:0:
192,192,62712,1,0,0:0:0:0:
64,192,62888,1,0,0:0:0:0:
448,192,62888,128,0,63065:0:0:0:0:
320,192,63065,128,0,63241:0:0:0:0:
192,192,63241,128,0,63418:0:0:0:0:
64,192,63241,1,0,0:0:0:0:
448,192,63418,128,0,63594:0:0:0:0:
320,192,63594,128,0,63770:0:0:0:0:
64,192,63594,1,0,0:0:0:0:
448,192,63770,128,0,63947:0:0:0:0:
192,192,63947,1,0,0:0:0:0:
64,192,63947,128,0,64123:0:0:0:0:
448,192,64123,128,0,64300:0:0:0:0:
64,192,64300,1,0,0:0:0:0:
192,192,64300,128,0,64476:0:0:0:0:
448,192,64476,128,0,64653:0:0:0:0:
320,192,64653,128,0,64829:0:0:0:0:
64,192,64653,1,0,0:0:0:0:
192,192,64829,128,0,65006:0:0:0:0:
448,192,65006,128,0,65712:0:0:0:0:
64,192,65006,1,0,0:0:0:0:
192,192,65094,1,0,0:0:0:0:
320,192,65182,1,0,0:0:0:0:
192,192,65270,1,0,0:0:0:0:
320,192,65359,1,0,0:0:0:0:
64,192,65359,1,0,0:0:0:0:
192,192,65447,1,0,0:0:0:0:
64,192,65535,1,0,0:0:0:0:
192,192,65623,1,0,0:0:0:0:
320,192,65712,1,0,0:0:0:0:
64,192,65712,1,0,0:0:0:0:
192,192,65888,1,0,0:0:0:0:
192,192,66065,1,0,0:0:0:0:
448,192,66065,1,0,0:0:0:0:
320,192,66241,1,0,0:0:0:0:
192,192,66418,1,0,0:0:0:0:
64,192,66418,1,0,0:0:0:0:
448,192,66594,1,0,0:0:0:0:
192,192,66770,1,0,0:0:0:0:
64,192,66770,1,0,0:0:0:0:
320,192,66947,1,0,0:0:0:0:
192,192,67123,1,0,0:0:0:0:
448,192,67123,1,0,0:0:0:0:
64,192,67300,1,0,0:0:0:0:
192,192,67476,1,0,0:0:0:0:
320,192,67476,1,0,0:0:0:0:
192,192,67653,1,0,0:0:0:0:
448,192,67829,1,0,0:0:0:0:
64,192,67829,1,0,0:0:0:0:
320,192,68006,1,0,0:0:0:0:
64,192,68182,1,0,0:0:0:0:
192,192,68182,1,0,0:0:0:0:
320,192,68359,1,0,0:0:0:0:
192,192,68535,1,0,0:0:0:0:
448,192,68535,128,0,68712:0:0:0:0:
192,192,68712,128,0,68888:0:0:0:0:
320,192,68888,1,0,0:0:0:0:
64,192,68888,128,0,69065:0:0:0:0:
448,192,69065,128,0,69241:0:0:0:0:
320,192,69241,1,0,0:0:0:0:
192,192,69241,128,0,69418:0:0:0:0:
448,192,69418,128,0,69594:0:0:0:0:
320,192,69594,1,0,0:0:0:0:
64,192,69594,128,0,69770:0:0:0:0:
448,192,69770,128,0,69947:0:0:0:0:
64,192,69947,1,0,0:0:0:0:
192,192,69947,128,0,70123:0:0:0:0:
448,192,70123,128,0,70300:0:0:0:0:
64,192,70300,128,0,70476:0:0:0:0:
320,192,70300,1,0,0:0:0:0:
192,192,70476,128,0,70653:0:0:0:0:
448,192,70653,128,0,71359:0:0:0:0:
320,192,70653,1,0,0:0:0:0:
64,192,70829,1,0,0:0:0:0:
192,192,71006,1,0,0:0:0:0:
320,192,71006,1,0,0:0:0:0:
64,192,71182,1,0,0:0:0:0:
320,192,71359,1,0,0:0:0:0:
192,192,71359,1,0,0:0:0:0:
64,192,71535,1,0,0:0:0:0:
448,192,71712,1,0,0:0:0:0:
64,192,71712,1,0,0:0:0:0:
320,192,71888,1,0,0:0:0:0:
192,192,72065,1,0,0:0:0:0:
64,192,72065,1,0,0:0:0:0:
320,192,72241,1,0,0:0:0:0:
448,192,72418,1,0,0:0:0:0:
192,192,72418,1,0,0:0:0:0:
64,192,72594,1,0,0:0:0:0:
320,192,72770,1,0,0:0:0:0:
448,192,72770,1,0,0:0:0:0:
192,192,72947,1,0,0:0:0:0:
64,192,73123,1,0,0:0:0:0:
448,192,73123,1,0,0:0:0:0:
448,192,73300,1,0,0:0:0:0:
320,192,73476,1,0,0:0:0:0:
192,192,73476,1,0,0:0:0:0:
64,192,73653,1,0,0:0:0:0:
448,192,73829,1,0,0:0:0:0:
192,192,73829,1,0,0:0:0:0:
64,192,74006,1,0,0:0:0:0:
448,192,74182,128,0,74359:0:0:0:0:
192,192,74182,1,0,0:0:0:0:
320,192,74359,128,0,74535:0:0:0:0:
192,192,74535,128,0,74712:0:0:0:0:
64,192,74535,1,0,0:0:0:0:
448,192,74712,128,0,74888:0:0:0:0:
320,192,74888,128,0,75065:0:0:0:0:
64,192,74888,1,0,0:0:0:0:
192,192,75065,128,0,75241:0:0:0:0:
64,192,75241,1,0,0:0:0:0:
448,192,75241,128,0,75418:0:0:0:0:
192,192,75418,128,0,75594:0:0:0:0:
64,192,75594,128,0,75770:0:0:0:0:
448,192,75594,1,0,0:0:0:0:
192,192,75770,128,0,75947:0:0:0:0:
320,192,75947,128,0,76123:0:0:0:0:
448,192,75947,1,0,0:0:0:0:
192,192,76123,128,0,76300:0:0:0:0:
448,192,76300,128,0,77006:0:0:0:0:
64,192,76300,1,0,0:0:0:0:
192,192,76476,1,0,0:0:0:0:
320,192,76653,1,0,0:0:0:0:
64,192,76653,128,0,77006:0:0:0:0:
192,192,76829,1,0,0:0:0:0:
320,192,77006,1,0,0:0:0:0:
64,192,77182,128,0,77535:0:0:0:0:
320,192,77359,1,0,0:0:0:0:
448,192,77359,1,0,0:0:0:0:
192,192,77535,128,0,77712:0:0:0:0:
448,192,77712,128,0,77888:0:0:0:0:
64,192,77712,1,0,0:0:0:0:
320,192,77888,128,0,78065:0:0:0:0:
64,192,78065,128,0,78418:0:0:0:0:
192,192,78065,1,0,0:0:0:0:
448,192,78241,1,0,0:0:0:0:
320,192,78418,1,0,0:0:0:0:
448,192,78594,128,0,78947:0:0:0:0:
64,192,78770,1,0,0:0:0:0:
320,192,78770,1,0,0:0:0:0:
192,192,78947,128,0,79123:0:0:0:0:
320,192,79123,128,0,79300:0:0:0:0:
448,192,79123,1,0,0:0:0:0:
64,192,79300,128,0,79829:0:0:0:0:
448,192,79476,1,0,0:0:0:0:
320,192,79476,1,0,0:0:0:0:
192,192,79653,1,0,0:0:0:0:
320,192,79829,1,0,0:0:0:0:
448,192,79829,1,0,0:0:0:0:
192,192,80006,128,0,80359:0:0:0:0:
320,192,80182,1,0,0:0:0:0:
64,192,80182,1,0,0:0:0:0:
448,192,80359,128,0,80535:0:0:0:0:
64,192,80535,128,0,80712:0:0:0:0:
192,192,80535,1,0,0:0:0:0:
320,192,80712,128,0,80888:0:0:0:0:
192,192,80888,128,0,81241:0:0:0:0:
64,192,80888,1,0,0:0:0:0:
448,192,81065,1,0,0:0:0:0:
320,192,81241,1,0,0:0:0:0:
64,192,81241,128,0,81418:0:0:0:0:
448,192,81418,1,0,0:0:0:0:
192,192,81506,128,0,81682:0:0:0:0:
320,192,81594,1,0,0:0:0:0:
64,192,81594,1,0,0:0:0:0:
320,192,81770,128,0,81947:0:0:0:0:
448,192,81947,128,0,82123:0:0:0:0:
64,192,81947,1,0,0:0:0:0:
192,192,82123,1,0,0:0:0:0:
320,192,82212,1,0,0:0:0:0:
64,192,82300,1,0,0:0:0:0:
448,192,82300,1,0,0:0:0:0:
192,192,82476,1,0,0:0:0:0:
64,192,82653,1,0,0:0:0:0:
320,192,82653,1,0,0:0:0:0:
448,192,82653,1,0,0:0:0:0:
192,192,82829,128,0,83182:0:0:0:0:
320,192,83006,1,0,0:0:0:0:
64,192,83006,1,0,0:0:0:0:
448,192,83182,128,0,83359:0:0:0:0:
320,192,83359,128,0,83535:0:0:0:0:
192,192,83359,1,0,0:0:0:0:
64,192,83535,128,0,83712:0:0:0:0:
192,192,83712,128,0,84065:0:0:0:0:
448,192,83712,1,0,0:0:0:0:
64,192,83888,1,0,0:0:0:0:
448,192,84065,1,0,0:0:0:0:
320,192,84065,1,0,0:0:0:0:
320,192,84241,128,0,84594:0:0:0:0:
64,192,84418,1,0,0:0:0:0:
192,192,84418,1,0,0:0:0:0:
448,192,84594,128,0,84770:0:0:0:0:
192,192,84770,128,0,84947:0:0:0:0:
64,192,84770,1,0,0:0:0:0:
320,192,84947,128,0,85123:0:0:0:0:
64,192,85123,128,0,85476:0:0:0:0:
448,192,85123,1,0,0:0:0:0:
192,192,85300,1,0,0:0:0:0:
448,192,85476,1,0,0:0:0:0:
320,192,85476,1,0,0:0:0:0:
192,192,85653,128,0,86006:0:0:0:0:
64,192,85829,1,0,0:0:0:0:
320,192,86006,128,0,86182:0:0:0:0:
64,192,86182,128,0,86359:0:0:0:0:
448,192,86182,1,0,0:0:0:0:
448,192,86359,128,0,86535:0:0:0:0:
192,192,86535,128,0,86888:0:0:0:0:
64,192,86535,1,0,0:0:0:0:
320,192,86712,1,0,0:0:0:0:
448,192,86888,1,0,0:0:0:0:
64,192,86888,1,0,0:0:0:0:
320,192,86888,128,0,87065:0:0:0:0:
192,192,87065,128,0,87241:0:0:0:0:
64,192,87241,128,0,87418:0:0:0:0:
448,192,87241,1,0,0:0:0:0:
192,192,87418,128,0,87594:0:0:0:0:
448,192,87594,128,0,87947:0:0:0:0:
320,192,87594,1,0,0:0:0:0:
192,192,87770,1,0,0:0:0:0:
64,192,87947,128,0,88300:0:0:0:0:
320,192,87947,128,0,88300:0:0:0:0:
192,192,88123,1,0,0:0:0:0:
448,192,88300,1,0,0:0:0:0:
320,192,88388,1,0,0:0:0:0:
192,192,88476,1,0,0:0:0:0:
448,192,88476,1,0,0:0:0:0:
64,192,88565,1,0,0:0:0:0:
192,192,88653,1,0,0:0:0:0:
320,192,88653,1,0,0:0:0:0:
448,192,88653,1,0,0:0:0:0:
64,192,88741,1,0,0:0:0:0:
320,192,88829,1,0,0:0:0:0:
448,192,88829,1,0,0:0:0:0:
192,192,88918,1,0,0:0:0:0:
64,192,89006,1,0,0:0:0:0:
320,192,89006,1,0,0:0:0:0:
448,192,89006,1,0,0:0:0:0:
192,192,89094,1,0,0:0:0:0:
320,192,89182,1,0,0:0:0:0:
64,192,89182,1,0,0:0:0:0:
448,192,89270,1,0,0:0:0:0:
64,192,89359,1,0,0:0:0:0:
192,192,89359,1,0,0:0:0:0:
320,192,89359,1,0,0:0:0:0:
448,192,89447,1,0,0:0:0:0:
320,192,89535,1,0,0:0:0:0:
64,192,89535,1,0,0:0:0:0:
192,192,89623,1,0,0:0:0:0:
320,192,89712,1,0,0:0:0:0:
448,192,89712,1,0,0:0:0:0:
64,192,89712,1,0,0:0:0:0:
192,192,89800,1,0,0:0:0:0:
320,192,89888,1,0,0:0:0:0:
64,192,89888,1,0,0:0:0:0:
448,192,89976,1,0,0:0:0:0:
320,192,90065,1,0,0:0:0:0:
64,192,90065,1,0,0:0:0:0:
192,192,90065,1,0,0:0:0:0:
448,192,90153,1,0,0:0:0:0:
320,192,90241,1,0,0:0:0:0:
64,192,90241,1,0,0:0:0:0:
192,192,90329,1,0,0:0:0:0:
64,192,90418,1,0,0:0:0:0:
448,192,90418,1,0,0:0:0:0:
320,192,90418,1,0,0:0:0:0:
192,192,90506,1,0,0:0:0:0:
448,192,90594,1,0,0:0:0:0:
320,192,90594,1,0,0:0:0:0:
192,192,90682,1,0,0:0:0:0:
320,192,90770,1,0,0:0:0:0:
448,192,90770,1,0,0:0:0:0:
64,192,90770,1,0,0:0:0:0:
192,192,90859,1,0,0:0:0:0:
64,192,90947,1,0,0:0:0:0:
448,192,90947,1,0,0:0:0:0:
320,192,91035,1,0,0:0:0:0:
64,192,91123,1,0,0:0:0:0:
192,192,91123,1,0,0:0:0:0:
448,192,91123,1,0,0:0:0:0:
320,192,91212,1,0,0:0:0:0:
192,192,91300,1,0,0:0:0:0:
448,192,91300,1,0,0:0:0:0:
64,192,91388,1,0,0:0:0:0:
192,192,91476,1,0,0:0:0:0:
320,192,91476,1,0,0:0:0:0:
448,192,91476,1,0,0:0:0:0:
64,192,91565,1,0,0:0:0:0:
320,192,91653,1,0,0:0:0:0:
448,192,91653,1,0,0:0:0:0:
192,192,91741,1,0,0:0:0:0:
64,192,91829,1,0,0:0:0:0:
320,192,91829,1,0,0:0:0:0:
448,192,91829,1,0,0:0:0:0:
192,192,91918,1,0,0:0:0:0:
320,192,92006,1,0,0:0:0:0:
64,192,92006,1,0,0:0:0:0:
448,192,92094,1,0,0:0:0:0:
320,192,92182,1,0,0:0:0:0:
192,192,92182,1,0,0:0:0:0:
64,192,92182,1,0,0:0:0:0:
448,192,92270,1,0,0:0:0:0:
64,192,92359,1,0,0:0:0:0:
320,192,92359,1,0,0:0:0:0:
192,192,92447,1,0,0:0:0:0:
320,192,92535,1,0,0:0:0:0:
448,192,92535,128,0,92712:0:0:0:0:
192,192,92623,1,0,0:0:0:0:
320,192,92712,1,0,0:0:0:0:
64,192,92712,128,0,92888:0:0:0:0:
192,192,92800,1,0,0:0:0:0:
320,192,92888,128,0,93065:0:0:0:0:
448,192,92888,1,0,0:0:0:0:
192,192,92976,1,0,0:0:0:0:
64,192,93065,1,0,0:0:0:0:
448,192,93065,128,0,93241:0:0:0:0:
320,192,93153,1,0,0:0:0:0:
64,192,93241,128,0,93947:0:0:0:0:
192,192,93241,1,0,0:0:0:0:
320,192,93329,1,0,0:0:0:0:
192,192,93418,1,0,0:0:0:0:
448,192,93418,1,0,0:0:0:0:
320,192,93506,1,0,0:0:0:0:
192,192,93594,1,0,0:0:0:0:
448,192,93594,1,0,0:0:0:0:
320,192,93682,1,0,0:0:0:0:
192,192,93770,1,0,0:0:0:0:
448,192,93770,1,0,0:0:0:0:
320,192,93859,1,0,0:0:0:0:
192,192,93947,1,0,0:0:0:0:
448,192,93947,1,0,0:0:0:0:
320,192,94035,1,0,0:0:0:0:
64,192,94123,1,0,0:0:0:0:
192,192,94123,1,0,0:0:0:0:
320,192,94212,1,0,0:0:0:0:
448,192,94300,1,0,0:0:0:0:
192,192,94300,1,0,0:0:0:0:
64,192,94300,1,0,0:0:0:0:
320,192,94388,1,0,0:0:0:0:
64,192,94476,1,0,0:0:0:0:
448,192,94476,1,0,0:0:0:0:
192,192,94565,1,0,0:0:0:0:
64,192,94653,1,0,0:0:0:0:
320,192,94653,1,0,0:0:0:0:
448,192,94653,1,0,0:0:0:0:
192,192,94741,1,0,0:0:0:0:
64,192,94829,1,0,0:0:0:0:
320,192,94829,1,0,0:0:0:0:
192,192,94918,1,0,0:0:0:0:
448,192,95006,1,0,0:0:0:0:
320,192,95006,1,0,0:0:0:0:
64,192,95006,1,0,0:0:0:0:
192,192,95094,1,0,0:0:0:0:
448,192,95182,1,0,0:0:0:0:
320,192,95182,1,0,0:0:0:0:
64,192,95270,1,0,0:0:0:0:
192,192,95359,1,0,0:0:0:0:
320,192,95359,1,0,0:0:0:0:
448,192,95359,1,0,0:0:0:0:
64,192,95447,1,0,0:0:0:0:
192,192,95535,1,0,0:0:0:0:
320,192,95535,1,0,0:0:0:0:
448,192,95623,1,0,0:0:0:0:
320,192,95712,1,0,0:0:0:0:
192,192,95712,1,0,0:0:0:0:
64,192,95712,1,0,0:0:0:0:
448,192,95800,1,0,0:0:0:0:
64,192,95888,1,0,0:0:0:0:
320,192,95888,1,0,0:0:0:0:
192,192,95976,1,0,0:0:0:0:
64,192,96065,1,0,0:0:0:0:
320,192,96065,1,0,0:0:0:0:
448,192,96065,1,0,0:0:0:0:
192,192,96153,1,0,0:0:0:0:
64,192,96241,1,0,0:0:0:0:
448,192,96241,1,0,0:0:0:0:
320,192,96329,1,0,0:0:0:0:
192,192,96418,1,0,0:0:0:0:
64,192,96418,1,0,0:0:0:0:
448,192,96418,1,0,0:0:0:0:
320,192,96506,1,0,0:0:0:0:
64,192,96594,1,0,0:0:0:0:
448,192,96594,1,0,0:0:0:0:
192,192,96682,1,0,0:0:0:0:
320,192,96770,1,0,0:0:0:0:
448,192,96770,1,0,0:0:0:0:
64,192,96770,1,0,0:0:0:0:
192,192,96859,1,0,0:0:0:0:
320,192,96947,1,0,0:0:0:0:
448,192,96947,1,0,0:0:0:0:
64,192,97035,1,0,0:0:0:0:
192,192,97123,1,0,0:0:0:0:
320,192,97123,1,0,0:0:0:0:
448,192,97123,1,0,0:0:0:0:
64,192,97212,1,0,0:0:0:0:
320,192,97300,1,0,0:0:0:0:
192,192,97300,1,0,0:0:0:0:
448,192,97388,1,0,0:0:0:0:
320,192,97476,1,0,0:0:0:0:
192,192,97476,1,0,0:0:0:0:
64,192,97476,1,0,0:0:0:0:
448,192,97565,1,0,0:0:0:0:
64,192,97653,1,0,0:0:0:0:
320,192,97653,1,0,0:0:0:0:
192,192,97741,1,0,0:0:0:0:
448,192,97829,1,0,0:0:0:0:
320,192,97829,1,0,0:0:0:0:
64,192,97829,1,0,0:0:0:0:
192,192,97918,1,0,0:0:0:0:
64,192,98006,1,0,0:0:0:0:
320,192,98006,1,0,0:0:0:0:
192,192,98094,1,0,0:0:0:0:
320,192,98182,1,0,0:0:0:0:
448,192,98182,128,0,98359:0:0:0:0:
192,192,98270,1,0,0:0:0:0:
64,192,98359,128,0,98535:0:0:0:0:
320,192,98447,1,0,0:0:0:0:
448,192,98535,1,0,0:0:0:0:
192,192,98535,128,0,98712:0:0:0:0:
64,192,98623,1,0,0:0:0:0:
320,192,98712,128,0,98888:0:0:0:0:
64,192,98800,1,0,0:0:0:0:
448,192,98888,128,0,99065:0:0:0:0:
192,192,98888,1,0,0:0:0:0:
64,192,98976,1,0,0:0:0:0:
64,192,99065,128,0,99241:0:0:0:0:
192,192,99153,1,0,0:0:0:0:
320,192,99241,1,0,0:0:0:0:
448,192,99241,128,0,99418:0:0:0:0:
192,192,99329,1,0,0:0:0:0:
64,192,99418,128,0,99594:0:0:0:0:
320,192,99506,1,0,0:0:0:0:
192,192,99594,1,0,0:0:0:0:
448,192,99594,1,0,0:0:0:0:
64,192,99770,1,0,0:0:0:0:
320,192,99947,1,0,0:0:0:0:
192,192,99947,1,0,0:0:0:0:
448,192,100123,1,0,0:0:0:0:
192,192,100300,1,0,0:0:0:0:
64,192,100300,1,0,0:0:0:0:
320,192,100476,1,0,0:0:0:0:
64,192,100653,1,0,0:0:0:0:
448,192,100653,1,0,0:0:0:0:
320,192,100829,1,0,0:0:0:0:
64,192,101006,1,0,0:0:0:0:
448,192,101006,1,0,0:0:0:0:
192,192,101182,1,0,0:0:0:0:
320,192,101359,1,0,0:0:0:0:
448,192,101359,1,0,0:0:0:0:
192,192,101535,1,0,0:0:0:0:
64,192,101712,128,0,102418:0:0:0:0:
320,192,101712,128,0,102418:0:0:0:0:
