osu file format v14

[General]
AudioFilename: audio.mp3
AudioLeadIn: 0
PreviewTime: 64599
Countdown: 0
SampleSet: None
StackLeniency: 0.7
Mode: 0
LetterboxInBreaks: 0
WidescreenStoryboard: 0

[Editor]
DistanceSpacing: 1
BeatDivisor: 4
GridSize: 8
TimelineZoom: 1.6

[Metadata]
Title:Sakura-Coloured Time Capsule (Engl. Vers.)
TitleUnicode:Sakura-Coloured Time Capsule (Engl. Vers.)
Artist:Rachie
ArtistUnicode:Rachie
Creator:Evelynn
Version:Shudder
Source:
Tags:Gumi Rachie Time Capsule Sakura Rachie
BeatmapID:1603572
BeatmapSetID:762725

[Difficulty]
HPDrainRate:6
CircleSize:4
OverallDifficulty:8
ApproachRate:9
SliderMultiplier:1.3
SliderTickRate:1

[Events]
//Background and Video events
0,0,"5.jpg",0,0
//Break Periods
//Storyboard Layer 0 (Background)
//Storyboard Layer 1 (Fail)
//Storyboard Layer 2 (Pass)
//Storyboard Layer 3 (Foreground)
//Storyboard Sound Samples

[TimingPoints]
1600,352.941176470588,4,2,0,100,1,0
10070,-90.9090909090909,4,2,0,100,0,0
15717,-83.3333333333333,4,2,0,100,0,0
27011,-100,4,2,0,100,0,0
31247,-86.9565217391304,4,2,0,100,0,0
42541,-83.3333333333333,4,2,0,100,0,0
53835,-100,4,2,0,100,0,0
59129,-105.263157894737,4,2,0,100,0,0
59217,-111.111111111111,4,2,0,100,0,0
59305,-117.647058823529,4,2,0,100,0,0
59482,-125,4,2,0,100,0,0
61599,-111.111111111111,4,2,0,100,0,0
62305,-83.3333333333333,4,2,0,100,0,0
63717,-90.9090909090909,4,2,0,100,0,0
65129,-76.9230769230769,4,2,0,100,0,1
70776,-83.3333333333333,4,3,0,100,0,1
71305,-83.3333333333333,4,2,0,100,0,1
72188,-83.3333333333333,4,3,0,100,0,1
72717,-83.3333333333333,4,2,0,100,0,1
75894,-111.111111111111,4,2,0,100,0,1
76423,-76.9230769230769,4,2,0,100,0,1
80658,-83.3333333333333,4,2,0,100,0,1
82070,-100,4,2,0,100,0,0
84188,-90.9090909090909,4,2,0,100,0,0
84894,-83.3333333333333,4,2,0,100,0,0
86305,-76.9230769230769,4,2,0,100,0,0
87717,-83.3333333333333,4,2,0,100,0,0

[HitObjects]
480,136,1600,6,0,B|440:112|384:144|352:144,1,130,2|0,0:0|0:0,0:0:0:0:
264,184,2305,1,0,0:0:0:0:
40,280,3011,5,0,0:0:0:0:
256,288,3717,2,0,P|336:296|392:288,1,130
448,344,4423,6,0,P|464:304|416:216,1,130,2|0,0:0|0:0,0:0:0:0:
352,184,5129,1,0,0:0:0:0:
96,112,5658,1,0,0:0:0:0:
96,112,5747,1,0,0:0:0:0:
96,112,5835,1,0,0:0:0:0:
216,240,7247,6,0,B|256:240|256:240|280:264|280:264|352:264,1,130,2|0,0:0|0:0,0:0:0:0:
136,192,7952,1,0,0:0:0:0:
344,56,8658,6,0,P|352:96|344:192,1,130,2|0,0:0|0:0,0:0:0:0:
432,16,9364,1,0,0:0:0:0:
184,192,9894,5,0,0:0:0:0:
216,216,9982,1,0,0:0:0:0:
248,224,10070,2,0,B|328:264|376:192,1,143.000004364014,4|0,0:0|0:0,0:0:0:0:
352,104,10599,1,0,0:0:0:0:
288,160,10776,1,0,0:0:0:0:
288,48,10952,1,0,0:0:0:0:
224,112,11129,1,0,0:0:0:0:
184,16,11305,1,0,0:0:0:0:
128,144,11482,6,0,L|104:72,1,71.5000021820069
40,256,11835,2,0,P|32:208|48:176,1,71.5000021820069
160,216,12188,1,0,0:0:0:0:
144,304,12364,1,0,0:0:0:0:
256,264,12541,1,0,0:0:0:0:
224,360,12717,1,0,0:0:0:0:
296,280,12894,1,2,0:0:0:0:
328,304,12982,1,0,0:0:0:0:
352,320,13070,6,0,L|512:320,1,143.000004364014
480,224,13599,1,0,0:0:0:0:
384,240,13776,1,0,0:0:0:0:
264,144,13952,1,0,0:0:0:0:
368,160,14129,1,0,0:0:0:0:
272,240,14305,6,0,L|192:272,1,71.5000021820069
128,336,14658,1,0,0:0:0:0:
224,352,14835,1,0,0:0:0:0:
312,296,15011,2,0,P|360:280|472:312,1,143.000004364014
512,344,15541,5,0,0:0:0:0:
504,304,15629,1,0,0:0:0:0:
512,272,15717,2,0,B|512:224|488:168|400:184,1,155.999995239258,4|8,0:0|0:0,0:0:0:0:
260,214,16247,1,0,0:0:0:0:
256,50,16423,1,0,0:0:0:0:
355,133,16599,1,0,0:0:0:0:
176,77,16776,1,8,0:0:0:0:
69,151,16952,1,0,0:0:0:0:
69,151,17129,6,0,P|62:207|80:310,1,155.999995239258,0|8,0:0|0:0,0:0:0:0:
206,320,17658,1,0,0:0:0:0:
232,306,17747,1,0,0:0:0:0:
261,304,17835,2,0,P|304:320|346:326,1,77.999997619629
464,261,18188,2,0,P|445:216|450:167,1,77.999997619629,8|0,0:0|0:0,0:0:0:0:
485,97,18541,5,0,0:0:0:0:
340,118,18717,1,0,0:0:0:0:
510,164,18894,1,8,0:0:0:0:
312,45,19070,1,0,0:0:0:0:
468,157,19247,1,0,0:0:0:0:
340,118,19423,2,0,L|310:43,1,77.999997619629,0|8,0:0|0:0,0:0:0:0:
410,217,19776,1,0,0:0:0:0:
410,217,19952,6,0,P|412:267|396:314,1,77.999997619629
267,290,20305,2,0,P|225:280|186:290,1,77.999997619629,8|0,0:0|0:0,0:0:0:0:
74,323,20570,1,0,0:0:0:0:
65,354,20658,2,0,P|110:362|154:348,1,77.999997619629
202,209,21011,2,0,P|220:173|209:87,1,116.999996429443,8|8,0:0|0:0,0:0:0:0:
251,57,21364,6,0,P|293:97|401:71,1,155.999995239258,0|8,0:0|0:0,0:0:0:0:
478,52,21894,1,0,0:0:0:0:
403,198,22070,1,0,0:0:0:0:
331,23,22247,1,0,0:0:0:0:
162,40,22423,1,8,0:0:0:0:
162,40,22511,1,0,0:0:0:0:
162,40,22599,6,0,L|167:117,1,77.999997619629
226,196,22952,2,0,P|223:250|242:293,1,77.999997619629,0|8,0:0|0:0,0:0:0:0:
307,342,23305,1,0,0:0:0:0:
137,185,23482,1,0,0:0:0:0:
325,123,23658,1,0,0:0:0:0:
301,232,23835,1,8,0:0:0:0:
137,186,24011,2,0,L|165:99,1,77.999997619629
301,228,24364,5,0,0:0:0:0:
301,228,24452,1,0,0:0:0:0:
301,228,24541,1,8,0:0:0:0:
160,292,24717,1,0,0:0:0:0:
169,115,24894,1,0,0:0:0:0:
169,115,24982,1,0,0:0:0:0:
169,115,25070,1,8,0:0:0:0:
357,187,25247,2,0,L|350:268,1,77.999997619629
233,167,25599,5,8,0:0:0:0:
311,112,25776,1,0,0:0:0:0:
231,50,25952,1,0,0:0:0:0:
417,128,26129,2,0,P|410:72|326:4,1,155.999995239258,8|0,0:0|0:0,0:0:0:0:
315,1,26570,1,0,0:0:0:0:
293,9,26658,1,0,0:0:0:0:
209,85,26835,1,0,0:0:0:0:
134,167,27011,6,0,P|93:148|119:14,1,195
266,123,27717,2,0,P|279:186|190:268,1,195
192,35,28423,2,0,L|192:184,1,130
275,33,28952,1,0,0:0:0:0:
275,33,29129,1,0,0:0:0:0:
399,268,29835,6,0,P|346:265|317:248,1,65,2|0,0:0|0:0,0:0:0:0:
205,228,30188,2,0,P|246:204|262:176,1,65,2|0,0:0|0:0,0:0:0:0:
362,146,30541,2,0,P|326:119|318:82,1,65,2|0,0:0|0:0,0:0:0:0:
180,18,30894,2,0,L|211:56,1,32.5
87,94,31070,2,0,L|132:123,1,32.5
69,224,31247,6,0,P|126:249|217:240,1,149.500002851486,4|8,0:0|0:0,0:0:0:0:
