osu file format v14

[General]
AudioFilename: audio.mp3
AudioLeadIn: 0
PreviewTime: 125532
Countdown: 0
SampleSet: Soft
StackLeniency: 0.5
Mode: 0
LetterboxInBreaks: 0
EpilepsyWarning: 1
WidescreenStoryboard: 1

[Editor]
DistanceSpacing: 0.7
BeatDivisor: 4
GridSize: 32
TimelineZoom: 2.999999

[Metadata]
Title:Eternity (C3EYOND Remix)
TitleUnicode:Eternity (C3EYOND Remix)
Artist:Rachel Taylor
ArtistUnicode:Rachel Taylor
Creator:Alumetri
Version:smozit's insane
Source:
Tags:english electronic come alive dnb drum and bass PantyDev Daycore 0ppInOsu smozit nuvolina gordon123
BeatmapID:3168327
BeatmapSetID:1519259

[Difficulty]
HPDrainRate:5
CircleSize:4.5
OverallDifficulty:8
ApproachRate:9
SliderMultiplier:1.6
SliderTickRate:1

[Events]
//Background and Video events
0,0,"bg.jpg",0,0
//Break Periods
2,109180,116656
//Storyboard Layer 0 (Background)
//Storyboard Layer 1 (Fail)
//Storyboard Layer 2 (Pass)
//Storyboard Layer 3 (Foreground)
Sprite,Foreground,Centre,"sb/kiai/circle2.png",0,0 S,2,148289,148833,5,1 F,2,148289,148833,1,0 P,0,148289,148833,A C,0,148289,,128,255,128 M,0,148289,148332,441,384,459.116,392.1161 M,0,148332,148375,459.116,392.1161,478.7722,394.4576 M,0,148375,148418,478.7722,394.4576,498.2975,391.1385 M,0,148418,148461,498.2975,391.1385,515.6099,381.4943 M,0,148461,148504,515.6099,381.4943,529.6627,367.4541 M,0,148504,148547,529.6627,367.4541,538.0389,349.4598 M,0,148547,148590,538.0389,349.4598,540.6643,329.8409 M,0,148590,148633,540.6643,329.8409,537.6135,310.2755
Sprite,Foreground,Centre,"sb/kiai/circle2.png",550,210 S,2,148807,149007,5,1 F,2,148807,149007,1,0 P,0,148807,149007,A C,0,148807,,128,255,128
Sprite,Foreground,Centre,"sb/kiai/circle2.png",0,0 S,2,148979,149696,5,1 F,2,148979,149696,1,0 P,0,148979,149696,A C,0,148979,,128,255,128 M,0,148979,149022,550,210,530.3432,213.6893 M,0,149022,149065,530.3432,213.6893,510.6983,217.4411 M,0,149065,149108,510.6983,217.4411,491.0653,221.2544 M,0,149108,149151,491.0653,221.2544,471.4456,225.1361 M,0,149151,149194,471.4456,225.1361,451.8381,229.0789 M,0,149194,149237,451.8381,229.0789,432.2445,233.0904 M,0,149237,149280,432.2445,233.0904,412.6634,237.1617 M,0,149280,149323,412.6634,237.1617,393.0968,241.3031 M,0,149323,149366,393.0968,241.3031,373.5429,245.5036 M,0,149366,149410,373.5429,245.5036,354.0042,249.7744 M,0,149410,149453,354.0042,249.7744,334.4784,254.1034 M,0,149453,149496,334.4784,254.1034,314.9684,258.5034
Sprite,Foreground,Centre,"sb/kiai/circle2.png",343,167 S,2,149669,149869,5,1 F,2,149669,149869,1,0 P,0,149669,149869,A C,0,149669,,128,255,128
Sprite,Foreground,Centre,"sb/kiai/circle2.png",343,167 S,2,149841,150041,5,1 F,2,149841,150041,1,0 P,0,149841,150041,A C,0,149841,,128,255,128
Sprite,Foreground,Centre,"sb/kiai/circle2.png",0,0 S,2,150014,150386,5,1 F,2,150014,150386,1,0 P,0,150014,150386,A C,0,150014,,128,255,128 M,0,150014,150057,436,134,428.9632,152.7198 M,0,150057,150100,428.9632,152.7198,422.4644,171.6326 M,0,150100,150143,422.4644,171.6326,416.4733,190.7124 M,0,150143,150186,416.4733,190.7124,411.1035,209.9765
Sprite,Foreground,Centre,"sb/kiai/circle2.png",0,0 S,2,150358,150902,5,1 F,2,150358,150902,1,0 P,0,150358,150902,A C,0,150358,,128,255,255 M,0,150358,150401,357,71,344.3484,86.48631 M,0,150401,150444,344.3484,86.48631,331.0701,101.4374 M,0,150444,150487,331.0701,101.4374,317.2168,115.8574 M,0,150487,150530,317.2168,115.8574,302.7113,129.6217 M,0,150530,150573,302.7113,129.6217,287.6957,142.8288 M,0,150573,150616,287.6957,142.8288,272.0686,155.3059 M,0,150616,150659,272.0686,155.3059,255.9414,167.1279 M,0,150659,150702,255.9414,167.1279,239.3614,178.306
Sprite,Foreground,Centre,"sb/kiai/circle2.png",156,162 S,2,150876,151076,5,1 F,2,150876,151076,1,0 P,0,150876,151076,A C,0,150876,,128,255,255
Sprite,Foreground,Centre,"sb/kiai/circle2.png",0,0 S,2,151048,151592,5,1 F,2,151048,151592,1,0 P,0,151048,151592,A C,0,151048,,255,128,192 M,0,151048,151091,114,79,118.3215,98.52747 M,0,151091,151134,118.3215,98.52747,122.5014,118.0857 M,0,151134,151177,122.5014,118.0857,126.543,137.6729 M,0,151177,151220,126.543,137.6729,130.428,157.2918 M,0,151220,151263,130.428,157.2918,134.1764,176.9373 M,0,151263,151306,134.1764,176.9373,137.7659,196.6124 M,0,151306,151349,137.7659,196.6124,141.2204,216.3117 M,0,151349,151392,141.2204,216.3117,144.5136,236.0387
Sprite,Foreground,Centre,"sb/kiai/circle2.png",98,391 S,2,151565,151765,5,1 F,2,151565,151765,1,0 P,0,151565,151765,A C,0,151565,,255,128,192
Sprite,Foreground,Centre,"sb/kiai/circle2.png",0,0 S,2,151738,152455,5,1 F,2,151738,152455,1,0 P,0,151738,152455,A C,0,151738,,255,128,192 M,0,151738,151781,70,325,85.10637,311.9777 M,0,151781,151824,85.10637,311.9777,102.3055,301.9173 M,0,151824,151867,102.3055,301.9173,121.0152,295.0873 M,0,151867,151910,121.0152,295.0873,140.7171,292.1008 M,0,151910,151953,140.7171,292.1008,160.6312,292.6364 M,0,151953,151996,160.6312,292.6364,180.0425,297.1485 M,0,151996,152039,180.0425,297.1485,198.3658,304.9774 M,0,152039,152082,198.3658,304.9774,214.7339,316.3499 M,0,152082,152125,214.7339,316.3499,228.8933,330.3768 M,0,152125,152169,228.8933,330.3768,239.8962,346.9984 M,0,152169,152212,239.8962,346.9984,247.9015,365.2575 M,0,152212,152255,247.9015,365.2575,251.9775,384.7726
Sprite,Foreground,Centre,"sb/kiai/circle2.png",343,403 S,2,152427,152627,5,1 F,2,152427,152627,1,0 P,0,152427,152627,A C,0,152427,,255,128,192
Sprite,Foreground,Centre,"sb/kiai/circle2.png",343,403 S,2,152600,152800,5,1 F,2,152600,152800,1,0 P,0,152600,152800,A C,0,152600,,255,128,192
Sprite,Foreground,Centre,"sb/kiai/circle2.png",0,0 S,2,152772,153144,5,1 F,2,152772,153144,1,0 P,0,152772,153144,A C,0,152772,,255,128,192 M,0,152772,152815,395,333,390.1833,313.5887 M,0,152815,152858,390.1833,313.5887,385.5175,294.1408 M,0,152858,152901,385.5175,294.1408,381.0026,274.6572 M,0,152901,152944,381.0026,274.6572,376.6332,255.1405
Sprite,Foreground,Centre,"sb/kiai/circle2.png",0,0 S,2,153117,153834,5,1 F,2,153117,153834,1,0 P,0,153117,153834,A C,0,153117,,255,164,119 M,0,153117,153160,416,129,434.7669,135.9141 M,0,153160,153203,434.7669,135.9141,453.5337,142.8282 M,0,153203,153246,453.5337,142.8282,472.3006,149.7423 M,0,153246,153289,472.3006,149.7423,490.8516,151.2078 M,0,153289,153332,490.8516,151.2078,509.4988,158.4383 M,0,153332,153375,509.4988,158.4383,528.1461,165.6689 M,0,153375,153418,528.1461,165.6689,509.4988,158.4383 M,0,153418,153461,509.4988,158.4383,490.8516,151.2078 M,0,153461,153504,490.8516,151.2078,472.3006,149.7423 M,0,153504,153548,472.3006,149.7423,453.5337,142.8282 M,0,153548,153591,453.5337,142.8282,434.7669,135.9141 M,0,153591,153634,434.7669,135.9141,416,129
Sprite,Foreground,Centre,"sb/kiai/circle2.png",0,0 S,2,153807,154351,5,1 F,2,153807,154351,1,0 P,0,153807,154351,A C,0,153807,,128,255,128 M,0,153807,153850,561,92,541.882,97.87363 M,0,153850,153893,541.882,97.87363,522.7639,103.7472 M,0,153893,153936,522.7639,103.7472,503.6458,109.6209 M,0,153936,153979,503.6458,109.6209,484.5277,115.4945 M,0,153979,154022,484.5277,115.4945,465.4097,121.3681 M,0,154022,154065,465.4097,121.3681,446.2916,127.2417 M,0,154065,154108,446.2916,127.2417,427.1735,133.1154 M,0,154108,154151,427.1735,133.1154,408.0555,138.989
Sprite,Foreground,Centre,"sb/kiai/circle2.png",323,100 S,2,154324,154524,5,1 F,2,154324,154524,1,0 P,0,154324,154524,A C,0,154324,,128,255,128
Sprite,Foreground,Centre,"sb/kiai/circle2.png",0,0 S,2,154496,155213,5,1 F,2,154496,155213,1,0 P,0,154496,155213,A C,0,154496,,128,255,128 M,0,154496,154539,248,118,254.2559,99.06002 M,0,154539,154582,254.2559,99.06002,256.0444,79.17465 M,0,154582,154625,256.0444,79.17465,254.3249,59.26765 M,0,154625,154668,254.3249,59.26765,260.3212,62.26688 M,0,154668,154711,260.3212,62.26688,270.6624,79.3784 M,0,154711,154754,270.6624,79.3784,279.6038,97.26332 M,0,154754,154797,279.6038,97.26332,287.3202,115.7113 M,0,154797,154840,287.3202,115.7113,293.9722,134.5703 M,0,154840,154883,293.9722,134.5703,299.6978,153.7313 M,0,154883,154927,299.6978,153.7313,304.6167,173.1157 M,0,154927,154970,304.6167,173.1157,308.8262,192.6667 M,0,154970,155013,308.8262,192.6667,312.411,212.3421
Sprite,Foreground,Centre,"sb/kiai/circle2.png",261,293 S,2,155186,155386,5,1 F,2,155186,155386,1,0 P,0,155186,155386,A C,0,155186,,128,255,128
Sprite,Foreground,Centre,"sb/kiai/circle2.png",261,293 S,2,155358,155558,5,1 F,2,155358,155558,1,0 P,0,155358,155558,A C,0,155358,,128,255,128
Sprite,Foreground,Centre,"sb/kiai/circle2.png",0,0 S,2,155531,155903,5,1 F,2,155531,155903,1,0 P,0,155531,155903,A C,0,155531,,128,255,128 M,0,155531,155574,191,250,171.7852,246.2204 M,0,155574,155617,171.7852,246.2204,157.0284,233.5959 M,0,155617,155660,157.0284,233.5959,149.6383,215.5136 M,0,155660,155703,149.6383,215.5136,153.4716,196.3563
Sprite,Foreground,Centre,"sb/kiai/circle2.png",0,0 S,2,155876,156420,5,1 F,2,155876,156420,1,0 P,0,155876,156420,A C,0,155876,,128,255,255 M,0,155876,155919,87,356,99.15509,340.3068 M,0,155919,155962,99.15509,340.3068,115.3856,328.9747 M,0,155962,156005,115.3856,328.9747,134.1783,322.7613 M,0,156005,156048,134.1783,322.7613,153.9853,323.1042 M,0,156048,156091,153.9853,323.1042,172.934,328.9576 M,0,156091,156134,172.934,328.9576,188.7902,340.8661 M,0,156134,156177,188.7902,340.8661,200.3564,356.9204 M,0,156177,156220,200.3564,356.9204,206.7196,375.6384
Sprite,Foreground,Centre,"sb/kiai/circle2.png",305,424 S,2,156393,156593,5,1 F,2,156393,156593,1,0 P,0,156393,156593,A C,0,156393,,128,255,255
Sprite,Foreground,Centre,"sb/kiai/circle2.png",0,0 S,2,156565,157109,5,1 F,2,156565,157109,1,0 P,0,156565,157109,A C,0,156565,,255,128,192 M,0,156565,156608,419,388,433.207,401.8622 M,0,156608,156651,433.207,401.8622,450.8629,410.8083 M,0,156651,156694,450.8629,410.8083,470.3442,414.3606 M,0,156694,156737,470.3442,414.3606,489.9029,411.1843 M,0,156737,156780,489.9029,411.1843,507.8764,402.734 M,0,156780,156823,507.8764,402.734,521.83,388.6225 M,0,156823,156866,521.83,388.6225,530.8923,371.0281 M,0,156866,156909,530.8923,371.0281,534.55,351.5719
Sprite,Foreground,Centre,"sb/kiai/circle2.png",569,277 S,2,157083,157283,5,1 F,2,157083,157283,1,0 P,0,157083,157283,A C,0,157083,,255,128,192
Sprite,Foreground,Centre,"sb/kiai/circle2.png",0,0 S,2,157255,157972,5,1 F,2,157255,157972,1,0 P,0,157255,157972,A C,0,157255,,255,128,192 M,0,157255,157298,498,249,484.3397,234.475 M,0,157298,157341,484.3397,234.475,473.672,217.6529 M,0,157341,157384,473.672,217.6529,466.3676,199.1343 M,0,157384,157427,466.3676,199.1343,462.9919,179.5029 M,0,157427,157470,462.9919,179.5029,463.3721,159.5993 M,0,157470,157513,463.3721,159.5993,467.8081,140.18 M,0,157513,157556,467.8081,140.18,475.8145,121.9537 M,0,157556,157599,475.8145,121.9537,487.3794,105.7352 M,0,157599,157642,487.3794,105.7352,501.7802,91.99028 M,0,157642,157686,501.7802,91.99028,518.6942,81.46864 M,0,157686,157729,518.6942,81.46864,537.2739,74.31995 M,0,157729,157772,537.2739,74.31995,556.934,71.11452
//Storyboard Sound Samples

[TimingPoints]
15,344.827586206897,4,2,1,50,1,0
15,-133.333333333333,4,2,1,50,0,0
19325,-83.3333333333333,4,2,1,50,0,0
22083,-100,4,2,1,60,0,0
33118,-100,4,2,1,70,0,0
35877,-83.3333333333333,4,2,1,70,0,0
38635,-83.3333333333333,4,2,1,80,0,0
40015,-83.3333333333333,4,2,1,82,0,0
41394,-83.3333333333333,4,2,1,84,0,0
42083,-83.3333333333333,4,2,1,86,0,0
42773,-83.3333333333333,4,2,1,88,0,0
43463,-83.3333333333333,4,2,1,90,0,0
44152,-66.6666666666667,4,2,1,95,0,1
64842,-100,4,2,1,95,0,0
66221,-133.333333333333,4,2,1,75,0,0
82773,-100,4,2,1,75,0,0
87601,-100,4,2,1,90,0,0
87687,-100,4,2,1,87,0,0
87773,-100,4,2,1,84,0,0
87859,-100,4,2,1,81,0,0
87946,-100,4,2,1,78,0,0
88032,-100,4,2,1,75,0,0
88118,-100,4,2,1,72,0,0
88204,-100,4,2,1,70,0,0
88290,-66.6666666666667,4,2,1,95,0,1
108980,-100,4,2,1,95,0,0
110015,-100,4,2,1,95,0,0
110359,-100,4,2,1,65,0,0
125532,-100,4,2,1,35,0,0
126221,344.827586206897,4,2,1,95,1,0
126221,-66.6666666666667,4,2,1,95,0,1
146910,-100,4,2,1,95,0,0
148289,-100,4,2,1,85,0,0
157945,-100,4,2,1,45,0,0
158634,-100,4,2,1,45,0,0
159410,-100,4,2,1,15,0,0

[Colours]
Combo1 : 128,255,128
Combo2 : 128,255,255
Combo3 : 255,128,192
Combo4 : 255,164,119

[HitObjects]
104,118,15,5,6,3:2:0:0:
50,72,187,1,0,0:0:0:0:
105,19,359,2,0,P|138:29|151:54,1,60.0000022888184
201,251,704,5,2,0:0:0:0:
255,205,877,1,0,0:0:0:0:
200,152,1049,2,0,P|167:162|154:187,1,60.0000022888184
62,289,1308,1,0,0:0:0:0:
54,285,1394,5,2,0:0:0:0:
31,215,1566,1,0,0:0:0:0:
97,257,1739,2,0,P|83:311|78:342,1,60.0000022888184
218,226,2083,5,2,0:0:0:0:
241,156,2256,1,0,0:0:0:0:
175,198,2428,2,0,P|189:252|194:283,1,60.0000022888184
314,340,2773,5,2,0:0:0:0:
375,288,2946,1,0,0:0:0:0:
445,338,3118,2,0,P|411:336|406:297,1,60.0000022888184
491,165,3463,5,2,0:0:0:0:
430,217,3635,1,0,0:0:0:0:
360,167,3808,2,0,P|394:169|399:208,1,60.0000022888184
280,46,4152,5,2,0:0:0:0:
252,128,4325,1,0,0:0:0:0:
292,42,4497,2,0,P|261:71|253:102,1,60.0000022888184
161,186,4842,5,2,0:0:0:0:
194,334,5015,1,0,0:0:0:0:
187,342,5101,1,0,0:0:0:0:
172,327,5187,5,0,0:0:0:0:
166,297,5273,1,0,0:0:0:0:
161,268,5359,2,0,P|129:256|124:235,1,30.0000011444092
36,73,5532,5,2,0:0:0:0:
86,136,5704,1,0,0:0:0:0:
101,34,5877,2,0,P|80:32|70:78,1,60.0000022888184
260,46,6221,5,2,0:0:0:0:
210,109,6394,1,0,0:0:0:0:
195,7,6566,2,0,P|216:5|226:51,1,60.0000022888184
115,238,6911,5,2,0:0:0:0:
37,203,7083,1,0,0:0:0:0:
120,227,7256,2,0,P|117:280|133:291,1,60.0000022888184
226,206,7601,5,2,0:0:0:0:
304,171,7773,1,0,0:0:0:0:
221,195,7946,2,0,P|224:248|208:259,1,60.0000022888184
175,362,8290,5,2,0:0:0:0:
273,328,8463,1,0,0:0:0:0:
164,349,8635,2,0,L|233:336,1,60.0000022888184
467,277,8980,5,2,0:0:0:0:
369,243,9152,1,2,0:3:0:0:
478,264,9325,2,0,L|409:251,1,60.0000022888184,0|2,0:0|0:3,0:0:0:0:
268,129,9670,5,2,0:0:0:0:
320,54,9842,1,0,0:0:0:0:
390,106,10015,2,0,P|357:81|353:55,1,60.0000022888184,2|0,0:3|0:0,0:0:0:0:
112,32,10359,5,0,0:0:0:0:
180,61,10532,1,0,0:0:0:0:
187,66,10618,1,0,0:0:0:0:
190,86,10704,5,2,0:3:0:0:
180,114,10790,1,2,0:3:0:0:
171,143,10877,2,0,P|178:157|201:159,1,30.0000011444092
46,229,11049,5,6,3:2:0:0:
64,326,11221,1,0,0:0:0:0:
148,251,11394,2,0,P|132:305|128:322,1,60.0000022888184
288,113,11739,5,2,0:0:0:0:
270,210,11911,1,0,0:0:0:0:
186,135,12083,2,0,P|202:189|206:206,1,60.0000022888184
95,109,12342,1,0,0:0:0:0:
102,114,12428,5,2,0:0:0:0:
140,40,12601,1,0,0:0:0:0:
261,26,12773,2,0,P|237:48|208:22,1,60.0000022888184
497,60,13118,5,2,0:0:0:0:
419,104,13290,1,0,0:0:0:0:
297,120,13463,2,0,P|321:98|350:124,1,60.0000022888184
500,214,13808,5,2,0:0:0:0:
423,250,13980,1,0,0:0:0:0:
447,328,14152,2,0,P|479:351|506:344,1,60.0000022888184
280,250,14497,5,2,0:0:0:0:
357,286,14670,1,0,0:0:0:0:
333,364,14842,2,0,P|301:387|274:380,1,60.0000022888184
349,194,15187,5,2,0:0:0:0:
426,157,15359,1,0,0:0:0:0:
348,184,15532,2,0,P|340:136|330:112,1,60.0000022888184
210,240,15877,5,2,0:0:0:0:
162,190,16049,1,0,0:0:0:0:
163,180,16135,1,0,0:0:0:0:
164,166,16221,5,0,0:0:0:0:
139,181,16308,1,0,0:0:0:0:
111,167,16394,2,0,L|105:120,1,30.0000011444092
226,8,16566,5,2,0:0:0:0:
212,84,16739,1,0,0:0:0:0:
235,7,16911,2,0,L|159:11,1,60.0000022888184
98,138,17256,5,2,0:0:0:0:
84,214,17428,1,0,0:0:0:0:
107,137,17601,2,0,L|31:141,1,60.0000022888184
351,145,17946,5,2,0:0:0:0:
337,221,18118,1,0,0:0:0:0:
360,144,18290,2,0,L|284:148,1,60.0000022888184
223,275,18635,5,2,0:0:0:0:
209,351,18808,1,0,0:0:0:0:
232,274,18980,2,0,L|156:278,1,60.0000022888184
355,306,19325,6,0,B|420:288|420:288|425:290|425:290|499:269,2,143.999995605469,2|0|0,0:0|0:0|0:0,0:0:0:0:
410,378,20015,6,0,B|426:285|426:285|428:281|428:281|452:151,1,191.999994140625,2|0,0:0|0:0,0:0:0:0:
457,47,20532,6,0,B|486:52|490:-3|532:25|441:29|485:60|506:94|457:143|394:104|378:143,1,191.999994140625
279,121,21049,6,0,P|284:150|289:177,2,47.9999985351563,2|2|2,0:0|0:3|0:3,0:0:0:0:
229,221,21308,5,2,0:3:0:0:
224,212,21394,2,0,B|223:166|297:164|350:183|332:47|291:57,1,191.999994140625,2|0,0:3|0:0,0:0:0:0:
311,61,21825,1,0,0:0:0:0:
304,55,21911,1,0,0:0:0:0:
0,185,22083,6,0,B|74:119|189:225|100:271|202:296|191:292,1,240,6|0,3:2|0:0,0:0:0:0:
113,350,22773,2,0,P|61:300|28:300,1,80,2|0,0:0|0:0,0:0:0:0:
215,370,23118,2,0,P|265:318|265:285,1,80,0|2,0:0|0:0,0:0:0:0:
340,241,23377,1,0,0:0:0:0:
335,234,23463,6,0,P|346:303|420:289,1,160,2|0,0:0|0:0,0:0:0:0:
488,235,23980,1,2,0:0:0:0:
427,174,24152,2,0,B|441:284|466:197|484:341,1,160,2|0,0:0|0:0,0:0:0:0:
448,384,24670,1,0,0:0:0:0:
494,70,24842,6,0,B|398:98|323:144,1,160,2|0,0:0|0:0,0:0:0:0:
296,70,25359,1,2,0:0:0:0:
252,134,25532,6,0,P|204:158|185:71,1,160,2|0,0:0|0:0,0:0:0:0:
121,17,26049,1,2,0:0:0:0:
49,51,26221,2,0,P|14:154|29:232,1,160,2|0,0:0|0:0,0:0:0:0:
63,274,26739,1,2,0:0:0:0:
74,356,26911,5,2,0:0:0:0:
153,331,27083,1,0,0:0:0:0:
161,339,27170,1,0,0:0:0:0:
173,359,27256,5,2,0:0:0:0:
195,327,27342,1,0,0:0:0:0:
234,320,27428,2,0,P|261:342|287:344,1,40
376,343,27601,6,0,B|389:292|330:221|282:265|220:273|214:175,1,240,2|0,0:0|0:0,0:0:0:0:
259,127,28290,2,0,L|369:111,2,80,2|0|0,0:0|0:0|0:0,0:0:0:0:
181,78,28808,1,2,0:0:0:0:
181,78,28980,6,0,P|257:113|351:163,1,160,2|0,0:0|0:0,0:0:0:0:
320,48,29497,1,2,0:0:0:0:
320,48,29670,2,0,P|244:83|150:133,1,160,2|0,0:0|0:0,0:0:0:0:
42,243,30187,1,0,0:0:0:0:
42,243,30359,6,0,P|8:212|97:166,1,160,2|0,0:0|0:0,0:0:0:0:
66,325,30877,1,2,0:0:0:0:
66,325,31049,2,0,P|153:299|245:296,1,160,2|0,0:0|0:0,0:0:0:0:
307,258,31566,1,2,0:0:0:0:
383,367,31739,6,0,P|424:293|477:228,1,160,2|0,0:0|0:0,0:0:0:0:
457,130,32256,1,2,0:0:0:0:
457,130,32428,2,0,P|406:153|372:131,1,80,2|0,0:0|0:0,0:0:0:0:
320,39,32687,1,0,0:0:0:0:
328,44,32773,2,0,L|338:99,1,40,2|0,0:0|0:0,0:0:0:0:
281,152,32946,1,0,0:0:0:0:
269,114,33032,1,0,0:0:0:0:
235,95,33118,6,0,B|99:126|171:193|26:244,1,240,6|0,3:2|0:0,0:0:0:0:
32,138,33808,2,0,P|1:106|12:57,1,80,2|0,0:0|0:0,0:0:0:0:
56,18,34152,2,0,P|87:50|76:99,1,80
147,158,34411,1,0,0:0:0:0:
138,162,34497,6,0,P|125:231|110:332,1,160,2|0,0:0|0:0,0:0:0:0:
199,353,35015,1,0,0:0:0:0:
293,332,35187,1,2,0:0:0:0:
310,263,35359,1,0,0:0:0:0:
308,251,35446,1,0,0:0:0:0:
297,231,35532,5,0,0:0:0:0:
268,256,35618,1,0,0:0:0:0:
233,242,35704,2,0,L|223:184,1,40
280,78,35877,6,0,B|271:185|271:185|275:186|275:186|267:287,2,191.999994140625,6|2|2,3:2|0:0|0:0,0:0:0:0:
241,4,36739,1,0,0:0:0:0:
224,142,36911,2,0,B|253:173|253:173|259:174|259:174|295:211,1,95.9999970703126,2|0,0:0|0:0,0:0:0:0:
425,249,37170,5,0,0:0:0:0:
432,245,37256,2,0,B|462:229|462:229|336:267,2,143.999995605469,2|0|0,0:0|0:0|0:0,0:0:0:0:
278,291,37946,1,2,0:0:0:0:
364,144,38118,1,0,0:0:0:0:
368,156,38204,1,0,0:0:0:0:
372,170,38290,5,0,0:0:0:0:
324,166,38377,1,0,0:0:0:0:
276,162,38463,2,0,L|243:109,1,47.9999985351563
33,75,38635,6,0,B|26:57|-5:25|-5:25|31:31|55:18|55:18|130:95|105:185|109:199,1,287.999991210938,4|0,3:2|0:0,0:0:0:0:
10,202,39325,2,0,P|59:228|81:275,1,95.9999970703126,2|0,0:0|0:0,0:0:0:0:
194,339,39670,2,0,P|151:354|145:301,1,95.9999970703126
273,325,39928,1,0,0:0:0:0:
275,340,40015,6,0,P|331:308|480:282,1,191.999994140625,6|0,3:2|0:0,0:0:0:0:
477,357,40532,1,0,0:0:0:0:
477,357,40704,2,0,B|501:245|501:245|506:243|506:243|515:196,2,143.999995605469,2|0|0,0:0|0:0|0:0,0:0:0:0:
448,145,41308,1,0,0:0:0:0:
448,156,41394,6,0,L|345:177,1,95.9999970703126,6|0,3:2|0:0,0:0:0:0:
242,84,41739,2,0,L|139:105,1,95.9999970703126,2|0,3:2|0:0,0:0:0:0:
405,32,42083,6,0,L|333:109,1,95.9999970703126,0|0,3:2|0:0,0:0:0:0:
234,194,42428,2,0,L|162:271,1,95.9999970703126,2|0,3:2|0:0,0:0:0:0:
169,29,42773,5,2,3:2:0:0:
99,0,42946,1,0,3:2:0:0:
311,212,43118,5,0,3:2:0:0:
280,277,43290,1,0,3:2:0:0:
146,178,43463,5,2,3:2:0:0:
65,200,43635,1,0,3:2:0:0:
48,245,43721,1,0,3:2:0:0:
32,290,43808,2,0,L|10:351,1,47.9999985351563,0|0,3:2|3:2,0:0:0:0:
88,368,43980,2,0,P|109:356|82:337,1,47.9999985351563,0|0,3:2|3:2,0:0:0:0:
5,157,44152,6,0,B|166:201|54:226|192:278,1,180.000006866455,6|0,3:2|0:0,0:0:0:0:
179,158,44497,2,0,B|183:187|183:187|163:149,1,60.0000022888184,8|0,0:0|0:0,0:0:0:0:
104,109,44670,1,0,3:0:0:0:
199,74,44842,6,0,B|233:70|272:50|272:50|261:88|209:97,1,120.000004577637,10|2,0:1|0:0,0:0:0:0:
136,25,45101,1,0,3:0:0:0:
136,25,45187,2,0,P|252:79|313:126,1,180.000006866455,10|0,0:2|0:0,0:0:0:0:
352,18,45532,6,0,P|389:57|349:134,1,120.000004577637,0|2,3:0|0:0,0:0:0:0:
457,145,45877,1,10,0:0:0:0:
234,157,46049,1,0,3:0:0:0:
278,211,46221,6,0,B|325:200|371:187|371:187|350:211,1,120.000004577637,10|0,0:1|0:0,0:0:0:0:
388,266,46480,1,0,3:0:0:0:
389,273,46566,2,0,P|416:290|412:253,1,60.0000022888184,10|0,0:0|0:0,0:0:0:0:
480,221,46739,1,2,0:0:0:0:
489,361,46911,6,0,P|351:296|279:310,1,180.000006866455,0|0,3:0|0:0,0:0:0:0:
265,325,47256,2,0,P|270:356|304:347,1,60.0000022888184,8|0,0:0|0:0,0:0:0:0:
362,370,47428,1,0,3:0:0:0:
164,363,47601,6,0,B|156:294|156:294|160:289|160:289|152:233,1,120.000004577637,8|0,0:1|0:0,0:0:0:0:
144,193,47859,1,0,3:0:0:0:
136,201,47946,6,0,B|151:99|151:99|160:93|160:93|176:9,1,180.000006866455,8|0,0:0|0:0,0:0:0:0:
67,7,48290,2,0,P|37:59|84:78,1,120.000004577637,2|2,3:2|0:0,0:0:0:0:
219,151,48635,1,10,0:0:0:0:
62,198,48808,1,2,3:2:0:0:
280,295,48980,6,0,P|269:229|197:253,1,120.000004577637,10|0,0:1|0:0,0:0:0:0:
161,314,49239,1,2,3:2:0:0:
155,315,49325,2,0,B|128:289|128:289|189:321,1,60.0000022888184,8|2,0:0|0:0,0:0:0:0:
225,343,49497,1,0,0:0:0:0:
341,376,49670,6,0,B|368:268|445:344|452:221,1,180.000006866455,2|0,3:2|0:0,0:0:0:0:
378,161,50015,2,0,B|353:197|353:197|388:238,1,60.0000022888184,8|0,0:0|0:0,0:0:0:0:
371,220,50187,1,0,3:0:0:0:
512,138,50359,6,0,P|443:128|472:66,1,120.000004577637,10|2,0:1|0:0,0:0:0:0:
495,17,50618,1,0,3:0:0:0:
503,23,50704,2,0,B|511:32|525:56|525:56|409:12|359:39,1,180.000006866455,10|0,0:2|0:0,0:0:0:0:
305,109,51049,6,0,P|239:73|222:121,1,120.000004577637,0|2,3:0|0:0,0:0:0:0:
178,11,51394,1,10,0:0:0:0:
250,170,51566,1,0,3:0:0:0:
202,86,51739,6,0,P|166:128|119:100,1,120.000004577637,10|0,0:1|0:0,0:0:0:0:
59,46,51997,1,0,3:0:0:0:
61,36,52083,2,0,B|77:7|77:7|74:68,1,60.0000022888184,10|0,0:0|0:0,0:0:0:0:
4,94,52256,1,2,0:0:0:0:
54,153,52428,6,0,P|87:252|105:332,1,180.000006866455,0|0,3:0|0:0,0:0:0:0:
207,354,52773,2,0,P|181:340|189:297,1,60.0000022888184,10|0,0:0|0:0,0:0:0:0:
189,288,52946,1,2,3:2:0:0:
305,301,53118,2,0,P|359:289|390:349,1,120.000004577637,10|0,0:1|0:0,0:0:0:0:
363,369,53377,1,0,3:2:0:0:
363,369,53463,2,0,P|356:248|352:154,1,180.000006866455,10|0,0:0|0:0,0:0:0:0:
306,95,53808,6,0,B|252:119|252:119|247:129|247:129|172:157,1,120.000004577637,0|2,3:2|0:2,0:0:0:0:
253,37,54152,1,10,0:2:0:0:
240,214,54325,1,2,3:2:0:0:
126,159,54497,2,0,P|98:77|143:71,1,120.000004577637,10|2,0:1|0:0,0:0:0:0:
81,242,54756,1,0,3:2:0:0:
87,246,54842,2,0,P|79:281|40:291,1,60.0000022888184,10|0,0:0|0:0,0:0:0:0:
10,244,55015,1,0,0:0:0:0:
186,341,55187,6,0,P|334:328|402:324,1,180.000006866455,6|0,3:2|0:0,0:0:0:0:
276,277,55532,2,0,P|274:275|279:287,1,60.0000022888184,8|0,0:0|0:0,0:0:0:0:
270,297,55704,1,0,3:0:0:0:
450,266,55877,6,0,P|389:251|378:199,1,120.000004577637,10|2,0:1|0:0,0:0:0:0:
459,290,56135,1,0,3:0:0:0:
451,299,56221,2,0,P|524:251|462:142,1,180.000006866455,10|0,0:2|0:0,0:0:0:0:
469,77,56566,6,0,B|414:95|414:95|410:101|410:101|356:119,1,120.000004577637,0|0,3:0|0:0,0:0:0:0:
240,136,56911,1,10,0:0:0:0:
374,35,57083,1,0,3:0:0:0:
264,4,57256,6,0,P|273:145|274:157,1,120.000004577637,10|0,0:1|0:0,0:0:0:0:
205,157,57515,1,0,3:0:0:0:
205,157,57601,2,0,P|206:186|209:228,1,60.0000022888184,10|0,0:0|0:0,0:0:0:0:
214,296,57773,1,0,0:0:0:0:
103,255,57946,6,0,P|32:210|81:125,1,180.000006866455,2|0,3:2|0:0,0:0:0:0:
127,106,58290,2,0,P|120:70|78:82,1,60.0000022888184,10|0,0:0|0:0,0:0:0:0:
27,68,58463,1,2,3:2:0:0:
20,343,58635,6,0,P|112:328|174:317,1,120.000004577637,10|0,0:1|0:0,0:0:0:0:
167,308,58894,1,0,3:0:0:0:
167,308,58980,2,0,P|258:323|349:338,1,180.000006866455,8|0,0:0|0:0,0:0:0:0:
473,284,59325,2,0,B|475:266|499:255|499:255|444:259|451:323,1,120.000004577637,0|2,3:2|0:0,0:0:0:0:
467,378,59670,1,10,0:0:0:0:
352,240,59842,1,2,3:2:0:0:
433,94,60015,6,0,P|474:138|400:157,1,120.000004577637,10|0,0:1|0:0,0:0:0:0:
360,139,60273,1,0,3:2:0:0:
358,129,60359,2,0,P|353:83|347:20,1,60.0000022888184,10|0,0:0|0:0,0:0:0:0:
291,22,60532,1,0,0:0:0:0:
72,23,60704,6,0,B|194:74|194:74|196:83|196:83|231:97,1,180.000006866455,2|0,3:2|0:0,0:0:0:0:
113,168,61049,2,0,B|112:181|112:181|140:131,1,60.0000022888184,8|0,0:0|0:0,0:0:0:0:
69,103,61221,1,0,3:0:0:0:
228,200,61394,6,0,P|172:256|191:295,1,120.000004577637,10|2,0:1|0:0,0:0:0:0:
143,362,61652,1,0,3:0:0:0:
136,359,61739,2,0,B|89:230|42:359|7:201,1,180.000006866455,10|0,0:2|0:0,0:0:0:0:
226,364,62083,6,0,L|366:340,1,120.000004577637,0|2,3:0|0:0,0:0:0:0:
422,349,62342,1,0,0:0:0:0:
429,341,62428,2,0,P|361:304|386:262,1,120.000004577637,10|0,0:0|3:0,0:0:0:0:
484,231,62687,1,0,3:0:0:0:
488,236,62773,6,0,B|456:301|518:294|501:358,1,120.000004577637,10|0,0:1|0:0,0:0:0:0:
381,273,63032,1,0,3:0:0:0:
389,269,63118,2,0,P|387:220|346:229,1,60.0000022888184,10|0,0:0|0:0,0:0:0:0:
313,200,63290,1,2,0:0:0:0:
418,88,63463,6,0,P|424:142|313:168,1,180.000006866455,0|0,3:0|0:0,0:0:0:0:
294,108,63808,2,0,P|294:93|288:6,1,60.0000022888184,10|0,0:0|0:0,0:0:0:0:
231,13,63980,1,0,3:2:0:0:
51,84,64152,6,0,B|128:100|81:137|186:163,1,120.000004577637,8|0,0:1|0:0,0:0:0:0:
143,239,64411,1,0,3:2:0:0:
150,231,64497,2,0,B|73:247|120:284|15:310,1,120.000004577637,10|2,0:0|0:2,0:0:0:0:
13,187,64842,1,2,0:2:0:0:
306,347,66221,6,0,P|342:293|417:293,1,120.000004577637,4|0,3:2|0:0,0:0:0:0:
456,337,66739,1,0,3:0:0:0:
456,337,66911,2,0,B|316:352|372:246|204:295,1,240.000009155274,10|2,0:0|0:0,0:0:0:0:
136,345,67773,1,0,3:0:0:0:
136,345,67946,2,0,P|99:340|98:305,1,60.0000022888184,0|2,3:0|0:0,0:0:0:0:
39,240,68290,2,0,P|28:305|17:386,1,120.000004577637,10|2,0:0|0:0,0:0:0:0:
23,74,68980,6,0,P|95:47|148:45,1,120.000004577637,2|0,3:2|0:0,0:0:0:0:
216,4,69497,1,0,3:0:0:0:
216,4,69670,2,0,P|332:53|457:66,1,240.000009155274,10|2,0:0|0:0,0:0:0:0:
489,6,70532,1,0,3:0:0:0:
489,6,70704,2,0,P|438:22|417:41,1,60.0000022888184,0|2,3:0|0:0,0:0:0:0:
354,78,71049,2,0,P|300:108|232:107,1,120.000004577637,10|2,0:0|0:0,0:0:0:0:
29,287,71739,6,0,P|31:238|100:223,1,120.000004577637,2|0,3:2|0:0,0:0:0:0:
181,264,72256,1,0,3:0:0:0:
129,304,72428,2,0,P|129:244|131:48,1,240.000009155274,10|2,0:0|0:0,0:0:0:0:
235,76,73290,1,0,3:0:0:0:
235,76,73463,2,0,P|261:38|300:33,1,60.0000022888184,2|2,3:0|0:0,0:0:0:0:
380,89,73808,2,0,B|394:105|389:127|389:127|341:96|293:90,1,120.000004577637,10|2,0:0|0:3,0:0:0:0:
302,338,74497,6,0,P|343:292|422:271,1,120.000004577637,2|0,3:2|0:0,0:0:0:0:
421,340,75015,1,2,3:2:0:0:
428,343,75187,2,0,P|385:350|379:199,1,240.000009155274,10|2,0:0|0:0,0:0:0:0:
251,162,76049,6,0,P|243:203|237:246,1,60.0000022888184,0|0,3:0|0:0,0:0:0:0:
159,102,76394,1,2,3:2:0:0:
125,171,76566,2,0,P|153:274|157:292,1,120.000004577637,10|2,0:0|0:0,0:0:0:0:
24,92,77256,6,0,P|35:37|110:30,1,120.000004577637,2|0,3:2|0:0,0:0:0:0:
159,102,77773,1,0,3:0:0:0:
159,102,77946,2,0,P|211:154|351:92,1,240.000009155274,10|2,0:0|0:0,0:0:0:0:
450,44,78808,1,0,3:0:0:0:
442,39,78980,2,0,P|433:102|435:115,1,60.0000022888184,0|0,3:0|0:0,0:0:0:0:
343,83,79325,2,0,P|275:110|254:167,1,120.000004577637,10|0,0:0|0:0,0:0:0:0:
21,349,80015,6,0,P|29:307|84:239,1,120.000004577637,2|2,3:2|0:0,0:0:0:0:
149,169,80532,1,0,3:0:0:0:
144,174,80704,2,0,P|86:161|158:66,1,240.000009155274,8|2,0:0|0:0,0:0:0:0:
180,238,81566,1,0,3:0:0:0:
182,244,81739,2,0,P|156:277|149:314,1,60.0000022888184,0|0,3:0|0:0,0:0:0:0:
199,351,82083,1,10,0:0:0:0:
389,313,82773,6,0,B|417:230|417:230|420:234|420:234|456:209,2,120,2|0|0,3:2|0:0|3:0,0:0:0:0:
499,364,83463,6,0,B|472:287|472:287|361:288|361:288|306:157,1,320,10|0,0:0|0:0,0:0:0:0:
370,64,84325,2,0,P|368:89|366:103,2,40,0|2|0,0:0|0:3|0:0,0:0:0:0:
301,24,84583,1,2,0:3:0:0:
301,24,84670,2,0,P|299:49|297:63,1,40,2|2,0:3|0:3,0:0:0:0:
466,134,84842,6,0,P|308:104|159:76,1,280,10|0,0:0|0:0,0:0:0:0:
5,30,85532,6,0,P|57:17|61:108,1,160,2|2,3:2|0:0,0:0:0:0:
19,146,86049,1,0,3:0:0:0:
98,113,86221,2,0,P|39:176|149:351,1,320,8|2,0:0|0:0,0:0:0:0:
294,28,87601,5,8,0:3:0:0:
290,68,87687,1,8,0:3:0:0:
286,108,87773,2,0,L|280:183,1,40,8|8,0:3|0:3,0:0:0:0:
379,166,87946,1,4,0:3:0:0:
375,160,88032,1,4,0:3:0:0:
371,151,88118,2,0,L|423:142,1,40,4|4,0:3|0:3,0:0:0:0:
477,182,88290,6,0,B|252:147,1,180.000006866455,6|0,3:2|0:0,0:0:0:0:
402,38,88635,2,0,B|416:26|416:26|387:91,1,60.0000022888184,8|0,0:0|0:0,0:0:0:0:
387,70,88808,1,0,3:0:0:0:
198,83,88980,6,0,P|225:69|199:102,1,120.000004577637,10|2,0:1|0:0,0:0:0:0:
185,5,89239,1,0,3:0:0:0:
185,5,89325,2,0,P|193:92|203:227,1,180.000006866455,10|0,0:2|0:0,0:0:0:0:
70,226,89670,6,0,P|152:256|201:278,1,120.000004577637,0|2,3:0|0:0,0:0:0:0:
108,374,90015,1,10,0:0:0:0:
11,281,90187,1,0,3:0:0:0:
63,129,90359,6,0,B|49:141|29:136|29:136|75:168|126:94,1,120.000004577637,10|0,0:1|0:0,0:0:0:0:
154,9,90618,1,0,3:0:0:0:
155,16,90704,2,0,L|174:109,1,60.0000022888184,10|0,0:0|0:0,0:0:0:0:
82,47,90877,1,2,0:0:0:0:
236,162,91049,6,0,P|311:154|360:245,1,180.000006866455,0|0,3:0|0:0,0:0:0:0:
414,313,91394,2,0,P|345:288|347:264,1,60.0000022888184,8|0,0:0|0:0,0:0:0:0:
295,269,91566,1,0,3:0:0:0:
455,208,91739,6,0,B|482:177|482:177|467:207|446:281,1,120.000004577637,8|0,0:1|0:0,0:0:0:0:
492,344,91997,1,0,3:0:0:0:
498,338,92083,2,0,P|494:277|482:147,1,180.000006866455,8|0,0:0|0:0,0:0:0:0:
489,28,92428,2,0,P|457:88|398:39,1,120.000004577637,2|2,3:2|0:0,0:0:0:0:
343,6,92773,1,10,0:0:0:0:
317,146,92946,1,2,3:2:0:0:
406,74,93118,6,0,P|310:74|240:87,1,120.000004577637,10|0,0:1|0:0,0:0:0:0:
190,56,93377,1,2,3:2:0:0:
187,63,93463,2,0,P|107:77|100:77,1,60.0000022888184,8|2,0:0|0:0,0:0:0:0:
67,38,93635,1,0,0:0:0:0:
1,251,93808,6,0,P|42:182|140:213,1,180.000006866455,2|0,3:2|0:0,0:0:0:0:
99,294,94152,2,0,P|73:282|92:252,1,60.0000022888184,8|0,0:0|0:0,0:0:0:0:
95,260,94325,1,0,3:0:0:0:
190,312,94497,6,0,P|202:203|209:144,1,120.000004577637,10|2,0:1|0:0,0:0:0:0:
229,196,94756,1,0,3:0:0:0:
229,196,94842,2,0,P|219:101|307:92,1,180.000006866455,10|0,0:2|0:0,0:0:0:0:
428,23,95187,2,0,B|392:73|392:73|325:31,1,120.000004577637,0|2,3:0|0:0,0:0:0:0:
264,11,95532,1,10,0:0:0:0:
287,155,95704,1,0,3:0:0:0:
462,200,95877,6,0,B|412:168|412:168|376:218,1,120.000004577637,10|0,0:1|0:0,0:0:0:0:
343,294,96135,1,0,3:0:0:0:
338,285,96221,2,0,P|310:282|277:274,1,60.0000022888184,10|0,0:0|0:0,0:0:0:0:
224,318,96394,1,2,0:0:0:0:
103,355,96566,6,0,P|95:261|87:126,1,180.000006866455,0|0,3:0|0:0,0:0:0:0:
183,139,96911,2,0,P|195:162|149:198,1,60.0000022888184,10|0,0:0|0:0,0:0:0:0:
165,198,97083,1,2,3:2:0:0:
46,84,97256,6,0,P|104:95|154:43,1,120.000004577637,10|0,0:1|0:0,0:0:0:0:
297,30,97515,1,0,3:2:0:0:
292,23,97601,2,0,B|266:0|239:6|239:6|282:62|299:158,1,180.000006866455,10|0,0:0|0:0,0:0:0:0:
433,207,97946,2,0,P|372:272|387:306,1,120.000004577637,0|2,3:2|0:2,0:0:0:0:
482,330,98290,1,10,0:2:0:0:
442,198,98463,1,2,3:2:0:0:
321,370,98635,6,0,P|265:284|208:296,1,120.000004577637,10|6,0:1|0:0,0:0:0:0:
183,281,98894,1,0,3:2:0:0:
185,291,98980,2,0,P|195:364|198:381,1,60.0000022888184,10|0,0:0|0:0,0:0:0:0:
232,212,99152,1,4,0:0:0:0:
89,318,99325,6,0,P|32:288|112:198,1,180.000006866455,6|0,3:2|0:0,0:0:0:0:
111,127,99670,2,0,P|62:121|17:123,1,60.0000022888184,8|0,0:0|0:0,0:0:0:0:
24,54,99842,1,0,3:0:0:0:
212,100,100015,6,0,P|246:34|322:36,1,120.000004577637,10|2,0:1|0:0,0:0:0:0:
367,14,100273,1,0,3:0:0:0:
367,14,100359,2,0,B|361:70|361:70|357:74|357:74|342:203,1,180.000006866455,10|0,0:2|0:0,0:0:0:0:
357,265,100704,2,0,P|384:199|450:210,1,120.000004577637,0|0,3:0|0:0,0:0:0:0:
466,258,101049,1,10,0:0:0:0:
310,324,101221,1,0,3:0:0:0:
491,140,101394,6,0,P|480:189|457:304,1,120.000004577637,10|0,0:1|0:0,0:0:0:0:
379,351,101652,1,0,3:0:0:0:
375,344,101739,2,0,L|299:332,1,60.0000022888184,10|0,0:0|0:0,0:0:0:0:
235,318,101911,1,0,0:0:0:0:
126,344,102083,6,0,P|68:313|117:192,1,180.000006866455,2|0,3:2|0:0,0:0:0:0:
155,192,102428,2,0,P|144:258|134:292,1,60.0000022888184,10|0,0:0|0:0,0:0:0:0:
142,258,102601,1,2,3:2:0:0:
33,127,102773,6,0,B|92:117|92:117|96:114|96:114|151:106,1,120.000004577637,10|0,0:1|0:0,0:0:0:0:
158,74,103032,1,0,3:0:0:0:
165,71,103118,2,0,B|276:90|276:90|281:87|281:87|376:104,1,180.000006866455,8|0,0:0|0:0,0:0:0:0:
412,73,103463,2,0,P|414:35|339:39,1,120.000004577637,0|2,3:2|0:0,0:0:0:0:
395,177,103808,1,10,0:0:0:0:
512,100,103980,1,2,3:2:0:0:
312,166,104152,6,0,L|330:296,1,120.000004577637,10|0,0:1|0:0,0:0:0:0:
258,343,104411,1,0,3:2:0:0:
252,348,104497,2,0,P|204:310|209:280,1,60.0000022888184,10|0,0:0|0:0,0:0:0:0:
248,253,104670,1,0,0:0:0:0:
423,384,104842,6,0,P|263:338|213:327,1,180.000006866455,2|0,3:2|0:0,0:0:0:0:
328,284,105187,2,0,P|392:261|395:237,1,60.0000022888184,8|0,0:0|0:0,0:0:0:0:
385,203,105359,1,0,3:0:0:0:
478,59,105532,6,0,P|482:118|396:123,1,120.000004577637,10|2,0:1|0:0,0:0:0:0:
402,127,105790,1,0,3:0:0:0:
402,127,105877,2,0,P|274:106|214:102,1,180.000006866455,10|0,0:2|0:0,0:0:0:0:
117,21,106221,6,0,P|86:101|138:121,1,120.000004577637,0|2,3:0|0:0,0:0:0:0:
190,175,106480,1,0,0:0:0:0:
184,169,106566,2,0,B|125:147|136:211|34:200,1,120.000004577637,10|0,0:0|3:0,0:0:0:0:
0,274,106825,1,0,3:0:0:0:
1,262,106911,6,0,P|57:277|42:340,1,120.000004577637,10|0,0:1|0:0,0:0:0:0:
181,365,107170,1,0,3:0:0:0:
175,368,107256,2,0,P|130:310|143:289,1,60.0000022888184,10|0,0:0|0:0,0:0:0:0:
140,265,107428,1,2,0:0:0:0:
279,373,107601,6,0,P|345:313|449:298,1,180.000006866455,0|0,3:0|0:0,0:0:0:0:
479,239,107946,2,0,P|449:165|448:146,1,60.0000022888184,10|0,0:0|0:0,0:0:0:0:
385,222,108118,1,0,3:2:0:0:
479,41,108290,6,0,P|407:77|343:117,1,120.000004577637,8|0,0:1|0:0,0:0:0:0:
333,91,108549,1,0,3:2:0:0:
333,91,108635,2,0,P|261:127|197:167,1,120.000004577637,10|2,0:0|0:2,0:0:0:0:
141,144,108980,1,2,0:2:0:0:
256,192,117256,12,2,125532,0:0:0:0:
475,109,126221,6,0,B|380:107|430:216|304:234,1,180.000006866455,6|0,3:2|0:0,0:0:0:0:
293,150,126565,2,0,P|307:133|302:147,1,60.0000022888184,8|0,0:0|0:0,0:0:0:0:
313,150,126738,1,0,3:0:0:0:
407,316,126910,6,0,P|268:287|242:280,1,120.000004577637,10|2,0:1|0:0,0:0:0:0:
272,328,127169,1,0,3:0:0:0:
272,328,127255,2,0,P|161:348|152:275,1,180.000006866455,10|0,0:2|0:0,0:0:0:0:
166,217,127600,2,0,B|182:225|187:240|187:240|138:214|86:258,1,120.000004577637,0|2,3:0|0:0,0:0:0:0:
73,318,127945,1,10,0:0:0:0:
255,223,128117,1,0,3:0:0:0:
26,253,128289,6,0,P|26:160|72:158,1,120.000004577637,10|0,0:1|0:0,0:0:0:0:
110,133,128548,1,0,3:0:0:0:
105,145,128634,2,0,P|76:154|49:132,1,60.0000022888184,10|0,0:0|0:0,0:0:0:0:
19,72,128807,1,2,0:0:0:0:
154,51,128979,6,0,P|248:47|351:40,1,180.000006866455,0|0,3:0|0:0,0:0:0:0:
420,1,129324,2,0,P|407:64|403:98,1,60.0000022888184,8|0,0:0|0:0,0:0:0:0:
350,115,129496,1,0,3:0:0:0:
512,151,129669,6,0,P|481:120|415:169,1,120.000004577637,8|0,0:1|0:0,0:0:0:0:
420,192,129927,1,0,3:0:0:0:
420,192,130014,2,0,P|320:197|240:207,1,180.000006866455,8|0,0:0|0:0,0:0:0:0:
198,305,130358,2,0,P|230:335|238:265,1,120.000004577637,2|2,3:2|0:0,0:0:0:0:
131,283,130703,1,10,0:0:0:0:
329,339,130876,1,2,3:2:0:0:
132,210,131048,6,0,P|72:203|76:106,1,120.000004577637,10|0,0:1|0:0,0:0:0:0:
73,123,131307,1,2,3:2:0:0:
78,132,131393,2,0,P|113:137|163:92,1,60.0000022888184,8|2,0:0|0:0,0:0:0:0:
183,68,131565,1,0,0:0:0:0:
61,47,131738,6,0,P|53:108|33:268,1,180.000006866455,2|0,3:2|0:0,0:0:0:0:
3,351,132083,2,0,P|52:314|97:326,1,60.0000022888184,8|0,0:0|0:0,0:0:0:0:
107,354,132255,1,0,3:0:0:0:
268,384,132427,6,0,B|286:333|286:333|285:328|285:328|309:243,1,120.000004577637,10|2,0:1|0:0,0:0:0:0:
267,255,132686,1,0,3:0:0:0:
267,255,132772,2,0,B|255:192|255:192|261:186|261:186|232:51,1,180.000006866455,10|0,0:2|0:0,0:0:0:0:
269,10,133117,6,0,P|331:15|316:70,1,120.000004577637,0|2,3:0|0:0,0:0:0:0:
340,147,133462,1,10,0:0:0:0:
204,19,133634,1,0,3:0:0:0:
346,155,133807,6,0,P|418:137|477:128,1,120.000004577637,10|0,0:1|0:0,0:0:0:0:
505,217,134065,1,0,3:0:0:0:
508,225,134152,2,0,P|447:244|439:220,1,60.0000022888184,10|0,0:0|0:0,0:0:0:0:
404,222,134324,1,2,0:0:0:0:
431,68,134496,6,0,P|411:139|378:289,1,180.000006866455,0|0,3:0|0:0,0:0:0:0:
391,325,134841,2,0,P|331:268|333:261,1,60.0000022888184,10|0,0:0|0:0,0:0:0:0:
305,240,135014,1,2,3:2:0:0:
236,353,135186,2,0,P|197:283|138:285,1,120.000004577637,10|0,0:1|0:0,0:0:0:0:
126,314,135445,1,0,3:2:0:0:
126,314,135531,2,0,P|113:210|101:98,1,180.000006866455,10|0,0:0|0:0,0:0:0:0:
34,43,135876,6,0,B|101:50|101:50|104:54|104:54|158:59,1,120.000004577637,0|2,3:2|0:2,0:0:0:0:
217,32,136221,1,10,0:2:0:0:
25,117,136393,1,2,3:2:0:0:
222,164,136565,2,0,P|288:120|283:54,1,120.000004577637,10|6,0:1|0:0,0:0:0:0:
354,8,136824,1,0,3:2:0:0:
356,15,136910,2,0,P|361:44|366:74,1,60.0000022888184,10|0,0:0|0:0,0:0:0:0:
434,181,137083,2,0,P|474:124|489:100,1,60.0000022888184,4|0,0:0|0:0,0:0:0:0:
221,53,137255,6,0,P|275:136|318:221,1,180.000006866455,6|0,3:2|0:0,0:0:0:0:
344,286,137600,2,0,P|365:296|349:280,1,60.0000022888184,8|0,0:0|0:0,0:0:0:0:
260,271,137772,1,0,3:0:0:0:
416,217,137945,6,0,P|463:252|426:298,1,120.000004577637,10|2,0:1|0:0,0:0:0:0:
372,159,138203,1,0,3:0:0:0:
365,150,138289,2,0,P|395:92|489:157,1,180.000006866455,10|0,0:2|0:0,0:0:0:0:
212,196,138634,2,0,P|159:233|116:156,1,120.000004577637,0|0,3:0|0:0,0:0:0:0:
106,135,138979,1,10,0:0:0:0:
164,311,139152,1,0,3:0:0:0:
182,123,139324,6,0,P|199:56|141:35,1,120.000004577637,10|0,0:1|0:0,0:0:0:0:
154,10,139583,1,0,3:0:0:0:
154,10,139669,2,0,P|68:40|43:41,1,60.0000022888184,10|0,0:0|0:0,0:0:0:0:
27,12,139841,1,0,0:0:0:0:
25,214,140014,6,0,P|112:224|156:346,1,180.000006866455,2|0,3:2|0:0,0:0:0:0:
51,358,140358,2,0,P|63:290|74:256,1,60.0000022888184,10|0,0:0|0:0,0:0:0:0:
72,289,140531,1,2,3:2:0:0:
204,370,140703,2,0,P|253:316|321:301,1,120.000004577637,10|0,0:1|0:0,0:0:0:0:
320,312,140962,1,0,3:0:0:0:
308,296,141048,2,0,P|332:227|448:186,1,180.000006866455,8|0,0:0|0:0,0:0:0:0:
485,139,141393,6,0,P|443:67|373:71,1,120.000004577637,0|2,3:2|0:0,0:0:0:0:
348,108,141738,1,10,0:0:0:0:
460,255,141910,1,2,3:2:0:0:
339,99,142083,2,0,P|303:166|248:150,1,120.000004577637,10|0,0:1|0:0,0:0:0:0:
214,120,142341,1,0,3:2:0:0:
213,111,142427,2,0,P|212:26|213:10,1,60.0000022888184,10|0,0:0|0:0,0:0:0:0:
267,10,142600,1,0,0:0:0:0:
11,105,142772,6,0,B|127:136|69:192|167:235,1,180.000006866455,2|0,3:2|0:0,0:0:0:0:
102,125,143117,2,0,P|121:94|82:100,1,60.0000022888184,8|0,0:0|0:0,0:0:0:0:
93,82,143289,1,0,3:0:0:0:
0,246,143462,2,0,P|59:271|41:345,1,120.000004577637,10|2,0:1|0:0,0:0:0:0:
52,347,143721,1,0,3:0:0:0:
52,347,143807,2,0,L|279:311,1,180.000006866455,10|0,0:2|0:0,0:0:0:0:
322,333,144152,6,0,B|348:274|348:274|305:196,1,120.000004577637,0|2,3:0|0:0,0:0:0:0:
218,219,144496,1,10,0:0:0:0:
254,384,144669,1,0,3:0:0:0:
415,246,144841,6,0,B|389:187|389:187|432:109,1,120.000004577637,10|0,0:1|0:0,0:0:0:0:
488,114,145100,1,0,3:0:0:0:
488,114,145186,2,0,B|496:136|496:136|461:195,1,60.0000022888184,10|0,0:0|0:0,0:0:0:0:
423,65,145358,1,2,0:0:0:0:
512,4,145531,6,0,P|387:38|301:66,1,180.000006866455,0|0,3:0|0:0,0:0:0:0:
268,93,145876,2,0,P|245:84|268:47,1,60.0000022888184,10|0,0:0|0:0,0:0:0:0:
293,0,146048,1,0,3:2:0:0:
110,12,146221,6,0,B|135:113|135:113|138:114|138:114|155:172,1,120.000004577637,8|0,0:1|0:0,0:0:0:0:
160,156,146479,1,0,3:2:0:0:
160,156,146565,2,0,B|135:257|135:257|132:258|132:258|115:316,1,120.000004577637,10|2,0:0|0:2,0:0:0:0:
50,288,146910,6,0,P|33:255|34:225,1,40,2|0,0:2|0:0,0:0:0:0:
106,354,147083,1,2,0:2:0:0:
112,358,147169,1,0,0:0:0:0:
118,361,147255,2,0,L|184:341,1,40,10|0,0:2|0:0,0:0:0:0:
228,320,147427,1,2,0:2:0:0:
228,320,147514,1,0,0:0:0:0:
228,320,147600,6,0,L|237:358,3,40,2|0|2|0,3:2|0:0|0:2|0:0,0:0:0:0:
313,274,147945,2,0,L|322:235,3,40,2|0|0|0,3:2|0:0|0:0|0:0,0:0:0:0:
377,328,148289,6,0,P|444:331|457:228,1,160,4|2,3:2|0:0,0:0:0:0:
486,154,148807,1,2,3:2:0:0:
486,154,148979,2,0,P|359:179|240:205,1,240,10|2,0:0|0:0,0:0:0:0:
279,111,149669,1,0,0:0:0:0:
279,111,149841,1,2,3:2:0:0:
372,78,150014,2,0,P|362:105|344:166,1,80,2|2,3:2|0:0,0:0:0:0:
293,15,150358,6,0,P|248:65|163:130,1,160,10|2,0:0|0:0,0:0:0:0:
92,106,150876,1,2,0:0:0:0:
50,23,151048,6,0,P|77:159|86:215,1,160,2|2,3:2|0:0,0:0:0:0:
34,335,151565,1,2,3:2:0:0:
6,269,151738,2,0,P|66:237|188:356,1,240,10|2,0:0|0:0,0:0:0:0:
279,347,152427,1,2,0:0:0:0:
279,347,152600,1,2,3:2:0:0:
331,277,152772,2,0,P|321:236|306:168,1,80,2|2,0:0|3:2,0:0:0:0:
352,73,153117,6,0,B|409:94|409:94|416:91|416:91|465:110,2,120,10|0|0,0:0|0:0|0:0,0:0:0:0:
497,36,153807,6,0,L|331:87,1,160,4|2,3:2|0:0,0:0:0:0:
259,44,154324,1,2,3:2:0:0:
184,62,154496,2,0,B|197:35|189:-4|189:-4|234:55|251:173,1,240,10|2,0:0|0:0,0:0:0:0:
197,237,155186,1,0,0:0:0:0:
197,237,155358,1,2,3:2:0:0:
127,194,155531,2,0,P|87:145|103:124,1,80,2|2,3:2|0:0,0:0:0:0:
23,300,155876,6,0,P|120:280|141:349,1,160,10|2,0:0|0:0,0:0:0:0:
241,368,156393,1,2,0:0:0:0:
355,332,156565,6,0,P|458:333|467:273,1,160,2|2,3:2|0:0,0:0:0:0:
505,221,157083,1,2,3:2:0:0:
434,193,157255,2,0,P|399:127|509:15,1,240,10|2,0:0|0:0,0:0:0:0:
355,65,157945,1,2,0:0:0:0:
355,65,158117,1,2,0:0:0:0:
286,107,158289,2,0,P|228:102|184:104,1,80,2|2,0:0|0:0,0:0:0:0:
54,70,158634,6,0,B|80:144|107:90|135:183,2,120,2|0|0,0:0|0:0|0:0,0:0:0:0:
116,10,159410,1,0,0:0:0:0:
