osu file format v14

[General]
AudioFilename: audio.mp3
AudioLeadIn: 0
PreviewTime: 125532
Countdown: 0
SampleSet: Soft
StackLeniency: 0.5
Mode: 0
LetterboxInBreaks: 0
EpilepsyWarning: 1
WidescreenStoryboard: 1

[Editor]
DistanceSpacing: 0.2
BeatDivisor: 4
GridSize: 32
TimelineZoom: 2.999999

[Metadata]
Title:Eternity (C3EYOND Remix)
TitleUnicode:Eternity (C3EYOND Remix)
Artist:Rachel Taylor
ArtistUnicode:Rachel Taylor
Creator:Alumetri
Version:Toxic Expert
Source:
Tags:english electronic come alive dnb drum and bass PantyDev Daycore 0ppInOsu smozit nuvolina gordon123
BeatmapID:3109786
BeatmapSetID:1519259

[Difficulty]
HPDrainRate:4.4
CircleSize:4
OverallDifficulty:9
ApproachRate:9.2
SliderMultiplier:1.73
SliderTickRate:1

[Events]
//Background and Video events
0,0,"bg.jpg",0,0
//Break Periods
2,66421,82203
2,110559,116686
//Storyboard Layer 0 (Background)
//Storyboard Layer 1 (Fail)
//Storyboard Layer 2 (Pass)
//Storyboard Layer 3 (Foreground)
Sprite,Foreground,Centre,"sb\kiai\circle2.png",0,0 C,0,148289,,255,128,192 M,0,148289,148332,335,305,341.094,278.8129 F,2,148289,148575,1,0 S,2,148289,148575,5,1 P,0,148289,148575,A M,0,148332,148375,341.094,278.8129,354.8454,255.7097
Sprite,Foreground,Centre,"sb\kiai\circle2.png",0,0 C,0,148462,,255,128,192 M,0,148462,148505,445,348,425.1204,329.8995 F,2,148462,148748,1,0 S,2,148462,148748,5,1 P,0,148462,148748,A M,0,148505,148548,425.1204,329.8995,411.8973,306.4931
Sprite,Foreground,Centre,"sb\kiai\circle2.png",0,0 C,0,148634,,255,128,192 M,0,148634,148677,537,274,511.0554,281.1586 F,2,148634,148920,1,0 S,2,148634,148920,5,1 P,0,148634,148920,A M,0,148677,148720,511.0554,281.1586,484.1441,280.8632
Sprite,Foreground,Centre,"sb\kiai\circle2.png",0,0 C,0,148807,,255,128,192 M,0,148807,148850,518,157,511.906,183.1871 F,2,148807,149093,1,0 S,2,148807,149093,5,1 P,0,148807,149093,A M,0,148850,148893,511.906,183.1871,498.1546,206.2903
Sprite,Foreground,Centre,"sb\kiai\circle2.png",377,416 C,0,148979,,255,164,119 F,2,148979,149179,1,0 S,2,148979,149179,5,1 P,0,148979,149179,A
Sprite,Foreground,Centre,"sb\kiai\circle2.png",0,0 C,0,149152,,255,164,119 M,0,149152,149195,231,164,205.0406,156.4634 F,2,149152,149438,1,0 S,2,149152,149438,5,1 P,0,149152,149438,A M,0,149195,149238,205.0406,156.4634,179.0813,148.9268
Sprite,Foreground,Centre,"sb\kiai\circle2.png",0,0 C,0,149324,,255,164,119 M,0,149324,149367,231,331,250.3229,312.0972 F,2,149324,149610,1,0 S,2,149324,149610,5,1 P,0,149324,149610,A M,0,149367,149410,250.3229,312.0972,269.6457,293.1944
Sprite,Foreground,Centre,"sb\kiai\circle2.png",0,0 C,0,149496,,255,164,119 M,0,149496,149539,86,247,92.35643,273.2733 F,2,149496,149782,1,0 S,2,149496,149782,5,1 P,0,149496,149782,A M,0,149539,149582,92.35643,273.2733,98.71287,299.5465
Sprite,Foreground,Centre,"sb\kiai\circle2.png",0,0 C,0,149669,,128,255,128 M,0,149669,149712,184,136,209.9328,143.6273 F,2,149669,149955,1,0 S,2,149669,149955,5,1 P,0,149669,149955,A M,0,149712,149755,209.9328,143.6273,235,151
Sprite,Foreground,Centre,"sb\kiai\circle2.png",0,0 C,0,149841,,128,255,128 M,0,149841,149884,315,193,340.7918,184.9085 F,2,149841,150127,1,0 S,2,149841,150127,5,1 P,0,149841,150127,A M,0,149884,149927,340.7918,184.9085,366,177
Sprite,Foreground,Centre,"sb\kiai\circle2.png",0,0 C,0,150014,,128,255,128 M,0,150014,150057,446,136,471.9329,143.6273 F,2,150014,150300,1,0 S,2,150014,150300,5,1 P,0,150014,150300,A M,0,150057,150100,471.9329,143.6273,497,151
Sprite,Foreground,Centre,"sb\kiai\circle2.png",0,0 C,0,150186,,128,255,128 M,0,150186,150229,231,164,205.0672,156.3727 F,2,150186,150472,1,0 S,2,150186,150472,5,1 P,0,150186,150472,A M,0,150229,150272,205.0672,156.3727,180,149
Sprite,Foreground,Centre,"sb\kiai\circle2.png",341,56 C,0,150358,,128,255,128 F,2,150358,150558,1,0 S,2,150358,150558,5,1 P,0,150358,150558,A
Sprite,Foreground,Centre,"sb\kiai\circle2.png",0,0 C,0,150531,,128,255,255 M,0,150531,150574,427,355,400.3911,355.7632 F,2,150531,150817,1,0 S,2,150531,150817,5,1 P,0,150531,150817,A M,0,150574,150617,400.3911,355.7632,377.2307,342.6563
Sprite,Foreground,Centre,"sb\kiai\circle2.png",0,0 C,0,150703,,128,255,255 M,0,150703,150746,315,389,301.0272,366.2792 F,2,150703,150989,1,0 S,2,150703,150989,5,1 P,0,150703,150989,A M,0,150746,150789,301.0272,366.2792,300.1119,339.6289
Sprite,Foreground,Centre,"sb\kiai\circle2.png",0,0 C,0,150876,,128,255,255 M,0,150876,150919,229,309,241.7083,285.5768 F,2,150876,151162,1,0 S,2,150876,151162,5,1 P,0,150876,151162,A M,0,150919,150962,241.7083,285.5768,264.3324,271.5074
Sprite,Foreground,Centre,"sb\kiai\circle2.png",0,0 C,0,151048,,255,128,192 M,0,151048,151091,493,308,505.6804,331.4815 F,2,151048,151334,1,0 S,2,151048,151334,5,1 P,0,151048,151334,A M,0,151091,151134,505.6804,331.4815,505.7107,358.1619
Sprite,Foreground,Centre,"sb\kiai\circle2.png",0,0 C,0,151221,,255,128,192 M,0,151221,151264,491,230,517.6068,230.1349 F,2,151221,151507,1,0 S,2,151221,151507,5,1 P,0,151221,151507,A M,0,151264,151307,517.6068,230.1349,540.3707,243.8983
Sprite,Foreground,Centre,"sb\kiai\circle2.png",0,0 C,0,151393,,255,128,192 M,0,151393,151436,422,192,435.3518,168.9305 F,2,151393,151679,1,0 S,2,151393,151679,5,1 P,0,151393,151679,A M,0,151436,151479,435.3518,168.9305,458.3029,155.3887
Sprite,Foreground,Centre,"sb\kiai\circle2.png",0,0 C,0,151565,,255,128,192 M,0,151565,151608,354,232,341.3196,208.5185 F,2,151565,151851,1,0 S,2,151565,151851,5,1 P,0,151565,151851,A M,0,151608,151651,341.3196,208.5185,341.2893,181.8381
Sprite,Foreground,Centre,"sb\kiai\circle2.png",519,102 C,0,151738,,255,128,192 F,2,151738,151938,1,0 S,2,151738,151938,5,1 P,0,151738,151938,A
Sprite,Foreground,Centre,"sb\kiai\circle2.png",0,0 C,0,151910,,255,164,119 M,0,151910,151953,368,314,341.4341,316.702 F,2,151910,152196,1,0 S,2,151910,152196,5,1 P,0,151910,152196,A M,0,151953,151996,341.4341,316.702,317.2491,305.3834
Sprite,Foreground,Centre,"sb\kiai\circle2.png",0,0 C,0,152083,,255,164,119 M,0,152083,152126,262,249,235.4341,246.298 F,2,152083,152369,1,0 S,2,152083,152369,5,1 P,0,152083,152369,A M,0,152126,152169,235.4341,246.298,211.2491,257.6166
Sprite,Foreground,Centre,"sb\kiai\circle2.png",0,0 C,0,152255,,255,164,119 M,0,152255,152298,156,314,129.4341,316.702 F,2,152255,152541,1,0 S,2,152255,152541,5,1 P,0,152255,152541,A M,0,152298,152341,129.4341,316.702,105.2491,305.3834
Sprite,Foreground,Centre,"sb\kiai\circle2.png",0,0 C,0,152427,,128,255,128 M,0,152427,152470,173,104,199.8759,101.1057 F,2,152427,152713,1,0 S,2,152427,152713,5,1 P,0,152427,152713,A M,0,152470,152513,199.8759,101.1057,226.7517,98.21136
Sprite,Foreground,Centre,"sb\kiai\circle2.png",0,0 C,0,152600,,128,255,128 M,0,152600,152643,360,81,333.0839,83.49223 F,2,152600,152886,1,0 S,2,152600,152886,5,1 P,0,152600,152886,A M,0,152643,152686,333.0839,83.49223,306.1678,85.98447
Sprite,Foreground,Centre,"sb\kiai\circle2.png",0,0 C,0,152772,,128,255,255 M,0,152772,152815,158,185,184.8759,182.1057 F,2,152772,153058,1,0 S,2,152772,153058,5,1 P,0,152772,153058,A M,0,152815,152858,184.8759,182.1057,211.7517,179.2114
Sprite,Foreground,Centre,"sb\kiai\circle2.png",0,0 C,0,152945,,128,255,255 M,0,152945,152988,398,156,371.1403,159.0407 F,2,152945,153231,1,0 S,2,152945,153231,5,1 P,0,152945,153231,A M,0,152988,153031,371.1403,159.0407,345,162
Sprite,Foreground,Centre,"sb\kiai\circle2.png",79,197 C,0,153117,,255,128,192 F,2,153117,153317,1,0 S,2,153117,153317,5,1 P,0,153117,153317,A
Sprite,Foreground,Centre,"sb\kiai\circle2.png",474,146 C,0,153289,,255,128,192 F,2,153289,153489,1,0 S,2,153289,153489,5,1 P,0,153289,153489,A
Sprite,Foreground,Centre,"sb\kiai\circle2.png",211,257 C,0,153462,,255,164,119 F,2,153462,153662,1,0 S,2,153462,153662,5,1 P,0,153462,153662,A
Sprite,Foreground,Centre,"sb\kiai\circle2.png",366,236 C,0,153634,,255,164,119 F,2,153634,153834,1,0 S,2,153634,153834,5,1 P,0,153634,153834,A
Sprite,Foreground,Centre,"sb\kiai\circle2.png",0,0 C,0,153807,,128,255,128 M,0,153807,153850,227,391,223.9593,364.1403 F,2,153807,154093,1,0 S,2,153807,154093,5,1 P,0,153807,154093,A M,0,153850,153893,223.9593,364.1403,221,338
Sprite,Foreground,Centre,"sb\kiai\circle2.png",0,0 C,0,153979,,128,255,128 M,0,153979,154022,387,370,383.9593,343.1403 F,2,153979,154265,1,0 S,2,153979,154265,5,1 P,0,153979,154265,A M,0,154022,154065,383.9593,343.1403,381,317
Sprite,Foreground,Centre,"sb\kiai\circle2.png",0,0 C,0,154152,,128,255,255 M,0,154152,154195,211,257,207.9593,230.1403 F,2,154152,154438,1,0 S,2,154152,154438,5,1 P,0,154152,154438,A M,0,154195,154238,207.9593,230.1403,205,204
Sprite,Foreground,Centre,"sb\kiai\circle2.png",0,0 C,0,154324,,128,255,255 M,0,154324,154367,366,236,362.9593,209.1403 F,2,154324,154610,1,0 S,2,154324,154610,5,1 P,0,154324,154610,A M,0,154367,154410,362.9593,209.1403,360,183
Sprite,Foreground,Centre,"sb\kiai\circle2.png",269,62 C,0,154496,,255,128,192 F,2,154496,154696,1,0 S,2,154496,154696,5,1 P,0,154496,154696,A
Sprite,Foreground,Centre,"sb\kiai\circle2.png",0,0 C,0,154669,,255,128,192 M,0,154669,154712,471,219,496.8897,224.2895 F,2,154669,154955,1,0 S,2,154669,154955,5,1 P,0,154669,154955,A M,0,154712,154755,496.8897,224.2895,521.5371,215.5091
Sprite,Foreground,Centre,"sb\kiai\circle2.png",0,0 C,0,154841,,255,128,192 M,0,154841,154884,569,104,560.8887,78.87257 F,2,154841,155127,1,0 S,2,154841,155127,5,1 P,0,154841,155127,A M,0,154884,154927,560.8887,78.87257,541.0592,61.84783
Sprite,Foreground,Centre,"sb\kiai\circle2.png",0,0 C,0,155014,,255,128,192 M,0,155014,155057,421,75,402.9075,94.19469 F,2,155014,155300,1,0 S,2,155014,155300,5,1 P,0,155014,155300,A M,0,155057,155100,402.9075,94.19469,397.9536,119.8181
Sprite,Foreground,Centre,"sb\kiai\circle2.png",0,0 C,0,155186,,255,164,119 M,0,155186,155229,380,316,372.0828,341.4448 F,2,155186,155472,1,0 S,2,155186,155472,5,1 P,0,155186,155472,A M,0,155229,155272,372.0828,341.4448,351.4905,358.3572
Sprite,Foreground,Centre,"sb\kiai\circle2.png",0,0 C,0,155358,,255,164,119 M,0,155358,155401,288,404,262.106,409.8415 F,2,155358,155644,1,0 S,2,155358,155644,5,1 P,0,155358,155644,A M,0,155401,155444,262.106,409.8415,237.1454,401.2195
Sprite,Foreground,Centre,"sb\kiai\circle2.png",0,0 C,0,155531,,255,164,119 M,0,155531,155574,165,368,146.7821,348.724 F,2,155531,155817,1,0 S,2,155531,155817,5,1 P,0,155531,155817,A M,0,155574,155617,146.7821,348.724,141.7403,322.8299
Sprite,Foreground,Centre,"sb\kiai\circle2.png",0,0 C,0,155703,,255,164,119 M,0,155703,155746,134,243,141.3361,217.6998 F,2,155703,155989,1,0 S,2,155703,155989,5,1 P,0,155703,155989,A M,0,155746,155789,141.3361,217.6998,161.0629,200.6907
Sprite,Foreground,Centre,"sb\kiai\circle2.png",319,130 C,0,155876,,255,164,119 F,2,155876,156076,1,0 S,2,155876,156076,5,1 P,0,155876,156076,A
Sprite,Foreground,Centre,"sb\kiai\circle2.png",0,0 C,0,156048,,128,255,128 M,0,156048,156091,226,319,221.197,292.3989 F,2,156048,156334,1,0 S,2,156048,156334,5,1 P,0,156048,156334,A M,0,156091,156134,221.197,292.3989,216.394,265.7977
Sprite,Foreground,Centre,"sb\kiai\circle2.png",0,0 C,0,156221,,128,255,128 M,0,156221,156264,265,203,269.803,176.3989 F,2,156221,156507,1,0 S,2,156221,156507,5,1 P,0,156221,156507,A M,0,156264,156307,269.803,176.3989,274.606,149.7977
Sprite,Foreground,Centre,"sb\kiai\circle2.png",0,0 C,0,156393,,128,255,128 M,0,156393,156436,206,114,201.197,87.39887 F,2,156393,156679,1,0 S,2,156393,156679,5,1 P,0,156393,156679,A M,0,156436,156479,201.197,87.39887,196.394,60.79775
Sprite,Foreground,Centre,"sb\kiai\circle2.png",0,0 C,0,156565,,128,255,255 M,0,156565,156608,427,169,421.9882,195.5626 F,2,156565,156851,1,0 S,2,156565,156851,5,1 P,0,156565,156851,A M,0,156608,156651,421.9882,195.5626,417,222
Sprite,Foreground,Centre,"sb\kiai\circle2.png",0,0 C,0,156738,,128,255,255 M,0,156738,156781,349,261,353.5254,287.6497 F,2,156738,157024,1,0 S,2,156738,157024,5,1 P,0,156738,157024,A M,0,156781,156824,353.5254,287.6497,358,314
Sprite,Foreground,Centre,"sb\kiai\circle2.png",0,0 C,0,156910,,255,128,192 M,0,156910,156953,497,224,501.5254,250.6497 F,2,156910,157196,1,0 S,2,156910,157196,5,1 P,0,156910,157196,A M,0,156953,156996,501.5254,250.6497,506,277
Sprite,Foreground,Centre,"sb\kiai\circle2.png",0,0 C,0,157083,,255,128,192 M,0,157083,157126,575,316,569.9882,342.5626 F,2,157083,157369,1,0 S,2,157083,157369,5,1 P,0,157083,157369,A M,0,157126,157169,569.9882,342.5626,565,369
Sprite,Foreground,Centre,"sb\kiai\circle2.png",440,439 C,0,157255,,255,164,119 F,2,157255,157455,1,0 S,2,157255,157455,5,1 P,0,157255,157455,A
Sprite,Foreground,Centre,"sb\kiai\circle2.png",0,0 C,0,157427,,255,164,119 M,0,157427,157470,340,311,335.0779,284.4207 F,2,157427,157713,1,0 S,2,157427,157713,5,1 P,0,157427,157713,A M,0,157470,157513,335.0779,284.4207,330.1558,257.8413
Sprite,Foreground,Centre,"sb\kiai\circle2.png",0,0 C,0,157600,,255,164,119 M,0,157600,157643,269,208,273.4439,181.3365 F,2,157600,157886,1,0 S,2,157600,157886,5,1 P,0,157600,157886,A M,0,157643,157686,273.4439,181.3365,277.8878,154.6731
Sprite,Foreground,Centre,"sb\kiai\circle2.png",0,0 C,0,157772,,255,164,119 M,0,157772,157815,345,110,340.0779,83.42065 F,2,157772,158058,1,0 S,2,157772,158058,5,1 P,0,157772,158058,A M,0,157815,157858,340.0779,83.42065,335.1558,56.84132
//Storyboard Layer 4 (Overlay)
//Storyboard Sound Samples

[TimingPoints]
15,344.827586206897,4,2,1,50,1,0
15,-133.333333333333,4,2,1,50,0,0
22083,-117.647058823529,4,2,1,60,0,0
33118,-66.6666666666667,4,2,1,70,0,0
33463,-105.263157894737,4,2,1,70,0,0
35877,-66.6666666666667,4,2,1,70,0,0
36221,-100,4,2,1,70,0,0
38635,-66.6666666666667,4,2,1,80,0,0
38980,-95.2380952380952,4,2,1,80,0,0
40015,-66.6666666666667,4,2,1,82,0,0
40359,-90.9090909090909,4,2,1,82,0,0
41394,-66.6666666666667,4,2,1,84,0,0
41739,-83.3333333333333,4,2,1,84,0,0
42083,-83.3333333333333,4,2,1,86,0,0
42773,-83.3333333333333,4,2,1,88,0,0
43463,-83.3333333333333,4,2,1,90,0,0
44152,-44.4444444444445,4,2,1,95,0,1
45187,-80,4,2,1,95,0,1
45877,-44.4444444444445,4,2,1,95,0,1
46911,-80,4,2,1,95,0,1
47601,-44.4444444444445,4,2,1,95,0,1
47946,-80,4,2,1,95,0,1
48290,-50,4,2,1,95,0,1
49670,-44.4444444444445,4,2,1,95,0,1
50704,-80,4,2,1,95,0,1
51394,-44.4444444444445,4,2,1,95,0,1
52773,-80,4,2,1,95,0,1
53118,-44.4444444444445,4,2,1,95,0,1
53463,-80,4,2,1,95,0,1
53808,-50,4,2,1,95,0,1
54842,-200,4,2,1,95,0,0
55187,-44.4444444444445,4,2,1,95,0,1
56221,-80,4,2,1,95,0,1
56912,-44.4444444444445,4,2,1,95,0,1
57946,-80,4,2,1,95,0,1
58635,-44.4444444444445,4,2,1,95,0,1
58980,-80,4,2,1,95,0,1
59670,-50,4,2,1,95,0,1
60704,-44.4444444444445,4,2,1,95,0,1
61739,-80,4,2,1,95,0,1
62428,-44.4444444444445,4,2,1,95,0,1
63808,-80,4,2,1,95,0,1
64152,-44.4444444444445,4,2,1,95,0,1
64497,-80,4,2,1,95,0,1
64842,-50,4,2,1,95,0,0
65877,-200,4,2,1,95,0,0
66221,-200,4,2,1,75,0,0
87601,-200,4,2,1,90,0,0
87687,-200,4,2,1,87,0,0
87773,-200,4,2,1,84,0,0
87859,-200,4,2,1,81,0,0
87946,-200,4,2,1,78,0,0
88032,-200,4,2,1,75,0,0
88118,-200,4,2,1,72,0,0
88204,-200,4,2,1,70,0,0
88290,-44.4444444444445,4,2,1,95,0,1
89325,-80,4,2,1,95,0,1
90015,-44.4444444444445,4,2,1,95,0,1
91049,-80,4,2,1,95,0,1
91739,-44.4444444444445,4,2,1,95,0,1
92083,-80,4,2,1,95,0,1
92428,-50,4,2,1,95,0,1
93808,-44.4444444444445,4,2,1,95,0,1
94842,-80,4,2,1,95,0,1
95532,-44.4444444444445,4,2,1,95,0,1
96911,-80,4,2,1,95,0,1
97256,-44.4444444444445,4,2,1,95,0,1
97601,-80,4,2,1,95,0,1
97946,-50,4,2,1,95,0,1
98980,-40,4,2,1,95,0,1
99325,-44.4444444444445,4,2,1,95,0,1
100359,-80,4,2,1,95,0,1
101050,-44.4444444444445,4,2,1,95,0,1
102084,-80,4,2,1,95,0,1
102773,-44.4444444444445,4,2,1,95,0,1
103118,-80,4,2,1,95,0,1
103808,-50,4,2,1,95,0,1
104842,-44.4444444444445,4,2,1,95,0,1
105877,-80,4,2,1,95,0,1
106566,-44.4444444444445,4,2,1,95,0,1
107946,-80,4,2,1,95,0,1
108290,-44.4444444444445,4,2,1,95,0,1
108635,-80,4,2,1,95,0,1
108980,-50,4,2,1,95,0,0
110015,-200,4,2,1,95,0,0
110359,-200,4,2,1,65,0,0
125532,-200,4,2,1,35,0,0
126221,344.827586206897,4,2,1,95,1,0
126221,-44.4444444444445,4,2,1,95,0,1
127255,-80,4,2,1,95,0,1
127945,-44.4444444444445,4,2,1,95,0,1
128980,-80,4,2,1,95,0,1
129669,-44.4444444444445,4,2,1,95,0,1
130014,-80,4,2,1,95,0,1
130358,-50,4,2,1,95,0,1
131738,-44.4444444444445,4,2,1,95,0,1
132772,-80,4,2,1,95,0,1
133463,-44.4444444444445,4,2,1,95,0,1
134841,-80,4,2,1,95,0,1
135186,-44.4444444444445,4,2,1,95,0,1
135531,-80,4,2,1,95,0,1
135876,-50,4,2,1,95,0,1
136910,-40,4,2,1,95,0,1
137255,-44.4444444444445,4,2,1,95,0,1
138289,-80,4,2,1,95,0,1
138979,-44.4444444444445,4,2,1,95,0,1
140014,-80,4,2,1,95,0,1
140703,-44.4444444444445,4,2,1,95,0,1
141048,-80,4,2,1,95,0,1
141738,-50,4,2,1,95,0,1
142772,-44.4444444444445,4,2,1,95,0,1
143807,-80,4,2,1,95,0,1
144496,-44.4444444444445,4,2,1,95,0,1
145876,-80,4,2,1,95,0,1
146221,-44.4444444444445,4,2,1,95,0,1
146565,-50,4,2,1,95,0,1
146910,-100,4,2,1,95,0,0
148289,-80,4,2,1,85,0,0
157945,-80,4,2,1,45,0,0
158979,-500,4,2,1,45,0,0
160014,-500,4,2,0,5,0,0

[Colours]
Combo1 : 128,255,128
Combo2 : 128,255,255
Combo3 : 255,128,192
Combo4 : 255,164,119

[HitObjects]
62,54,15,6,0,P|93:73|105:111,1,64.8750024747849,6|0,3:2|0:0,0:0:0:0:
46,249,359,2,0,P|46:212|73:183,1,64.8750024747849
223,165,704,2,0,P|191:182|152:173,1,64.8750024747849,2|0,0:0|0:0,0:0:0:0:
264,56,1049,2,0,P|295:54|323:70,1,64.8750024747849
334,90,1308,1,0,0:0:0:0:
332,112,1394,6,0,L|323:179,1,64.8750024747849,2|0,0:0|0:0,0:0:0:0:
403,311,1739,2,0,L|394:246,1,64.8750024747849
264,56,2083,2,0,L|255:123,1,64.8750024747849,2|0,0:0|0:0,0:0:0:0:
335,367,2428,2,0,L|326:300,1,64.8750024747849
163,179,2773,6,0,P|132:183|101:216,1,64.8750024747849,2|0,0:0|0:0,0:0:0:0:
326,302,3118,2,0,P|350:322|382:327,1,64.8750024747849
166,255,3463,2,0,P|153:283|167:327,1,64.8750024747849,2|0,0:0|0:0,0:0:0:0:
383,249,3808,2,0,P|388:217|376:187,1,64.8750024747849
216,78,4152,6,0,L|140:91,1,64.8750024747849,2|0,0:0|0:0,0:0:0:0:
376,187,4497,2,0,L|439:197,1,64.8750024747849
205,66,4842,2,0,L|129:79,1,64.8750024747849,2|0,0:0|0:0,0:0:0:0:
127,95,5101,1,0,0:0:0:0:
117,115,5187,2,0,L|126:161,1,32.4375012373925
69,213,5359,2,0,L|62:244,1,32.4375012373925
117,311,5532,6,0,P|142:331|185:325,1,64.8750024747849,2|0,0:0|0:0,0:0:0:0:
309,187,5877,2,0,P|277:186|252:206,1,64.8750024747849
114,323,6221,2,0,P|139:343|182:337,1,64.8750024747849,2|0,0:0|0:0,0:0:0:0:
306,174,6566,2,0,P|274:173|249:193,1,64.8750024747849
417,343,6911,6,0,P|422:311|440:272,1,64.8750024747849,2|0,0:0|0:0,0:0:0:0:
299,98,7256,2,0,P|311:127|316:159,1,64.8750024747849
432,353,7601,2,0,P|437:321|455:282,1,64.8750024747849,2|0,0:0|0:0,0:0:0:0:
317,108,7946,2,0,P|329:137|334:169,1,64.8750024747849
214,340,8290,6,0,B|182:345|182:345|146:327,1,64.8750024747849,2|0,0:0|0:0,0:0:0:0:
12,215,8635,2,0,B|41:200|41:200|73:205,1,64.8750024747849
213,352,8980,2,0,B|181:357|181:357|145:339,1,64.8750024747849,2|2,0:0|0:3,0:0:0:0:
9,204,9325,2,0,B|38:189|38:189|70:194,1,64.8750024747849,0|2,0:0|0:3,0:0:0:0:
282,226,9670,6,0,P|296:257|282:303,1,64.8750024747849,2|0,0:0|0:0,0:0:0:0:
70,194,10015,2,0,P|66:162|80:133,1,64.8750024747849,2|0,0:3|0:0,0:0:0:0:
206,50,10359,2,0,L|277:43,1,64.8750024747849
289,56,10618,1,0,0:0:0:0:
305,71,10704,1,2,0:3:0:0:
300,119,10790,1,2,0:3:0:0:
295,167,10876,1,0,0:0:0:0:
290,216,10962,1,0,0:0:0:0:
285,264,11049,5,6,3:2:0:0:
207,350,11221,1,0,0:0:0:0:
148,298,11394,2,0,L|80:292,1,64.8750024747849
186,172,11739,1,2,0:0:0:0:
186,172,11911,1,0,0:0:0:0:
285,264,12083,2,0,P|313:284|359:277,1,64.8750024747849
363,275,12342,1,0,0:0:0:0:
379,259,12428,6,0,L|389:187,1,64.8750024747849,2|0,0:0|0:0,0:0:0:0:
405,57,12773,1,0,0:0:0:0:
405,57,12946,1,0,0:0:0:0:
325,125,13118,2,0,P|292:128|258:99,1,64.8750024747849,2|0,0:0|0:0,0:0:0:0:
183,45,13463,2,0,P|150:42|116:71,1,64.8750024747849
64,147,13808,5,2,0:0:0:0:
30,36,13980,1,0,0:0:0:0:
64,147,14152,2,0,P|53:180|50:220,1,64.8750024747849
123,311,14497,1,2,0:0:0:0:
123,311,14670,1,0,0:0:0:0:
215,233,14842,2,0,P|245:219|287:223,1,64.8750024747849
423,324,15187,6,0,P|390:324|361:310,1,64.8750024747849,2|0,0:0|0:0,0:0:0:0:
490,221,15532,1,0,0:0:0:0:
490,221,15704,1,0,0:0:0:0:
392,153,15877,1,2,0:0:0:0:
276,219,16049,1,0,0:0:0:0:
276,219,16135,1,0,0:0:0:0:
276,219,16221,2,0,L|233:212,1,32.4375012373925
319,78,16394,1,0,0:0:0:0:
319,78,16480,1,0,0:0:0:0:
319,78,16566,6,0,L|388:66,1,64.8750024747849,2|0,0:0|0:0,0:0:0:0:
168,201,16911,2,0,L|98:189,1,64.8750024747849
211,29,17256,1,2,0:0:0:0:
233,130,17428,1,0,0:0:0:0:
221,16,17601,1,0,0:0:0:0:
225,145,17773,1,0,0:0:0:0:
101,50,17946,6,0,P|72:35|32:38,1,64.8750024747849,2|0,0:0|0:0,0:0:0:0:
43,205,18290,2,0,P|75:205|103:190,1,64.8750024747849
233,130,18635,1,2,0:0:0:0:
308,179,18808,1,0,0:0:0:0:
406,86,18980,2,0,P|393:116|386:169,1,64.8750024747849
432,264,19325,6,0,P|466:269|500:247,1,64.8750024747849,2|0,0:0|0:0,0:0:0:0:
308,179,19670,2,0,P|276:173|247:187,1,64.8750024747849,2|0,0:3|0:0,0:0:0:0:
334,357,20015,2,0,P|340:324|355:292,1,64.8750024747849,2|0,0:0|0:0,0:0:0:0:
148,132,20359,2,0,P|161:161|166:193,1,64.8750024747849
93,342,20704,6,0,P|43:322|34:257,1,97.3125037121774,2|2,0:0|0:3,0:0:0:0:
42,265,21049,2,0,P|50:281|52:304,3,32.4375012373925,2|2|2|2,0:0|0:3|0:3|0:3,0:0:0:0:
135,265,21394,2,0,P|170:268|199:296,1,64.8750024747849,2|0,0:3|0:0,0:0:0:0:
205,304,21652,1,0,0:0:0:0:
224,316,21739,1,0,0:0:0:0:
272,311,21825,1,0,0:0:0:0:
320,307,21911,1,0,0:0:0:0:
369,302,21997,1,0,0:0:0:0:
417,298,22083,6,0,L|431:217,1,73.5250014023781,6|0,3:2|0:0,0:0:0:0:
254,151,22428,2,0,L|265:223,1,73.5250014023781
485,134,22773,2,0,P|453:116|406:125,1,73.5250014023781,2|0,0:0|0:0,0:0:0:0:
256,318,23118,2,0,P|292:320|323:303,1,73.5250014023781,0|2,0:0|0:0,0:0:0:0:
338,281,23377,1,0,0:0:0:0:
347,257,23463,6,0,L|332:177,1,73.5250014023781,2|0,0:0|0:0,0:0:0:0:
186,65,23808,2,0,L|172:137,1,73.5250014023781,0|2,0:0|0:0,0:0:0:0:
129,324,24152,2,0,B|91:328|91:328|56:303,1,73.5250014023781,2|0,0:0|0:0,0:0:0:0:
266,168,24497,2,0,B|304:164|304:164|332:184,1,73.5250014023781,2|0,0:0|0:0,0:0:0:0:
206,346,24842,6,0,P|206:311|189:261,1,73.5250014023781,2|0,0:0|0:0,0:0:0:0:
421,154,25187,2,0,P|410:189|410:225,1,73.5250014023781,0|2,0:0|0:0,0:0:0:0:
230,360,25532,2,0,P|230:325|213:275,1,73.5250014023781,2|0,0:0|0:0,0:0:0:0:
403,168,25877,2,0,P|392:203|392:239,1,73.5250014023781,0|2,0:0|0:0,0:0:0:0:
243,99,26221,6,0,P|211:80|163:86,1,73.5250014023781,2|0,0:0|0:0,0:0:0:0:
92,162,26566,1,0,0:0:0:0:
92,162,26739,1,2,0:0:0:0:
227,185,26911,2,0,P|263:185|294:166,1,73.5250014023781,2|0,0:0|0:0,0:0:0:0:
305,143,27170,1,0,0:0:0:0:
311,118,27256,2,0,L|322:170,1,36.7625007011891,2|0,0:0|0:0,0:0:0:0:
167,115,27428,2,0,L|175:80,1,36.7625007011891
375,29,27601,6,0,L|393:116,1,73.5250014023781,2|0,0:0|0:0,0:0:0:0:
211,256,27946,2,0,L|226:184,1,73.5250014023781
311,118,28290,2,0,L|329:205,1,73.5250014023781,2|0,0:0|0:0,0:0:0:0:
112,326,28635,2,0,L|127:254,1,73.5250014023781,0|2,0:0|0:0,0:0:0:0:
326,189,28980,6,0,P|363:193|393:222,1,73.5250014023781,2|0,0:0|0:0,0:0:0:0:
439,327,29325,1,0,0:0:0:0:
439,327,29497,1,2,0:0:0:0:
282,276,29670,2,0,P|245:280|215:309,1,73.5250014023781,2|0,0:0|0:0,0:0:0:0:
389,216,30015,2,0,P|394:183|413:139,1,73.5250014023781
339,33,30359,6,0,P|305:28|267:58,1,73.5250014023781,2|0,0:0|0:0,0:0:0:0:
225,161,30704,1,0,0:0:0:0:
225,161,30877,1,2,0:0:0:0:
95,89,31049,2,0,P|107:126|109:170,1,73.5250014023781,2|0,0:0|0:0,0:0:0:0:
177,297,31394,2,0,P|208:315|255:304,1,73.5250014023781,0|2,0:0|0:0,0:0:0:0:
380,170,31739,6,0,P|344:165|312:183,1,73.5250014023781,2|0,0:0|0:0,0:0:0:0:
455,307,32083,2,0,P|462:274|485:227,1,73.5250014023781,0|2,0:0|0:0,0:0:0:0:
289,114,32428,2,0,P|304:147|312:183,1,73.5250014023781,2|0,0:0|0:0,0:0:0:0:
300,206,32687,1,0,0:0:0:0:
279,221,32773,1,2,0:0:0:0:
224,216,32859,1,0,0:0:0:0:
169,211,32945,1,0,0:0:0:0:
114,207,33031,1,0,0:0:0:0:
59,202,33118,6,0,B|28:153|28:153|61:70|61:70|91:108,1,194.625007424355,6|0,3:2|0:0,0:0:0:0:
165,128,33463,6,0,L|253:117,1,82.1749978056908
360,231,33808,2,0,L|278:220,1,82.1749978056908,2|0,0:0|0:0,0:0:0:0:
388,107,34152,2,0,L|476:96,1,82.1749978056908
493,119,34411,1,0,0:0:0:0:
507,148,34497,6,0,B|520:187|520:187|497:235,1,82.1749978056908,2|0,0:0|0:0,0:0:0:0:
273,296,34842,2,0,B|260:257|260:257|283:209,1,82.1749978056908
494,159,35187,2,0,B|507:198|507:198|484:246,1,82.1749978056908,2|0,0:0|0:0,0:0:0:0:
462,254,35446,1,0,0:0:0:0:
438,277,35532,2,0,L|393:271,1,41.0874989028454
277,219,35704,2,0,L|236:224,1,41.0874989028454
116,277,35877,6,0,B|71:227|71:227|107:96,1,194.625007424355,6|0,3:2|0:0,0:0:0:0:
161,51,36221,6,0,P|202:28|250:42,1,86.5,2|0,0:0|0:0,0:0:0:0:
360,163,36566,2,0,P|317:168|281:146,1,86.5,2|0,0:0|0:0,0:0:0:0:
401,50,36911,2,0,P|437:28|480:34,1,86.5,2|0,0:0|0:0,0:0:0:0:
499,62,37170,1,0,0:0:0:0:
500,96,37256,6,0,L|481:188,1,86.5,2|0,0:0|0:0,0:0:0:0:
322,320,37601,2,0,L|304:235,1,86.5
184,110,37946,2,0,B|146:91|146:91|98:106,1,86.5,2|0,0:0|0:0,0:0:0:0:
81,130,38204,1,0,0:0:0:0:
67,161,38290,1,0,0:0:0:0:
72,214,38376,1,0,0:0:0:0:
78,268,38462,1,0,0:0:0:0:
84,322,38548,1,0,0:0:0:0:
90,375,38635,6,0,B|227:360|227:360|266:311,1,194.625007424355,4|0,3:2|0:0,0:0:0:0:
307,251,38980,6,0,P|342:227|397:242,1,90.8249972282411
499,339,39325,2,0,P|461:363|418:355,1,90.8249972282411,2|0,0:0|0:0,0:0:0:0:
239,306,39670,2,0,P|216:268|229:214,1,90.8249972282411
239,197,39928,1,0,0:0:0:0:
264,177,40015,6,0,B|336:165|336:165|374:188|374:188|457:174,1,194.625007424355,6|0,3:2|0:0,0:0:0:0:
491,111,40359,6,0,B|504:65|504:65|475:27,1,95.1500029037476
248,93,40704,2,0,B|235:139|235:139|264:177,1,95.1500029037476,2|0,0:0|0:0,0:0:0:0:
435,274,41049,2,0,B|401:239|401:239|354:245,1,95.1500029037476
331,270,41308,1,0,0:0:0:0:
313,298,41394,6,0,B|279:334|225:320|225:320|233:313|233:313|185:301|140:334,1,194.625007424355,6|0,3:2|0:0,0:0:0:0:
76,296,41739,6,0,P|44:253|65:187,1,103.799996832275,2|0,3:2|0:0,0:0:0:0:
191,165,42083,2,0,P|169:214|102:229,1,103.799996832275,0|0,3:2|0:0,0:0:0:0:
20,130,42428,2,0,P|73:123|119:174,1,103.799996832275,2|0,3:2|0:0,0:0:0:0:
252,347,42773,5,2,3:2:0:0:
329,100,42946,1,0,3:2:0:0:
243,375,43118,1,0,3:2:0:0:
204,44,43290,1,0,3:2:0:0:
393,241,43463,1,2,3:2:0:0:
111,152,43635,5,0,3:2:0:0:
150,141,43721,1,0,3:2:0:0:
191,149,43807,1,0,3:2:0:0:
223,175,43893,1,0,3:2:0:0:
262,186,43980,1,0,3:2:0:0:
303,178,44066,1,0,3:2:0:0:
335,152,44152,6,0,B|351:116|356:76|255:38|216:149|290:271,1,291.937511136532,6|0,3:2|0:0,0:0:0:0:
317,338,44497,2,0,P|367:345|406:313,1,97.3125037121774,8|0,0:0|0:0,0:0:0:0:
512,129,44670,1,0,3:0:0:0:
512,129,44756,1,0,0:0:0:0:
512,129,44842,6,0,B|466:91|408:123|433:145|389:179|327:148,1,194.625007424355,10|2,0:1|0:0,0:0:0:0:
293,85,45101,1,0,3:0:0:0:
355,38,45187,6,0,L|415:31,3,54.0625,10|0|0|0,0:2|0:0|0:0|0:0,0:0:0:0:
231,132,45532,2,0,L|171:139,3,54.0625,0|0|2|0,3:0|0:0|0:0|0:0,0:0:0:0:
34,54,45877,5,10,0:0:0:0:
34,54,45963,1,0,0:0:0:0:
34,54,46049,2,0,L|47:163,1,97.3125037121774,0|0,3:0|0:0,0:0:0:0:
171,299,46221,5,10,0:1:0:0:
171,299,46308,1,0,0:0:0:0:
171,299,46394,2,0,B|206:328|206:328|259:317,1,97.3125037121774,0|0,0:0|3:0,0:0:0:0:
415,131,46566,5,10,0:0:0:0:
415,131,46652,1,0,0:0:0:0:
415,131,46739,2,0,P|368:121|321:155,1,97.3125037121774,2|0,0:0|0:0,0:0:0:0:
400,352,46911,5,0,3:0:0:0:
431,343,46997,1,0,0:0:0:0:
455,322,47083,1,0,0:0:0:0:
467,291,47169,1,0,0:0:0:0:
464,258,47256,6,0,P|441:240|402:244,1,54.0625,8|0,0:0|0:0,0:0:0:0:
256,317,47428,2,0,P|282:314|303:297,1,54.0625,0|0,3:0|0:0,0:0:0:0:
197,112,47601,6,0,B|202:82|174:52|115:76|89:116|160:203,1,194.625007424355,8|0,0:1|0:0,0:0:0:0:
186,252,47859,1,0,3:0:0:0:
254,212,47946,6,0,L|314:203,3,54.0625,8|0|2|0,0:0|0:0|0:0|0:0,0:0:0:0:
132,309,48290,6,0,L|38:293,1,86.5,2|0,3:2|0:0,0:0:0:0:
197,112,48463,2,0,L|282:97,1,86.5,2|0,0:0|0:0,0:0:0:0:
297,338,48635,6,0,L|203:322,1,86.5,10|0,0:0|0:0,0:0:0:0:
356,83,48808,2,0,L|441:68,1,86.5,2|0,3:2|0:0,0:0:0:0:
470,353,48980,6,0,B|495:308|495:308|364:325,1,173,10|0,0:1|0:0,0:0:0:0:
297,338,49239,1,2,3:2:0:0:
259,269,49325,6,0,B|220:199|220:199|399:223,1,259.5,8|0,0:0|0:0,0:0:0:0:
475,190,49670,6,0,B|492:126|492:126|423:198|423:198|447:336,1,291.937511136532,2|0,3:2|0:0,0:0:0:0:
386,375,50015,2,0,L|271:357,1,97.3125037121774,8|0,0:0|0:0,0:0:0:0:
123,164,50187,1,0,3:0:0:0:
123,164,50273,1,0,0:0:0:0:
123,164,50359,6,0,B|152:124|218:160|216:234|163:293,1,194.625007424355,10|2,0:1|0:0,0:0:0:0:
113,331,50618,1,0,3:0:0:0:
53,281,50704,6,0,P|27:268|-3:274,3,54.0625,10|0|0|0,0:2|0:0|0:0|0:0,0:0:0:0:
180,370,51049,2,0,P|206:383|236:377,3,54.0625,0|0|2|0,3:0|0:0|0:0|0:0,0:0:0:0:
364,244,51394,5,10,0:0:0:0:
367,228,51480,1,0,0:0:0:0:
369,211,51566,2,0,P|331:182|280:193,1,97.3125037121774,0|0,3:0|0:0,0:0:0:0:
53,281,51739,5,10,0:1:0:0:
55,297,51825,1,0,0:0:0:0:
59,313,51911,2,0,P|104:327|148:299,1,97.3125037121774,0|0,0:0|3:0,0:0:0:0:
232,87,52083,5,10,0:0:0:0:
217,80,52169,1,0,0:0:0:0:
201,77,52255,2,0,P|165:109|167:161,1,97.3125037121774,2|0,0:0|0:0,0:0:0:0:
337,324,52428,5,0,3:0:0:0:
369,331,52514,1,0,0:0:0:0:
402,323,52600,1,0,0:0:0:0:
428,301,52686,1,0,0:0:0:0:
442,271,52773,6,0,P|445:242|424:217,1,54.0625,10|0,0:0|0:0,0:0:0:0:
239,282,52946,2,0,P|225:304|228:331,1,54.0625,2|0,3:2|0:0,0:0:0:0:
462,148,53118,6,0,B|413:123|355:155|380:177|336:211|275:186,1,194.625007424355,10|0,0:1|0:0,0:0:0:0:
236,127,53377,1,0,3:2:0:0:
181,69,53463,6,0,P|150:65|124:80,3,54.0625,10|0|0|0,0:0|0:0|0:0|0:0,0:0:0:0:
284,189,53808,6,0,B|242:205|201:185|201:185|246:140|310:131|368:154,1,259.5,0|0,3:2|0:0,0:0:0:0:
442,271,54152,6,0,B|406:294|406:294|352:283,1,86.5,10|0,0:2|0:0,0:0:0:0:
445,63,54325,2,0,L|463:156,1,86.5,2|0,3:2|0:0,0:0:0:0:
319,370,54497,6,0,B|291:348|291:348|285:295,1,86.5,10|0,0:1|0:0,0:0:0:0:
130,74,54670,2,0,B|157:95|157:95|164:149,1,86.5,2|0,0:0|3:2,0:0:0:0:
77,343,54842,6,0,L|66:268,1,64.875,10|0,0:0|0:0,0:0:0:0:
163,146,55187,6,0,B|205:118|244:122|276:151|276:151|318:137|318:137|296:190|321:238|372:255,1,291.937511136532,6|0,3:2|0:0,0:0:0:0:
386,176,55532,2,0,P|421:172|388:158,1,97.3125037121774,8|0,0:0|0:0,0:0:0:0:
275,357,55704,1,0,3:0:0:0:
275,357,55790,1,0,0:0:0:0:
275,357,55877,6,0,B|207:318|207:318|222:188,1,194.625007424355,10|2,0:1|0:0,0:0:0:0:
232,125,56135,1,0,3:0:0:0:
262,55,56221,6,0,L|343:43,3,54.0625,10|0|0|0,0:2|0:0|0:0|0:0,0:0:0:0:
220,202,56566,2,0,L|139:190,3,54.0625,0|0|0|0,3:0|0:0|0:0|0:0,0:0:0:0:
61,77,56911,5,10,0:0:0:0:
61,55,56997,1,0,0:0:0:0:
62,35,57083,2,0,P|34:74|44:124,1,97.3125037121774,0|0,3:0|0:0,0:0:0:0:
299,177,57256,5,10,0:1:0:0:
318,188,57342,1,0,0:0:0:0:
334,198,57428,2,0,P|313:154|264:138,1,97.3125037121774,0|0,0:0|3:0,0:0:0:0:
104,281,57601,5,10,0:0:0:0:
84,291,57687,1,0,0:0:0:0:
68,300,57773,2,0,P|116:304|154:270,1,97.3125037121774
292,60,57946,5,2,3:2:0:0:
259,53,58032,1,0,0:0:0:0:
227,62,58118,1,0,0:0:0:0:
203,85,58204,1,0,0:0:0:0:
193,115,58290,6,0,P|186:142|207:177,1,54.0625,10|0,0:0|0:0,0:0:0:0:
372,85,58463,2,0,P|380:59|373:34,1,54.0625,2|0,3:2|0:0,0:0:0:0:
141,28,58635,6,0,B|113:11|71:30|77:77|77:77|97:192,1,194.625007424355,10|0,0:1|0:0,0:0:0:0:
109,244,58894,1,0,3:0:0:0:
174,286,58980,6,0,P|199:299|237:294,3,54.0625,8|0|0|0,0:0|0:0|0:0|0:0,0:0:0:0:
354,207,59325,2,0,P|327:207|303:219,3,54.0625,0|0|2|0,3:2|0:0|0:0|0:0,0:0:0:0:
425,295,59670,6,0,P|470:300|505:271,1,86.5,10|0,0:0|0:0,0:0:0:0:
372,85,59842,2,0,P|337:60|295:66,1,86.5,2|0,3:2|0:0,0:0:0:0:
174,286,60015,6,0,B|129:308|66:221|138:153,1,173,10|0,0:1|0:0,0:0:0:0:
168,98,60273,1,0,3:2:0:0:
216,37,60359,6,0,B|252:-8|338:21|341:127|252:228,1,259.5,10|0,0:0|0:0,0:0:0:0:
253,271,60704,6,0,B|329:295|401:240|351:212|430:149|510:186,1,291.937511136532,2|0,3:2|0:0,0:0:0:0:
468,254,61049,2,0,P|452:283|463:254,1,97.3125037121774,8|0,0:0|0:0,0:0:0:0:
422,39,61221,1,0,3:0:0:0:
422,39,61308,1,0,0:0:0:0:
422,39,61394,6,0,B|345:54|345:54|323:89|323:89|238:105,1,194.625007424355,10|2,0:1|0:0,0:0:0:0:
184,58,61652,1,0,3:0:0:0:
118,15,61739,6,0,L|54:29,3,54.0625,10|0|0|0,0:2|0:0|0:0|0:0,0:0:0:0:
249,102,62083,2,0,L|313:116,3,54.0625,0|0|2|0,3:0|0:0|0:0|0:0,0:0:0:0:
97,190,62428,5,10,0:0:0:0:
97,190,62515,1,0,0:0:0:0:
97,190,62601,2,0,L|-4:209,1,97.3125037121774,0|0,3:0|3:0,0:0:0:0:
247,24,62773,5,10,0:1:0:0:
247,24,62860,1,0,0:0:0:0:
247,24,62946,2,0,L|348:43,1,97.3125037121774,0|0,0:0|3:0,0:0:0:0:
158,271,63118,5,10,0:0:0:0:
158,271,63205,1,0,0:0:0:0:
158,271,63291,2,0,L|57:290,1,97.3125037121774,2|0,0:0|0:0,0:0:0:0:
301,113,63463,5,0,3:0:0:0:
329,131,63549,1,0,0:0:0:0:
348,159,63635,1,0,0:0:0:0:
354,192,63721,1,0,0:0:0:0:
346,225,63808,6,0,P|319:231|284:212,1,54.0625,10|0,0:0|0:0,0:0:0:0:
342,41,63980,2,0,P|367:32|393:38,1,54.0625,0|0,3:2|0:0,0:0:0:0:
404,280,64152,6,0,P|308:314|229:268,1,194.625007424355,8|0,0:1|0:0,0:0:0:0:
187,207,64411,1,0,3:2:0:0:
136,145,64497,6,0,P|108:146|81:164,3,54.0625,10|0|2|0,0:0|0:0|0:2|0:0,0:0:0:0:
232,271,64842,5,2,0:2:0:0:
241,285,65015,1,2,0:2:0:0:
276,308,65187,1,2,0:2:0:0:
348,293,65359,1,2,0:2:0:0:
392,217,65532,1,2,0:2:0:0:
374,113,65704,1,2,0:2:0:0:
274,48,65877,2,0,P|240:47|200:68,1,64.875,2|0,0:2|0:0,0:0:0:0:
165,117,66221,5,4,3:2:0:0:
256,192,82773,12,0,87256,0:0:0:0:
204,147,87601,5,8,0:3:0:0:
236,165,87687,1,8,0:3:0:0:
273,166,87773,1,8,0:3:0:0:
306,149,87859,1,8,0:3:0:0:
327,118,87946,5,4,0:3:0:0:
262,81,88032,1,4,0:3:0:0:
188,79,88118,1,4,0:3:0:0:
121,113,88204,1,4,0:3:0:0:
79,176,88290,6,0,B|20:194|-12:260|16:358|75:375|142:343|128:276,1,291.937511136532,6|0,3:2|0:0,0:0:0:0:
163,229,88635,2,0,P|213:223|253:264,1,97.3125037121774,8|0,0:0|0:0,0:0:0:0:
371,378,88808,1,0,3:0:0:0:
371,378,88894,1,0,0:0:0:0:
371,378,88980,6,0,B|425:339|425:339|412:198,1,194.625007424355,10|2,0:1|0:0,0:0:0:0:
402,133,89239,1,0,3:0:0:0:
390,55,89325,6,0,L|321:45,3,54.0625,10|0|0|0,0:2|0:0|0:0|0:0,0:0:0:0:
413,211,89670,2,0,L|482:201,3,54.0625,0|0|2|0,3:0|0:0|0:0|0:0,0:0:0:0:
263,106,90015,5,10,0:0:0:0:
263,106,90101,1,0,0:0:0:0:
263,106,90187,2,0,P|226:128|208:202,1,97.3125037121774,0|0,3:0|0:0,0:0:0:0:
69,140,90359,5,10,0:1:0:0:
69,140,90445,1,0,0:0:0:0:
69,140,90531,2,0,P|69:183|124:235,1,97.3125037121774,0|0,0:0|3:0,0:0:0:0:
10,357,90704,5,10,0:0:0:0:
10,357,90791,1,0,0:0:0:0:
10,357,90877,2,0,P|47:378|120:356,1,97.3125037121774,2|0,0:0|0:0,0:0:0:0:
284,183,91049,5,0,3:0:0:0:
319,184,91135,1,0,0:0:0:0:
349,204,91221,1,0,0:0:0:0:
365,236,91307,1,0,0:0:0:0:
362,272,91394,6,0,P|349:301|344:335,1,54.0625,8|0,0:0|0:0,0:0:0:0:
205,176,91566,2,0,P|199:149|187:125,1,54.0625,0|0,3:0|0:0,0:0:0:0:
410,11,91739,6,0,P|498:51|472:145,1,194.625007424355,8|0,0:1|0:0,0:0:0:0:
431,190,91997,1,0,3:0:0:0:
375,135,92083,6,0,P|352:119|324:118,3,54.0625,8|0|2|0,0:0|0:0|0:0|0:0,0:0:0:0:
445,267,92428,6,0,P|459:308|452:359,1,86.5,2|0,3:2|0:0,0:0:0:0:
319,252,92601,2,0,P|353:277|375:314,1,86.5,2|0,0:0|0:0,0:0:0:0:
136,314,92773,6,0,P|158:277|192:252,1,86.5,10|0,0:0|0:0,0:0:0:0:
56,350,92946,2,0,P|53:307|67:267,1,86.5,2|0,3:2|0:0,0:0:0:0:
245,45,93118,6,0,B|265:30|284:39|284:39|267:80|215:94|168:77,1,173,10|0,0:1|0:0,0:0:0:0:
97,56,93377,1,2,3:2:0:0:
61,128,93463,6,0,B|31:150|2:136|2:136|28:75|105:55|174:79,1,259.5,8|0,0:0|0:0,0:0:0:0:
483,173,93808,6,0,B|454:134|470:76|470:76|342:92|342:92|359:118|349:153,1,291.937511136532,2|0,3:2|0:0,0:0:0:0:
308,216,94152,2,0,P|266:244|215:232,1,97.3125037121774,8|0,0:0|0:0,0:0:0:0:
97,56,94325,1,0,3:0:0:0:
97,56,94411,1,0,0:0:0:0:
97,56,94497,6,0,B|131:24|186:47|198:125|128:173,1,194.625007424355,10|2,0:1|0:0,0:0:0:0:
83,227,94756,1,0,3:0:0:0:
32,287,94842,6,0,P|42:313|46:349,3,54.0625,10|0|0|0,0:2|0:0|0:0|0:0,0:0:0:0:
134,167,95187,2,0,P|138:140|147:115,3,54.0625,0|0|2|0,3:0|0:0|0:0|0:0,0:0:0:0:
261,342,95532,5,10,0:0:0:0:
278,333,95618,1,0,0:0:0:0:
262,323,95704,2,0,P|279:296|275:333,1,97.3125037121774,0|0,3:0|0:0,0:0:0:0:
445,163,95877,5,10,0:1:0:0:
444,182,95963,1,0,0:0:0:0:
460,173,96049,2,0,P|474:201|444:179,1,97.3125037121774,0|0,0:0|3:0,0:0:0:0:
245,113,96221,5,10,0:0:0:0:
229,102,96307,1,0,0:0:0:0:
228,120,96393,2,0,P|196:118|230:103,1,97.3125037121774,2|0,0:0|0:0,0:0:0:0:
479,40,96566,5,0,3:0:0:0:
446,30,96652,1,0,0:0:0:0:
413,35,96738,1,0,0:0:0:0:
385,53,96824,1,0,0:0:0:0:
367,82,96911,6,0,P|376:112|375:147,1,54.0625,10|0,0:0|0:0,0:0:0:0:
486,329,97083,2,0,P|487:302|495:276,1,54.0625,2|0,3:2|0:0,0:0:0:0:
261,212,97256,6,0,B|163:179|159:266|78:296,1,194.625007424355,10|0,0:1|0:0,0:0:0:0:
25,253,97515,1,0,3:2:0:0:
9,176,97601,6,0,P|32:161|66:164,3,54.0625,10|0|0|0,0:0|0:0|0:0|0:0,0:0:0:0:
95,287,97946,6,0,B|159:260|232:305|243:356|243:356|281:325|344:347,1,259.5,0|0,3:2|0:0,0:0:0:0:
424,264,98290,6,0,B|443:234|443:234|430:182,1,86.5,10|0,0:2|0:0,0:0:0:0:
163,42,98463,2,0,B|144:72|144:72|157:124,1,86.5,2|0,3:2|0:0,0:0:0:0:
469,122,98635,6,0,P|426:109|379:134,1,86.5,10|0,0:1|0:0,0:0:0:0:
117,189,98808,2,0,P|160:202|207:177,1,86.5,6|0,0:0|3:2,0:0:0:0:
458,36,98980,6,0,P|410:59|387:121,1,108.125,10|0,0:0|0:0,0:0:0:0:
126,275,99152,2,0,P|174:252|197:190,1,108.125,4|0,0:0|0:0,0:0:0:0:
259,49,99325,6,0,B|290:2|290:2|302:103|302:103|306:101|306:101|290:168|290:168|308:244,1,291.937511136532,6|0,3:2|0:0,0:0:0:0:
318,304,99670,2,0,B|360:328|360:328|427:315,1,97.3125037121774,8|0,0:0|0:0,0:0:0:0:
464,143,99842,1,0,3:0:0:0:
464,143,99928,1,0,0:0:0:0:
464,143,100015,6,0,B|334:174|334:174|300:233,1,194.625007424355,10|2,0:1|0:0,0:0:0:0:
318,304,100273,1,0,3:0:0:0:
257,357,100359,6,0,B|230:353|230:353|210:335,3,54.0625,10|0|0|0,0:2|0:0|0:0|0:0,0:0:0:0:
303,226,100704,2,0,B|323:208|323:208|350:204,3,54.0625,0|0|0|0,3:0|0:0|0:0|0:0,0:0:0:0:
206,102,101049,5,10,0:0:0:0:
177,109,101135,1,0,0:0:0:0:
149,100,101221,2,0,B|189:69|189:69|265:81,1,97.3125037121774,0|0,3:0|0:0,0:0:0:0:
437,120,101394,5,10,0:1:0:0:
466,113,101480,1,0,0:0:0:0:
494,122,101566,2,0,B|454:153|454:153|378:141,1,97.3125037121774,0|0,0:0|3:0,0:0:0:0:
158,254,101739,5,10,0:0:0:0:
129,261,101825,1,0,0:0:0:0:
101,252,101911,2,0,B|141:221|141:221|217:233,1,97.3125037121774
458,330,102083,5,2,3:2:0:0:
427,326,102169,1,0,0:0:0:0:
396,323,102255,1,0,0:0:0:0:
365,320,102341,1,0,0:0:0:0:
335,316,102428,6,0,L|269:306,1,54.0625,10|0,0:0|0:0,0:0:0:0:
407,145,102601,2,0,L|473:135,1,54.0625,2|0,3:2|0:0,0:0:0:0:
232,371,102773,6,0,B|185:322|185:322|213:181,1,194.625007424355,10|0,0:1|0:0,0:0:0:0:
277,157,103032,1,0,3:0:0:0:
338,104,103118,6,0,P|343:74|359:46,3,54.0625,8|0|0|0,0:0|0:0|0:0|0:0,0:0:0:0:
209,197,103463,2,0,P|220:221|224:247,3,54.0625,0|0|2|0,3:2|0:0|0:0|0:0,0:0:0:0:
133,62,103808,6,0,P|97:36|37:48,1,86.5,10|0,0:0|0:0,0:0:0:0:
324,186,103980,2,0,P|366:186|400:161,1,86.5,2|0,3:2|0:0,0:0:0:0:
73,115,104152,6,0,P|100:193|102:292,1,173,10|0,0:1|0:0,0:0:0:0:
65,351,104411,1,0,3:2:0:0:
103,282,104497,6,0,B|170:250|241:292|201:325|287:361|354:318,1,259.5,10|0,0:0|0:0,0:0:0:0:
400,161,104842,6,0,B|451:156|471:54|334:32|286:125|299:204,1,291.937511136532,2|0,3:2|0:0,0:0:0:0:
363,247,105187,2,0,P|414:254|465:226,1,97.3125037121774,8|0,0:0|0:0,0:0:0:0:
410,8,105359,1,0,3:0:0:0:
410,8,105446,1,0,0:0:0:0:
414,13,105532,6,0,B|361:-2|302:19|317:31|276:64|221:37,1,194.625007424355,10|2,0:1|0:0,0:0:0:0:
156,10,105790,1,0,3:0:0:0:
95,61,105877,6,0,P|105:86|109:122,3,54.0625,10|0|0|0,0:2|0:0|0:0|0:0,0:0:0:0:
56,221,106221,2,0,P|46:246|42:272,3,54.0625,0|0|2|0,3:0|0:0|0:0|0:0,0:0:0:0:
148,357,106566,5,10,0:0:0:0:
148,357,106652,1,0,0:0:0:0:
148,357,106739,2,0,P|192:341|255:340,1,97.3125037121774,0|0,3:0|3:0,0:0:0:0:
212,190,106911,5,10,0:1:0:0:
212,190,106997,1,0,0:0:0:0:
212,190,107084,2,0,P|257:202|309:237,1,97.3125037121774,0|0,0:0|3:0,0:0:0:0:
360,89,107255,5,10,0:0:0:0:
360,89,107341,1,0,0:0:0:0:
360,89,107428,2,0,P|390:124|412:183,1,97.3125037121774,2|0,0:0|0:0,0:0:0:0:
242,338,107601,5,0,3:0:0:0:
208,341,107687,1,0,0:0:0:0:
175,332,107773,1,0,0:0:0:0:
147,313,107859,1,0,0:0:0:0:
128,285,107946,6,0,P|127:254|146:227,1,54.0625,10|0,0:0|0:0,0:0:0:0:
409,170,108118,2,0,P|420:193|418:220,1,54.0625,0|0,3:2|0:0,0:0:0:0:
57,191,108290,6,0,B|115:209|154:173|139:156|195:130|245:157,1,194.625007424355,8|0,0:1|0:0,0:0:0:0:
299,104,108549,1,0,3:2:0:0:
361,53,108635,6,0,P|388:40|421:44,3,54.0625,10|0|2|0,0:0|0:0|0:2|0:0,0:0:0:0:
237,153,108980,5,2,0:2:0:0:
228,172,109152,1,2,0:2:0:0:
254,198,109325,1,2,0:2:0:0:
209,256,109497,1,2,0:2:0:0:
273,316,109670,1,2,0:2:0:0:
179,384,109842,1,2,0:2:0:0:
283,306,110015,2,0,L|360:298,1,64.875,2|0,0:2|0:0,0:0:0:0:
409,255,110359,5,12,3:2:0:0:
256,192,117256,12,2,125532,0:0:0:0:
297,90,126221,6,0,B|335:18|490:43|481:152|406:186|366:148,1,291.937511136532,6|0,3:2|0:0,0:0:0:0:
323,213,126565,2,0,P|339:260|339:310,1,97.3125037121774,8|0,0:0|0:0,0:0:0:0:
147,365,126738,1,0,3:0:0:0:
147,365,126824,1,0,0:0:0:0:
147,365,126910,6,0,B|188:307|258:323|258:323|269:361|306:374,1,194.625007424355,10|2,0:1|0:0,0:0:0:0:
339,307,127169,1,0,3:0:0:0:
405,346,127255,6,0,P|432:358|465:355,3,54.0625,10|0|0|0,0:2|0:0|0:0|0:0,0:0:0:0:
323,213,127600,2,0,P|296:213|271:224,3,54.0625,0|0|2|0,3:0|0:0|0:0|0:0,0:0:0:0:
403,116,127945,5,10,0:0:0:0:
403,116,128031,1,0,0:0:0:0:
403,116,128117,2,0,P|450:113|499:127,1,97.3125037121774,0|0,3:0|0:0,0:0:0:0:
198,156,128289,5,10,0:1:0:0:
198,156,128375,1,0,0:0:0:0:
198,156,128462,2,0,P|151:153|102:167,1,97.3125037121774,0|0,0:0|3:0,0:0:0:0:
415,227,128634,5,10,0:0:0:0:
415,227,128720,1,0,0:0:0:0:
415,227,128806,2,0,P|462:224|511:238,1,97.3125037121774
205,263,128979,5,0,3:0:0:0:
171,269,129065,1,0,0:0:0:0:
137,268,129151,1,0,0:0:0:0:
104,260,129238,1,0,0:0:0:0:
74,244,129324,6,0,P|47:237|26:217,1,54.0625,8|0,0:0|0:0,0:0:0:0:
198,156,129496,2,0,P|218:138|244:131,1,54.0625,0|0,3:0|0:0,0:0:0:0:
358,311,129669,6,0,B|405:354|472:293|443:207|391:197,1,194.625007424355,8|0,0:1|0:0,0:0:0:0:
343,153,129927,1,0,3:0:0:0:
280,199,130014,6,0,P|268:222|269:254,3,54.0625,8|0|2|0,0:0|0:0|0:0|0:0,0:0:0:0:
312,81,130358,6,0,P|354:74|406:109,1,86.5,2|0,3:2|0:0,0:0:0:0:
319,313,130531,2,0,P|280:331|238:324,1,86.5,2|0,0:0|0:0,0:0:0:0:
445,38,130703,6,0,P|465:75|450:135,1,86.5,10|0,0:0|0:0,0:0:0:0:
190,381,130876,2,0,P|165:346|164:303,1,86.5,2|0,3:2|0:0,0:0:0:0:
194,83,131048,6,0,B|241:72|286:101|261:120|298:157|356:152,1,173,10|0,0:1|0:0,0:0:0:0:
392,92,131307,1,2,3:2:0:0:
323,54,131393,6,0,B|255:34|180:77|219:108|174:165|91:152,1,259.5,8|0,0:0|0:0,0:0:0:0:
0,102,131738,6,0,B|-17:60|17:13|104:24|139:130|54:213,1,291.937511136532,2|0,3:2|0:0,0:0:0:0:
16,280,132083,2,0,P|64:290|107:267,1,97.3125037121774,8|0,0:0|0:0,0:0:0:0:
244,136,132255,1,0,3:0:0:0:
244,136,132341,1,0,0:0:0:0:
244,136,132427,6,0,B|301:112|301:112|266:257,1,194.625007424355,10|2,0:1|0:0,0:0:0:0:
302,312,132686,1,0,3:0:0:0:
372,273,132772,6,0,L|436:261,3,54.0625,10|0|0|0,0:2|0:0|0:0|0:0,0:0:0:0:
232,351,133117,2,0,L|168:363,3,54.0625,0|0|2|0,3:0|0:0|0:0|0:0,0:0:0:0:
269,241,133462,5,10,0:0:0:0:
270,221,133548,1,0,0:0:0:0:
271,201,133634,2,0,L|370:177,1,97.3125037121774,0|0,3:0|0:0,0:0:0:0:
464,332,133807,5,10,0:1:0:0:
446,341,133893,1,0,0:0:0:0:
428,350,133979,2,0,L|357:276,1,97.3125037121774,0|0,0:0|3:0,0:0:0:0:
445,117,134152,5,10,0:0:0:0:
462,128,134238,1,0,0:0:0:0:
478,139,134324,2,0,L|449:236,1,97.3125037121774
184,56,134496,5,0,3:0:0:0:
157,64,134582,1,0,0:0:0:0:
129,65,134668,1,0,0:0:0:0:
101,57,134754,1,0,0:0:0:0:
77,43,134841,6,0,P|101:28|129:30,1,54.0625,10|0,0:0|0:0,0:0:0:0:
54,219,135014,2,0,P|27:219|4:204,1,54.0625,2|0,3:2|0:0,0:0:0:0:
262,163,135186,6,0,P|316:248|279:331,1,194.625007424355,10|0,0:1|0:0,0:0:0:0:
211,360,135445,1,0,3:2:0:0:
178,289,135531,6,0,P|151:279|125:283,3,54.0625,10|0|0|0,0:0|0:0|0:0|0:0,0:0:0:0:
282,327,135876,6,0,B|356:382|468:361|469:242|399:231|364:258,1,259.5,0|0,3:2|0:0,0:0:0:0:
341,188,136221,6,0,P|297:181|259:205,1,86.5,10|0,0:2|0:0,0:0:0:0:
47,295,136393,2,0,P|91:302|129:278,1,86.5,2|0,3:2|0:0,0:0:0:0:
321,68,136565,6,0,B|208:43|208:43|152:83,1,173,10|6,0:1|0:0,0:0:0:0:
104,130,136824,1,0,3:2:0:0:
45,179,136910,6,0,P|26:130|47:76,1,108.125,10|0,0:0|0:0,0:0:0:0:
381,16,137083,2,0,P|400:65|379:119,1,108.125,4|0,0:0|0:0,0:0:0:0:
159,374,137255,6,0,B|112:349|126:281|126:281|182:281|215:317|215:317|249:283|306:283,1,291.937511136532,6|0,3:2|0:0,0:0:0:0:
367,260,137600,2,0,L|469:236,1,97.3125037121774,8|0,0:0|0:0,0:0:0:0:
321,68,137772,1,0,3:0:0:0:
321,68,137858,1,0,0:0:0:0:
321,68,137945,6,0,B|269:48|221:77|238:105|195:131|136:112,1,194.625007424355,10|2,0:1|0:0,0:0:0:0:
99,50,138203,1,0,3:0:0:0:
168,9,138289,6,0,P|196:-2|230:2,3,54.0625,10|0|0|0,0:2|0:0|0:0|0:0,0:0:0:0:
53,116,138634,2,0,P|26:116|1:105,3,54.0625,0|0|0|0,3:0|0:0|0:0|0:0,0:0:0:0:
231,85,138979,5,10,0:0:0:0:
239,102,139065,1,0,0:0:0:0:
241,121,139152,2,0,P|201:149|141:136,1,97.3125037121774,0|0,3:0|0:0,0:0:0:0:
361,223,139324,5,10,0:1:0:0:
342,222,139410,1,0,0:0:0:0:
324,214,139497,2,0,P|320:165|361:120,1,97.3125037121774,0|0,0:0|3:0,0:0:0:0:
175,267,139669,5,10,0:0:0:0:
186,251,139755,1,0,0:0:0:0:
202,240,139842,2,0,P|246:261|265:319,1,97.3125037121774
126,52,140014,5,2,3:2:0:0:
162,35,140100,1,0,0:0:0:0:
202,37,140186,1,0,0:0:0:0:
237,58,140272,1,0,0:0:0:0:
257,92,140358,6,0,P|284:105|332:96,1,54.0625,10|0,0:0|0:0,0:0:0:0:
455,2,140531,2,0,P|428:2|404:14,1,54.0625,2|0,3:2|0:0,0:0:0:0:
267,206,140703,6,0,B|226:226|194:324|290:357|325:304,1,194.625007424355,10|0,0:1|0:0,0:0:0:0:
370,261,140962,1,0,3:0:0:0:
434,212,141048,6,0,P|464:212|490:231,3,54.0625,8|0|0|0,0:0|0:0|0:0|0:0,0:0:0:0:
313,316,141393,2,0,P|289:328|262:328,3,54.0625,0|0|2|0,3:2|0:0|0:0|0:0,0:0:0:0:
178,112,141738,6,0,P|136:109|99:135,1,86.5,10|0,0:0|0:0,0:0:0:0:
168,328,141910,2,0,P|203:351|245:348,1,86.5,2|0,3:2|0:0,0:0:0:0:
395,109,142083,6,0,B|407:59|384:26|384:26|360:59|374:109,1,173,10|0,0:1|0:0,0:0:0:0:
384,185,142341,1,0,3:2:0:0:
370,261,142427,6,0,B|352:335|386:385|386:385|422:335|401:261,1,259.5,10|0,0:0|0:0,0:0:0:0:
274,100,142772,6,0,B|221:79|177:112|177:112|158:58|108:47|108:47|127:94|98:137,1,291.937511136532,2|0,3:2|0:0,0:0:0:0:
64,202,143117,2,0,P|43:243|61:304,1,97.3125037121774,8|0,0:0|0:0,0:0:0:0:
246,347,143289,1,0,3:0:0:0:
246,347,143376,1,0,0:0:0:0:
246,347,143462,6,0,B|305:364|343:332|327:318|373:286|437:314,1,194.625007424355,10|2,0:1|0:0,0:0:0:0:
489,262,143721,1,0,3:0:0:0:
440,201,143807,6,0,P|438:173|425:144,3,54.0625,10|0|0|0,0:2|0:0|0:0|0:0,0:0:0:0:
290,217,144152,2,0,P|280:242|278:268,3,54.0625,0|0|2|0,3:0|0:0|0:0|0:0,0:0:0:0:
256,45,144496,5,10,0:0:0:0:
236,41,144583,1,0,0:0:0:0:
223,55,144669,2,0,B|246:75|252:93|252:93|246:75|262:26,1,97.3125037121774,0|0,3:0|0:0,0:0:0:0:
134,144,144841,5,10,0:1:0:0:
140,163,144928,1,0,0:0:0:0:
159,167,145014,2,0,B|164:137|177:122|177:122|164:137|114:147,1,97.3125037121774,0|0,0:0|3:0,0:0:0:0:
276,200,145186,5,10,0:0:0:0:
289,185,145273,1,0,0:0:0:0:
283,166,145359,2,0,B|254:175|235:172|235:172|254:175|288:214,1,97.3125037121774
197,314,145531,5,0,3:0:0:0:
225,288,145617,1,0,0:0:0:0:
262,278,145703,1,0,0:0:0:0:
299,287,145789,1,0,0:0:0:0:
328,313,145876,6,0,P|351:302|385:301,1,54.0625,10|0,0:0|0:0,0:0:0:0:
215,106,146048,2,0,P|192:95|158:94,1,54.0625,0|0,3:2|0:0,0:0:0:0:
460,221,146221,6,0,B|537:191|539:130|495:88|462:106|445:143,1,194.625007424355,8|0,0:1|0:0,0:0:0:0:
377,163,146479,1,0,3:2:0:0:
312,207,146565,6,0,B|266:192|219:217|239:234|202:264|134:252,1,173,10|2,0:0|0:2,0:0:0:0:
33,134,146910,5,2,0:2:0:0:
81,74,147083,1,2,0:2:0:0:
87,59,147169,1,0,0:0:0:0:
26,8,147255,6,0,L|43:122,1,86.5,10|2,0:2|0:2,0:0:0:0:
73,320,147600,5,2,3:2:0:0:
94,303,147686,1,0,0:0:0:0:
84,275,147772,1,2,0:2:0:0:
66,299,147858,1,0,0:0:0:0:
164,346,147945,5,2,3:2:0:0:
193,352,148031,1,0,0:0:0:0:
221,343,148117,1,0,0:0:0:0:
242,322,148203,1,0,0:0:0:0:
271,249,148289,6,0,P|280:216|294:196,1,54.0625,4|0,3:2|0:0,0:0:0:0:
381,292,148462,2,0,P|356:267|346:245,1,54.0625,2|0,0:0|0:0,0:0:0:0:
473,218,148634,2,0,P|439:226|415:224,1,54.0625,2|0,0:0|0:0,0:0:0:0:
454,101,148807,2,0,P|445:134|431:154,1,54.0625,2|0,3:2|0:0,0:0:0:0:
313,360,148979,5,10,0:0:0:0:
167,108,149152,2,0,L|105:90,1,54.0625
167,275,149324,2,0,L|213:230,1,54.0625,2|0,0:0|0:0,0:0:0:0:
22,191,149496,2,0,L|37:253,1,54.0625,2|0,0:0|0:0,0:0:0:0:
120,80,149669,6,0,L|171:95,1,54.0625
251,137,149841,2,0,L|302:121,1,54.0625,2|0,3:2|0:0,0:0:0:0:
382,80,150014,2,0,L|433:95,1,54.0625,2|0,3:2|0:0,0:0:0:0:
167,108,150186,2,0,L|116:93,1,54.0625,2|0,0:0|0:0,0:0:0:0:
277,0,150358,1,10,0:0:0:0:
363,299,150531,6,0,P|333:299|309:282,1,54.0625
251,333,150703,2,0,P|236:307|238:277,1,54.0625,2|0,0:0|0:0,0:0:0:0:
165,253,150876,2,0,P|180:227|206:214,1,54.0625,2|0,0:0|0:0,0:0:0:0:
429,252,151048,6,0,P|442:276|440:308,1,54.0625,2|0,3:2|0:0,0:0:0:0:
427,174,151221,2,0,P|454:174|480:192,1,54.0625
358,136,151393,2,0,P|372:112|400:98,1,54.0625,2|0,0:0|0:0,0:0:0:0:
290,176,151565,2,0,P|277:152|279:120,1,54.0625,2|0,3:2|0:0,0:0:0:0:
455,46,151738,1,10,0:0:0:0:
304,258,151910,6,0,P|274:260|247:243,1,54.0625
198,193,152083,2,0,P|168:191|141:208,1,54.0625,2|0,0:0|0:0,0:0:0:0:
92,258,152255,2,0,P|62:260|35:243,1,54.0625,2|0,0:0|0:0,0:0:0:0:
109,48,152427,6,0,L|174:41,1,54.0625,2|0,0:0|0:0,0:0:0:0:
296,25,152600,2,0,L|242:30,1,54.0625,2|0,3:2|0:0,0:0:0:0:
94,129,152772,6,0,L|159:122,1,54.0625,2|0,0:0|0:0,0:0:0:0:
334,100,152945,2,0,L|281:106,1,54.0625,2|0,3:2|0:0,0:0:0:0:
15,141,153117,5,10,0:0:0:0:
410,90,153289,1,2,0:0:0:0:
147,201,153462,5,2,0:0:0:0:
302,180,153634,1,0,0:0:0:0:
163,335,153807,6,0,L|157:282,1,54.0625,4|0,3:2|0:0,0:0:0:0:
323,314,153979,2,0,L|317:261,1,54.0625,2|0,0:0|0:0,0:0:0:0:
147,201,154152,6,0,L|141:148,1,54.0625,2|0,0:0|0:0,0:0:0:0:
302,180,154324,2,0,L|296:127,1,54.0625,2|0,3:2|0:0,0:0:0:0:
205,6,154496,5,10,0:0:0:0:
407,163,154669,2,0,P|435:169|465:154,1,54.0625
505,48,154841,2,0,P|496:20|468:2,1,54.0625,2|0,0:0|0:0,0:0:0:0:
357,19,155014,2,0,P|337:40|335:73,1,54.0625,2|0,0:0|0:0,0:0:0:0:
316,260,155186,6,0,P|307:287|279:305,1,54.0625
224,348,155358,2,0,P|195:354|165:339,1,54.0625,2|0,3:2|0:0,0:0:0:0:
101,312,155531,2,0,P|81:290|79:257,1,54.0625,2|0,3:2|0:0,0:0:0:0:
70,187,155703,2,0,P|78:159|106:141,1,54.0625,2|0,0:0|0:0,0:0:0:0:
255,74,155876,1,10,0:0:0:0:
162,263,156048,6,0,L|149:191,1,54.0625
201,147,156221,2,0,L|214:75,1,54.0625,2|0,0:0|0:0,0:0:0:0:
142,58,156393,2,0,L|129:-14,1,54.0625,2|0,0:0|0:0,0:0:0:0:
363,113,156565,6,0,L|353:166,1,54.0625,2|0,3:2|0:0,0:0:0:0:
285,205,156738,2,0,L|294:258,1,54.0625
433,168,156910,6,0,L|442:221,1,54.0625,2|0,0:0|0:0,0:0:0:0:
511,260,157083,2,0,L|501:313,1,54.0625,2|0,3:2|0:0,0:0:0:0:
376,383,157255,5,10,0:0:0:0:
276,255,157427,2,0,L|266:201,1,54.0625
205,152,157600,2,0,L|214:98,1,54.0625,2|0,0:0|0:0,0:0:0:0:
281,54,157772,2,0,L|271:0,1,54.0625,2|0,0:0|0:0,0:0:0:0:
193,168,157945,5,2,0:0:0:0:
160,183,158117,1,2,0:0:0:0:
123,168,158289,1,2,0:0:0:0:
99,117,158462,1,2,0:0:0:0:
115,56,158634,1,2,0:0:0:0:
179,3,158807,1,2,0:0:0:0:
203,19,158979,6,0,P|189:64|180:124,1,103.8,2|0,0:0|0:0,0:0:0:0:
