osu file format v14

[General]
AudioFilename: audio.mp3
AudioLeadIn: 0
PreviewTime: 125532
Countdown: 0
SampleSet: Soft
StackLeniency: 0.5
Mode: 0
LetterboxInBreaks: 0
EpilepsyWarning: 1
WidescreenStoryboard: 1

[Editor]
DistanceSpacing: 1
BeatDivisor: 4
GridSize: 32
TimelineZoom: 1.7

[Metadata]
Title:Eternity (C3EYOND Remix)
TitleUnicode:Eternity (C3EYOND Remix)
Artist:Rachel Taylor
ArtistUnicode:Rachel Taylor
Creator:Alumetri
Version:Nuvolina's Normal
Source:
Tags:english electronic come alive dnb drum and bass PantyDev Daycore 0ppInOsu smozit nuvolina gordon123
BeatmapID:3163675
BeatmapSetID:1519259

[Difficulty]
HPDrainRate:3
CircleSize:3
OverallDifficulty:3
ApproachRate:6
SliderMultiplier:1.13
SliderTickRate:1

[Events]
//Background and Video events
0,0,"bg.jpg",0,0
//Break Periods
//Storyboard Layer 0 (Background)
//Storyboard Layer 1 (Fail)
//Storyboard Layer 2 (Pass)
//Storyboard Layer 3 (Foreground)
Sprite,Foreground,Centre,"sb\kiai\circle2.png",0,0 C,0,148289,,255,164,119 M,0,148289,148332,380,114,369.8593,120.3666 F,2,148289,148833,1,0 S,2,148289,148833,5,1 P,0,148289,148833,A M,0,148332,148375,369.8593,120.3666,359.0357,125.4566 M,0,148375,148418,359.0357,125.4566,347.7478,129.4103 M,0,148418,148461,347.7478,129.4103,335.9555,131.4386 M,0,148461,148504,335.9555,131.4386,324.0111,132.3934 M,0,148504,148547,324.0111,132.3934,312.0978,131.211 M,0,148547,148590,312.0978,131.211,300.4261,128.6013 M,0,148590,148633,300.4261,128.6013,289.0975,124.7784
Sprite,Foreground,Centre,"sb\kiai\circle2.png",245,104 C,0,148807,,255,164,119 F,2,148807,149007,1,0 S,2,148807,149007,5,1 P,0,148807,149007,A
Sprite,Foreground,Centre,"sb\kiai\circle2.png",204,129 C,0,148979,,255,164,119 F,2,148979,149179,1,0 S,2,148979,149179,5,1 P,0,148979,149179,A
Sprite,Foreground,Centre,"sb\kiai\circle2.png",118,353 C,0,149841,,255,164,119 F,2,149841,150041,1,0 S,2,149841,150041,5,1 P,0,149841,150041,A
Sprite,Foreground,Centre,"sb\kiai\circle2.png",157,380 C,0,150014,,255,164,119 F,2,150014,150214,1,0 S,2,150014,150214,5,1 P,0,150014,150214,A
Sprite,Foreground,Centre,"sb\kiai\circle2.png",0,0 C,0,150358,,255,164,119 M,0,150358,150401,251,367,262.3211,363.1937 F,2,150358,150902,1,0 S,2,150358,150902,5,1 P,0,150358,150902,A M,0,150401,150444,262.3211,363.1937,274.0938,361.3365 M,0,150444,150487,274.0938,361.3365,286.0228,361.0756 M,0,150487,150530,286.0228,361.0756,297.6783,363.6285 M,0,150530,150573,297.6783,363.6285,308.7253,368.0865 M,0,150573,150616,308.7253,368.0865,318.98,374.1271 M,0,150616,150659,318.98,374.1271,327.6577,382.3027 M,0,150659,150702,327.6577,382.3027,335,391
Sprite,Foreground,Centre,"sb\kiai\circle2.png",0,0 C,0,151048,,255,164,119 M,0,151048,151091,428,417,437.2721,409.4426 F,2,151048,151765,1,0 S,2,151048,151765,5,1 P,0,151048,151765,A M,0,151091,151134,437.2721,409.4426,445.3828,400.6713 M,0,151134,151177,445.3828,400.6713,452.2073,390.89 M,0,151177,151220,452.2073,390.89,457.1933,380.033 M,0,151220,151263,457.1933,380.033,460.6696,368.6216 M,0,151263,151306,460.6696,368.6216,462.0374,356.7524 M,0,151306,151349,462.0374,356.7524,461.8253,344.8225 M,0,151349,151392,461.8253,344.8225,459.4393,333.1147 M,0,151392,151435,459.4393,333.1147,455.5576,321.8289 M,0,151435,151479,455.5576,321.8289,449.6534,311.4403 M,0,151479,151522,449.6534,311.4403,442.4786,301.899 M,0,151522,151565,442.4786,301.899,433.6394,293.8571
Sprite,Foreground,Centre,"sb\kiai\circle2.png",393,267 C,0,151738,,255,164,119 F,2,151738,151938,1,0 S,2,151738,151938,5,1 P,0,151738,151938,A
Sprite,Foreground,Centre,"sb\kiai\circle2.png",271,189 C,0,152255,,128,255,128 F,2,152255,152455,1,0 S,2,152255,152455,5,1 P,0,152255,152455,A
Sprite,Foreground,Centre,"sb\kiai\circle2.png",0,0 C,0,152427,,128,255,128 M,0,152427,152470,226,170,223.642,158.2778 F,2,152427,152971,1,0 S,2,152427,152971,5,1 P,0,152427,152971,A M,0,152470,152513,223.642,158.2778,223.0405,146.353 M,0,152513,152556,223.0405,146.353,224.1552,134.4869 M,0,152556,152599,224.1552,134.4869,227.4787,123.018 M,0,152599,152642,227.4787,123.018,232.3783,112.1501 M,0,152642,152685,232.3783,112.1501,239.2632,102.3933 M,0,152685,152728,239.2632,102.3933,247.4212,93.69612 M,0,152728,152771,247.4212,93.69612,257.1142,86.72015
Sprite,Foreground,Centre,"sb\kiai\circle2.png",0,0 C,0,153117,,128,255,128 M,0,153117,153160,349,114,357.8181,122.0746 F,2,153117,153834,1,0 S,2,153117,153834,5,1 P,0,153117,153834,A M,0,153160,153203,357.8181,122.0746,367.7228,128.7385 M,0,153203,153246,367.7228,128.7385,378.4234,134.0041 M,0,153246,153289,378.4234,134.0041,389.9664,137.0632 M,0,153289,153332,389.9664,137.0632,401.8025,138.6524 M,0,153332,153375,401.8025,138.6524,413.7157,137.7677 M,0,153375,153418,413.7157,137.7677,425.4623,135.5037 M,0,153418,153461,425.4623,135.5037,436.4362,130.769 M,0,153461,153504,436.4362,130.769,446.5711,124.4641 M,0,153504,153548,446.5711,124.4641,455.6994,116.8034 M,0,153548,153591,455.6994,116.8034,463.2167,107.5285 M,0,153591,153634,463.2167,107.5285,469.5685,97.39938
Sprite,Foreground,Centre,"sb\kiai\circle2.png",526,102 C,0,153807,,128,255,255 F,2,153807,154007,1,0 S,2,153807,154007,5,1 P,0,153807,154007,A
Sprite,Foreground,Centre,"sb\kiai\circle2.png",549,268 C,0,154324,,128,255,255 F,2,154324,154524,1,0 S,2,154324,154524,5,1 P,0,154324,154524,A
Sprite,Foreground,Centre,"sb\kiai\circle2.png",531,312 C,0,154496,,128,255,255 F,2,154496,154696,1,0 S,2,154496,154696,5,1 P,0,154496,154696,A
Sprite,Foreground,Centre,"sb\kiai\circle2.png",0,0 C,0,154841,,128,255,255 M,0,154841,154884,478,392,466.0643,393.2999 F,2,154841,155385,1,0 S,2,154841,155385,5,1 P,0,154841,155385,A M,0,154884,154927,466.0643,393.2999,454.1287,394.5999 M,0,154927,154970,454.1287,394.5999,442.193,395.8998 M,0,154970,155013,442.193,395.8998,430.2573,397.1997 M,0,155013,155056,430.2573,397.1997,418.3217,398.4996 M,0,155056,155099,418.3217,398.4996,406.386,399.7996 M,0,155099,155142,406.386,399.7996,394.4503,401.0995 M,0,155142,155185,394.4503,401.0995,382.5146,402.3994
Sprite,Foreground,Centre,"sb\kiai\circle2.png",338,381 C,0,155358,,128,255,255 F,2,155358,155558,1,0 S,2,155358,155558,5,1 P,0,155358,155558,A
Sprite,Foreground,Centre,"sb\kiai\circle2.png",290,386 C,0,155531,,128,255,255 F,2,155531,155731,1,0 S,2,155531,155731,5,1 P,0,155531,155731,A
Sprite,Foreground,Centre,"sb\kiai\circle2.png",0,0 C,0,155876,,128,255,255 M,0,155876,155919,201,422,194.7392,411.7917 F,2,155876,156593,1,0 S,2,155876,156593,5,1 P,0,155876,156593,A M,0,155919,155962,194.7392,411.7917,189.722,400.9301 M,0,155962,156005,189.722,400.9301,185.9652,389.5842 M,0,156005,156048,185.9652,389.5842,183.9491,377.7902 M,0,156048,156091,183.9491,377.7902,183.2411,365.8567 M,0,156091,156134,183.2411,365.8567,184.3655,353.9438 M,0,156134,156177,184.3655,353.9438,186.7557,342.2274 M,0,156177,156220,186.7557,342.2274,190.9435,331.0173 M,0,156220,156263,190.9435,331.0173,196.2723,320.3086 M,0,156263,156307,196.2723,320.3086,203.235,310.5748 M,0,156307,156350,203.235,310.5748,211.1449,301.5969 M,0,156350,156393,211.1449,301.5969,220.4027,294.0112
Sprite,Foreground,Centre,"sb\kiai\circle2.png",239,249 C,0,156565,,128,255,255 F,2,156565,156765,1,0 S,2,156565,156765,5,1 P,0,156565,156765,A
Sprite,Foreground,Centre,"sb\kiai\circle2.png",139,144 C,0,157083,,128,255,255 F,2,157083,157283,1,0 S,2,157083,157283,5,1 P,0,157083,157283,A
Sprite,Foreground,Centre,"sb\kiai\circle2.png",163,103 C,0,157255,,128,255,255 F,2,157255,157455,1,0 S,2,157255,157455,5,1 P,0,157255,157455,A
Sprite,Foreground,Centre,"sb\kiai\circle2.png",305,125 C,0,157772,,255,128,192 F,2,157772,157972,1,0 S,2,157772,157972,5,1 P,0,157772,157972,A
//Storyboard Layer 4 (Overlay)
//Storyboard Sound Samples

[TimingPoints]
15,344.827586206897,4,2,1,50,1,0
9066,-100,4,2,1,50,0,0
9152,-100,4,2,1,50,0,0
19928,-100,4,2,1,50,0,0
20015,-100,4,2,1,50,0,0
20273,-100,4,2,1,50,0,0
20359,-100,4,2,1,50,0,0
20877,-100,4,2,1,50,0,0
20963,-100,4,2,1,50,0,0
21178,-100,4,2,1,50,0,0
21221,-100,4,2,1,50,0,0
21265,-100,4,2,1,50,0,0
21308,-100,4,2,1,50,0,0
21351,-100,4,2,1,50,0,0
21394,-100,4,2,1,50,0,0
21997,-100,4,2,1,50,0,0
22083,-117.647058823529,4,2,1,60,0,0
33118,-100,4,2,1,70,0,0
33463,-100,4,2,1,70,0,0
35877,-100,4,2,1,70,0,0
36221,-100,4,2,1,70,0,0
38635,-100,4,2,1,80,0,0
38980,-100,4,2,1,80,0,0
40015,-100,4,2,1,82,0,0
40359,-100,4,2,1,82,0,0
41394,-100,4,2,1,84,0,0
41739,-100,4,2,1,84,0,0
42083,-100,4,2,1,86,0,0
42773,-100,4,2,1,88,0,0
43463,-100,4,2,1,90,0,0
44152,-90.9090909090909,4,2,1,95,0,1
45187,-90.9090909090909,4,2,1,95,0,1
45877,-90.9090909090909,4,2,1,95,0,1
46911,-90.9090909090909,4,2,1,95,0,1
47601,-90.9090909090909,4,2,1,95,0,1
47946,-90.9090909090909,4,2,1,95,0,1
48290,-90.9090909090909,4,2,1,95,0,1
49670,-90.9090909090909,4,2,1,95,0,1
50704,-90.9090909090909,4,2,1,95,0,1
51394,-90.9090909090909,4,2,1,95,0,1
52773,-90.9090909090909,4,2,1,95,0,1
53118,-90.9090909090909,4,2,1,95,0,1
53463,-90.9090909090909,4,2,1,95,0,1
53808,-90.9090909090909,4,2,1,95,0,1
54842,-90.9090909090909,4,2,1,95,0,1
55187,-90.9090909090909,4,2,1,95,0,1
56221,-90.9090909090909,4,2,1,95,0,1
56912,-90.9090909090909,4,2,1,95,0,1
57946,-90.9090909090909,4,2,1,95,0,1
58635,-90.9090909090909,4,2,1,95,0,1
58980,-90.9090909090909,4,2,1,95,0,1
59670,-90.9090909090909,4,2,1,95,0,1
60704,-90.9090909090909,4,2,1,95,0,1
61739,-90.9090909090909,4,2,1,95,0,1
62428,-90.9090909090909,4,2,1,95,0,1
63808,-90.9090909090909,4,2,1,95,0,1
64152,-90.9090909090909,4,2,1,95,0,1
64497,-90.9090909090909,4,2,1,95,0,1
64842,-100,4,2,1,95,0,0
65877,-100,4,2,1,95,0,0
66221,-117.647058823529,4,2,1,75,0,0
67342,-117.647058823529,4,2,1,75,0,0
67428,-117.647058823529,4,2,1,75,0,0
73721,-117.647058823529,4,2,1,75,0,0
73808,-117.647058823529,4,2,1,75,0,0
74411,-117.647058823529,4,2,1,75,0,0
74497,-117.647058823529,4,2,1,75,0,0
77256,-100,4,2,1,75,0,0
83204,-100,4,2,1,75,0,0
83291,-100,4,2,1,75,0,0
83377,-100,4,2,1,75,0,0
83463,-100,4,2,1,75,0,0
83721,-100,4,2,1,75,0,0
83808,-100,4,2,1,75,0,0
84153,-100,4,2,1,75,0,0
84239,-100,4,2,1,75,0,0
84625,-100,4,2,1,75,0,0
84668,-100,4,2,1,75,0,0
84712,-100,4,2,1,75,0,0
84755,-100,4,2,1,75,0,0
84798,-100,4,2,1,75,0,0
84841,-100,4,2,1,75,0,0
85446,-100,4,2,1,75,0,0
85532,-100,4,2,1,75,0,0
87601,-100,4,2,1,90,0,0
87687,-100,4,2,1,87,0,0
87773,-100,4,2,1,84,0,0
87859,-100,4,2,1,81,0,0
87946,-100,4,2,1,78,0,0
88032,-100,4,2,1,75,0,0
88118,-100,4,2,1,72,0,0
88204,-100,4,2,1,70,0,0
88290,-90.9090909090909,4,2,1,95,0,1
89325,-90.9090909090909,4,2,1,95,0,1
90015,-90.9090909090909,4,2,1,95,0,1
91049,-90.9090909090909,4,2,1,95,0,1
91739,-90.9090909090909,4,2,1,95,0,1
92083,-90.9090909090909,4,2,1,95,0,1
92428,-90.9090909090909,4,2,1,95,0,1
93808,-90.9090909090909,4,2,1,95,0,1
94842,-90.9090909090909,4,2,1,95,0,1
95532,-90.9090909090909,4,2,1,95,0,1
96911,-90.9090909090909,4,2,1,95,0,1
97256,-90.9090909090909,4,2,1,95,0,1
97601,-90.9090909090909,4,2,1,95,0,1
97946,-90.9090909090909,4,2,1,95,0,1
98980,-90.9090909090909,4,2,1,95,0,1
99325,-90.9090909090909,4,2,1,95,0,1
100359,-90.9090909090909,4,2,1,95,0,1
101050,-90.9090909090909,4,2,1,95,0,1
102084,-90.9090909090909,4,2,1,95,0,1
102773,-90.9090909090909,4,2,1,95,0,1
103118,-90.9090909090909,4,2,1,95,0,1
103808,-90.9090909090909,4,2,1,95,0,1
104842,-90.9090909090909,4,2,1,95,0,1
105877,-90.9090909090909,4,2,1,95,0,1
106566,-90.9090909090909,4,2,1,95,0,1
107946,-90.9090909090909,4,2,1,95,0,1
108290,-90.9090909090909,4,2,1,95,0,1
108635,-90.9090909090909,4,2,1,95,0,1
108980,-100,4,2,1,95,0,0
110015,-100,4,2,1,95,0,0
110359,-117.647058823529,4,2,1,65,0,0
125532,-117.647058823529,4,2,1,35,0,0
126221,344.827586206897,4,2,1,95,1,1
126221,-90.9090909090909,4,2,1,95,0,1
127255,-90.9090909090909,4,2,1,95,0,1
127945,-90.9090909090909,4,2,1,95,0,1
128980,-90.9090909090909,4,2,1,95,0,1
129669,-90.9090909090909,4,2,1,95,0,1
130014,-90.9090909090909,4,2,1,95,0,1
130358,-90.9090909090909,4,2,1,95,0,1
131739,-90.9090909090909,4,2,1,95,0,1
132772,-90.9090909090909,4,2,1,95,0,1
133463,-90.9090909090909,4,2,1,95,0,1
134841,-90.9090909090909,4,2,1,95,0,1
135186,-90.9090909090909,4,2,1,95,0,1
135531,-90.9090909090909,4,2,1,95,0,1
135876,-90.9090909090909,4,2,1,95,0,1
136910,-90.9090909090909,4,2,1,95,0,1
137255,-90.9090909090909,4,2,1,95,0,1
138289,-90.9090909090909,4,2,1,95,0,1
138979,-90.9090909090909,4,2,1,95,0,1
140014,-90.9090909090909,4,2,1,95,0,1
140703,-90.9090909090909,4,2,1,95,0,1
141048,-90.9090909090909,4,2,1,95,0,1
141738,-90.9090909090909,4,2,1,95,0,1
142772,-90.9090909090909,4,2,1,95,0,1
143807,-90.9090909090909,4,2,1,95,0,1
144496,-90.9090909090909,4,2,1,95,0,1
145876,-90.9090909090909,4,2,1,95,0,1
146221,-90.9090909090909,4,2,1,95,0,1
146565,-90.9090909090909,4,2,1,95,0,1
146910,-100,4,2,1,95,0,0
148289,-117.647058823529,4,2,1,85,0,0
157772,-117.647058823529,4,2,1,45,0,0
158979,-100,4,2,1,45,0,0
160014,-100,4,2,1,85,0,0

[Colours]
Combo1 : 128,255,128
Combo2 : 128,255,255
Combo3 : 255,128,192
Combo4 : 255,164,119

[HitObjects]
51,44,22083,5,6,3:2:0:0:
51,44,22773,2,0,P|33:119|88:174,1,144.075002748013,2|2,0:0|0:0,0:0:0:0:
117,181,23463,1,2,0:0:0:0:
242,110,23980,1,2,0:0:0:0:
289,109,24152,2,0,B|259:220,1,96.0500018320084,2|2,0:0|0:0,0:0:0:0:
443,361,25359,5,2,0:0:0:0:
485,338,25532,2,0,P|444:276|483:202,1,144.075002748013,2|2,0:0|0:0,0:0:0:0:
486,172,26221,1,2,0:0:0:0:
423,41,26739,1,2,0:0:0:0:
378,23,26911,2,0,L|326:31,1,48.0250009160042,2|0,0:0|0:0,0:0:0:0:
303,69,27256,2,0,L|196:56,1,96.0500018320084,2|2,0:0|0:0,0:0:0:0:
32,130,28290,6,0,P|61:189|20:260,1,144.075002748013,2|2,0:0|0:0,0:0:0:0:
28,302,28980,1,2,0:0:0:0:
155,369,29497,1,2,0:0:0:0:
197,346,29670,1,2,0:0:0:0:
386,377,30359,5,2,0:0:0:0:
481,269,30877,1,2,0:0:0:0:
447,234,31049,1,2,0:0:0:0:
333,144,31566,1,2,0:0:0:0:
363,106,31739,2,0,P|358:39|423:12,2,144.075002748013,2|2|2,0:0|0:0|0:0,0:0:0:0:
249,108,33118,5,6,3:2:0:0:
249,108,33808,2,0,P|231:162|280:219,1,113,2|0,0:0|0:0,0:0:0:0:
360,254,34497,2,0,P|378:308|329:365,1,113,2|0,0:0|0:0,0:0:0:0:
240,374,35187,1,2,0:0:0:0:
53,246,35877,5,6,3:2:0:0:
41,133,36221,2,0,P|118:109|191:169,1,169.5,2|0,0:0|0:0,0:0:0:0:
242,158,36911,1,2,0:0:0:0:
349,192,37256,2,0,P|315:249|340:307,1,113,2|0,0:0|0:0,0:0:0:0:
418,356,37946,2,0,P|452:299|427:241,1,113,2|0,0:0|0:0,0:0:0:0:
512,173,38635,5,4,3:2:0:0:
512,173,39325,2,0,L|468:50,1,113,2|0,0:0|0:0,0:0:0:0:
368,107,40015,2,0,L|412:-16,1,113,6|0,3:2|0:0,0:0:0:0:
294,19,40704,1,2,0:0:0:0:
174,210,41394,5,6,3:2:0:0:
103,298,41739,1,2,3:2:0:0:
21,220,42083,1,0,3:2:0:0:
85,132,42428,1,2,3:2:0:0:
174,210,42773,5,2,3:2:0:0:
224,236,42946,1,0,3:2:0:0:
261,193,43118,1,0,3:2:0:0:
360,247,43463,2,0,B|387:235|387:235|438:251,1,56.5,2|0,3:2|3:2,0:0:0:0:
469,244,43808,2,0,B|466:210|466:210|448:176,1,56.5,0|0,3:2|3:2,0:0:0:0:
488,137,44152,6,0,P|494:68|432:36,1,124.300003793335,6|8,3:2|0:0,0:0:0:0:
343,93,44842,1,10,0:1:0:0:
289,61,45015,1,2,0:0:0:0:
239,98,45187,2,0,P|178:113|138:74,1,124.300003793335,10|0,0:2|3:0,0:0:0:0:
19,41,45877,6,0,L|0:107,1,62.1500018966675,10|0,0:0|3:0,0:0:0:0:
48,141,46221,2,0,L|53:208,1,62.1500018966675,10|0,0:1|0:0,0:0:0:0:
18,255,46566,1,10,0:0:0:0:
98,350,46911,2,0,B|160:397|210:389|263:282|345:358,1,248.60000758667,0|8,3:0|0:1,0:0:0:0:
458,210,48118,5,2,0:0:0:0:
443,149,48290,2,0,L|498:108,2,62.1500018966675,2|2|10,3:2|0:0|0:0,0:0:0:0:
318,155,48980,2,0,P|326:194|284:237,2,93.2250028450013,10|2|0,0:1|3:2|0:0,0:0:0:0:
258,136,49670,5,2,3:2:0:0:
109,23,50187,1,0,3:0:0:0:
47,15,50359,1,10,0:1:0:0:
18,136,50704,2,0,P|35:191|-7:261,1,124.300003793335,10|0,0:2|3:0,0:0:0:0:
59,362,51394,6,0,L|125:343,1,62.1500018966675,10|0,0:0|3:0,0:0:0:0:
137,285,51738,2,0,L|204:290,1,62.1500018966675,10|0,0:1|0:0,0:0:0:0:
243,332,52083,1,10,0:0:0:0:
488,374,52773,5,10,0:0:0:0:
498,312,52946,1,2,3:2:0:0:
509,248,53118,1,10,0:1:0:0:
424,157,53463,1,10,0:0:0:0:
261,248,53980,5,2,0:2:0:0:
211,210,54152,1,10,0:2:0:0:
113,132,54497,1,10,0:1:0:0:
71,178,54670,1,2,0:0:0:0:
29,223,54842,1,10,0:0:0:0:
16,346,55187,6,0,P|73:315|150:345,1,124.300003793335,6|8,3:2|0:0,0:0:0:0:
246,367,55877,1,10,0:1:0:0:
302,341,56050,1,2,0:0:0:0:
362,354,56222,2,0,P|377:293|338:253,1,124.300003793335,10|0,0:2|3:0,0:0:0:0:
229,191,56911,5,10,0:0:0:0:
115,242,57256,1,10,0:1:0:0:
31,149,57601,1,10,0:0:0:0:
145,99,57946,1,2,3:2:0:0:
229,191,58290,6,0,L|299:205,1,62.1500018966675,10|2,0:0|3:2,0:0:0:0:
325,254,58635,2,0,L|397:231,1,62.1500018966675,10|0,0:1|0:0,0:0:0:0:
442,213,58980,1,8,0:0:0:0:
490,98,59325,5,0,3:2:0:0:
433,71,59498,1,2,0:0:0:0:
374,90,59670,2,0,L|349:24,2,62.1500018966675,10|2|10,0:0|3:2|0:1,0:0:0:0:
256,129,60359,1,10,0:0:0:0:
161,47,60705,5,2,3:2:0:0:
0,141,61221,1,0,3:0:0:0:
52,175,61394,1,10,0:1:0:0:
33,298,61739,2,0,P|90:287|135:343,1,124.300003793335,10|0,0:2|3:0,0:0:0:0:
258,355,62429,2,0,L|277:285,1,62.1500018966675,10|0,0:0|3:0,0:0:0:0:
251,237,62773,2,0,L|281:176,1,62.1500018966675,10|0,0:1|0:0,0:0:0:0:
261,121,63118,1,10,0:0:0:0:
370,62,63463,5,0,3:0:0:0:
483,113,63808,1,10,0:0:0:0:
487,175,63981,1,0,3:2:0:0:
489,236,64153,1,8,0:1:0:0:
418,338,64498,1,10,0:0:0:0:
418,338,66221,5,4,3:2:0:0:
418,338,66911,2,0,P|355:302|280:326,1,144.075002748013,10|2,0:0|0:0,0:0:0:0:
251,349,67601,1,2,0:0:0:0:
107,332,68118,1,2,0:0:0:0:
82,290,68290,2,0,P|90:237|126:211,1,96.0500018320084,10|2,0:0|0:0,0:0:0:0:
403,149,69670,6,0,P|398:98|311:82,1,144.075002748013,10|2,0:0|0:0,0:0:0:0:
273,61,70359,1,2,0:0:0:0:
136,108,70877,1,2,0:0:0:0:
89,98,71049,2,0,P|75:145|100:195,1,96.0500018320084,10|2,0:0|0:0,0:0:0:0:
343,327,72428,6,0,P|401:347|470:275,1,144.075002748013,10|2,0:0|0:0,0:0:0:0:
495,266,73118,1,2,0:0:0:0:
419,143,73635,1,2,0:0:0:0:
372,156,73808,2,0,L|384:52,1,96.0500018320084,10|2,0:0|0:3,0:0:0:0:
290,86,74497,6,0,P|226:105|154:53,1,144.075002748013,2|2,3:2|3:2,0:0:0:0:
118,49,75187,1,10,0:0:0:0:
37,168,75704,1,2,0:0:0:0:
72,200,75877,2,0,P|139:195|166:260,2,144.075002748013,2|2|2,0:0|3:2|0:0,0:0:0:0:
12,296,77256,5,2,3:2:0:0:
233,341,77946,2,0,P|287:359|344:310,1,113,10|0,0:0|0:0,0:0:0:0:
299,224,78635,2,0,P|353:206|410:255,1,113,2|0,0:0|3:0,0:0:0:0:
460,327,79325,1,10,0:0:0:0:
489,102,80015,5,2,3:2:0:0:
397,36,80359,2,0,P|320:12|280:89,1,169.5,2|0,0:0|0:0,0:0:0:0:
312,122,81049,1,2,0:0:0:0:
369,219,81394,2,0,B|303:274|250:268|161:192|106:189|44:241,1,339,2|0,0:0|0:0,0:0:0:0:
15,343,82773,5,2,3:2:0:0:
15,343,83463,2,0,P|69:365|130:325,1,113,10|0,0:0|0:0,0:0:0:0:
154,237,84152,2,0,P|208:215|269:255,1,113
340,310,84842,1,10,0:0:0:0:
481,133,85532,5,2,3:2:0:0:
394,60,85877,2,0,P|358:103|374:175,1,113,2|8,0:0|0:0,0:0:0:0:
352,269,86566,1,2,0:0:0:0:
260,334,86911,1,2,0:0:0:0:
200,115,87601,1,8,0:3:0:0:
448,126,88290,6,0,P|442:195|504:227,1,124.300003793335,6|8,3:2|0:0,0:0:0:0:
467,349,88980,1,10,0:1:0:0:
410,375,89153,1,2,0:0:0:0:
361,336,89325,2,0,P|300:321|260:360,1,124.300003793335,10|0,0:2|3:0,0:0:0:0:
135,375,90015,6,0,P|121:348|116:309,1,62.1500018966675,10|0,0:0|3:0,0:0:0:0:
152,266,90359,2,0,P|147:236|113:209,1,62.1500018966675,10|0,0:1|0:0,0:0:0:0:
66,194,90704,1,10,0:0:0:0:
24,76,91049,2,0,B|78:35|136:43|179:160|271:68,1,248.60000758667,0|8,3:0|0:1,0:0:0:0:
438,113,92256,5,2,0:0:0:0:
495,89,92428,2,0,L|495:10,2,62.1500018966675,2|2|10,3:2|0:0|0:0,0:0:0:0:
476,212,93118,2,0,P|514:250|497:307,2,93.2250028450013,10|2|0,0:1|3:2|0:0,0:0:0:0:
420,241,93808,5,2,3:2:0:0:
274,356,94325,1,0,3:0:0:0:
221,323,94497,1,10,0:1:0:0:
99,347,94842,2,0,P|125:291|75:237,1,124.300003793335,10|0,0:2|3:0,0:0:0:0:
21,141,95532,6,0,L|87:122,1,62.1500018966675,10|0,0:0|3:0,0:0:0:0:
137,149,95876,2,0,L|201:140,1,62.1500018966675,10|0,0:1|0:0,0:0:0:0:
229,86,96221,2,0,P|280:131|268:207,1,124.300003793335,10|0,0:0|3:0,0:0:0:0:
238,300,96911,5,10,0:0:0:0:
290,333,97084,1,2,3:2:0:0:
344,362,97256,1,10,0:1:0:0:
455,307,97601,1,10,0:0:0:0:
417,124,98118,5,2,0:2:0:0:
435,64,98290,1,10,0:2:0:0:
318,20,98635,1,10,0:1:0:0:
257,35,98808,1,6,0:0:0:0:
197,52,98980,1,10,0:0:0:0:
73,41,99325,6,0,P|86:98|34:153,1,124.300003793335,6|8,3:2|0:0,0:0:0:0:
21,268,100015,1,10,0:1:0:0:
68,308,100188,1,2,0:0:0:0:
128,294,100360,2,0,P|189:279|229:318,1,124.300003793335,10|0,0:2|3:0,0:0:0:0:
340,373,101049,5,10,0:0:0:0:
420,278,101394,1,10,0:1:0:0:
336,186,101739,1,10,0:0:0:0:
393,75,102084,1,2,3:2:0:0:
270,46,102428,6,0,L|200:60,1,62.1500018966675,10|2,0:0|3:2,0:0:0:0:
202,120,102773,2,0,L|130:97,1,62.1500018966675,10|0,0:1|0:0,0:0:0:0:
89,133,103118,1,8,0:0:0:0:
113,254,103463,5,0,3:2:0:0:
168,282,103636,1,2,0:0:0:0:
224,256,103808,2,0,L|249:322,2,62.1500018966675,10|2|10,0:0|3:2|0:1,0:0:0:0:
288,149,104497,1,10,0:0:0:0:
411,132,104843,5,2,3:2:0:0:
481,303,105359,1,0,3:0:0:0:
434,344,105532,1,10,0:1:0:0:
317,299,105877,2,0,P|260:288|215:344,1,124.300003793335,10|0,0:2|3:0,0:0:0:0:
93,344,106567,2,0,P|91:309|112:274,1,62.1500018966675,10|0,0:0|3:0,0:0:0:0:
150,246,106911,2,0,P|153:210|121:176,1,62.1500018966675,10|0,0:1|0:0,0:0:0:0:
86,157,107256,1,10,0:0:0:0:
27,47,107601,5,0,3:0:0:0:
149,27,107946,1,10,0:0:0:0:
210,36,108119,1,0,3:2:0:0:
271,44,108291,1,8,0:1:0:0:
343,144,108636,1,10,0:0:0:0:
343,144,110359,5,12,3:2:0:0:
343,144,112428,6,0,L|354:94,2,48.0250009160042
280,217,113118,1,0,0:0:0:0:
54,298,113980,2,0,L|69:354,2,48.0250009160042
31,255,114497,2,0,L|46:199,1,48.0250009160042
28,162,114842,1,0,0:0:0:0:
61,71,115187,6,0,L|128:74,1,48.0250009160042
149,47,115532,1,0,0:0:0:0:
243,100,115877,1,0,0:0:0:0:
482,122,116739,6,0,L|497:66,2,48.0250009160042
502,165,117256,2,0,L|487:221,1,48.0250009160042
475,257,117601,1,0,0:0:0:0:
404,322,117946,5,0,0:0:0:0:
267,366,118463,1,0,0:0:0:0:
219,359,118635,2,0,L|212:293,1,48.0250009160042
155,235,119152,1,0,0:0:0:0:
183,195,119325,1,0,0:0:0:0:
39,180,119842,2,0,L|15:279,1,96.0500018320084
123,369,120704,5,0,0:0:0:0:
266,361,121221,1,0,0:0:0:0:
300,327,121394,2,0,L|263:239,1,96.0500018320084
201,164,122083,2,0,L|141:183,2,48.0250009160042
218,118,122601,1,0,0:0:0:0:
261,96,122773,1,0,0:0:0:0:
356,101,123118,2,0,L|389:213,1,96.0500018320084
256,192,123635,12,2,125532,0:0:0:0:
104,69,126221,6,0,P|110:138|48:170,1,124.300003793335,6|8,3:2|0:0,0:0:0:0:
20,282,126911,1,10,0:1:0:0:
67,322,127084,1,2,0:0:0:0:
124,299,127256,2,0,P|185:284|225:323,1,124.300003793335,10|0,0:2|3:0,0:0:0:0:
344,359,127946,6,0,L|353:290,1,62.1500018966675,10|0,0:0|3:0,0:0:0:0:
305,256,128290,2,0,L|321:188,1,62.1500018966675,10|0,0:1|0:0,0:0:0:0:
373,165,128635,1,10,0:0:0:0:
441,61,128980,2,0,B|400:6|345:19|289:84|194:53,1,248.60000758667,0|8,3:0|0:1,0:0:0:0:
83,196,130187,5,2,0:0:0:0:
71,256,130359,2,0,L|0:245,2,62.1500018966675,2|2|10,3:2|0:0|0:0,0:0:0:0:
186,303,131049,2,0,P|166:345|208:390,2,93.2250028450013,10|2|0,0:1|3:2|0:0,0:0:0:0:
243,279,131739,5,2,3:2:0:0:
416,348,132256,1,0,3:0:0:0:
443,292,132428,1,10,0:1:0:0:
371,190,132773,2,0,P|384:131|457:108,1,124.300003793335,10|0,0:2|3:0,0:0:0:0:
337,31,133463,6,0,P|308:30|271:50,1,62.1500018966675,10|0,0:0|3:0,0:0:0:0:
240,92,133807,2,0,P|205:91|177:69,1,62.1500018966675,10|0,0:1|0:0,0:0:0:0:
132,40,134152,1,10,0:0:0:0:
82,283,134842,5,10,0:0:0:0:
138,309,135015,1,2,3:2:0:0:
196,329,135187,1,10,0:1:0:0:
309,278,135532,1,10,0:0:0:0:
167,156,136049,5,2,0:2:0:0:
105,164,136221,1,10,0:2:0:0:
81,41,136566,1,10,0:1:0:0:
142,32,136739,1,6,0:0:0:0:
203,26,136911,1,10,0:0:0:0:
324,54,137256,6,0,P|284:105|320:163,1,124.300003793335,6|8,3:2|0:0,0:0:0:0:
403,230,137946,1,10,0:1:0:0:
436,282,138117,1,2,0:0:0:0:
399,332,138289,2,0,P|338:347|298:308,1,124.300003793335,10|0,0:2|3:0,0:0:0:0:
192,242,138980,5,10,0:0:0:0:
114,339,139325,1,10,0:1:0:0:
0,303,139670,1,10,0:0:0:0:
1,178,140015,1,2,3:2:0:0:
119,140,140359,6,0,L|189:154,1,62.1500018966675,10|2,0:0|3:2,0:0:0:0:
237,176,140704,2,0,L|309:153,1,62.1500018966675,10|0,0:1|0:0,0:0:0:0:
355,177,141049,1,8,0:0:0:0:
386,297,141394,5,0,3:2:0:0:
440,327,141565,1,2,0:0:0:0:
498,307,141739,2,0,L|506:387,2,62.1500018966675,10|2|10,0:0|3:2|0:1,0:0:0:0:
501,182,142428,1,10,0:0:0:0:
434,76,142772,5,2,3:2:0:0:
251,114,143290,1,0,3:0:0:0:
195,84,143463,1,10,0:1:0:0:
77,42,143808,2,0,P|88:99|32:144,1,124.300003793335,10|0,0:2|3:0,0:0:0:0:
19,264,144496,2,0,L|92:254,1,62.1500018966675,10|0,0:0|3:0,0:0:0:0:
122,301,144842,2,0,L|193:275,1,62.1500018966675,10|0,0:1|0:0,0:0:0:0:
216,228,145187,1,10,0:0:0:0:
315,302,145532,5,0,3:0:0:0:
433,263,145877,1,10,0:0:0:0:
423,201,146048,1,0,3:2:0:0:
410,140,146221,1,8,0:1:0:0:
316,58,146565,1,10,0:0:0:0:
316,58,148289,6,0,P|270:76|212:62,1,96.0500018320084,4|2,3:2|0:0,0:0:0:0:
181,48,148807,1,2,3:2:0:0:
140,73,148979,1,10,0:0:0:0:
54,297,149841,1,2,3:2:0:0:
93,324,150014,1,2,3:2:0:0:
187,311,150358,2,0,P|229:306|271:335,1,96.0500018320084,10|2,0:0|0:0,0:0:0:0:
364,361,151048,2,0,P|398:288|362:232,1,144.075002748013,2|2,3:2|3:2,0:0:0:0:
329,211,151738,1,10,0:0:0:0:
207,133,152255,5,2,0:0:0:0:
162,114,152427,2,0,P|166:60|201:26,1,96.0500018320084,2|2,0:0|0:0,0:0:0:0:
285,58,153117,2,0,P|351:82|408:36,1,144.075002748013,10|0,0:0|0:0,0:0:0:0:
462,46,153807,5,4,3:2:0:0:
485,212,154324,1,2,3:2:0:0:
467,256,154496,1,10,0:0:0:0:
414,336,154841,2,0,L|313:347,1,96.0500018320084,2|0,0:0|0:0,0:0:0:0:
274,325,155358,1,2,3:2:0:0:
226,330,155531,1,2,3:2:0:0:
137,366,155876,2,0,P|120:298|165:232,1,144.075002748013,10|2,0:0|0:0,0:0:0:0:
175,193,156565,1,2,3:2:0:0:
75,88,157083,1,2,3:2:0:0:
99,47,157255,1,10,0:0:0:0:
241,69,157772,5,2,0:0:0:0:
278,39,157944,2,0,P|332:43|366:78,1,96.0500018320084,2|2,0:0|0:0,0:0:0:0:
366,166,158634,2,0,L|420:162,1,48.0250009160042,2|2,0:0|0:0,0:0:0:0:
460,195,158979,1,2,0:0:0:0:
