osu file format v14

[General]
AudioFilename: audio.mp3
AudioLeadIn: 0
PreviewTime: 125532
Countdown: 0
SampleSet: Soft
StackLeniency: 0.5
Mode: 0
LetterboxInBreaks: 0
EpilepsyWarning: 1
WidescreenStoryboard: 1

[Editor]
Bookmarks: 11049
DistanceSpacing: 1.2
BeatDivisor: 4
GridSize: 4
TimelineZoom: 2.999999

[Metadata]
Title:Eternity (C3EYOND Remix)
TitleUnicode:Eternity (C3EYOND Remix)
Artist:Rachel Taylor
ArtistUnicode:Rachel Taylor
Creator:Alumetri
Version:Gordon's Hard
Source:
Tags:english electronic come alive dnb drum and bass PantyDev Daycore 0ppInOsu smozit nuvolina gordon123
BeatmapID:3173868
BeatmapSetID:1519259

[Difficulty]
HPDrainRate:4
CircleSize:3.5
OverallDifficulty:6
ApproachRate:8
SliderMultiplier:1.4
SliderTickRate:1

[Events]
//Background and Video events
0,0,"bg.jpg",0,0
//Break Periods
2,110559,116506
//Storyboard Layer 0 (Background)
//Storyboard Layer 1 (Fail)
//Storyboard Layer 2 (Pass)
//Storyboard Layer 3 (Foreground)
Sprite,Foreground,Centre,"sb\kiai\circle2.png",100,160 C,0,148289,,128,255,128 F,2,148289,148489,1,0 S,2,148289,148489,5,1 P,0,148289,148489,A
Sprite,Foreground,Centre,"sb\kiai\circle2.png",0,0 C,0,148634,,128,255,128 M,0,148634,148677,100,160,102.0556,177.3789 F,2,148634,149006,1,0 S,2,148634,149006,5,1 P,0,148634,149006,A M,0,148677,148720,102.0556,177.3789,104.1111,194.7577 M,0,148720,148763,104.1111,194.7577,106.1667,212.1366 M,0,148763,148806,106.1667,212.1366,108.2223,229.5154
Sprite,Foreground,Centre,"sb\kiai\circle2.png",0,0 C,0,148979,,128,255,128 M,0,148979,149022,182,268,179.9444,285.3788 F,2,148979,149523,1,0 S,2,148979,149523,5,1 P,0,148979,149523,A M,0,149022,149065,179.9444,285.3788,177.8889,302.7577 M,0,149065,149108,177.8889,302.7577,175.8333,320.1366 M,0,149108,149151,175.8333,320.1366,173.7777,337.5154 M,0,149151,149194,173.7777,337.5154,175.8333,320.1366 M,0,149194,149237,175.8333,320.1366,177.8889,302.7577 M,0,149237,149280,177.8889,302.7577,179.9444,285.3788 M,0,149280,149323,179.9444,285.3788,182,268
Sprite,Foreground,Centre,"sb\kiai\circle2.png",254,224 C,0,149496,,128,255,128 F,2,149496,149696,1,0 S,2,149496,149696,5,1 P,0,149496,149696,A
Sprite,Foreground,Centre,"sb\kiai\circle2.png",0,0 C,0,149669,,128,255,128 M,0,149669,149712,336,209,336.1787,226.446 F,2,149669,150558,1,0 S,2,149669,150558,5,1 P,0,149669,150558,A M,0,149712,149755,336.1787,226.446,333.6767,243.6733 M,0,149755,149798,333.6767,243.6733,328.1844,260.1923 M,0,149798,149841,328.1844,260.1923,320.1841,275.6965 M,0,149841,149884,320.1841,275.6965,328.1844,260.1923 M,0,149884,149927,328.1844,260.1923,333.6767,243.6733 M,0,149927,149970,333.6767,243.6733,336.1787,226.446 M,0,149970,150013,336.1787,226.446,336,209 M,0,150013,150056,336,209,336.1787,226.446 M,0,150056,150100,336.1787,226.446,333.6767,243.6733 M,0,150100,150143,333.6767,243.6733,328.1844,260.1923 M,0,150143,150186,328.1844,260.1923,320.1841,275.6965 M,0,150186,150229,320.1841,275.6965,328.1844,260.1923 M,0,150229,150272,328.1844,260.1923,333.6767,243.6733 M,0,150272,150315,333.6767,243.6733,336.1787,226.446 M,0,150315,150358,336.1787,226.446,336,209
Sprite,Foreground,Centre,"sb\kiai\circle2.png",308,129 C,0,150531,,128,255,128 F,2,150531,150731,1,0 S,2,150531,150731,5,1 P,0,150531,150731,A
Sprite,Foreground,Centre,"sb\kiai\circle2.png",0,0 C,0,150703,,128,255,128 M,0,150703,150746,390,142,407.1909,138.7255 F,2,150703,151075,1,0 S,2,150703,151075,5,1 P,0,150703,151075,A M,0,150746,150789,407.1909,138.7255,424.3818,135.4511 M,0,150789,150832,424.3818,135.4511,441.5728,132.1766 M,0,150832,150875,441.5728,132.1766,458.7637,128.9022
Sprite,Foreground,Centre,"sb\kiai\circle2.png",0,0 C,0,151048,,128,255,255 M,0,151048,151091,491,250,489.2142,267.3517 F,2,151048,151592,1,0 S,2,151048,151592,5,1 P,0,151048,151592,A M,0,151091,151134,489.2142,267.3517,483.5569,283.8311 M,0,151134,151177,483.5569,283.8311,474.3279,298.5893 M,0,151177,151220,474.3279,298.5893,462.0096,310.8673 M,0,151220,151263,462.0096,310.8673,447.2426,320.0344 M,0,151263,151306,447.2426,320.0344,430.7922,325.6202 M,0,151306,151349,430.7922,325.6202,413.5098,327.3388 M,0,151349,151392,413.5098,327.3388,396.1917,325.5062
Sprite,Foreground,Centre,"sb\kiai\circle2.png",318,291 C,0,151565,,128,255,255 F,2,151565,151765,1,0 S,2,151565,151765,5,1 P,0,151565,151765,A
Sprite,Foreground,Centre,"sb\kiai\circle2.png",0,0 C,0,151738,,128,255,255 M,0,151738,151781,285,213,286.4035,195.5564 F,2,151738,152110,1,0 S,2,151738,152110,5,1 P,0,151738,152110,A M,0,151781,151824,286.4035,195.5564,287.807,178.1127 M,0,151824,151867,287.807,178.1127,289.2105,160.6691 M,0,151867,151910,289.2105,160.6691,290.614,143.2255
Sprite,Foreground,Centre,"sb\kiai\circle2.png",0,0 C,0,152083,,128,255,255 M,0,152083,152126,208,122,206.484,139.4342 F,2,152083,152455,1,0 S,2,152083,152455,5,1 P,0,152083,152455,A M,0,152126,152169,206.484,139.4342,204.968,156.8684 M,0,152169,152212,204.968,156.8684,203.452,174.3026 M,0,152212,152255,203.452,174.3026,202,191
Sprite,Foreground,Centre,"sb\kiai\circle2.png",143,251 C,0,152427,,128,255,255 F,2,152427,152627,1,0 S,2,152427,152627,5,1 P,0,152427,152627,A
Sprite,Foreground,Centre,"sb\kiai\circle2.png",143,251 C,0,152600,,128,255,255 F,2,152600,152800,1,0 S,2,152600,152800,5,1 P,0,152600,152800,A
Sprite,Foreground,Centre,"sb\kiai\circle2.png",0,0 C,0,152772,,128,255,255 M,0,152772,152815,169,330,185.9136,325.6363 F,2,152772,153144,1,0 S,2,152772,153144,5,1 P,0,152772,153144,A M,0,152815,152858,185.9136,325.6363,203.3071,324.1692 M,0,152858,152901,203.3071,324.1692,220.6905,325.6366 M,0,152901,152944,220.6905,325.6366,237.5748,329.9945
Sprite,Foreground,Centre,"sb\kiai\circle2.png",0,0 C,0,153117,,128,255,255 M,0,153117,153160,308,375,324.9136,379.3637 F,2,153117,153661,1,0 S,2,153117,153661,5,1 P,0,153117,153661,A M,0,153160,153203,324.9136,379.3637,342.3071,380.8308 M,0,153203,153246,342.3071,380.8308,359.6905,379.3634 M,0,153246,153289,359.6905,379.3634,376.5748,375.0055 M,0,153289,153332,376.5748,375.0055,359.6905,379.3634 M,0,153332,153375,359.6905,379.3634,342.3071,380.8308 M,0,153375,153418,342.3071,380.8308,324.9136,379.3637 M,0,153418,153461,324.9136,379.3637,308,375
Sprite,Foreground,Centre,"sb\kiai\circle2.png",0,0 C,0,153807,,255,128,192 M,0,153807,153850,187,257,175.6133,243.7728 F,2,153807,154351,1,0 S,2,153807,154351,5,1 P,0,153807,154351,A M,0,153850,153893,175.6133,243.7728,167.1355,228.5369 M,0,153893,153936,167.1355,228.5369,161.9081,211.9183 M,0,153936,153979,161.9081,211.9183,160.1403,194.5981 M,0,153979,154022,160.1403,194.5981,161.9008,177.2852 M,0,154022,154065,161.9008,177.2852,167.1152,160.6879 M,0,154065,154108,167.1152,160.6879,175.2902,145.2957 M,0,154108,154151,175.2902,145.2957,186.7557,132.1469
Sprite,Foreground,Centre,"sb\kiai\circle2.png",242,195 C,0,154324,,255,128,192 F,2,154324,154524,1,0 S,2,154324,154524,5,1 P,0,154324,154524,A
Sprite,Foreground,Centre,"sb\kiai\circle2.png",263,196 C,0,154410,,255,128,192 F,2,154410,154610,1,0 S,2,154410,154610,5,1 P,0,154410,154610,A
Sprite,Foreground,Centre,"sb\kiai\circle2.png",0,0 C,0,154496,,255,128,192 M,0,154496,154539,283,196,300.5,196 F,2,154496,154868,1,0 S,2,154496,154868,5,1 P,0,154496,154868,A M,0,154539,154582,300.5,196,318,196 M,0,154582,154625,318,196,335.5,196 M,0,154625,154668,335.5,196,353,196
Sprite,Foreground,Centre,"sb\kiai\circle2.png",0,0 C,0,154841,,255,128,192 M,0,154841,154884,415,140,432.5,140 F,2,154841,155213,1,0 S,2,154841,155213,5,1 P,0,154841,155213,A M,0,154884,154927,432.5,140,450,140 M,0,154927,154970,450,140,467.5,140 M,0,154970,155013,467.5,140,485,140
Sprite,Foreground,Centre,"sb\kiai\circle2.png",530,210 C,0,155186,,255,128,192 F,2,155186,155386,1,0 S,2,155186,155386,5,1 P,0,155186,155386,A
Sprite,Foreground,Centre,"sb\kiai\circle2.png",0,0 C,0,155358,,255,128,192 M,0,155358,155401,489,283,495.3369,299.2761 F,2,155358,156075,1,0 S,2,155358,156075,5,1 P,0,155358,156075,A M,0,155401,155444,495.3369,299.2761,498.5367,316.4373 M,0,155444,155487,498.5367,316.4373,498.4915,333.8855 M,0,155487,155530,498.4915,333.8855,495.2056,351.0137 M,0,155530,155573,495.2056,351.0137,498.4915,333.8855 M,0,155573,155616,498.4915,333.8855,498.5367,316.4373 M,0,155616,155659,498.5367,316.4373,495.3369,299.2761 M,0,155659,155702,495.3369,299.2761,489,283 M,0,155702,155745,489,283,495.3369,299.2761 M,0,155745,155789,495.3369,299.2761,498.5367,316.4373 M,0,155789,155832,498.5367,316.4373,498.4915,333.8855 M,0,155832,155875,498.4915,333.8855,495.2056,351.0137
Sprite,Foreground,Centre,"sb\kiai\circle2.png",415,323 C,0,156048,,255,128,192 F,2,156048,156248,1,0 S,2,156048,156248,5,1 P,0,156048,156248,A
Sprite,Foreground,Centre,"sb\kiai\circle2.png",338,358 C,0,156221,,255,128,192 F,2,156221,156421,1,0 S,2,156221,156421,5,1 P,0,156221,156421,A
Sprite,Foreground,Centre,"sb\kiai\circle2.png",257,335 C,0,156393,,255,128,192 F,2,156393,156593,1,0 S,2,156393,156593,5,1 P,0,156393,156593,A
Sprite,Foreground,Centre,"sb\kiai\circle2.png",0,0 C,0,156565,,255,164,119 M,0,156565,156608,287,257,289.4094,239.702 F,2,156565,156937,1,0 S,2,156565,156937,5,1 P,0,156565,156937,A M,0,156608,156651,289.4094,239.702,288.7997,222.2612 M,0,156651,156694,288.7997,222.2612,285.1932,205.1974 M,0,156694,156737,285.1932,205.1974,278.7001,189.019
Sprite,Foreground,Centre,"sb\kiai\circle2.png",0,0 C,0,156910,,255,164,119 M,0,156910,156953,195,198,192.4498,215.2544 F,2,156910,157282,1,0 S,2,156910,157282,5,1 P,0,156910,157282,A M,0,156953,156996,192.4498,215.2544,192.7121,232.6519 M,0,156996,157039,192.7121,232.6519,196.1716,249.704 M,0,157039,157082,196.1716,249.704,202.7103,265.8281
Sprite,Foreground,Centre,"sb\kiai\circle2.png",0,0 C,0,157255,,255,164,119 M,0,157255,157298,269,373,285.968,377.2504 F,2,157255,157799,1,0 S,2,157255,157799,5,1 P,0,157255,157799,A M,0,157298,157341,285.968,377.2504,303.3291,379.2917 M,0,157341,157384,303.3291,379.2917,320.7403,377.9366 M,0,157384,157427,320.7403,377.9366,337.5696,373.1938 M,0,157427,157470,337.5696,373.1938,354.2884,368.0479 M,0,157470,157513,354.2884,368.0479,371.5989,365.6959 M,0,157513,157556,371.5989,365.6959,389.0557,366.5992 M,0,157556,157599,389.0557,366.5992,406.2491,369.8128
Sprite,Foreground,Centre,"sb\kiai\circle2.png",486,396 C,0,157772,,255,164,119 F,2,157772,157972,1,0 S,2,157772,157972,5,1 P,0,157772,157972,A
//Storyboard Layer 4 (Overlay)
//Storyboard Sound Samples

[TimingPoints]
15,344.827586206897,4,2,1,50,1,0
15,-100,4,2,1,50,0,0
9066,-100,4,2,1,50,0,0
9152,-100,4,2,1,50,0,0
19928,-100,4,2,1,50,0,0
20015,-100,4,2,1,50,0,0
20273,-100,4,2,1,50,0,0
20359,-100,4,2,1,50,0,0
20877,-100,4,2,1,50,0,0
20963,-100,4,2,1,50,0,0
21178,-100,4,2,1,50,0,0
21221,-100,4,2,1,50,0,0
21265,-100,4,2,1,50,0,0
21308,-100,4,2,1,50,0,0
21351,-100,4,2,1,50,0,0
21394,-100,4,2,1,50,0,0
21997,-100,4,2,1,50,0,0
22083,-100,4,2,1,60,0,0
33118,-98.0392156862745,4,2,1,70,0,0
33463,-98.0392156862745,4,2,1,70,0,0
35877,-96.1538461538461,4,2,1,70,0,0
36221,-96.1538461538461,4,2,1,70,0,0
38635,-94.3396226415094,4,2,1,80,0,0
38980,-94.3396226415094,4,2,1,80,0,0
40015,-92.5925925925926,4,2,1,82,0,0
40359,-92.5925925925926,4,2,1,82,0,0
41394,-90.9090909090909,4,2,1,84,0,0
41739,-90.9090909090909,4,2,1,84,0,0
42083,-90.9090909090909,4,2,1,86,0,0
42773,-90.9090909090909,4,2,1,88,0,0
43463,-90.9090909090909,4,2,1,90,0,0
44152,-90.9090909090909,4,2,1,95,0,1
44411,-90.9090909090909,4,2,1,95,0,1
44497,-90.9090909090909,4,2,1,95,0,1
45187,-90.9090909090909,4,2,1,95,0,1
45877,-90.9090909090909,4,2,1,95,0,1
46825,-90.9090909090909,4,2,1,95,0,1
46911,-90.9090909090909,4,2,1,95,0,1
47170,-90.9090909090909,4,2,1,95,0,1
47256,-90.9090909090909,4,2,1,95,0,1
47601,-90.9090909090909,4,2,1,95,0,1
47946,-90.9090909090909,4,2,1,95,0,1
48290,-90.9090909090909,4,2,1,95,0,1
49583,-90.9090909090909,4,2,1,95,0,1
49670,-90.9090909090909,4,2,1,95,0,1
49928,-90.9090909090909,4,2,1,95,0,1
50015,-90.9090909090909,4,2,1,95,0,1
50704,-90.9090909090909,4,2,1,95,0,1
51394,-90.9090909090909,4,2,1,95,0,1
52342,-90.9090909090909,4,2,1,95,0,1
52428,-90.9090909090909,4,2,1,95,0,1
52687,-90.9090909090909,4,2,1,95,0,1
52773,-90.9090909090909,4,2,1,95,0,1
53118,-90.9090909090909,4,2,1,95,0,1
53463,-90.9090909090909,4,2,1,95,0,1
53808,-90.9090909090909,4,2,1,95,0,1
54842,-100,4,2,1,95,0,0
55101,-100,4,2,1,95,0,0
55187,-90.9090909090909,4,2,1,95,0,1
55446,-90.9090909090909,4,2,1,95,0,1
55532,-90.9090909090909,4,2,1,95,0,1
56221,-90.9090909090909,4,2,1,95,0,1
56912,-90.9090909090909,4,2,1,95,0,1
57859,-90.9090909090909,4,2,1,95,0,1
57946,-90.9090909090909,4,2,1,95,0,1
58204,-90.9090909090909,4,2,1,95,0,1
58290,-90.9090909090909,4,2,1,95,0,1
58635,-90.9090909090909,4,2,1,95,0,1
58980,-90.9090909090909,4,2,1,95,0,1
59670,-90.9090909090909,4,2,1,95,0,1
60704,-90.9090909090909,4,2,1,95,0,1
61739,-90.9090909090909,4,2,1,95,0,1
62428,-90.9090909090909,4,2,1,95,0,1
63377,-90.9090909090909,4,2,1,95,0,1
63463,-90.9090909090909,4,2,1,95,0,1
63721,-90.9090909090909,4,2,1,95,0,1
63808,-90.9090909090909,4,2,1,95,0,1
64152,-90.9090909090909,4,2,1,95,0,1
64497,-90.9090909090909,4,2,1,95,0,1
64842,-100,4,2,1,95,0,0
65877,-100,4,2,1,95,0,0
66221,-111.111111111111,4,2,1,75,0,0
67342,-111.111111111111,4,2,1,75,0,0
67428,-111.111111111111,4,2,1,75,0,0
73721,-111.111111111111,4,2,1,75,0,0
73808,-111.111111111111,4,2,1,75,0,0
74411,-111.111111111111,4,2,1,75,0,0
74497,-111.111111111111,4,2,1,75,0,0
83204,-111.111111111111,4,2,1,75,0,0
83291,-111.111111111111,4,2,1,75,0,0
83377,-111.111111111111,4,2,1,75,0,0
83463,-111.111111111111,4,2,1,75,0,0
83721,-111.111111111111,4,2,1,75,0,0
83808,-111.111111111111,4,2,1,75,0,0
84625,-111.111111111111,4,2,1,75,0,0
84668,-111.111111111111,4,2,1,75,0,0
84712,-111.111111111111,4,2,1,75,0,0
84755,-111.111111111111,4,2,1,75,0,0
84798,-111.111111111111,4,2,1,75,0,0
84841,-111.111111111111,4,2,1,75,0,0
85446,-111.111111111111,4,2,1,75,0,0
85532,-111.111111111111,4,2,1,75,0,0
87601,-111.111111111111,4,2,1,90,0,0
87687,-111.111111111111,4,2,1,87,0,0
87773,-111.111111111111,4,2,1,84,0,0
87859,-111.111111111111,4,2,1,81,0,0
87946,-111.111111111111,4,2,1,78,0,0
88032,-111.111111111111,4,2,1,75,0,0
88118,-111.111111111111,4,2,1,72,0,0
88204,-111.111111111111,4,2,1,70,0,0
88290,-90.9090909090909,4,2,1,95,0,1
89325,-90.9090909090909,4,2,1,95,0,1
90015,-90.9090909090909,4,2,1,95,0,1
91049,-90.9090909090909,4,2,1,95,0,1
91739,-90.9090909090909,4,2,1,95,0,1
92083,-90.9090909090909,4,2,1,95,0,1
92428,-90.9090909090909,4,2,1,95,0,1
93808,-90.9090909090909,4,2,1,95,0,1
94842,-90.9090909090909,4,2,1,95,0,1
95532,-90.9090909090909,4,2,1,95,0,1
96911,-90.9090909090909,4,2,1,95,0,1
97256,-90.9090909090909,4,2,1,95,0,1
97601,-90.9090909090909,4,2,1,95,0,1
97946,-90.9090909090909,4,2,1,95,0,1
98980,-90.9090909090909,4,2,1,95,0,1
99325,-90.9090909090909,4,2,1,95,0,1
100359,-90.9090909090909,4,2,1,95,0,1
101050,-90.9090909090909,4,2,1,95,0,1
102084,-90.9090909090909,4,2,1,95,0,1
102773,-90.9090909090909,4,2,1,95,0,1
103118,-90.9090909090909,4,2,1,95,0,1
103808,-90.9090909090909,4,2,1,95,0,1
104842,-90.9090909090909,4,2,1,95,0,1
105877,-90.9090909090909,4,2,1,95,0,1
106566,-90.9090909090909,4,2,1,95,0,1
107946,-90.9090909090909,4,2,1,95,0,1
108290,-90.9090909090909,4,2,1,95,0,1
108635,-90.9090909090909,4,2,1,95,0,1
108980,-100,4,2,1,95,0,0
110015,-100,4,2,1,95,0,0
110359,-100,4,2,1,65,0,0
125532,-100,4,2,1,35,0,0
126221,344.827586206897,4,2,1,95,1,1
126221,-90.9090909090909,4,2,1,95,0,1
126479,-100,4,2,1,95,0,1
126565,-90.9090909090909,4,2,1,95,0,1
127255,-90.9090909090909,4,2,1,95,0,1
127514,-90.9090909090909,4,2,1,95,0,1
127600,-90.9090909090909,4,2,1,95,0,1
127945,-90.9090909090909,4,2,1,95,0,1
128893,-90.9090909090909,4,2,1,95,0,1
128979,-90.9090909090909,4,2,1,95,0,1
128980,-90.9090909090909,4,2,1,95,0,1
129238,-90.9090909090909,4,2,1,95,0,1
129324,-90.9090909090909,4,2,1,95,0,1
129669,-90.9090909090909,4,2,1,95,0,1
130014,-90.9090909090909,4,2,1,95,0,1
130358,-90.9090909090909,4,2,1,95,0,1
131652,-90.9090909090909,4,2,1,95,0,1
131738,-90.9090909090909,4,2,1,95,0,1
131739,-90.9090909090909,4,2,1,95,0,1
131996,-90.9090909090909,4,2,1,95,0,1
132083,-90.9090909090909,4,2,1,95,0,1
132772,-90.9090909090909,4,2,1,95,0,1
133463,-90.9090909090909,4,2,1,95,0,1
134841,-90.9090909090909,4,2,1,95,0,1
135186,-90.9090909090909,4,2,1,95,0,1
135531,-90.9090909090909,4,2,1,95,0,1
135876,-90.9090909090909,4,2,1,95,0,1
136910,-90.9090909090909,4,2,1,95,0,1
136996,-90.9090909090909,4,2,1,95,0,1
137083,-90.9090909090909,4,2,1,95,0,1
137169,-90.9090909090909,4,2,1,95,0,1
137255,-90.9090909090909,4,2,1,95,0,1
137514,-90.9090909090909,4,2,1,95,0,1
137600,-90.9090909090909,4,2,1,95,0,1
138289,-90.9090909090909,4,2,1,95,0,1
138979,-90.9090909090909,4,2,1,95,0,1
140014,-90.9090909090909,4,2,1,95,0,1
140272,-90.9090909090909,4,2,1,95,0,1
140358,-90.9090909090909,4,2,1,95,0,1
140703,-90.9090909090909,4,2,1,95,0,1
141048,-90.9090909090909,4,2,1,95,0,1
141738,-90.9090909090909,4,2,1,95,0,1
142686,-90.9090909090909,4,2,1,95,0,1
142772,-90.9090909090909,4,2,1,95,0,1
143031,-90.9090909090909,4,2,1,95,0,1
143117,-90.9090909090909,4,2,1,95,0,1
143807,-90.9090909090909,4,2,1,95,0,1
144496,-90.9090909090909,4,2,1,95,0,1
145789,-90.9090909090909,4,2,1,95,0,1
145876,-90.9090909090909,4,2,1,95,0,1
146221,-90.9090909090909,4,2,1,95,0,1
146565,-90.9090909090909,4,2,1,95,0,1
146910,-100,4,2,1,95,0,0
148289,-100,4,2,1,85,0,0
158979,-133.333333333333,4,2,1,45,0,0
159324,-133.333333333333,4,2,1,35,0,0
159669,-133.333333333333,4,2,1,25,0,0
160014,-133.333333333333,4,2,0,5,0,0

[Colours]
Combo1 : 128,255,128
Combo2 : 128,255,255
Combo3 : 255,128,192
Combo4 : 255,164,119

[HitObjects]
30,89,15,6,0,P|74:72|116:72,1,70,6|0,3:2|0:0,0:0:0:0:
171,32,359,2,0,P|205:36|237:50,1,70,0|0,0:0|0:0,0:0:0:0:
199,159,704,2,0,P|169:203|195:291,1,140,2|0,0:0|0:0,0:0:0:0:
258,346,1221,1,0,0:0:0:0:
258,346,1308,1,0,0:0:0:0:
258,346,1394,2,0,L|356:365,1,70,2|0,0:0|0:0,0:0:0:0:
378,293,1739,2,0,L|453:271,1,70,0|0,0:0|0:0,0:0:0:0:
385,174,2083,2,0,B|372:103|422:119|407:34,1,140,2|0,0:0|0:0,0:0:0:0:
325,58,2601,1,0,0:0:0:0:
244,33,2773,6,0,L|160:25,1,70,2|0,0:0|0:0,0:0:0:0:
149,106,3118,2,0,L|218:112,1,70,0|0,0:0|0:0,0:0:0:0:
252,223,3463,2,0,P|295:196|385:231,1,140,2|0,0:0|0:0,0:0:0:0:
316,279,3980,1,0,0:0:0:0:
357,351,4152,2,0,P|312:363|278:353,1,70,2|0,0:0|0:0,0:0:0:0:
205,364,4497,2,0,L|220:277,1,70,0|0,0:0|0:0,0:0:0:0:
101,306,4842,2,0,L|85:216,1,70,2|0,0:0|0:0,0:0:0:0:
74,196,5101,2,0,P|51:206|28:212,4,35,0|0|0|0|0,0:0|0:0|0:0|0:0|0:0,0:0:0:0:
132,111,5532,6,0,P|161:80|210:59,1,70,2|0,0:0|0:0,0:0:0:0:
268,67,5877,2,0,P|297:85|320:111,1,70,0|0,0:0|0:0,0:0:0:0:
226,179,6221,2,0,L|245:319,1,140,2|0,0:0|0:0,0:0:0:0:
318,359,6739,1,0,0:0:0:0:
399,339,6911,2,0,P|408:307|388:248,1,70,2|0,0:0|0:0,0:0:0:0:
336,218,7256,2,0,P|330:183|339:150,1,70,0|0,0:0|0:0,0:0:0:0:
424,71,7601,2,0,P|361:88|283:55,1,140,2|0,0:0|0:0,0:0:0:0:
222,16,8118,1,0,0:0:0:0:
147,53,8290,6,0,L|153:132,1,70,2|0,0:0|0:0,0:0:0:0:
226,162,8635,2,0,L|221:285,1,105,0|0,0:0|0:0,0:0:0:0:
243,302,8980,2,0,P|207:302|163:314,1,70,2|2,0:0|0:3,0:0:0:0:
118,246,9325,2,0,P|83:238|39:293,1,105,0|0,0:0|0:0,0:0:0:0:
30,325,9670,2,0,L|20:181,1,140,2|2,0:0|0:3,0:0:0:0:
8,101,10187,1,0,0:0:0:0:
86,131,10359,2,0,P|125:143|166:141,1,70,0|0,0:0|0:0,0:0:0:0:
196,139,10618,2,0,L|204:75,4,35,0|2|2|0|0,0:0|0:3|0:3|0:0|0:0,0:0:0:0:
157,247,11049,6,0,P|200:211|285:228,1,140,6|0,3:2|0:0,0:0:0:0:
229,291,11566,1,0,0:0:0:0:
329,348,11739,2,0,P|376:362|407:360,1,70,2|0,0:0|0:0,0:0:0:0:
469,320,12083,2,0,P|487:274|489:243,1,70,0|0,0:0|0:0,0:0:0:0:
484,212,12342,1,0,0:0:0:0:
484,212,12428,2,0,L|390:228,1,70,2|0,0:0|0:0,0:0:0:0:
352,167,12773,2,0,L|258:151,1,70,0|0,0:0|0:0,0:0:0:0:
224,255,13118,2,0,B|156:233|157:276|81:251,1,140,2|0,0:0|0:0,0:0:0:0:
27,192,13635,1,0,0:0:0:0:
77,124,13808,6,0,L|71:26,1,70,2|0,0:0|0:0,0:0:0:0:
154,34,14152,2,0,L|158:103,1,70,0|0,0:0|0:0,0:0:0:0:
260,157,14497,2,0,P|244:202|294:283,1,140,2|0,0:0|0:0,0:0:0:0:
329,206,15015,1,0,0:0:0:0:
403,244,15187,2,0,P|446:256|488:257,1,70,2|0,0:0|0:0,0:0:0:0:
502,179,15532,2,0,P|467:151|428:133,1,70,0|0,0:0|0:0,0:0:0:0:
333,172,15877,2,0,L|339:84,1,70,2|0,0:0|0:0,0:0:0:0:
313,68,16135,2,0,P|336:62|366:45,4,35,0|0|0|0|0,0:0|0:0|0:0|0:0|0:0,0:0:0:0:
191,30,16566,6,0,L|195:113,1,70,2|0,0:0|0:0,0:0:0:0:
252,160,16911,2,0,L|248:229,1,70,0|0,0:0|0:0,0:0:0:0:
316,323,17256,2,0,P|251:345|180:321,1,140,2|0,0:0|0:0,0:0:0:0:
112,366,17773,1,0,0:0:0:0:
52,305,17946,2,0,P|63:263|43:216,1,70,2|0,0:0|0:0,0:0:0:0:
4,172,18290,2,0,P|-7:130|13:83,1,70,0|0,0:0|0:0,0:0:0:0:
85,28,18635,2,0,L|228:50,1,140,2|0,0:0|0:0,0:0:0:0:
183,123,19152,1,0,0:0:0:0:
236,188,19325,6,0,P|221:222|254:295,1,105,2|0,0:0|0:0,0:0:0:0:
274,309,19670,2,0,L|355:303,1,70,0|0,0:0|0:0,0:0:0:0:
447,356,20015,2,0,P|435:324|445:284,1,70,2|0,0:0|0:0,0:0:0:0:
492,222,20359,2,0,P|504:190|494:150,1,70,0|0,0:0|0:0,0:0:0:0:
459,80,20704,2,0,B|406:83|418:105|349:97,1,105,0|0,0:0|0:0,0:0:0:0:
313,91,21049,2,0,L|320:41,4,35,2|2|2|2|2,0:0|0:3|0:3|0:3|0:3,0:0:0:0:
252,149,21566,1,0,0:0:0:0:
252,149,21652,1,0,0:0:0:0:
252,149,21739,2,0,P|186:175|195:226,1,105,0|0,0:0|0:0,0:0:0:0:
199,238,22083,6,0,L|47:213,1,140,6|0,3:2|0:0,0:0:0:0:
17,142,22601,1,0,0:0:0:0:
52,65,22773,2,0,L|190:42,1,140,2|0,0:0|0:0,0:0:0:0:
274,34,23290,1,2,0:0:0:0:
340,86,23463,2,0,B|340:159|296:150|311:246,1,140,2|0,0:0|0:0,0:0:0:0:
372,274,23980,1,2,0:0:0:0:
318,338,24152,2,0,P|357:356|388:356,1,70,2|0,0:0|0:0,0:0:0:0:
453,309,24497,2,0,P|460:266|452:236,1,70,0|0,0:0|0:0,0:0:0:0:
484,118,24842,6,0,L|341:141,1,140,2|0,0:0|0:0,0:0:0:0:
284,82,25359,1,2,0:0:0:0:
244,156,25532,2,0,L|101:179,1,140,2|0,0:0|0:0,0:0:0:0:
126,259,26049,1,2,0:0:0:0:
208,275,26221,2,0,P|184:319|92:336,1,140,2|0,0:0|0:0,0:0:0:0:
126,259,26739,1,2,0:0:0:0:
57,211,26911,2,0,P|41:177|51:133,1,70,2|0,0:0|0:0,0:0:0:0:
64,107,27170,1,0,0:0:0:0:
64,107,27256,2,0,L|146:112,1,70,2|0,0:0|0:0,0:0:0:0:
249,61,27601,6,0,P|286:42|394:54,1,140,2|0,0:0|0:0,0:0:0:0:
456,86,28118,1,0,0:0:0:0:
417,160,28290,2,0,P|385:205|405:288,1,140,2|0,0:0|0:0,0:0:0:0:
466,229,28808,1,2,0:0:0:0:
477,354,28980,2,0,L|331:345,1,140,2|0,0:0|0:0,0:0:0:0:
292,273,29497,1,2,0:0:0:0:
238,337,29670,2,0,L|92:328,1,140,2|0,0:0|0:0,0:0:0:0:
27,175,30359,6,0,P|63:157|118:172,1,70,2|0,0:0|0:0,0:0:0:0:
155,214,30704,2,0,P|189:214|219:197,1,70,0|2,0:0|0:0,0:0:0:0:
240,160,30963,1,0,0:0:0:0:
240,160,31049,2,0,L|261:310,1,140,2|0,0:0|0:0,0:0:0:0:
342,286,31566,1,2,0:0:0:0:
395,351,31739,2,0,P|421:311|387:214,1,140,2|0,0:0|0:0,0:0:0:0:
332,176,32256,2,0,B|326:106|365:114|358:37,1,140,2|0,0:0|0:0,0:0:0:0:
328,11,32687,1,0,0:0:0:0:
328,11,32773,2,0,P|286:4|253:13,1,70,2|0,0:0|0:0,0:0:0:0:
145,62,33118,5,6,3:2:0:0:
145,62,33463,2,0,L|137:138,1,71.400000435791,0|0,0:0|0:0,0:0:0:0:
213,174,33808,2,0,P|175:209|74:190,1,142.800000871582,2|0,0:0|0:0,0:0:0:0:
138,132,34325,1,0,0:0:0:0:
66,85,34497,2,0,P|116:49|200:72,1,142.800000871582,2|0,0:0|0:0,0:0:0:0:
338,152,35187,2,0,L|331:71,1,71.400000435791,2|0,0:0|0:0,0:0:0:0:
354,44,35446,2,0,P|330:42|311:39,4,35.7000002178955,0|0|0|0|0,0:0|0:0|0:0|0:0|0:0,0:0:0:0:
483,20,35877,5,6,3:2:0:0:
483,20,36221,2,0,L|474:101,1,72.7999995556641,2|0,0:0|0:0,0:0:0:0:
417,158,36566,2,0,L|425:230,1,72.7999995556641,2|0,0:0|0:0,0:0:0:0:
445,315,36911,1,2,0:0:0:0:
370,295,37083,1,0,0:0:0:0:
370,295,37170,1,0,0:0:0:0:
370,295,37256,2,0,P|328:286|280:292,1,72.7999995556641,2|0,0:0|0:0,0:0:0:0:
222,331,37601,2,0,P|180:340|132:334,1,72.7999995556641,0|0,0:0|0:0,0:0:0:0:
69,304,37946,2,0,L|87:209,1,72.7999995556641,2|0,0:0|0:0,0:0:0:0:
69,190,38204,2,0,L|16:201,4,36.399999777832,0|0|0|0|0,0:0|0:0|0:0|0:0|0:0,0:0:0:0:
199,158,38635,5,4,3:2:0:0:
199,158,38980,2,0,P|224:198|224:248,1,74.2000001132202,0|0,0:0|0:0,0:0:0:0:
219,313,39325,2,0,L|295:294,1,74.2000001132202,2|0,0:0|0:0,0:0:0:0:
377,317,39670,1,0,0:0:0:0:
449,266,39842,2,0,L|454:204,1,37.1000000566101,0|0,0:0|0:0,0:0:0:0:
466,93,40015,1,6,3:2:0:0:
466,93,40359,2,0,P|394:114|366:184,1,151.200003691406,0|2,0:0|0:0,0:0:0:0:
383,269,40877,1,0,0:0:0:0:
437,341,41049,2,0,P|392:358|349:352,1,75.6000018457032,0|0,0:0|0:0,0:0:0:0:
216,319,41394,5,6,3:2:0:0:
151,145,41739,1,2,3:2:0:0:
310,52,42083,1,0,3:2:0:0:
377,224,42428,1,2,3:2:0:0:
216,319,42773,1,2,3:2:0:0:
145,258,42946,1,0,3:2:0:0:
69,311,43118,2,0,P|52:269|64:219,1,77.0000023498536,0|0,3:2|3:2,0:0:0:0:
64,48,43463,2,0,P|48:82|50:120,1,77.0000023498536,2|0,3:2|3:2,0:0:0:0:
70,161,43721,2,0,L|20:167,4,38.5000011749268,0|0|0|0|0,3:2|3:2|3:2|3:2|3:2,0:0:0:0:
203,121,44152,6,0,P|177:171|221:265,1,154.000004699707,6|8,3:2|0:0,0:0:0:0:
270,185,44670,1,0,3:0:0:0:
348,234,44842,2,0,L|449:226,1,77.0000023498536,10|2,0:1|0:0,0:0:0:0:
471,228,45101,1,0,3:0:0:0:
471,228,45187,2,0,P|485:185|470:130,1,77.0000023498536,10|0,0:2|0:0,0:0:0:0:
390,49,45532,2,0,P|376:92|391:147,1,77.0000023498536,0|2,3:0|0:0,0:0:0:0:
297,164,45877,2,0,L|206:161,1,77.0000023498536,10|0,0:0|3:0,0:0:0:0:
181,245,46221,2,0,L|303:248,1,115.50000352478,10|0,0:1|3:0,0:0:0:0:
342,251,46566,2,0,P|315:283|307:333,1,77.0000023498536,10|2,0:0|0:0,0:0:0:0:
395,340,46911,6,0,P|422:308|430:258,1,77.0000023498536,0|0,3:0|0:0,0:0:0:0:
412,183,47256,1,8,0:0:0:0:
449,98,47428,1,0,3:0:0:0:
356,108,47601,2,0,B|294:116|307:84|226:94,1,115.50000352478,8|0,0:1|3:0,0:0:0:0:
196,98,47946,2,0,L|207:197,1,77.0000023498536,8|0,0:0|0:0,0:0:0:0:
289,211,48290,2,0,P|328:251|324:347,1,154.000004699707,2|10,3:2|0:0,0:0:0:0:
244,295,48808,1,2,3:2:0:0:
171,351,48980,2,0,P|121:326|52:343,1,115.50000352478,10|2,0:1|3:2,0:0:0:0:
25,361,49325,2,0,L|35:264,1,77.0000023498536,8|0,0:0|0:0,0:0:0:0:
11,147,49670,6,0,B|95:150|80:107|173:105,1,154.000004699707,2|8,3:2|0:0,0:0:0:0:
148,198,50187,1,0,3:0:0:0:
202,272,50359,2,0,P|188:309|199:349,1,77.0000023498536,10|2,0:1|0:0,0:0:0:0:
238,363,50618,1,0,3:0:0:0:
238,363,50704,2,0,L|322:353,1,77.0000023498536,10|0,0:2|0:0,0:0:0:0:
406,366,51049,1,0,3:0:0:0:
369,281,51221,1,2,0:0:0:0:
415,200,51394,2,0,P|406:159|436:111,1,77.0000023498536,10|0,0:0|3:0,0:0:0:0:
467,48,51739,2,0,B|408:34|418:69|341:51,1,115.50000352478,10|0,0:1|3:0,0:0:0:0:
310,37,52083,2,0,L|316:130,1,77.0000023498536,10|2,0:0|0:0,0:0:0:0:
238,166,52428,6,0,P|275:207|256:318,1,154.000004699707,0|10,3:0|0:0,0:0:0:0:
191,249,52946,1,2,3:2:0:0:
146,329,53118,2,0,L|20:316,1,115.50000352478,10|0,0:1|3:2,0:0:0:0:
58,279,53463,2,0,P|79:243|82:178,1,77.0000023498536,10|0,0:0|0:0,0:0:0:0:
75,116,53808,1,0,3:2:0:0:
75,116,53980,2,0,L|-26:140,2,77.0000023498536,2|10|2,0:2|0:2|3:2,0:0:0:0:
157,158,54497,2,0,P|208:182|280:166,1,115.50000352478,10|0,0:1|3:2,0:0:0:0:
296,146,54842,2,0,L|295:237,1,70,10|0,0:0|0:0,0:0:0:0:
212,327,55187,6,0,P|269:292|360:297,1,154.000004699707,6|8,3:2|0:0,0:0:0:0:
438,332,55704,1,0,3:0:0:0:
488,254,55877,2,0,L|494:155,1,77.0000023498536,10|2,0:1|0:0,0:0:0:0:
476,139,56135,1,0,3:0:0:0:
476,139,56221,2,0,P|434:125|386:141,1,77.0000023498536,10|0,0:2|0:0,0:0:0:0:
327,185,56566,2,0,P|285:199|237:183,1,77.0000023498536,0|0,3:0|0:0,0:0:0:0:
170,164,56911,1,10,0:0:0:0:
170,164,57083,1,0,3:0:0:0:
80,187,57256,2,0,B|84:247|116:238|117:308,1,115.50000352478,10|0,0:1|3:0,0:0:0:0:
92,335,57601,2,0,P|129:325|176:328,1,77.0000023498536,10|0,0:0|0:0,0:0:0:0:
335,290,57946,6,0,P|296:291|259:281,1,77.0000023498536,2|0,3:2|0:0,0:0:0:0:
183,228,58290,1,10,0:0:0:0:
165,136,58463,1,2,3:2:0:0:
210,55,58635,2,0,B|270:52|266:84|325:73,1,115.50000352478,10|0,0:1|3:0,0:0:0:0:
365,55,58980,2,0,L|350:147,1,77.0000023498536,8|0,0:0|0:0,0:0:0:0:
437,179,59325,1,0,3:2:0:0:
437,179,59497,2,0,L|495:116,2,77.0000023498536,2|10|2,0:0|0:0|3:2,0:0:0:0:
355,223,60015,2,0,P|351:269|389:325,1,115.50000352478,10|0,0:1|3:2,0:0:0:0:
418,347,60359,2,0,L|319:364,1,77.0000023498536,10|0,0:0|0:0,0:0:0:0:
203,357,60704,6,0,B|211:285|254:298|256:195,1,154.000004699707,2|8,3:2|0:0,0:0:0:0:
240,122,61221,1,0,3:0:0:0:
171,59,61394,2,0,P|133:42|89:43,1,77.0000023498536,10|2,0:1|0:0,0:0:0:0:
54,56,61652,1,0,3:0:0:0:
54,56,61739,2,0,L|63:146,1,77.0000023498536,10|0,0:2|0:0,0:0:0:0:
122,201,62083,1,0,3:0:0:0:
57,267,62256,1,2,0:0:0:0:
108,343,62428,2,0,P|164:322|231:329,1,115.50000352478,10|0,0:0|3:0,0:0:0:0:
260,346,62773,2,0,L|250:252,1,77.0000023498536,10|0,0:1|0:0,0:0:0:0:
365,189,63118,2,0,L|356:265,1,77.0000023498536,10|2,0:0|0:0,0:0:0:0:
369,357,63463,6,0,P|432:319|444:235,1,154.000004699707,0|10,3:0|0:0,0:0:0:0:
365,189,63980,1,0,3:2:0:0:
273,198,64152,2,0,B|272:143|235:152|242:66,1,115.50000352478,8|0,0:1|3:2,0:0:0:0:
255,44,64497,1,10,0:0:0:0:
343,72,64670,1,2,0:2:0:0:
463,36,64842,5,2,0:2:0:0:
444,76,65015,1,0,0:0:0:0:
444,112,65187,1,0,0:0:0:0:
452,140,65359,1,0,0:0:0:0:
464,160,65532,1,0,0:0:0:0:
472,172,65704,1,0,0:0:0:0:
476,176,65877,2,0,L|404:172,1,70,0|0,0:0|0:0,0:0:0:0:
355,273,66221,6,0,B|292:288|302:250|220:268,1,125.999996154785,4|0,3:2|0:0,0:0:0:0:
160,295,66739,1,0,3:0:0:0:
112,353,66911,2,0,P|85:297|117:233,1,125.999996154785,10|0,0:0|0:0,0:0:0:0:
68,175,67428,1,0,0:0:0:0:
116,116,67601,2,0,L|195:120,1,62.9999980773926,2|0,0:0|3:0,0:0:0:0:
254,127,67946,1,0,3:0:0:0:
315,179,68118,1,2,0:0:0:0:
315,179,68290,2,0,P|343:230|306:309,1,125.999996154785,10|2,0:0|0:0,0:0:0:0:
184,348,68980,6,0,P|156:297|193:218,1,125.999996154785,2|0,3:2|0:0,0:0:0:0:
220,174,69497,1,0,3:0:0:0:
295,173,69670,2,0,B|357:178|346:226|422:228,1,125.999996154785,10|0,0:0|0:0,0:0:0:0:
481,223,70187,1,0,0:0:0:0:
440,159,70359,2,0,L|446:76,2,62.9999980773926,2|0|0,0:0|3:0|3:0,0:0:0:0:
481,223,70877,1,2,0:0:0:0:
447,290,71049,2,0,P|428:321|321:331,1,125.999996154785,10|2,0:0|0:0,0:0:0:0:
225,250,71739,6,0,P|244:219|351:209,1,125.999996154785,2|0,3:2|0:0,0:0:0:0:
389,239,72256,1,0,3:0:0:0:
464,235,72428,2,0,L|449:92,1,125.999996154785,10|0,0:0|0:0,0:0:0:0:
445,33,72946,1,0,0:0:0:0:
383,76,73118,2,0,B|343:78|345:44|270:50,1,94.499997116089,2|0,0:0|0:0,0:0:0:0:
256,56,73463,1,2,3:0:0:0:
210,115,73635,1,2,0:0:0:0:
263,168,73808,2,0,P|228:188|144:153,1,125.999996154785,10|2,0:0|0:3,0:0:0:0:
89,206,74325,1,0,0:0:0:0:
16,185,74497,6,0,L|26:49,1,125.999996154785,2|0,3:2|0:0,0:0:0:0:
93,25,75015,1,2,3:2:0:0:
156,65,75187,2,0,P|209:83|292:75,1,125.999996154785,10|0,0:0|0:0,0:0:0:0:
346,46,75704,1,0,0:0:0:0:
403,95,75877,2,0,B|388:201|462:184|442:285,2,188.999994232178,2|2|2,0:0|3:2|0:0,0:0:0:0:
260,44,77256,5,2,3:2:0:0:
128,118,77601,1,0,0:0:0:0:
128,118,77773,1,0,3:0:0:0:
181,172,77946,2,0,L|171:305,1,125.999996154785,10|0,0:0|0:0,0:0:0:0:
318,259,78635,2,0,L|312:348,2,62.9999980773926,2|0|0,0:0|3:0|3:0,0:0:0:0:
249,123,79325,2,0,P|296:95|383:125,1,125.999996154785,10|0,0:0|0:0,0:0:0:0:
433,244,80015,6,0,P|386:272|299:242,1,125.999996154785,2|2,3:2|0:0,0:0:0:0:
258,213,80532,1,0,3:0:0:0:
187,240,80704,2,0,L|192:332,1,62.9999980773926,8|0,0:0|0:0,0:0:0:0:
114,310,81049,2,0,L|110:247,1,62.9999980773926,0|0,0:0|0:0,0:0:0:0:
43,211,81394,2,0,L|39:148,1,62.9999980773926,2|0,0:0|3:0,0:0:0:0:
37,72,81739,1,0,3:0:0:0:
176,128,82083,2,0,B|243:144|241:103|322:119,1,125.999996154785,10|0,0:0|0:0,0:0:0:0:
415,17,82773,6,0,P|465:85|431:205,1,188.999994232178,2|0,3:2|3:0,0:0:0:0:
407,247,83463,1,10,0:0:0:0:
407,247,83635,1,0,0:0:0:0:
333,227,83808,2,0,L|269:231,1,62.9999980773926,0|0,0:0|0:0,0:0:0:0:
216,283,84152,2,0,P|176:310|125:303,1,94.499997116089,0|2,0:0|0:3,0:0:0:0:
101,283,84497,2,0,L|48:301,3,31.4999990386963,0|2|2|2,0:0|0:3|0:3|0:3,0:0:0:0:
16,243,84842,2,0,L|36:112,1,125.999996154785,10|0,0:0|0:0,0:0:0:0:
175,175,85532,5,2,3:2:0:0:
175,175,85877,1,2,0:0:0:0:
232,126,86049,1,0,3:0:0:0:
290,77,86221,2,0,P|289:117|336:194,1,125.999996154785,8|0,0:0|0:0,0:0:0:0:
480,168,86911,2,0,P|475:105|439:55,1,125.999996154785,2|0,0:0|0:0,0:0:0:0:
375,96,87428,1,0,0:0:0:0:
304,68,87601,2,0,L|261:55,3,31.4999990386963,8|8|8|8,0:3|0:3|0:3|0:3,0:0:0:0:
201,82,87946,2,0,L|158:69,3,31.4999990386963,4|4|4|4,0:3|0:3|0:3|0:3,0:0:0:0:
50,36,88290,6,0,L|64:210,1,154.000004699707,6|8,3:2|0:0,0:0:0:0:
74,281,88808,1,0,3:0:0:0:
142,218,88980,2,0,P|179:205|238:208,1,77.0000023498536,10|2,0:1|0:0,0:0:0:0:
266,212,89239,1,0,3:0:0:0:
266,212,89325,2,0,L|256:314,1,77.0000023498536,10|0,0:2|0:0,0:0:0:0:
385,343,89670,2,0,L|377:266,1,77.0000023498536,0|2,3:0|0:0,0:0:0:0:
427,188,90015,2,0,L|434:111,1,77.0000023498536,10|0,0:0|3:0,0:0:0:0:
366,49,90359,2,0,P|311:26|236:55,1,115.50000352478,10|0,0:1|3:0,0:0:0:0:
216,59,90704,2,0,L|224:151,1,77.0000023498536,10|2,0:0|0:0,0:0:0:0:
293,195,91049,6,0,L|285:287,1,77.0000023498536,0|0,3:0|0:0,0:0:0:0:
239,351,91394,1,8,0:0:0:0:
146,352,91566,1,0,3:0:0:0:
191,271,91739,2,0,B|189:208|159:226|157:161,1,115.50000352478,8|0,0:1|3:0,0:0:0:0:
155,115,92084,2,0,L|231:111,1,77.0000023498536,8|0,0:0|0:0,0:0:0:0:
314,69,92428,2,0,P|290:117|323:207,1,154.000004699707,2|10,3:2|0:0,0:0:0:0:
382,134,92946,1,2,3:2:0:0:
464,174,93118,2,0,L|455:302,1,115.50000352478,10|2,0:1|3:2,0:0:0:0:
430,328,93463,2,0,P|392:345|337:340,1,77.0000023498536,8|0,0:0|0:0,0:0:0:0:
232,285,93808,6,0,B|230:216|280:220|268:123,1,154.000004699707,2|8,3:2|0:0,0:0:0:0:
230,53,94325,1,0,3:0:0:0:
149,98,94497,2,0,P|116:91|60:104,1,77.0000023498536,10|2,0:1|0:0,0:0:0:0:
42,131,94756,1,0,3:0:0:0:
42,131,94842,2,0,L|46:228,1,77.0000023498536,10|0,0:2|0:0,0:0:0:0:
18,296,95187,1,0,3:0:0:0:
107,272,95359,1,2,0:0:0:0:
186,320,95532,2,0,L|275:319,1,77.0000023498536,10|0,0:0|3:0,0:0:0:0:
336,375,95877,2,0,P|354:330|332:259,1,115.50000352478,10|0,0:1|3:0,0:0:0:0:
309,230,96221,2,0,L|398:229,1,77.0000023498536,10|2,0:0|0:0,0:0:0:0:
432,148,96566,6,0,L|258:151,1,154.000004699707,0|10,3:0|0:0,0:0:0:0:
189,121,97084,1,2,3:2:0:0:
216,208,97256,2,0,B|206:265|237:261|225:326,1,115.50000352478,10|0,0:1|3:2,0:0:0:0:
201,360,97601,2,0,L|110:347,1,77.0000023498536,10|0,0:0|0:0,0:0:0:0:
78,275,97946,1,0,3:2:0:0:
78,275,98118,2,0,L|1:285,2,77.0000023498536,2|10|2,0:2|0:2|3:2,0:0:0:0:
138,204,98635,2,0,P|117:163|148:88,1,115.50000352478,10|0,0:1|3:2,0:0:0:0:
171,69,98980,2,0,L|266:87,1,77.0000023498536,10|4,0:0|0:0,0:0:0:0:
383,60,99325,6,0,B|390:135|333:134|354:232,1,154.000004699707,6|8,3:2|0:0,0:0:0:0:
373,297,99842,1,0,3:0:0:0:
462,319,100015,2,0,L|468:220,1,77.0000023498536,10|2,0:1|0:0,0:0:0:0:
495,206,100273,1,0,3:0:0:0:
495,206,100359,2,0,P|504:162|482:111,1,77.0000023498536,10|0,0:2|0:0,0:0:0:0:
419,79,100704,2,0,P|376:92|342:136,1,77.0000023498536,0|0,3:0|0:0,0:0:0:0:
269,87,101049,1,10,0:0:0:0:
269,87,101221,1,0,3:0:0:0:
213,161,101394,2,0,L|220:301,1,115.50000352478,10|0,0:1|3:0,0:0:0:0:
200,319,101739,2,0,P|165:340|109:344,1,77.0000023498536,10|0,0:0|0:0,0:0:0:0:
18,263,102083,6,0,P|53:242|109:238,1,77.0000023498536,2|0,3:2|0:0,0:0:0:0:
180,239,102428,1,10,0:0:0:0:
136,157,102601,1,2,3:2:0:0:
182,77,102773,2,0,B|242:74|238:106|297:95,1,115.50000352478,10|0,0:1|3:0,0:0:0:0:
337,77,103118,2,0,L|322:169,1,77.0000023498536,8|0,0:0|0:0,0:0:0:0:
359,244,103463,1,0,3:2:0:0:
359,244,103635,2,0,L|344:336,2,77.0000023498536,2|10|2,0:0|0:0|3:2,0:0:0:0:
442,204,104152,2,0,L|423:89,1,115.50000352478,10|0,0:1|3:2,0:0:0:0:
390,57,104497,2,0,P|350:42|290:53,1,77.0000023498536,10|0,0:0|0:0,0:0:0:0:
187,96,104842,6,0,L|202:257,1,154.000004699707,2|8,3:2|0:0,0:0:0:0:
211,341,105359,1,0,3:0:0:0:
127,300,105532,2,0,P|88:293|47:305,1,77.0000023498536,10|2,0:1|0:0,0:0:0:0:
12,320,105790,1,0,3:0:0:0:
12,320,105877,2,0,L|17:224,1,77.0000023498536,10|0,0:2|0:0,0:0:0:0:
57,160,106221,1,0,3:0:0:0:
15,76,106394,1,2,0:0:0:0:
106,89,106566,2,0,B|166:102|160:64|229:75,1,115.50000352478,10|0,0:0|3:0,0:0:0:0:
264,79,106911,2,0,L|252:174,1,77.0000023498536,10|0,0:1|0:0,0:0:0:0:
385,200,107256,2,0,L|375:123,1,77.0000023498536,10|2,0:0|0:0,0:0:0:0:
453,73,107601,6,0,L|473:240,1,154.000004699707,0|10,3:0|0:0,0:0:0:0:
486,317,108118,1,0,3:2:0:0:
399,284,108290,2,0,P|344:262|278:271,1,115.50000352478,8|0,0:1|3:2,0:0:0:0:
245,284,108635,1,10,0:0:0:0:
112,324,108808,5,2,0:2:0:0:
131,284,108981,1,2,0:2:0:0:
131,248,109153,1,0,0:0:0:0:
123,220,109325,1,0,0:0:0:0:
111,200,109498,1,0,0:0:0:0:
103,188,109670,1,0,0:0:0:0:
99,184,109843,2,0,L|171:188,1,70,0|0,0:0|0:0,0:0:0:0:
291,73,110359,5,0,0:0:0:0:
256,192,117256,12,2,125532,0:0:0:0:
444,95,126221,6,0,P|392:57|297:88,1,154.000004699707,6|8,3:2|0:0,0:0:0:0:
368,147,126739,1,0,3:0:0:0:
420,222,126910,2,0,L|410:305,1,77.0000023498536,10|2,0:1|0:0,0:0:0:0:
383,336,127169,1,0,3:0:0:0:
383,336,127255,2,0,P|341:332|286:357,1,77.0000023498536,10|0,0:2|0:0,0:0:0:0:
206,246,127600,2,0,P|248:250|303:225,1,77.0000023498536,0|2,3:0|0:0,0:0:0:0:
349,177,127945,2,0,L|356:100,1,77.0000023498536,10|0,0:0|3:0,0:0:0:0:
286,39,128289,2,0,B|233:35|232:70|152:62,1,115.50000352478,10|0,0:1|3:0,0:0:0:0:
129,50,128634,2,0,L|136:150,1,77.0000023498536,10|2,0:0|0:0,0:0:0:0:
86,206,128979,6,0,L|80:282,1,77.0000023498536,0|0,3:0|0:0,0:0:0:0:
42,367,129325,1,8,0:0:0:0:
133,356,129497,1,0,3:0:0:0:
210,306,129669,2,0,P|254:285|336:290,1,115.50000352478,8|0,0:1|3:0,0:0:0:0:
360,306,130014,2,0,L|353:209,1,77.0000023498536,8|0,0:0|0:0,0:0:0:0:
438,190,130358,2,0,L|449:348,1,154.000004699707,2|10,3:2|0:0,0:0:0:0:
360,306,130877,1,2,3:2:0:0:
273,337,131048,2,0,B|215:343|226:303|143:312,1,115.50000352478,10|2,0:1|3:2,0:0:0:0:
118,326,131393,2,0,P|125:282|101:223,1,77.0000023498536,8|0,0:0|0:0,0:0:0:0:
59,125,131738,6,0,L|231:145,1,154.000004699707,2|8,3:2|0:0,0:0:0:0:
256,224,132256,1,0,3:0:0:0:
253,315,132427,2,0,P|286:331|353:323,1,77.0000023498536,10|2,0:1|0:0,0:0:0:0:
374,323,132686,1,0,3:0:0:0:
374,323,132772,2,0,L|366:236,1,77.0000023498536,10|0,0:2|0:0,0:0:0:0:
456,220,133117,1,0,3:0:0:0:
388,156,133290,1,2,0:0:0:0:
404,65,133462,2,0,P|351:70|314:103,1,77.0000023498536,10|0,0:0|3:0,0:0:0:0:
260,141,133807,2,0,L|141:129,1,115.50000352478,10|0,0:1|3:0,0:0:0:0:
100,115,134152,2,0,P|103:158|92:206,1,77.0000023498536,10|2,0:0|0:0,0:0:0:0:
48,269,134496,6,0,P|92:259|211:292,1,154.000004699707,0|10,3:0|0:0,0:0:0:0:
273,335,135014,1,2,3:2:0:0:
365,336,135186,2,0,B|370:283|331:283|347:204,1,115.50000352478,10|0,0:1|3:2,0:0:0:0:
355,179,135531,2,0,L|444:186,1,77.0000023498536,10|0,0:0|0:0,0:0:0:0:
466,101,135876,1,0,3:2:0:0:
466,101,136048,2,0,L|389:94,2,77.0000023498536,2|10|2,0:2|0:2|3:2,0:0:0:0:
432,185,136565,2,0,P|414:229|455:306,1,115.50000352478,10|0,0:1|3:2,0:0:0:0:
464,327,136910,2,0,L|366:332,1,77.0000023498536,10|4,0:0|0:0,0:0:0:0:
256,283,137255,6,0,B|177:274|190:325|97:301,1,154.000004699707,6|8,3:2|0:0,0:0:0:0:
25,257,137772,1,0,3:0:0:0:
75,179,137945,2,0,P|95:142|86:88,1,77.0000023498536,10|2,0:1|0:0,0:0:0:0:
85,67,138203,1,0,3:0:0:0:
85,67,138289,2,0,L|167:75,1,77.0000023498536,10|0,0:2|0:0,0:0:0:0:
228,138,138634,2,0,L|232:220,1,77.0000023498536,0|0,3:0|0:0,0:0:0:0:
179,292,138980,1,10,0:0:0:0:
179,292,139152,1,0,3:0:0:0:
244,357,139324,2,0,P|293:332|381:349,1,115.50000352478,10|0,0:1|3:0,0:0:0:0:
396,349,139669,2,0,L|384:254,1,77.0000023498536,10|0,0:0|0:0,0:0:0:0:
441,198,140014,6,0,L|450:121,1,77.0000023498536,2|0,3:2|0:0,0:0:0:0:
463,29,140359,1,10,0:0:0:0:
377,65,140532,1,2,3:2:0:0:
333,146,140704,2,0,B|273:143|277:175|220:164,1,115.50000352478,10|0,0:1|3:0,0:0:0:0:
178,146,141048,2,0,L|190:247,1,77.0000023498536,8|0,0:0|0:0,0:0:0:0:
112,275,141393,1,0,3:2:0:0:
112,275,141565,2,0,L|102:351,2,77.0000023498536,2|10|2,0:0|0:0|3:2,0:0:0:0:
193,320,142083,2,0,P|249:297|323:314,1,115.50000352478,10|0,0:1|3:2,0:0:0:0:
344,321,142427,2,0,L|338:235,1,77.0000023498536,10|0,0:0|0:0,0:0:0:0:
471,203,142772,6,0,L|460:42,1,154.000004699707,2|8,3:2|0:0,0:0:0:0:
376,90,143290,1,0,3:0:0:0:
320,163,143462,2,0,P|283:183|222:182,1,77.0000023498536,10|2,0:1|0:0,0:0:0:0:
206,182,143721,1,0,3:0:0:0:
206,182,143807,2,0,L|212:103,1,77.0000023498536,10|0,0:2|0:0,0:0:0:0:
157,30,144152,1,0,3:0:0:0:
105,107,144325,1,2,0:0:0:0:
23,149,144496,2,0,P|47:205|26:287,1,115.50000352478,10|0,0:0|0:0,0:0:0:0:
21,300,144841,2,0,L|115:294,1,77.0000023498536,10|0,0:1|0:0,0:0:0:0:
208,211,145186,2,0,L|131:206,1,77.0000023498536,10|2,0:0|0:0,0:0:0:0:
104,117,145531,6,0,L|267:128,1,154.000004699707,0|10,3:0|0:0,0:0:0:0:
337,78,146049,1,0,3:2:0:0:
412,130,146221,2,0,B|413:188|374:180|382:268,1,115.50000352478,8|0,0:1|3:2,0:0:0:0:
389,285,146565,1,10,0:0:0:0:
297,270,146738,1,2,0:2:0:0:
221,307,146910,2,0,P|196:315|112:295,1,105,2|0,0:2|0:0,0:0:0:0:
87,274,147255,2,0,L|106:187,1,70,10|2,0:2|0:2,0:0:0:0:
183,184,147600,1,2,3:2:0:0:
233,117,147772,1,2,0:2:0:0:
192,43,147945,1,2,3:2:0:0:
36,104,148289,5,4,3:2:0:0:
36,104,148634,2,0,L|47:197,1,70,2|2,0:0|3:2,0:0:0:0:
118,212,148979,2,0,L|107:305,2,70,10|0|0,0:0|0:0|0:0,0:0:0:0:
190,168,149496,1,2,0:0:0:0:
272,153,149669,2,0,P|270:188|256:220,4,70,0|2|2|2|10,0:0|3:2|3:2|0:0|0:0,0:0:0:0:
244,73,150531,1,0,0:0:0:0:
326,86,150703,2,0,L|410:70,1,70,2|2,0:0|0:0,0:0:0:0:
427,194,151048,6,0,P|406:248|317:264,1,140,2|2,3:2|0:0,0:0:0:0:
254,235,151565,1,2,3:2:0:0:
221,157,151738,2,0,L|228:70,1,70,10|0,0:0|0:0,0:0:0:0:
144,66,152083,2,0,L|138:135,1,70,0|2,0:0|0:0,0:0:0:0:
79,195,152427,1,2,0:0:0:0:
79,195,152600,1,2,3:2:0:0:
105,274,152772,2,0,P|140:268|198:286,1,70,2|2,0:0|3:2,0:0:0:0:
244,319,153117,2,0,P|279:325|337:307,2,70,10|0|0,0:0|0:0|0:0,0:0:0:0:
123,201,153807,6,0,P|96:144|134:67,1,140,4|2,3:2|0:0,0:0:0:0:
178,139,154324,1,2,3:2:0:0:
199,140,154410,1,0,0:0:0:0:
219,140,154496,2,0,L|299:140,1,70,10|0,0:0|0:0,0:0:0:0:
351,84,154841,2,0,L|431:84,1,70,0|2,0:0|0:0,0:0:0:0:
466,154,155186,1,0,0:0:0:0:
425,227,155358,2,0,P|435:266|418:323,3,70,2|2|2|10,3:2|3:2|0:0|0:0,0:0:0:0:
351,267,156048,1,0,0:0:0:0:
274,302,156221,1,2,0:0:0:0:
193,279,156393,1,2,0:0:0:0:
223,201,156565,6,0,P|223:155|205:117,1,70,2|0,3:2|0:0,0:0:0:0:
131,142,156910,2,0,P|130:187|148:225,1,70,2|2,0:0|3:2,0:0:0:0:
205,317,157255,2,0,B|278:339|271:295|347:315,1,140,10|0,0:0|0:0,0:0:0:0:
422,340,157772,1,2,0:0:0:0:
485,284,157945,1,2,0:0:0:0:
439,213,158117,1,2,0:0:0:0:
356,225,158289,2,0,L|341:142,1,70,2|2,0:0|0:0,0:0:0:0:
370,76,158634,2,0,L|355:-7,1,70,2|0,0:0|0:0,0:0:0:0:
249,72,158979,6,0,B|204:100|130:80|130:80|173:112|180:160|180:160|166:202|166:202|176:263,1,315.000012016297,0|0,0:0|0:0,0:0:0:0:
