osu file format v14

[General]
AudioFilename: audio.mp3
AudioLeadIn: 0
PreviewTime: 125543
Countdown: 0
SampleSet: Normal
StackLeniency: 0.7
Mode: 1
LetterboxInBreaks: 0
WidescreenStoryboard: 0

[Editor]
Bookmarks: 575,12575,36575,48575,60575,72575,78575,90575,102575,114575,126575,138575,150575,155075,173075,203075,227074,239074,251074,258778,271558
DistanceSpacing: 1
BeatDivisor: 8
GridSize: 32
TimelineZoom: 1.4

[Metadata]
Title:Pray
TitleUnicode:Pray
Artist:Rachel (CV: Chisuga Haruka)
ArtistUnicode:レイチェル(CV: 千菅春香)
Creator:Zhuosh
Version:Despair
Source:殺戮の天使
Tags:satsuriku no tenshi さつりく てんし angels of death ending ed DECO*27 full ver japanese anime jpop j-pop yuxuki waga fhána fhana
BeatmapID:2340250
BeatmapSetID:1120125

[Difficulty]
HPDrainRate:6
CircleSize:2
OverallDifficulty:5
ApproachRate:10
SliderMultiplier:1.4
SliderTickRate:1

[Events]
//Background and Video events
0,0,"bg.jpg",0,60
//Break Periods
//Storyboard Layer 0 (Background)
//Storyboard Layer 1 (Fail)
//Storyboard Layer 2 (Pass)
//Storyboard Layer 3 (Foreground)
//Storyboard Layer 4 (Overlay)
//Storyboard Sound Samples

[TimingPoints]
575,750,4,1,0,60,1,0
575,-62.5,4,1,0,60,0,0
12575,-55.5555555555556,4,1,0,65,0,0
36575,-55.5555555555556,4,1,0,60,0,0
37700,-55.5555555555556,4,1,0,70,0,0
42575,-57.1428571428571,4,1,0,65,0,0
45575,-55.5555555555556,4,1,0,65,0,0
47075,-45.4545454545455,4,1,0,80,0,0
47637,-62.5,4,1,0,65,0,0
47825,-58.8235294117647,4,1,0,65,0,0
48012,-55.5555555555556,4,1,0,65,0,0
48200,-52.6315789473684,4,1,0,65,0,0
48575,-50,4,1,0,90,0,1
72012,-52.6315789473684,4,1,0,90,0,1
72200,-55.5555555555556,4,1,0,90,0,1
72387,-58.8235294117647,4,1,0,90,0,1
72575,-62.5,4,1,0,60,0,0
78575,-55.5555555555556,4,1,0,65,0,0
90575,-52.6315789473684,4,1,0,70,0,0
102575,-52.6315789473684,4,1,0,65,0,0
103325,-52.6315789473684,4,1,0,70,0,0
114387,-54.054054054054,4,1,0,70,0,0
114481,-54.7945205479452,4,1,0,70,0,0
114575,-55.5555555555556,4,1,0,60,0,0
115700,-55.5555555555556,4,1,0,70,0,0
120575,-54.054054054054,4,1,0,65,0,0
123575,-52.6315789473684,4,1,0,65,0,0
125075,-45.4545454545455,4,1,0,80,0,0
125637,-62.5,4,1,0,65,0,0
125825,-58.8235294117647,4,1,0,65,0,0
126012,-55.5555555555556,4,1,0,65,0,0
126200,-52.6315789473684,4,1,0,65,0,0
126575,-50,4,1,0,90,0,1
150575,-50,4,1,0,70,0,0
153200,-51.2820512820513,4,1,0,70,0,0
153575,-52.6315789473684,4,1,0,70,0,0
155075,750,4,1,0,70,1,0
155075,-52.6315789473684,4,1,0,70,0,0
173075,-62.5,4,1,0,65,0,0
203075,-58.8235294117647,4,1,0,60,0,0
207575,701.754385964912,4,1,0,60,1,8
207575,-62.867776492481,4,1,0,60,0,0
208276,789.473684210525,4,1,0,60,1,8
208276,-55.8824679933165,4,1,0,60,0,0
209065,750,4,1,0,60,1,0
209065,-58.8235294117647,4,1,0,60,0,0
224065,759.493670886076,4,1,0,60,1,0
224065,-58.0882011245876,4,1,0,60,0,0
224824,750,4,1,0,60,1,8
224824,-58.8235294117647,4,1,0,60,0,0
225574,-45.4545454545455,4,1,0,80,0,0
226136,-62.5,4,1,0,65,0,0
226324,-58.8235294117647,4,1,0,65,0,0
226511,-55.5555555555556,4,1,0,65,0,0
226699,-52.6315789473684,4,1,0,65,0,0
227074,750,4,1,0,90,1,0
227074,-47.6190476190476,4,1,0,90,0,1
249386,-48.780487804878,4,1,0,90,0,1
249480,-49.3827160493827,4,1,0,90,0,1
249574,-50,4,1,0,90,0,1
249761,-51.2820512820513,4,1,0,90,0,1
249949,-52.6315789473684,4,1,0,90,0,1
250136,-54.054054054054,4,1,0,90,0,1
250230,-54.7945205479452,4,1,0,90,0,1
250324,-55.5555555555556,4,1,0,90,0,1
250417,-56.3380281690141,4,1,0,90,0,1
250511,-57.1428571428571,4,1,0,90,0,1
250699,-58.8235294117647,4,1,0,90,0,1
250886,-60.6060606060606,4,1,0,90,0,1
251074,-62.5,4,1,0,60,0,0
256207,857.142857142857,4,1,0,50,1,8
258778,1016.94915254237,4,1,0,50,1,0
258778,-61.4582821180982,4,1,0,50,0,0
259794,1153.84615384615,4,1,0,50,1,8
259794,-59.0908285125066,4,1,0,50,0,0
260947,967.741935483871,4,1,0,40,1,8
260947,-77.50015500031,4,1,0,40,0,0
262532,1052.63157894737,4,1,0,30,1,8
264637,1237.11340206186,4,1,0,30,1,0
264637,-67.3609333530925,4,1,0,30,0,0
265874,1363.63636363636,4,1,0,30,1,8
265874,-68.7497851569214,4,1,0,30,0,0
267237,1454.54545454545,4,1,0,20,1,8
267237,-73.6604840967015,4,1,0,20,0,0
267418,1153.84615384615,4,1,0,10,1,8
267418,-92.8574081640233,4,1,0,10,0,0
267562,909.090909090909,4,1,0,10,1,8
267789,1284.7965738758,4,1,0,10,1,8
270358,2400,4,1,0,10,1,8

[HitObjects]
256,192,575,5,8,0:0:0:0:
256,192,950,1,0,0:0:0:0:
256,192,1137,1,8,0:0:0:0:
256,192,2825,1,8,0:0:0:0:
256,192,3012,1,0,0:0:0:0:
256,192,3200,1,8,0:0:0:0:
256,192,3575,1,0,0:0:0:0:
256,192,3950,1,0,0:0:0:0:
256,192,4137,1,8,0:0:0:0:
256,192,6575,1,8,0:0:0:0:
256,192,6950,1,0,0:0:0:0:
256,192,7137,1,8,0:0:0:0:
256,192,8825,1,8,0:0:0:0:
256,192,9012,1,0,0:0:0:0:
256,192,9200,1,8,0:0:0:0:
256,192,9575,1,0,0:0:0:0:
256,192,9950,1,0,0:0:0:0:
256,192,10137,1,8,0:0:0:0:
256,192,12575,5,8,0:0:0:0:
256,192,12950,1,0,0:0:0:0:
256,192,13137,1,0,0:0:0:0:
256,192,13325,1,8,0:0:0:0:
256,192,13700,1,0,0:0:0:0:
256,192,13887,1,8,0:0:0:0:
256,192,14262,1,8,0:0:0:0:
256,192,14450,1,0,0:0:0:0:
256,192,14825,1,8,0:0:0:0:
256,192,15012,1,0,0:0:0:0:
256,192,15200,1,8,0:0:0:0:
256,192,15387,1,0,0:0:0:0:
256,192,15575,1,0,0:0:0:0:
256,192,15950,1,8,0:0:0:0:
256,192,16137,1,0,0:0:0:0:
256,192,16512,1,0,0:0:0:0:
256,192,16700,1,8,0:0:0:0:
256,192,18575,1,8,0:0:0:0:
256,192,18950,1,0,0:0:0:0:
256,192,19137,1,0,0:0:0:0:
256,192,19325,1,8,0:0:0:0:
256,192,19700,1,0,0:0:0:0:
256,192,19887,1,8,0:0:0:0:
256,192,20262,1,8,0:0:0:0:
256,192,20450,1,0,0:0:0:0:
256,192,20825,1,8,0:0:0:0:
256,192,21012,1,0,0:0:0:0:
256,192,21200,1,0,0:0:0:0:
256,192,21387,1,8,0:0:0:0:
256,192,21575,1,0,0:0:0:0:
256,192,21950,1,8,0:0:0:0:
256,192,22137,1,0,0:0:0:0:
256,192,22512,1,8,0:0:0:0:
256,192,22700,1,8,0:0:0:0:
256,192,24575,1,8,0:0:0:0:
256,192,24950,1,0,0:0:0:0:
256,192,25137,1,0,0:0:0:0:
256,192,25325,1,8,0:0:0:0:
256,192,25700,1,0,0:0:0:0:
256,192,25887,1,8,0:0:0:0:
256,192,26262,1,8,0:0:0:0:
256,192,26450,1,0,0:0:0:0:
256,192,26825,1,8,0:0:0:0:
256,192,27012,1,0,0:0:0:0:
256,192,27200,1,8,0:0:0:0:
256,192,27387,1,0,0:0:0:0:
256,192,27575,1,0,0:0:0:0:
256,192,27950,1,8,0:0:0:0:
256,192,28137,1,0,0:0:0:0:
256,192,28512,1,0,0:0:0:0:
256,192,28700,1,8,0:0:0:0:
256,192,30200,1,8,0:0:0:0:
256,192,30387,1,0,0:0:0:0:
256,192,30575,1,8,0:0:0:0:
256,192,30950,1,0,0:0:0:0:
256,192,31137,1,0,0:0:0:0:
256,192,31325,1,8,0:0:0:0:
256,192,31700,1,0,0:0:0:0:
256,192,31887,1,8,0:0:0:0:
256,192,32262,1,8,0:0:0:0:
256,192,32450,1,0,0:0:0:0:
256,192,32825,1,8,0:0:0:0:
256,192,33012,1,0,0:0:0:0:
256,192,33200,1,8,0:0:0:0:
256,192,33387,1,8,0:0:0:0:
256,192,33575,1,0,0:0:0:0:
256,192,33950,1,8,0:0:0:0:
256,192,34137,1,8,0:0:0:0:
256,192,34512,1,0,0:0:0:0:
256,192,34700,1,8,0:0:0:0:
256,192,36387,1,8,0:0:0:0:
256,192,36575,5,0,0:0:0:0:
256,192,37700,1,4,0:0:0:0:
256,192,38262,1,8,0:0:0:0:
256,192,38450,1,0,0:0:0:0:
256,192,38637,1,0,0:0:0:0:
256,192,38825,1,8,0:0:0:0:
256,192,39012,1,8,0:0:0:0:
256,192,39200,1,0,0:0:0:0:
256,192,39575,1,8,0:0:0:0:
256,192,40325,1,8,0:0:0:0:
256,192,40512,1,0,0:0:0:0:
256,192,40887,1,8,0:0:0:0:
256,192,41075,1,0,0:0:0:0:
256,192,41262,1,0,0:0:0:0:
256,192,41450,1,8,0:0:0:0:
256,192,41825,1,8,0:0:0:0:
256,192,42012,1,8,0:0:0:0:
256,192,42200,1,0,0:0:0:0:
256,192,42575,1,0,0:0:0:0:
256,192,43325,1,0,0:0:0:0:
256,192,44075,1,0,0:0:0:0:
256,192,44825,1,0,0:0:0:0:
256,192,45575,1,0,0:0:0:0:
256,192,45950,1,0,0:0:0:0:
256,192,46325,1,0,0:0:0:0:
256,192,46700,1,0,0:0:0:0:
256,192,47075,1,12,0:0:0:0:
256,192,47262,1,12,0:0:0:0:
256,192,47637,1,0,0:0:0:0:
256,192,47825,1,0,0:0:0:0:
256,192,48012,1,0,0:0:0:0:
256,192,48200,1,8,0:0:0:0:
256,192,48575,5,4,0:0:0:0:
256,192,48950,1,0,0:0:0:0:
256,192,49137,1,0,0:0:0:0:
256,192,49325,1,8,0:0:0:0:
256,192,49512,1,0,0:0:0:0:
256,192,49887,1,0,0:0:0:0:
256,192,50075,1,8,0:0:0:0:
256,192,50450,1,0,0:0:0:0:
256,192,50637,1,0,0:0:0:0:
256,192,50825,1,8,0:0:0:0:
256,192,51012,1,8,0:0:0:0:
256,192,51106,1,8,0:0:0:0:
256,192,51200,1,0,0:0:0:0:
256,192,51387,1,0,0:0:0:0:
256,192,51575,1,8,0:0:0:0:
256,192,51950,1,0,0:0:0:0:
256,192,52137,1,0,0:0:0:0:
256,192,52231,1,0,0:0:0:0:
256,192,52325,1,8,0:0:0:0:
256,192,52512,1,0,0:0:0:0:
256,192,52700,1,8,0:0:0:0:
256,192,53075,1,0,0:0:0:0:
256,192,53450,1,0,0:0:0:0:
256,192,53825,1,8,0:0:0:0:
256,192,54012,1,0,0:0:0:0:
256,192,54106,1,0,0:0:0:0:
256,192,54200,1,8,0:0:0:0:
256,192,54387,1,8,0:0:0:0:
256,192,54575,1,4,0:0:0:0:
256,192,54762,1,0,0:0:0:0:
256,192,54950,1,8,0:0:0:0:
256,192,55137,1,8,0:0:0:0:
256,192,55512,1,8,0:0:0:0:
256,192,55700,1,0,0:0:0:0:
256,192,55887,1,0,0:0:0:0:
256,192,56262,1,0,0:0:0:0:
256,192,56450,1,8,0:0:0:0:
256,192,56637,1,8,0:0:0:0:
256,192,56825,1,0,0:0:0:0:
256,192,57012,1,0,0:0:0:0:
256,192,57200,1,8,0:0:0:0:
256,192,57387,1,0,0:0:0:0:
256,192,57481,1,0,0:0:0:0:
256,192,57575,1,8,0:0:0:0:
256,192,57950,1,8,0:0:0:0:
256,192,58137,1,0,0:0:0:0:
256,192,58512,1,0,0:0:0:0:
256,192,58700,1,8,0:0:0:0:
256,192,58887,1,0,0:0:0:0:
256,192,58981,1,0,0:0:0:0:
256,192,59075,1,8,0:0:0:0:
256,192,59262,1,8,0:0:0:0:
256,192,59450,1,0,0:0:0:0:
256,192,59637,1,0,0:0:0:0:
256,192,59825,1,8,0:0:0:0:
256,192,60012,1,0,0:0:0:0:
256,192,60200,1,8,0:0:0:0:
256,192,60387,1,8,0:0:0:0:
256,192,60575,5,4,0:0:0:0:
256,192,60950,1,0,0:0:0:0:
256,192,61137,1,0,0:0:0:0:
256,192,61325,1,8,0:0:0:0:
256,192,61700,1,8,0:0:0:0:
256,192,61887,1,8,0:0:0:0:
256,192,61981,1,8,0:0:0:0:
256,192,62075,1,0,0:0:0:0:
256,192,62262,1,8,0:0:0:0:
256,192,62450,1,0,0:0:0:0:
256,192,62637,1,0,0:0:0:0:
256,192,62825,1,8,0:0:0:0:
256,192,63200,1,0,0:0:0:0:
256,192,63387,1,0,0:0:0:0:
256,192,63481,1,0,0:0:0:0:
256,192,63575,1,8,0:0:0:0:
256,192,63762,1,0,0:0:0:0:
256,192,63950,1,8,0:0:0:0:
256,192,64137,1,0,0:0:0:0:
256,192,64512,1,0,0:0:0:0:
256,192,64700,1,8,0:0:0:0:
256,192,64887,1,8,0:0:0:0:
256,192,64981,1,8,0:0:0:0:
256,192,65075,1,0,0:0:0:0:
256,192,65262,1,8,0:0:0:0:
256,192,65450,1,0,0:0:0:0:
256,192,65825,1,8,0:0:0:0:
256,192,66012,1,0,0:0:0:0:
256,192,66106,1,0,0:0:0:0:
256,192,66200,1,8,0:0:0:0:
256,192,66387,1,8,0:0:0:0:
256,192,66575,1,4,0:0:0:0:
256,192,66762,1,0,0:0:0:0:
256,192,66950,1,8,0:0:0:0:
256,192,67137,1,8,0:0:0:0:
256,192,67512,1,8,0:0:0:0:
256,192,67700,1,0,0:0:0:0:
256,192,67887,1,0,0:0:0:0:
256,192,68262,1,0,0:0:0:0:
256,192,68450,1,8,0:0:0:0:
256,192,68637,1,8,0:0:0:0:
256,192,68825,1,0,0:0:0:0:
256,192,69012,1,0,0:0:0:0:
256,192,69200,1,8,0:0:0:0:
256,192,69387,1,0,0:0:0:0:
256,192,69481,1,0,0:0:0:0:
256,192,69575,1,8,0:0:0:0:
256,192,69950,1,8,0:0:0:0:
256,192,70137,1,0,0:0:0:0:
256,192,70512,1,0,0:0:0:0:
256,192,70700,1,8,0:0:0:0:
256,192,70887,1,0,0:0:0:0:
256,192,70981,1,0,0:0:0:0:
256,192,71075,1,8,0:0:0:0:
256,192,71262,1,8,0:0:0:0:
256,192,71450,1,0,0:0:0:0:
256,192,71637,1,0,0:0:0:0:
256,192,71825,1,8,0:0:0:0:
256,192,72012,1,0,0:0:0:0:
256,192,72200,1,8,0:0:0:0:
256,192,72387,1,0,0:0:0:0:
256,192,72575,5,8,0:0:0:0:
256,192,73325,1,8,0:0:0:0:
256,192,74075,1,8,0:0:0:0:
256,192,75575,1,8,0:0:0:0:
256,192,76325,1,8,0:0:0:0:
256,192,78575,5,8,0:0:0:0:
256,192,78950,1,0,0:0:0:0:
256,192,79137,1,8,0:0:0:0:
256,192,79325,1,0,0:0:0:0:
256,192,79887,1,0,0:0:0:0:
256,192,80450,1,8,0:0:0:0:
256,192,80825,1,8,0:0:0:0:
256,192,81012,1,0,0:0:0:0:
256,192,81200,1,8,0:0:0:0:
256,192,81575,1,0,0:0:0:0:
256,192,81950,1,0,0:0:0:0:
256,192,82137,1,8,0:0:0:0:
256,192,82325,1,0,0:0:0:0:
256,192,82887,1,8,0:0:0:0:
256,192,83450,1,0,0:0:0:0:
256,192,83825,1,8,0:0:0:0:
256,192,84012,1,0,0:0:0:0:
256,192,84387,1,8,0:0:0:0:
256,192,84575,1,8,0:0:0:0:
256,192,84950,1,0,0:0:0:0:
256,192,85137,1,8,0:0:0:0:
256,192,85325,1,0,0:0:0:0:
256,192,85887,1,0,0:0:0:0:
256,192,86450,1,8,0:0:0:0:
256,192,86825,1,8,0:0:0:0:
256,192,87012,1,0,0:0:0:0:
256,192,87200,1,8,0:0:0:0:
256,192,87575,1,0,0:0:0:0:
256,192,87950,1,0,0:0:0:0:
256,192,88137,1,8,0:0:0:0:
256,192,89825,1,8,0:0:0:0:
256,192,90575,5,4,0:0:0:0:
256,192,90762,1,0,0:0:0:0:
256,192,90856,1,0,0:0:0:0:
256,192,90950,1,8,0:0:0:0:
256,192,91137,1,0,0:0:0:0:
256,192,91325,1,8,0:0:0:0:
256,192,91700,1,0,0:0:0:0:
256,192,91887,1,8,0:0:0:0:
256,192,92262,1,8,0:0:0:0:
256,192,92450,1,0,0:0:0:0:
256,192,92637,1,0,0:0:0:0:
256,192,92825,1,8,0:0:0:0:
256,192,93387,1,8,0:0:0:0:
256,192,93575,1,0,0:0:0:0:
256,192,93762,1,0,0:0:0:0:
256,192,93856,1,0,0:0:0:0:
256,192,93950,1,8,0:0:0:0:
256,192,94137,1,0,0:0:0:0:
256,192,94512,1,0,0:0:0:0:
256,192,94700,1,8,0:0:0:0:
256,192,95075,1,8,0:0:0:0:
256,192,95262,1,0,0:0:0:0:
256,192,95637,1,0,0:0:0:0:
256,192,95825,1,8,0:0:0:0:
256,192,96575,1,0,0:0:0:0:
256,192,96762,1,8,0:0:0:0:
256,192,96856,1,8,0:0:0:0:
256,192,96950,1,0,0:0:0:0:
256,192,97137,1,8,0:0:0:0:
256,192,97325,1,0,0:0:0:0:
256,192,97700,1,0,0:0:0:0:
256,192,97887,1,8,0:0:0:0:
256,192,98262,1,8,0:0:0:0:
256,192,98450,1,0,0:0:0:0:
256,192,98637,1,0,0:0:0:0:
256,192,98825,1,8,0:0:0:0:
256,192,99200,1,8,0:0:0:0:
256,192,99387,1,0,0:0:0:0:
256,192,99575,1,8,0:0:0:0:
256,192,99762,1,8,0:0:0:0:
256,192,99856,1,8,0:0:0:0:
256,192,99950,1,0,0:0:0:0:
256,192,100137,1,8,0:0:0:0:
256,192,100512,1,8,0:0:0:0:
256,192,100700,1,0,0:0:0:0:
256,192,101075,1,8,0:0:0:0:
256,192,101262,1,0,0:0:0:0:
256,192,101637,1,0,0:0:0:0:
256,192,101825,1,8,0:0:0:0:
256,192,102575,5,4,0:0:0:0:
256,192,102762,2,0,L|256:256,4,33.2499991121292
256,192,103325,1,8,0:0:0:0:
256,192,103700,1,0,0:0:0:0:
256,192,103887,1,8,0:0:0:0:
256,192,104262,1,8,0:0:0:0:
256,192,104450,1,0,0:0:0:0:
256,192,104637,1,0,0:0:0:0:
256,192,104825,1,8,0:0:0:0:
256,192,105012,1,8,0:0:0:0:
256,192,105200,1,0,0:0:0:0:
256,192,105387,1,8,0:0:0:0:
256,192,105575,1,0,0:0:0:0:
256,192,105762,1,0,0:0:0:0:
256,192,105856,1,0,0:0:0:0:
256,192,105950,1,8,0:0:0:0:
256,192,106137,1,0,0:0:0:0:
256,192,106512,1,0,0:0:0:0:
256,192,106700,1,8,0:0:0:0:
256,192,107075,1,8,0:0:0:0:
256,192,107262,1,0,0:0:0:0:
256,192,107637,1,0,0:0:0:0:
256,192,107825,1,8,0:0:0:0:
256,192,108200,1,0,0:0:0:0:
256,192,108387,1,8,0:0:0:0:
256,192,108575,1,0,0:0:0:0:
256,192,108762,1,8,0:0:0:0:
256,192,108856,1,8,0:0:0:0:
256,192,108950,1,0,0:0:0:0:
256,192,109137,1,8,0:0:0:0:
256,192,109325,1,0,0:0:0:0:
256,192,109512,1,0,0:0:0:0:
256,192,109700,1,8,0:0:0:0:
256,192,109887,1,0,0:0:0:0:
256,192,110262,1,0,0:0:0:0:
256,192,110450,1,8,0:0:0:0:
256,192,110637,1,0,0:0:0:0:
256,192,110825,1,8,0:0:0:0:
256,192,111012,1,8,0:0:0:0:
256,192,111200,1,8,0:0:0:0:
256,192,111387,1,0,0:0:0:0:
256,192,111575,1,8,0:0:0:0:
256,192,111762,1,8,0:0:0:0:
256,192,111856,1,8,0:0:0:0:
256,192,111950,1,0,0:0:0:0:
256,192,112137,1,8,0:0:0:0:
256,192,112512,1,0,0:0:0:0:
256,192,112700,1,8,0:0:0:0:
256,192,113075,1,8,0:0:0:0:
256,192,113262,1,0,0:0:0:0:
256,192,113637,1,0,0:0:0:0:
256,192,113825,1,8,0:0:0:0:
256,192,114200,1,0,0:0:0:0:
256,192,114387,1,8,0:0:0:0:
256,192,114481,1,8,0:0:0:0:
256,192,114575,5,0,0:0:0:0:
256,192,115700,5,4,0:0:0:0:
256,192,116450,1,0,0:0:0:0:
256,192,116637,1,0,0:0:0:0:
256,192,116825,1,8,0:0:0:0:
256,192,117012,1,0,0:0:0:0:
256,192,117200,1,0,0:0:0:0:
256,192,117575,1,8,0:0:0:0:
256,192,118325,1,8,0:0:0:0:
256,192,118512,1,0,0:0:0:0:
256,192,118887,1,8,0:0:0:0:
256,192,119075,1,0,0:0:0:0:
256,192,119262,1,0,0:0:0:0:
256,192,119450,1,8,0:0:0:0:
256,192,119637,1,0,0:0:0:0:
256,192,119731,1,0,0:0:0:0:
256,192,119825,1,8,0:0:0:0:
256,192,120012,1,0,0:0:0:0:
256,192,120575,1,0,0:0:0:0:
256,192,120950,1,8,0:0:0:0:
256,192,121325,1,0,0:0:0:0:
256,192,121700,1,8,0:0:0:0:
256,192,122075,1,0,0:0:0:0:
256,192,122450,1,8,0:0:0:0:
256,192,122825,1,0,0:0:0:0:
256,192,123200,1,8,0:0:0:0:
256,192,123575,5,0,0:0:0:0:
256,192,123762,1,8,0:0:0:0:
256,192,123950,1,0,0:0:0:0:
256,192,124137,1,8,0:0:0:0:
256,192,124325,1,0,0:0:0:0:
256,192,124512,1,8,0:0:0:0:
256,192,124700,1,0,0:0:0:0:
256,192,125075,5,12,0:0:0:0:
256,192,125262,1,12,0:0:0:0:
256,192,125637,1,0,0:0:0:0:
256,192,125825,1,0,0:0:0:0:
256,192,126012,1,0,0:0:0:0:
256,192,126200,1,8,0:0:0:0:
256,192,126575,5,4,0:0:0:0:
256,192,126950,1,0,0:0:0:0:
256,192,127137,1,0,0:0:0:0:
256,192,127325,1,8,0:0:0:0:
256,192,127512,1,0,0:0:0:0:
256,192,127700,1,0,0:0:0:0:
256,192,127887,1,0,0:0:0:0:
256,192,128075,1,8,0:0:0:0:
256,192,128450,1,0,0:0:0:0:
256,192,128637,1,0,0:0:0:0:
256,192,128731,1,0,0:0:0:0:
256,192,128825,1,8,0:0:0:0:
256,192,129012,1,8,0:0:0:0:
256,192,129106,1,8,0:0:0:0:
256,192,129200,1,0,0:0:0:0:
256,192,129387,1,0,0:0:0:0:
256,192,129575,1,8,0:0:0:0:
256,192,129950,1,0,0:0:0:0:
256,192,130137,1,0,0:0:0:0:
256,192,130231,1,0,0:0:0:0:
256,192,130325,1,8,0:0:0:0:
256,192,130512,1,0,0:0:0:0:
256,192,130700,1,8,0:0:0:0:
256,192,130887,1,8,0:0:0:0:
256,192,131075,1,0,0:0:0:0:
256,192,131450,1,0,0:0:0:0:
256,192,131825,1,8,0:0:0:0:
256,192,132012,1,0,0:0:0:0:
256,192,132106,1,0,0:0:0:0:
256,192,132200,1,8,0:0:0:0:
256,192,132387,1,8,0:0:0:0:
256,192,132575,1,4,0:0:0:0:
256,192,132762,1,0,0:0:0:0:
256,192,132950,1,8,0:0:0:0:
256,192,133137,1,8,0:0:0:0:
256,192,133512,1,8,0:0:0:0:
256,192,133700,1,0,0:0:0:0:
256,192,133887,1,0,0:0:0:0:
256,192,134262,1,0,0:0:0:0:
256,192,134450,1,8,0:0:0:0:
256,192,134637,1,8,0:0:0:0:
256,192,134731,1,8,0:0:0:0:
256,192,134825,1,0,0:0:0:0:
256,192,135012,1,0,0:0:0:0:
256,192,135200,1,8,0:0:0:0:
256,192,135387,1,0,0:0:0:0:
256,192,135481,1,0,0:0:0:0:
256,192,135575,1,8,0:0:0:0:
256,192,135950,1,8,0:0:0:0:
256,192,136137,1,0,0:0:0:0:
256,192,136512,1,0,0:0:0:0:
256,192,136700,1,8,0:0:0:0:
256,192,136887,1,0,0:0:0:0:
256,192,136981,1,0,0:0:0:0:
256,192,137075,1,8,0:0:0:0:
256,192,137262,1,8,0:0:0:0:
256,192,137450,1,0,0:0:0:0:
256,192,137637,1,0,0:0:0:0:
256,192,137731,1,0,0:0:0:0:
256,192,137825,1,8,0:0:0:0:
256,192,138012,1,0,0:0:0:0:
256,192,138200,1,8,0:0:0:0:
256,192,138387,1,8,0:0:0:0:
256,192,138575,5,4,0:0:0:0:
256,192,138950,1,0,0:0:0:0:
256,192,139137,1,0,0:0:0:0:
256,192,139325,1,8,0:0:0:0:
256,192,139700,1,8,0:0:0:0:
256,192,139887,1,8,0:0:0:0:
256,192,139981,1,8,0:0:0:0:
256,192,140075,1,0,0:0:0:0:
256,192,140262,1,8,0:0:0:0:
256,192,140450,1,0,0:0:0:0:
256,192,140637,1,0,0:0:0:0:
256,192,140731,1,0,0:0:0:0:
256,192,140825,1,8,0:0:0:0:
256,192,141200,1,0,0:0:0:0:
256,192,141387,1,0,0:0:0:0:
256,192,141481,1,0,0:0:0:0:
256,192,141575,1,8,0:0:0:0:
256,192,141762,1,0,0:0:0:0:
256,192,141950,1,8,0:0:0:0:
256,192,142137,1,0,0:0:0:0:
256,192,142512,1,0,0:0:0:0:
256,192,142700,1,8,0:0:0:0:
256,192,142887,1,8,0:0:0:0:
256,192,142981,1,8,0:0:0:0:
256,192,143075,1,0,0:0:0:0:
256,192,143262,1,8,0:0:0:0:
256,192,143450,1,0,0:0:0:0:
256,192,143825,1,8,0:0:0:0:
256,192,144012,1,0,0:0:0:0:
256,192,144106,1,0,0:0:0:0:
256,192,144200,1,8,0:0:0:0:
256,192,144387,1,8,0:0:0:0:
256,192,144575,1,4,0:0:0:0:
256,192,144762,1,0,0:0:0:0:
256,192,144950,1,8,0:0:0:0:
256,192,145137,1,8,0:0:0:0:
256,192,145512,1,8,0:0:0:0:
256,192,145700,1,0,0:0:0:0:
256,192,145887,1,0,0:0:0:0:
256,192,146262,1,0,0:0:0:0:
256,192,146450,1,8,0:0:0:0:
256,192,146637,1,8,0:0:0:0:
256,192,146731,1,8,0:0:0:0:
256,192,146825,1,0,0:0:0:0:
256,192,147012,1,0,0:0:0:0:
256,192,147200,1,8,0:0:0:0:
256,192,147387,1,0,0:0:0:0:
256,192,147481,1,0,0:0:0:0:
256,192,147575,1,8,0:0:0:0:
256,192,147950,1,8,0:0:0:0:
256,192,148137,1,0,0:0:0:0:
256,192,148512,1,0,0:0:0:0:
256,192,148700,1,8,0:0:0:0:
256,192,148887,1,0,0:0:0:0:
256,192,148981,1,0,0:0:0:0:
256,192,149075,1,8,0:0:0:0:
256,192,149262,1,8,0:0:0:0:
256,192,149450,1,0,0:0:0:0:
256,192,149637,1,0,0:0:0:0:
256,192,149731,1,0,0:0:0:0:
256,192,149825,1,8,0:0:0:0:
256,192,150012,1,0,0:0:0:0:
256,192,150200,1,8,0:0:0:0:
256,192,150387,1,0,0:0:0:0:
256,192,150575,5,8,0:0:0:0:
256,192,151137,1,0,0:0:0:0:
256,192,151325,1,8,0:0:0:0:
256,192,151512,1,0,0:0:0:0:
256,192,151887,1,0,0:0:0:0:
256,192,152075,1,8,0:0:0:0:
256,192,152262,1,8,0:0:0:0:
256,192,152450,1,0,0:0:0:0:
256,192,152637,1,0,0:0:0:0:
256,192,152825,1,8,0:0:0:0:
256,192,153200,1,0,0:0:0:0:
256,192,153575,1,8,0:0:0:0:
256,192,153825,1,0,0:0:0:0:
256,192,154075,1,0,0:0:0:0:
256,192,154325,1,8,0:0:0:0:
256,192,154575,1,0,0:0:0:0:
256,192,154825,1,0,0:0:0:0:
256,192,155075,5,12,0:0:0:0:
256,192,155637,1,8,0:0:0:0:
256,192,155825,1,0,0:0:0:0:
256,192,156012,1,0,0:0:0:0:
256,192,156200,1,8,0:0:0:0:
256,192,156575,1,8,0:0:0:0:
256,192,156950,1,0,0:0:0:0:
256,192,157137,1,0,0:0:0:0:
256,192,157325,1,8,0:0:0:0:
256,192,157700,1,8,0:0:0:0:
256,192,158075,1,0,0:0:0:0:
256,192,158450,1,0,0:0:0:0:
256,192,158637,1,8,0:0:0:0:
256,192,158825,1,0,0:0:0:0:
256,192,159012,1,0,0:0:0:0:
256,192,159200,1,8,0:0:0:0:
256,192,159950,1,0,0:0:0:0:
256,192,160137,1,0,0:0:0:0:
256,192,160325,1,8,0:0:0:0:
256,192,160418,1,0,0:0:0:0:
256,192,160512,1,8,0:0:0:0:
256,192,160606,1,8,0:0:0:0:
256,192,160700,1,0,0:0:0:0:
256,192,160793,1,0,0:0:0:0:
256,192,160887,1,0,0:0:0:0:
256,192,161075,1,12,0:0:0:0:
256,192,161450,1,8,0:0:0:0:
256,192,161637,1,8,0:0:0:0:
256,192,161825,1,0,0:0:0:0:
256,192,162012,1,0,0:0:0:0:
256,192,162200,1,8,0:0:0:0:
256,192,162575,1,0,0:0:0:0:
256,192,162950,1,8,0:0:0:0:
256,192,163137,1,0,0:0:0:0:
256,192,163325,1,8,0:0:0:0:
256,192,163700,1,0,0:0:0:0:
256,192,164075,1,0,0:0:0:0:
256,192,164262,1,8,0:0:0:0:
256,192,164450,1,0,0:0:0:0:
256,192,164637,1,8,0:0:0:0:
256,192,164825,1,0,0:0:0:0:
256,192,165012,1,0,0:0:0:0:
256,192,165200,1,8,0:0:0:0:
256,192,165950,1,0,0:0:0:0:
256,192,166137,1,0,0:0:0:0:
256,192,166325,1,8,0:0:0:0:
256,192,166512,1,0,0:0:0:0:
256,192,166700,1,8,0:0:0:0:
256,192,167075,1,12,0:0:0:0:
256,192,167637,1,8,0:0:0:0:
256,192,167825,1,0,0:0:0:0:
256,192,168012,1,0,0:0:0:0:
256,192,168200,1,8,0:0:0:0:
256,192,168950,1,0,0:0:0:0:
256,192,169137,1,0,0:0:0:0:
256,192,169325,1,8,0:0:0:0:
256,192,169700,1,8,0:0:0:0:
256,192,170075,1,0,0:0:0:0:
256,192,170450,1,0,0:0:0:0:
256,192,170825,1,8,0:0:0:0:
256,192,171200,1,8,0:0:0:0:
256,192,171575,1,0,0:0:0:0:
256,192,171950,1,0,0:0:0:0:
256,192,172325,1,8,0:0:0:0:
256,192,173075,5,0,0:0:0:0:
256,192,176075,1,0,0:0:0:0:
256,192,179075,1,0,0:0:0:0:
256,192,181325,1,8,0:0:0:0:
256,192,182075,1,0,0:0:0:0:
256,192,183575,1,8,0:0:0:0:
256,192,185075,1,0,0:0:0:0:
256,192,188075,1,0,0:0:0:0:
256,192,189575,1,8,0:0:0:0:
256,192,191075,1,0,0:0:0:0:
256,192,191825,1,8,0:0:0:0:
256,192,192575,1,0,0:0:0:0:
256,192,193325,1,8,0:0:0:0:
256,192,194075,1,0,0:0:0:0:
256,192,194825,1,8,0:0:0:0:
256,192,195575,1,8,0:0:0:0:
256,192,196325,1,0,0:0:0:0:
256,192,197075,1,0,0:0:0:0:
256,192,197450,1,0,0:0:0:0:
256,192,197825,1,8,0:0:0:0:
256,192,198200,1,0,0:0:0:0:
256,192,198575,1,8,0:0:0:0:
256,192,198950,1,0,0:0:0:0:
256,192,199325,1,8,0:0:0:0:
256,192,199700,1,8,0:0:0:0:
256,192,200075,1,0,0:0:0:0:
256,192,200450,1,0,0:0:0:0:
256,192,200825,1,8,0:0:0:0:
256,192,201200,1,8,0:0:0:0:
256,192,201575,1,0,0:0:0:0:
256,192,203075,5,8,0:0:0:0:
256,192,204575,1,8,0:0:0:0:
256,192,205325,1,8,0:0:0:0:
256,192,206075,1,0,0:0:0:0:
256,192,206450,1,8,0:0:0:0:
256,192,206825,1,8,0:0:0:0:
256,192,207200,1,8,0:0:0:0:
256,192,207575,1,0,0:0:0:0:
256,192,207925,1,0,0:0:0:0:
256,192,208276,1,8,0:0:0:0:
256,192,208670,1,8,0:0:0:0:
256,192,209065,1,0,0:0:0:0:
256,192,209252,1,0,0:0:0:0:
256,192,209440,1,8,0:0:0:0:
256,192,209627,1,8,0:0:0:0:
256,192,209815,1,0,0:0:0:0:
256,192,210002,1,8,0:0:0:0:
256,192,210377,1,8,0:0:0:0:
256,192,210565,1,0,0:0:0:0:
256,192,211315,1,0,0:0:0:0:
256,192,212065,1,8,0:0:0:0:
256,192,212440,1,0,0:0:0:0:
256,192,212815,1,8,0:0:0:0:
256,192,213190,1,8,0:0:0:0:
256,192,213565,1,0,0:0:0:0:
256,192,213752,1,0,0:0:0:0:
256,192,213940,1,8,0:0:0:0:
256,192,214315,1,0,0:0:0:0:
256,192,214502,1,0,0:0:0:0:
256,192,214690,1,8,0:0:0:0:
256,192,215065,1,8,0:0:0:0:
256,192,215440,1,0,0:0:0:0:
256,192,215815,1,8,0:0:0:0:
256,192,216002,1,8,0:0:0:0:
256,192,216190,1,0,0:0:0:0:
256,192,216565,1,8,0:0:0:0:
256,192,216940,1,0,0:0:0:0:
256,192,217315,1,8,0:0:0:0:
256,192,218065,1,0,0:0:0:0:
256,192,218440,1,0,0:0:0:0:
256,192,218815,1,8,0:0:0:0:
256,192,219190,1,8,0:0:0:0:
256,192,219565,1,0,0:0:0:0:
256,192,219752,1,0,0:0:0:0:
256,192,219940,1,8,0:0:0:0:
256,192,220127,1,8,0:0:0:0:
256,192,220502,1,0,0:0:0:0:
256,192,220690,1,8,0:0:0:0:
256,192,221065,1,8,0:0:0:0:
256,192,221440,1,0,0:0:0:0:
256,192,221815,1,8,0:0:0:0:
256,192,222190,1,8,0:0:0:0:
256,192,222377,1,0,0:0:0:0:
256,192,222565,1,8,0:0:0:0:
256,192,222940,1,0,0:0:0:0:
256,192,223315,1,8,0:0:0:0:
256,192,223690,1,0,0:0:0:0:
256,192,224065,1,8,0:0:0:0:
256,192,224444,1,0,0:0:0:0:
256,192,224634,1,0,0:0:0:0:
256,192,224824,1,8,0:0:0:0:
256,192,225011,1,8,0:0:0:0:
256,192,225199,1,0,0:0:0:0:
256,192,225574,1,12,0:0:0:0:
256,192,225761,1,12,0:0:0:0:
256,192,226136,1,0,0:0:0:0:
256,192,226324,1,0,0:0:0:0:
256,192,226511,1,0,0:0:0:0:
256,192,226699,1,8,0:0:0:0:
256,192,227074,5,4,0:0:0:0:
256,192,227449,1,0,0:0:0:0:
256,192,227636,1,0,0:0:0:0:
256,192,227730,1,0,0:0:0:0:
256,192,227824,1,8,0:0:0:0:
256,192,228011,1,0,0:0:0:0:
256,192,228199,1,0,0:0:0:0:
256,192,228386,1,0,0:0:0:0:
256,192,228574,1,8,0:0:0:0:
256,192,228949,1,0,0:0:0:0:
256,192,229136,1,0,0:0:0:0:
256,192,229230,1,0,0:0:0:0:
256,192,229324,1,8,0:0:0:0:
256,192,229511,1,8,0:0:0:0:
256,192,229605,1,8,0:0:0:0:
256,192,229699,1,0,0:0:0:0:
256,192,229886,1,0,0:0:0:0:
256,192,230074,1,8,0:0:0:0:
256,192,230449,1,0,0:0:0:0:
256,192,230636,1,0,0:0:0:0:
256,192,230730,1,0,0:0:0:0:
256,192,230824,1,8,0:0:0:0:
256,192,230917,1,8,0:0:0:0:
256,192,231011,1,0,0:0:0:0:
256,192,231199,1,8,0:0:0:0:
256,192,231386,1,8,0:0:0:0:
256,192,231574,1,0,0:0:0:0:
256,192,231949,1,0,0:0:0:0:
256,192,232136,1,0,0:0:0:0:
256,192,232324,1,8,0:0:0:0:
256,192,232511,1,0,0:0:0:0:
256,192,232605,1,0,0:0:0:0:
256,192,232699,1,8,0:0:0:0:
256,192,232886,1,8,0:0:0:0:
256,192,233074,1,4,0:0:0:0:
256,192,233261,1,0,0:0:0:0:
256,192,233449,1,8,0:0:0:0:
256,192,233636,1,8,0:0:0:0:
256,192,234011,1,8,0:0:0:0:
256,192,234199,1,0,0:0:0:0:
256,192,234386,1,0,0:0:0:0:
256,192,234574,1,8,0:0:0:0:
256,192,234761,1,0,0:0:0:0:
256,192,234949,1,8,0:0:0:0:
256,192,235136,1,8,0:0:0:0:
256,192,235230,1,8,0:0:0:0:
256,192,235324,1,0,0:0:0:0:
256,192,235511,1,0,0:0:0:0:
256,192,235699,1,8,0:0:0:0:
256,192,235886,1,0,0:0:0:0:
256,192,235980,1,0,0:0:0:0:
256,192,236074,1,8,0:0:0:0:
256,192,236449,1,8,0:0:0:0:
256,192,236636,1,0,0:0:0:0:
256,192,236730,1,0,0:0:0:0:
256,192,236824,1,8,0:0:0:0:
256,192,237011,1,0,0:0:0:0:
256,192,237199,1,8,0:0:0:0:
256,192,237292,1,8,0:0:0:0:
256,192,237386,1,0,0:0:0:0:
256,192,237480,1,0,0:0:0:0:
256,192,237574,1,8,0:0:0:0:
256,192,237761,1,8,0:0:0:0:
256,192,237949,1,0,0:0:0:0:
256,192,238136,1,0,0:0:0:0:
256,192,238230,1,0,0:0:0:0:
256,192,238324,1,8,0:0:0:0:
256,192,238511,1,0,0:0:0:0:
256,192,238699,1,8,0:0:0:0:
256,192,238792,1,0,0:0:0:0:
256,192,238886,1,8,0:0:0:0:
256,192,239074,5,4,0:0:0:0:
256,192,239449,1,0,0:0:0:0:
256,192,239636,1,0,0:0:0:0:
256,192,239730,1,0,0:0:0:0:
256,192,239824,1,8,0:0:0:0:
256,192,240011,1,0,0:0:0:0:
256,192,240199,1,8,0:0:0:0:
256,192,240386,1,8,0:0:0:0:
256,192,240480,1,8,0:0:0:0:
256,192,240574,1,0,0:0:0:0:
256,192,240761,1,8,0:0:0:0:
256,192,240949,1,0,0:0:0:0:
256,192,241136,1,0,0:0:0:0:
256,192,241230,1,0,0:0:0:0:
256,192,241324,1,8,0:0:0:0:
256,192,241699,1,0,0:0:0:0:
256,192,241886,1,0,0:0:0:0:
256,192,241980,1,0,0:0:0:0:
256,192,242074,1,8,0:0:0:0:
256,192,242167,1,8,0:0:0:0:
256,192,242261,1,0,0:0:0:0:
256,192,242449,1,8,0:0:0:0:
256,192,242636,1,0,0:0:0:0:
256,192,242824,1,8,0:0:0:0:
256,192,243011,1,0,0:0:0:0:
256,192,243105,1,0,0:0:0:0:
256,192,243199,1,8,0:0:0:0:
256,192,243386,1,8,0:0:0:0:
256,192,243480,1,8,0:0:0:0:
256,192,243574,1,0,0:0:0:0:
256,192,243761,1,8,0:0:0:0:
256,192,243949,1,0,0:0:0:0:
256,192,244324,1,8,0:0:0:0:
256,192,244511,1,0,0:0:0:0:
256,192,244605,1,0,0:0:0:0:
256,192,244699,1,8,0:0:0:0:
256,192,244886,1,8,0:0:0:0:
256,192,245074,1,4,0:0:0:0:
256,192,245261,1,0,0:0:0:0:
256,192,245449,1,8,0:0:0:0:
256,192,245636,1,8,0:0:0:0:
256,192,246011,1,8,0:0:0:0:
256,192,246199,1,0,0:0:0:0:
256,192,246386,1,0,0:0:0:0:
256,192,246574,1,8,0:0:0:0:
256,192,246761,1,0,0:0:0:0:
256,192,246949,1,8,0:0:0:0:
256,192,247136,1,8,0:0:0:0:
256,192,247230,1,8,0:0:0:0:
256,192,247324,1,0,0:0:0:0:
256,192,247511,1,0,0:0:0:0:
256,192,247699,1,8,0:0:0:0:
256,192,247886,1,0,0:0:0:0:
256,192,247980,1,0,0:0:0:0:
256,192,248074,1,8,0:0:0:0:
256,192,248449,1,8,0:0:0:0:
256,192,248636,1,0,0:0:0:0:
256,192,248824,1,8,0:0:0:0:
256,192,249011,1,0,0:0:0:0:
256,192,249105,1,0,0:0:0:0:
256,192,249199,1,8,0:0:0:0:
256,192,249386,1,0,0:0:0:0:
256,192,249480,1,0,0:0:0:0:
256,192,249574,1,8,0:0:0:0:
256,192,249761,1,8,0:0:0:0:
256,192,249949,1,0,0:0:0:0:
256,192,250136,1,0,0:0:0:0:
256,192,250230,1,0,0:0:0:0:
256,192,250324,1,8,0:0:0:0:
256,192,250417,1,8,0:0:0:0:
256,192,250511,1,0,0:0:0:0:
256,192,250699,1,8,0:0:0:0:
256,192,250886,1,0,0:0:0:0:
256,192,251074,5,8,0:0:0:0:
256,192,251824,1,8,0:0:0:0:
256,192,252574,1,8,0:0:0:0:
256,192,254074,1,8,0:0:0:0:
256,192,254824,1,8,0:0:0:0:
256,192,258778,5,8,0:0:0:0:
256,192,259794,1,8,0:0:0:0:
256,192,260947,1,8,0:0:0:0:
256,192,264637,1,8,0:0:0:0:
256,192,265874,1,8,0:0:0:0:
256,192,267237,1,8,0:0:0:0:
256,192,267418,12,0,271558,0:0:0:0:
