osu file format v14

[General]
AudioFilename: audio.mp3
AudioLeadIn: 0
PreviewTime: 47510
Countdown: 0
SampleSet: Soft
StackLeniency: 0.4
Mode: 0
LetterboxInBreaks: 0
WidescreenStoryboard: 1

[Editor]
DistanceSpacing: 0.5
BeatDivisor: 8
GridSize: 4
TimelineZoom: 1.7

[Metadata]
Title:Pray (TV Size)
TitleUnicode:Pray (TV Size)
Artist:Rachel (CV: Chisuga Haruka)
ArtistUnicode:レイチェル(CV:千菅春香)
Creator:Kalibe
Version:Kaliboy's Insane
Source:殺戮の天使
Tags:satsuriku no tenshi angels of death ending ed DECO*27 komore schoolboy
BeatmapID:1699374
BeatmapSetID:809754

[Difficulty]
HPDrainRate:6
CircleSize:4
OverallDifficulty:7
ApproachRate:8
SliderMultiplier:2.8
SliderTickRate:1

[Events]
//Background and Video events
0,0,"love.jpg",0,0
Video,0,"satsuriku.avi"
//Break Periods
//Storyboard Layer 0 (Background)
//Storyboard Layer 1 (Fail)
//Storyboard Layer 2 (Pass)
//Storyboard Layer 3 (Foreground)
//Storyboard Sound Samples

[TimingPoints]
542,750,4,2,2,40,1,0
823,-100,4,2,2,5,0,0
916,-100,4,2,2,40,0,0
2792,-166.666666666667,4,2,2,40,0,0
3448,-166.666666666667,4,2,2,5,0,0
3542,-100,4,2,2,40,0,0
3823,-100,4,2,2,5,0,0
3917,-100,4,2,2,40,0,0
6823,-100,4,2,2,5,0,0
6917,-100,4,2,2,40,0,0
8792,-166.666666666667,4,2,2,40,0,0
9448,-166.666666666667,4,2,2,5,0,0
9542,-100,4,2,2,40,0,0
9823,-100,4,2,2,5,0,0
9917,-100,4,2,2,40,0,0
12542,-125,4,2,2,50,0,0
13854,-100,4,2,2,50,0,0
14792,-83.3333333333333,4,2,2,50,0,0
15542,-100,4,2,2,50,0,0
18542,-125,4,2,2,50,0,0
20792,-83.3333333333333,4,2,2,50,0,0
21542,-100,4,2,2,50,0,0
24542,-90.9090909090909,4,2,2,50,0,0
24917,-100,4,2,2,50,0,0
26792,-83.3333333333333,4,2,2,50,0,0
27542,-100,4,2,2,50,0,0
30542,-90.9090909090909,4,2,2,50,0,0
30917,-100,4,2,2,50,0,0
32792,-83.3333333333333,4,2,2,50,0,0
33542,-100,4,2,2,50,0,0
36917,-133.333333333333,4,2,2,50,0,0
37667,-111.111111111111,4,2,2,60,0,0
39542,-95.2380952380952,4,2,2,60,0,0
40854,-95.2380952380952,4,2,2,30,0,0
41042,-95.2380952380952,4,2,2,60,0,0
42448,-95.2380952380952,4,2,2,5,0,0
42542,-95.2380952380952,4,2,2,60,0,0
47135,-95.2380952380952,4,2,2,5,0,0
47229,-95.2380952380952,4,2,2,50,0,0
47323,-95.2380952380952,4,2,2,5,0,0
47417,-95.2380952380952,4,2,2,50,0,0
47510,-95.2380952380952,4,2,1,30,0,0
48167,-95.2380952380952,4,2,2,20,0,0
48542,-83.3333333333333,4,2,2,70,0,1
50042,-111.111111111111,4,2,2,70,0,1
50417,-83.3333333333333,4,2,2,70,0,1
51073,-83.3333333333333,4,2,2,5,0,1
51167,-83.3333333333333,4,2,2,70,0,1
54167,-71.4285714285714,4,2,2,70,0,1
54542,-83.3333333333333,4,2,2,70,0,1
54635,-83.3333333333333,4,2,2,5,0,1
54729,-83.3333333333333,4,2,2,70,0,1
59042,-83.3333333333333,4,2,2,50,0,0
59417,-76.9230769230769,4,2,2,55,0,0
59792,-71.4285714285714,4,2,2,60,0,0
60167,-66.6666666666667,4,2,2,65,0,0
60354,-62.5,4,2,2,70,0,0
60542,-71.4285714285714,4,2,2,70,0,1
60917,-83.3333333333333,4,2,2,70,0,1
63073,-83.3333333333333,4,2,2,5,0,1
63167,-83.3333333333333,4,2,2,70,0,1
63542,-111.111111111111,4,2,2,70,0,1
63917,-83.3333333333333,4,2,2,70,0,1
66167,-71.4285714285714,4,2,2,60,0,1
66354,-71.4285714285714,4,2,2,70,0,1
66542,-83.3333333333333,4,2,2,70,0,1
66635,-83.3333333333333,4,2,2,5,0,1
66729,-83.3333333333333,4,2,2,70,0,1
71042,-83.3333333333333,4,2,2,50,0,1
71417,-76.9230769230769,4,2,2,55,0,1
71792,-71.4285714285714,4,2,2,60,0,1
72167,-66.6666666666667,4,2,2,65,0,1
72354,-105.263157894737,4,2,2,70,0,1
72542,-125,4,2,2,35,0,0
75542,-200,4,2,2,30,0,0
76479,-200,4,2,2,25,0,0
78542,-100,4,2,2,50,0,0
78823,-100,4,2,2,5,0,0
78917,-100,4,2,2,50,0,0
79292,-133.333333333333,4,2,2,50,0,0
80792,-125,4,2,2,50,0,0
81448,-125,4,2,2,50,0,0
81542,-100,4,2,2,50,0,0
81823,-100,4,2,2,5,0,0
81917,-100,4,2,2,50,0,0
82292,-125,4,2,2,50,0,0
84542,-100,4,2,2,50,0,0
84823,-100,4,2,2,5,0,0
84917,-100,4,2,2,50,0,0
85292,-133.333333333333,4,2,2,50,0,0
85854,-117.647058823529,4,2,2,50,0,0
86792,-133.333333333333,4,2,2,50,0,0
87448,-133.333333333333,4,2,2,50,0,0
87542,-111.111111111111,4,2,2,50,0,0
87823,-111.111111111111,4,2,2,5,0,0
87917,-83.3333333333333,4,2,2,50,0,0

[Colours]
Combo1 : 63,186,192
Combo2 : 0,128,192
Combo3 : 158,136,185
Combo4 : 128,128,255

[HitObjects]
0,245,542,6,0,L|103:227,1,105,2|0,0:0|0:0,0:0:0:0:
117,238,917,1,0,0:0:0:0:
57,328,1104,1,2,0:0:0:0:
57,328,2792,6,0,L|48:280,1,41.9999987182618,0|0,0:0|0:0,0:0:0:0:
146,188,3167,2,0,L|137:269,1,62.9999980773926,2|0,0:0|0:0,0:0:0:0:
149,264,3542,6,0,P|206:235|249:244,1,105,2|0,0:0|0:0,0:0:0:0:
258,252,3917,1,0,0:0:0:0:
369,162,4104,1,2,0:0:0:0:
180,23,6542,6,0,L|195:131,1,105,2|0,0:0|0:0,0:0:0:0:
184,141,6917,1,0,0:0:0:0:
86,228,7104,1,2,0:0:0:0:
177,365,8792,6,0,L|235:356,1,41.9999987182618,0|0,0:0|0:0,0:0:0:0:
296,301,9167,2,0,L|367:311,1,62.9999980773926,2|0,0:0|0:0,0:0:0:0:
374,303,9542,6,0,P|399:257|375:202,1,105,2|0,0:0|0:0,0:0:0:0:
368,200,9917,1,0,0:0:0:0:
476,115,10104,1,2,0:0:0:0:
372,16,12542,6,0,L|382:74,1,56,2|0,3:2|0:0,0:0:0:0:
276,153,12917,2,0,P|280:122|300:96,1,56,2|0,0:0|0:0,0:0:0:0:
343,219,13292,2,0,P|294:246|229:234,1,112,8|0,3:0|0:0,0:0:0:0:
178,279,13760,1,8,0:0:0:0:
178,279,13854,2,0,P|161:310|161:351,1,70,8|0,3:0|0:0,0:0:0:0:
2,298,14229,1,0,3:0:0:0:
2,298,14323,1,8,3:0:0:0:
2,298,14417,2,0,L|87:283,1,70,8|0,0:0|0:0,0:0:0:0:
116,195,14792,6,0,P|113:166|102:130,2,55.9999982910157,2|0|2,0:0|1:0|1:2,0:0:0:0:
220,284,15167,2,0,P|213:311|209:338,2,55.9999982910157,8|0|8,0:0|1:0|0:0,0:0:0:0:
304,203,15542,6,0,L|395:224,1,70,4|0,3:0|3:0,0:0:0:0:
512,129,15917,1,2,0:0:0:0:
416,78,16104,2,0,P|421:112|428:146,1,70,0|0,0:0|3:0,0:0:0:0:
496,27,16479,1,2,0:0:0:0:
313,104,16667,1,0,0:0:0:0:
482,228,16854,1,8,0:0:0:0:
287,368,17323,5,4,3:0:0:0:
287,368,17417,2,0,L|170:348,1,93.3333333333333,8|8,3:0|0:0,0:0:0:0:
170,361,17792,1,8,0:0:0:0:
20,271,17979,2,0,P|83:286|122:241,1,105,8|8,3:0|3:0,0:0:0:0:
162,203,18354,2,0,L|151:159,1,35,8|0,0:0|0:0,0:0:0:0:
205,106,18542,6,0,L|276:115,1,56,2|0,3:2|0:0,0:0:0:0:
337,52,18917,2,0,P|332:24|316:-5,1,56,2|2,0:0|0:0,0:0:0:0:
427,95,19292,2,0,P|411:180|401:228,1,112,8|0,3:0|0:0,0:0:0:0:
456,271,19760,1,8,0:0:0:0:
456,271,19854,2,0,P|481:276|526:260,1,56,8|0,3:0|0:0,0:0:0:0:
378,378,20229,1,0,3:0:0:0:
378,378,20323,1,8,3:0:0:0:
378,378,20417,2,0,L|386:304,1,56,8|0,0:0|0:0,0:0:0:0:
272,248,20792,6,0,B|238:247|238:247|201:262,2,55.9999982910157,2|0|2,0:0|1:0|1:2,0:0:0:0:
153,351,21167,2,0,B|122:354|122:354|82:337,2,55.9999982910157,8|0|8,0:0|1:0|0:0,0:0:0:0:
93,221,21542,6,0,L|82:142,1,70,4|0,3:0|3:0,0:0:0:0:
237,117,21917,1,2,0:0:0:0:
164,1,22104,2,0,P|160:36|157:71,1,70,0|0,0:0|3:0,0:0:0:0:
157,71,22385,1,0,1:0:0:0:
157,71,22479,1,2,1:2:0:0:
314,202,22667,1,0,1:0:0:0:
276,35,22854,1,8,0:0:0:0:
431,355,23323,5,4,3:0:0:0:
431,355,23417,2,0,P|451:290|419:246,1,93.3333333333333,8|8,3:0|0:0,0:0:0:0:
421,249,23792,1,8,0:0:0:0:
289,140,23979,2,0,P|297:191|308:252,1,105,8|8,3:0|3:0,0:0:0:0:
246,297,24354,2,0,L|202:284,1,35,8|0,0:0|0:0,0:0:0:0:
134,338,24542,6,0,P|121:288|127:251,1,77.0000023498536,2|0,3:2|0:0,0:0:0:0:
10,46,24917,2,0,P|11:84|0:119,1,70,2|2,0:0|0:0,0:0:0:0:
52,192,25292,2,0,B|113:197|126:153|199:158,1,140,0|0,3:0|0:0,0:0:0:0:
239,103,25760,1,8,0:0:0:0:
239,103,25854,2,0,L|254:22,1,70,8|0,3:0|0:0,0:0:0:0:
383,139,26229,1,0,3:0:0:0:
383,139,26323,1,8,3:0:0:0:
383,139,26417,2,0,L|368:53,1,70,8|0,0:0|0:0,0:0:0:0:
266,218,26792,6,0,B|256:237|255:252|244:273,2,55.9999982910157,2|0|2,0:0|1:0|1:2,0:0:0:0:
351,298,27167,2,0,B|357:318|356:333|364:355,2,55.9999982910157,8|0|8,0:0|1:0|0:0,0:0:0:0:
258,352,27542,6,0,P|200:362|157:370,1,70,4|0,3:0|3:0,0:0:0:0:
92,193,27917,1,2,0:0:0:0:
27,268,28104,2,0,P|60:276|94:287,1,70,2|0,0:0|3:0,0:0:0:0:
189,196,28479,1,2,1:2:0:0:
130,108,28667,1,0,1:0:0:0:
284,29,28854,1,8,0:0:0:0:
42,77,29323,5,4,3:0:0:0:
42,77,29417,2,0,B|103:83|79:103|143:109,1,93.3333333333333,8|8,3:0|0:0,0:0:0:0:
158,119,29792,1,8,0:0:0:0:
254,22,29979,2,0,P|259:80|268:136,1,105,8|8,3:0|3:0,0:0:0:0:
320,186,30354,2,0,P|334:171|333:138,1,35,8|0,0:0|0:0,0:0:0:0:
338,56,30542,6,0,P|363:67|423:79,1,77.0000023498536,2|0,3:2|0:0,0:0:0:0:
512,262,30917,2,0,P|474:269|440:286,1,70,2|2,0:0|0:0,0:0:0:0:
337,157,31292,2,0,L|481:182,1,140,0|0,3:0|0:0,0:0:0:0:
394,216,31760,1,8,0:0:0:0:
394,216,31854,2,0,P|369:220|333:253,1,70,8|0,3:0|0:0,0:0:0:0:
162,145,32229,1,0,3:0:0:0:
162,145,32323,1,8,3:0:0:0:
162,145,32417,2,0,P|186:149|222:182,1,70,8|0,0:0|0:0,0:0:0:0:
207,358,32792,6,0,B|214:337|214:337|214:320|214:320|226:290,2,55.9999982910157,2|0|2,0:0|1:0|1:2,0:0:0:0:
124,290,33167,2,0,B|117:269|117:269|117:252|117:252|105:222,2,55.9999982910157,8|0|8,0:0|1:0|0:0,0:0:0:0:
24,366,33542,6,0,P|34:314|37:283,1,70,2|0,3:2|0:0,0:0:0:0:
182,151,33917,1,2,0:0:0:0:
204,223,34104,2,0,P|196:190|189:128,1,70,2|0,0:0|3:0,0:0:0:0:
37,45,34479,1,2,1:2:0:0:
94,151,34667,1,0,1:0:0:0:
273,45,34854,1,8,0:0:0:0:
469,217,35323,5,4,3:0:0:0:
469,217,35417,2,0,P|484:155|481:101,1,93.3333333333333,8|8,3:0|0:0,0:0:0:0:
472,103,35792,1,8,0:0:0:0:
348,18,35979,2,0,P|311:69|329:120,1,105,8|0,3:0|3:0,0:0:0:0:
345,127,36354,6,0,L|333:201,1,70,8|0,0:0|0:0,0:0:0:0:
139,22,36917,5,2,0:0:0:0:
149,15,37104,2,0,L|162:121,1,105.000004005432,2|0,0:0|0:0,0:0:0:0:
78,217,37667,5,4,0:2:0:0:
229,306,37854,2,0,P|297:278|366:289,1,125.999996154785,2|2,0:0|3:0,0:0:0:0:
449,262,38417,2,0,P|441:294|433:332,1,62.9999980773926,0|8,3:0|3:0,0:0:0:0:
370,191,38792,1,8,0:1:0:0:
445,132,38979,1,6,3:0:0:0:
367,56,39167,1,8,3:0:0:0:
367,56,39542,6,0,P|272:107|210:79,1,146.999995513916,2|2,3:2|0:0,0:0:0:0:
141,127,40104,2,0,P|151:93|159:45,1,73.4999977569581,0|8,0:0|0:1,0:0:0:0:
225,193,40479,1,2,3:3:0:0:
121,252,40667,2,0,P|84:247|48:243,1,73.4999977569581,2|8,0:0|1:1,0:0:0:0:
201,317,41042,5,0,3:0:0:0:
305,114,41229,1,0,3:0:0:0:
396,169,41604,5,0,1:0:0:0:
396,169,41698,1,8,0:1:0:0:
396,169,41792,2,0,L|480:156,1,73.4999977569581,8|8,0:1|3:0,0:0:0:0:
335,21,42167,2,0,P|297:66|316:127,1,110.249996635437,2|0,0:3|0:0,0:0:0:0:
313,133,42542,6,0,B|234:117|254:174|160:159,2,146.999995513916,4|2|0,3:0|0:0|3:0,0:0:0:0:
418,230,43667,2,0,P|409:265|399:304,1,73.4999977569581,0|2,0:0|0:3,0:0:0:0:
465,368,44042,5,0,3:0:0:0:
313,253,44417,1,2,0:0:0:0:
487,157,44792,1,0,3:0:0:0:
365,78,45167,1,2,0:0:0:0:
464,3,45542,6,0,P|454:38|447:74,1,73.4999977569581,4|0,3:0|3:0,0:0:0:0:
290,175,45917,2,0,P|283:139|271:96,1,73.4999977569581,8|2,3:0|3:0,0:0:0:0:
505,221,46292,6,0,P|468:226|428:240,1,73.4999977569581,8|0,3:0|3:0,0:0:0:0:
292,334,46667,2,0,P|255:329|215:315,1,73.4999977569581,10|2,3:0|3:0,0:0:0:0:
56,180,47042,5,2,1:0:0:0:
98,384,47229,1,2,1:0:0:0:
189,59,48542,6,0,B|291:68|242:119|334:134,1,167.999994873047,4|0,0:1|3:0,0:0:0:0:
503,29,49104,1,0,3:0:0:0:
399,0,49292,2,0,P|403:40|416:81,1,83.9999974365235,8|2,0:0|3:2,0:0:0:0:
241,219,49667,2,0,P|237:177|224:137,1,83.9999974365235,0|0,3:0|3:0,0:0:0:0:
387,183,50042,5,4,0:2:0:0:
374,346,50229,1,0,0:0:0:0:
394,198,50417,1,0,3:0:0:0:
364,333,50604,1,2,0:0:0:0:
258,268,50792,6,0,P|195:279|134:291,1,125.999996154785,8|0,0:0|0:0,0:0:0:0:
42,340,51167,2,0,P|32:300|52:263,1,83.9999974365235,2|0,3:2|3:0,0:0:0:0:
218,94,51542,5,4,0:0:0:0:
19,145,51729,1,0,0:0:0:0:
188,184,51917,1,2,3:2:0:0:
21,54,52104,1,2,0:0:0:0:
136,112,52292,6,0,P|177:101|223:92,1,83.9999974365235,8|2,0:0|0:0,0:0:0:0:
394,231,52667,2,0,P|354:222|307:211,1,83.9999974365235,0|0,3:0|3:0,0:0:0:0:
308,110,53042,5,4,0:0:0:0:
224,245,53229,1,0,3:0:0:0:
299,95,53417,1,2,3:2:0:0:
230,264,53604,1,0,3:0:0:0:
435,132,53792,5,10,0:2:0:0:
311,212,53979,1,2,0:0:0:0:
473,272,54167,5,8,0:0:0:0:
193,128,54354,2,0,P|121:142|49:158,1,146.999995513916,12|0,0:0|0:0,0:0:0:0:
29,147,54729,5,0,3:0:0:0:
188,248,54917,1,2,3:2:0:0:
59,361,55104,2,0,P|68:320|75:278,1,83.9999974365235,0|10,3:0|0:0,0:0:0:0:
265,127,55479,2,0,P|271:168|281:209,1,83.9999974365235,2|0,0:3|3:0,0:0:0:0:
142,155,55854,1,2,3:0:0:0:
173,42,56042,1,4,0:0:0:0:
0,106,56229,6,0,P|43:98|88:90,1,83.9999974365235,0|2,3:0|0:0,0:0:0:0:
249,244,56604,2,0,P|205:252|161:260,1,83.9999974365235,2|8,0:0|0:0,0:0:0:0:
194,148,56979,5,0,3:0:0:0:
370,259,57167,1,2,3:2:0:0:
203,364,57354,1,2,3:0:0:0:
325,161,57542,6,0,P|387:153|469:236,1,167.999994873047,4|0,0:0|3:0,0:0:0:0:
236,102,58104,1,2,0:0:0:0:
317,38,58292,2,0,P|358:42|400:48,1,83.9999974365235,8|2,0:0|3:0,0:0:0:0:
149,160,58667,2,0,P|108:164|65:170,1,83.9999974365235,2|8,3:0|3:0,0:0:0:0:
10,120,58948,1,8,3:2:0:0:
10,120,59042,6,0,L|23:22,1,83.9999974365235,8|8,0:1|0:1,0:0:0:0:
276,246,59417,2,0,L|263:344,1,90.9999958343508,8|8,0:1|0:1,0:0:0:0:
128,253,59792,5,8,0:1:0:0:
390,124,59979,1,8,0:1:0:0:
148,62,60167,1,8,0:1:0:0:
388,301,60354,1,8,0:1:0:0:
238,176,60542,6,0,B|123:190|184:256|56:275,1,195.999994018555,4|0,0:1|3:0,0:0:0:0:
137,384,61104,1,2,0:0:0:0:
236,262,61292,2,0,P|201:300|205:342,1,83.9999974365235,8|0,0:0|3:0,0:0:0:0:
75,193,61667,2,0,P|27:183|-10:152,1,83.9999974365235,2|0,0:0|3:0,0:0:0:0:
211,44,62042,5,4,0:0:0:0:
238,176,62229,1,2,3:2:0:0:
192,58,62417,1,2,3:0:0:0:
215,172,62604,1,2,3:2:0:0:
336,84,62792,6,0,P|383:91|465:103,1,125.999996154785,8|0,0:0|0:0,0:0:0:0:
484,86,63167,2,0,P|506:135|489:182,1,83.9999974365235,2|2,0:0|0:0,0:0:0:0:
345,323,63542,6,0,P|360:244|398:232,1,125.999996154785,4|0,0:0|3:0,0:0:0:0:
308,164,64104,2,0,P|249:154|216:143,1,83.9999974365235,2|8,0:0|0:0,0:0:0:0:
395,232,64479,1,0,3:0:0:0:
218,336,64667,2,0,P|214:279|255:252,1,83.9999974365235,2|2,0:0|3:0,0:0:0:0:
85,146,65042,5,4,0:0:0:0:
10,307,65229,1,0,3:0:0:0:
107,260,65417,1,2,3:0:0:0:
20,204,65604,1,2,3:2:0:0:
109,362,65792,6,0,P|152:350|219:344,1,83.9999974365235,8|2,0:0|3:2,0:0:0:0:
421,248,66167,5,8,0:1:0:0:
299,40,66354,2,0,P|283:128|261:183,1,146.999995513916,12|0,0:0|0:0,0:0:0:0:
240,199,66729,5,0,3:0:0:0:
384,108,66917,1,2,3:2:0:0:
201,21,67104,2,0,P|172:29|106:36,1,83.9999974365235,0|8,3:0|0:0,0:0:0:0:
17,225,67479,5,2,0:3:0:0:
178,118,67667,1,0,3:0:0:0:
45,79,67854,1,2,3:0:0:0:
109,283,68042,5,4,0:0:0:0:
109,283,68229,2,0,P|123:214|136:182,1,83.9999974365235,0|2,3:0|0:0,0:0:0:0:
286,73,68604,1,2,0:0:0:0:
439,239,68792,1,8,0:0:0:0:
495,117,68979,2,0,B|400:117|432:170|332:180,1,167.999994873047,0|2,3:0|3:0,0:0:0:0:
421,350,69542,6,0,P|436:279|436:250,1,83.9999974365235,4|0,0:0|3:2,0:0:0:0:
247,150,69917,1,2,0:3:0:0:
304,275,70104,1,2,0:0:0:0:
361,163,70292,1,8,0:0:0:0:
198,240,70479,1,2,3:0:0:0:
313,378,70667,1,2,3:0:0:0:
130,333,70854,5,0,3:0:0:0:
130,333,70948,1,8,3:2:0:0:
130,333,71042,2,0,L|13:356,1,83.9999974365235,8|8,0:1|0:1,0:0:0:0:
331,233,71417,2,0,L|452:257,1,90.9999958343508,8|8,0:1|0:1,0:0:0:0:
151,137,71792,5,10,0:1:0:0:
248,299,71979,1,8,0:1:0:0:
334,98,72167,1,8,0:1:0:0:
113,234,72354,6,0,P|67:225|24:221,1,66.4999982242585,8|2,0:1|0:0,0:0:0:0:
247,34,73292,5,2,0:0:0:0:
459,294,74042,5,2,0:0:0:0:
226,207,75542,6,0,P|263:199|296:186,2,70,2|0|2,0:0|0:0|0:0,0:0:0:0:
151,152,76479,2,0,P|109:145|79:136,1,70,0|0,1:0|0:0,0:0:0:0:
133,35,78542,6,0,L|154:155,1,105,2|0,0:0|0:0,0:0:0:0:
144,154,78917,1,2,3:2:0:0:
56,239,79104,1,2,0:0:0:0:
139,289,79292,6,0,L|132:327,4,26.2500010013581,0|0|0|2|0,3:0|3:0|3:0|3:0|3:0,0:0:0:0:
207,247,79760,1,8,3:0:0:0:
220,256,79854,2,0,P|265:232|316:241,1,105.000004005432,4|0,3:0|3:0,0:0:0:0:
399,294,80323,1,8,3:0:0:0:
388,284,80417,2,0,P|391:260|398:223,1,52.5000020027161,8|0,0:0|0:0,0:0:0:0:
512,169,80792,6,0,L|457:155,1,56,2|2,0:0|0:0,0:0:0:0:
376,77,81167,2,0,L|294:88,1,74.6666666666667,2|8,3:2|0:0,0:0:0:0:
281,101,81542,6,0,P|242:122|177:101,1,105,10|0,0:0|0:0,0:0:0:0:
173,95,81917,1,2,0:0:0:0:
79,176,82104,1,2,0:0:0:0:
158,241,82292,6,0,L|198:236,4,28,0|0|0|0|2,3:0|1:0|1:0|0:0|1:2,0:0:0:0:
69,342,82854,2,0,P|58:314|68:270,1,56,8|0,0:0|0:0,0:0:0:0:
148,187,83229,1,0,3:0:0:0:
148,187,83323,1,8,3:0:0:0:
148,187,83417,2,0,P|159:215|149:259,1,56,8|0,3:0|0:0,0:0:0:0:
46,157,83792,2,0,P|52:102|57:76,1,56,8|8,0:0|3:0,0:0:0:0:
164,28,84260,1,8,3:0:0:0:
156,44,84354,2,0,L|202:32,1,28,8|0,0:0|1:0,0:0:0:0:
260,76,84542,6,0,L|241:202,1,105,2|0,3:2|0:0,0:0:0:0:
254,194,84917,1,2,0:0:0:0:
368,302,85104,1,2,3:2:0:0:
449,244,85292,6,0,L|440:204,3,26.2500010013581,0|0|0|0,0:0|0:0|3:0|3:0,0:0:0:0:
492,157,85667,2,0,L|497:127,1,26.2500010013581,0|8,3:0|3:0,0:0:0:0:
443,73,85854,2,0,B|376:77|409:114|324:124,1,119.000002269745,4|0,3:0|3:0,0:0:0:0:
273,84,86323,1,8,3:0:0:0:
273,84,86417,2,0,P|267:50|281:18,1,59.5000011348725,8|0,0:0|0:0,0:0:0:0:
173,95,86792,6,0,P|147:105|117:109,1,52.5000020027161,2|2,0:0|0:0,0:0:0:0:
0,175,87167,2,0,P|37:173|79:208,1,70.0000026702882,10|8,0:0|0:0,0:0:0:0:
80,206,87542,6,0,L|66:322,1,94.499997116089,2|0,3:2|0:0,0:0:0:0:
80,317,87917,1,2,1:2:0:0:
261,210,88104,1,2,1:2:0:0:
