osu file format v14

[General]
AudioFilename: audio.mp3
AudioLeadIn: 0
PreviewTime: 47846
Countdown: 0
SampleSet: Soft
StackLeniency: 0.3
Mode: 0
LetterboxInBreaks: 0
WidescreenStoryboard: 1

[Editor]
Bookmarks: 37440,73252
DistanceSpacing: 0.4
BeatDivisor: 4
GridSize: 4
TimelineZoom: 2

[Metadata]
Title:Pray (TV Size)
TitleUnicode:Pray (TV Size)
Artist:Rachel (CV: Chisuga Haruka)
ArtistUnicode:レイチェル(CV: 千菅春香)
Creator:Hey lululu
Version:Kibb's Insane
Source:殺戮の天使
Tags:satsuriku no tenshi angels of death ending ed deco*27 bigfrog Misure MiyohashiKoori Yugu Kibbleru
BeatmapID:1701733
BeatmapSetID:810021

[Difficulty]
HPDrainRate:6
CircleSize:4
OverallDifficulty:8
ApproachRate:9
SliderMultiplier:3.59999990463257
SliderTickRate:1

[Events]
//Background and Video events
0,0,"BG.jpg",0,0
Video,922,"video.avi"
//Break Periods
//Storyboard Layer 0 (Background)
//Storyboard Layer 1 (Fail)
//Storyboard Layer 2 (Pass)
//Storyboard Layer 3 (Foreground)
//Storyboard Sound Samples

[TimingPoints]
1427,750,4,2,3,40,1,0
1427,-111.111111111111,4,2,3,40,0,0
13427,-142.857142857143,4,2,1,40,0,0
38552,-117.647058823529,4,2,1,40,0,0
46802,-117.647058823529,4,2,1,45,0,0
47177,-117.647058823529,4,2,1,50,0,0
47552,-117.647058823529,4,2,1,55,0,0
47927,-117.647058823529,4,2,1,60,0,0
49427,-100,4,2,1,50,0,1
59927,-100,4,2,1,60,0,0
61427,-100,4,2,1,50,0,1
71927,-100,4,2,1,60,0,1
73239,-142.857142857143,4,2,1,60,0,1
73427,-142.857142857143,4,2,3,30,0,0
74180,779.220779220779,4,2,3,30,1,0
74959,789.473684210526,4,2,3,30,1,8
76438,750,4,2,3,30,1,0
77188,789.473684210526,4,2,3,20,1,8
79440,750,4,2,1,20,1,0
79440,-142.857142857143,4,2,1,20,0,0
88440,-142.857142857143,4,2,3,30,0,0

[Colours]
Combo1 : 174,0,0
Combo2 : 241,217,141
Combo3 : 68,162,255
Combo4 : 0,95,189

[HitObjects]
105,80,1427,6,0,P|140:79|205:147,1,121.499996292114,0|0,0:0|0:0,0:0:0:0:
105,80,1802,2,0,P|67:95|27:100,1,80.9999975280763,0|2,0:0|0:0,0:0:0:0:
105,80,3677,6,0,P|67:95|27:100,1,80.9999975280763,0|0,0:0|0:0,0:0:0:0:
105,80,4052,1,2,0:0:0:0:
367,172,4427,6,0,P|332:171|267:239,1,121.499996292114,0|0,0:0|0:0,0:0:0:0:
367,172,4802,2,0,P|404:187|444:192,1,80.9999975280763,0|2,0:0|0:0,0:0:0:0:
105,248,7427,6,0,B|171:225|171:225|227:266,1,121.499996292114,0|0,0:0|0:0,0:0:0:0:
105,248,7802,2,0,L|91:152,1,80.9999975280763,0|2,0:0|0:0,0:0:0:0:
105,248,9677,6,0,L|91:152,1,80.9999975280763,0|0,0:0|0:0,0:0:0:0:
105,248,10052,1,2,0:0:0:0:
367,141,10427,6,0,B|301:118|301:118|245:159,1,121.499996292114,0|0,0:0|0:0,0:0:0:0:
367,141,10802,2,0,L|381:45,1,80.9999975280763,0|2,0:0|0:0,0:0:0:0:
378,69,13427,6,0,L|356:216,1,125.999996154785,2|0,0:0|0:0,0:0:0:0:
359,193,13989,1,0,0:0:0:0:
176,138,14177,2,0,L|273:116,1,94.499997116089,2|0,0:0|0:0,0:0:0:0:
278,110,14552,1,0,0:0:0:0:
265,205,14739,6,0,P|291:245|292:327,1,125.999996154785,8|0,0:0|0:0,0:0:0:0:
290,333,15208,1,0,0:0:0:0:
285,344,15302,2,0,L|205:332,1,62.9999980773926,8|0,0:0|0:0,0:0:0:0:
31,171,15677,1,0,0:0:0:0:
104,304,15864,1,0,0:0:0:0:
190,254,16052,1,8,0:0:0:0:
121,152,16302,5,8,0:0:0:0:
96,241,16427,2,0,L|105:318,1,62.9999980773926,8|0,0:0|0:0,0:0:0:0:
213,282,16802,1,0,0:0:0:0:
298,359,16989,2,0,P|305:294|360:235,1,125.999996154785,0|2,0:0|0:1,0:0:0:0:
340,247,17552,2,0,P|376:255|418:263,1,62.9999980773926,2|8,0:0|0:0,0:0:0:0:
431,38,18177,5,0,0:0:0:0:
387,109,18302,2,0,L|284:125,1,83.9999974365235,4|8,0:3|0:0,0:0:0:0:
227,146,18677,2,0,L|217:57,1,62.9999980773926,8|4,0:0|0:3,0:0:0:0:
58,242,19145,1,0,0:0:0:0:
58,242,19239,1,8,0:0:0:0:
8,174,19427,6,0,L|135:204,1,125.999996154785,2|0,0:0|0:0,0:0:0:0:
130,202,19989,1,0,0:0:0:0:
288,94,20177,2,0,P|248:93|187:122,1,94.499997116089,2|0,0:0|0:0,0:0:0:0:
191,123,20552,1,0,0:0:0:0:
231,213,20739,6,0,P|251:275|249:356,1,125.999996154785,8|0,0:0|0:0,0:0:0:0:
251,348,21208,1,0,0:0:0:0:
251,360,21302,2,0,L|332:352,1,62.9999980773926,8|0,0:0|0:0,0:0:0:0:
460,184,21677,5,0,0:0:0:0:
340,264,21864,1,0,0:0:0:0:
342,87,22052,1,8,0:0:0:0:
232,225,22302,5,8,0:0:0:0:
305,172,22427,2,0,L|378:178,1,62.9999980773926,8|0,0:0|0:0,0:0:0:0:
451,299,22802,1,0,0:0:0:0:
378,351,22989,2,0,P|324:347|239:383,1,125.999996154785,2|0,0:0|0:0,0:0:0:0:
167,357,23552,2,0,P|159:326|155:286,1,62.9999980773926,2|8,0:0|0:0,0:0:0:0:
444,36,24177,5,0,0:0:0:0:
377,89,24302,2,0,L|279:75,1,83.9999974365235,4|8,0:3|0:0,0:0:0:0:
212,54,24677,2,0,L|222:135,1,62.9999980773926,8|4,0:0|0:3,0:0:0:0:
72,172,25145,1,0,0:0:0:0:
72,172,25239,1,8,0:0:0:0:
3,115,25427,6,0,P|58:125|129:89,1,125.999996154785,2|0,0:0|0:0,0:0:0:0:
120,97,25989,1,0,0:0:0:0:
231,22,26177,2,0,P|252:55|257:127,1,94.499997116089,2|0,0:0|0:0,0:0:0:0:
257,121,26552,1,0,0:0:0:0:
145,344,26739,6,0,L|160:200,1,125.999996154785,8|0,0:0|0:0,0:0:0:0:
160,206,27208,1,0,0:0:0:0:
162,193,27302,2,0,P|115:206|74:209,1,62.9999980773926,8|0,0:0|0:0,0:0:0:0:
322,220,27677,1,0,0:0:0:0:
241,287,27864,1,0,0:0:0:0:
410,350,28052,1,8,0:0:0:0:
254,99,28302,5,8,0:0:0:0:
319,157,28427,2,0,L|322:233,1,62.9999980773926,8|0,0:0|0:0,0:0:0:0:
410,350,28802,1,0,0:0:0:0:
498,314,28989,2,0,P|495:255|528:183,1,125.999996154785,2|0,0:0|0:0,0:0:0:0:
476,115,29552,2,0,P|447:118|413:131,1,62.9999980773926,0|8,0:0|0:0,0:0:0:0:
37,132,30177,5,0,0:0:0:0:
88,194,30302,2,0,L|190:208,1,83.9999974365235,0|8,0:0|0:0,0:0:0:0:
252,169,30677,2,0,L|262:254,1,62.9999980773926,8|4,0:0|0:3,0:0:0:0:
447,306,31052,1,0,0:0:0:0:
447,306,31145,1,0,0:0:0:0:
447,306,31239,1,8,0:0:0:0:
362,364,31427,6,0,L|351:216,1,125.999996154785,2|0,0:0|0:0,0:0:0:0:
236,253,31989,1,0,0:0:0:0:
286,52,32177,2,0,L|272:166,1,94.499997116089,2|0,0:0|0:0,0:0:0:0:
273,161,32552,1,0,0:0:0:0:
27,147,32739,6,0,P|96:151|150:115,1,125.999996154785,8|0,0:0|0:0,0:0:0:0:
153,115,33208,1,0,0:0:0:0:
162,106,33302,2,0,L|175:196,1,62.9999980773926,8|0,0:0|0:0,0:0:0:0:
133,248,33677,1,0,0:0:0:0:
267,133,33864,1,0,0:0:0:0:
82,33,34052,1,8,0:0:0:0:
231,292,34302,5,8,0:0:0:0:
305,247,34427,2,0,L|394:264,1,62.9999980773926,8|0,0:0|0:0,0:0:0:0:
393,114,34802,1,0,0:0:0:0:
317,65,34989,2,0,P|256:92|184:87,1,125.999996154785,2|0,0:0|0:0,0:0:0:0:
197,90,35552,2,0,L|191:168,1,62.9999980773926,2|8,0:0|0:0,0:0:0:0:
399,355,36177,5,0,0:0:0:0:
331,300,36302,2,0,L|338:216,1,83.9999974365235,4|8,0:3|0:0,0:0:0:0:
362,136,36677,2,0,L|284:143,1,62.9999980773926,8|4,0:0|0:3,0:0:0:0:
135,289,37145,1,0,0:0:0:0:
135,289,37239,1,8,0:0:0:0:
15,52,38552,5,4,0:0:0:0:
87,110,38739,2,0,P|154:111|222:48,1,153.000002918243,0|0,0:0|0:0,0:0:0:0:
299,129,39302,1,2,0:0:0:0:
299,129,39489,1,2,0:0:0:0:
395,87,39677,2,0,L|486:73,1,76.5000014591217,8|0,0:0|0:0,0:0:0:0:
374,197,40052,2,0,L|437:264,1,76.5000014591217,8|0,0:3|0:0,0:0:0:0:
255,359,40427,6,0,L|272:228,1,114.750002188683,2|0,0:0|0:0,0:0:0:0:
275,228,40802,2,0,P|229:236|190:239,1,76.5000014591217,0|0,0:0|0:0,0:0:0:0:
77,67,41177,2,0,P|122:58|162:56,1,76.5000014591217,8|0,0:0|0:0,0:0:0:0:
224,138,41552,2,0,L|68:157,1,153.000002918243,0|2,0:0|0:0,0:0:0:0:
72,156,42114,6,0,L|60:256,1,76.5000014591217,2|0,0:0|0:0,0:0:0:0:
330,229,42583,1,8,0:0:0:0:
323,243,42677,2,0,L|335:342,1,76.5000014591217,10|2,0:0|0:0,0:0:0:0:
164,363,43052,2,0,P|175:300|173:233,1,114.750002188683,2|0,0:0|0:0,0:0:0:0:
167,236,43427,6,0,L|73:248,1,76.5000014591217,2|0,0:0|0:0,0:0:0:0:
248,145,43802,2,0,L|342:157,1,76.5000014591217,0|0,0:0|0:0,0:0:0:0:
184,50,44177,2,0,P|109:50|43:125,1,153.000002918243,2|0,0:0|0:0,0:0:0:0:
262,240,44739,1,0,0:0:0:0:
158,270,44927,6,0,P|162:199|144:132,1,114.750002188683,2|0,0:0|0:0,0:0:0:0:
148,141,45302,2,0,L|256:158,1,76.5000014591217,0|0,0:0|0:0,0:0:0:0:
497,206,45677,2,0,B|419:209|449:254|357:260,1,153.000002918243,2|0,0:0|0:0,0:0:0:0:
272,237,46239,1,0,0:0:0:0:
333,37,46427,6,0,P|358:78|363:152,1,114.750002188683,2|0,0:0|0:0,0:0:0:0:
360,158,46802,2,0,L|280:145,1,76.5000014591217,2|0,0:0|0:0,0:0:0:0:
288,326,47177,2,0,L|206:350,1,76.5000014591217,2|0,0:0|0:0,0:0:0:0:
177,161,47552,2,0,L|90:123,1,76.5000014591217,2|0,0:0|0:0,0:0:0:0:
53,296,47927,5,8,0:0:0:0:
53,296,48114,1,8,0:0:0:0:
463,286,49427,5,6,0:0:0:0:
463,286,49614,1,0,0:0:0:0:
463,286,49802,2,0,L|447:392,1,90,2|0,0:0|0:0,0:0:0:0:
358,163,50177,1,8,0:0:0:0:
358,163,50364,1,0,0:0:0:0:
358,163,50552,2,0,L|342:269,1,90,2|0,0:0|0:0,0:0:0:0:
253,40,50927,5,6,0:0:0:0:
253,40,51114,1,0,0:0:0:0:
253,40,51302,2,0,L|237:146,1,90,2|0,0:0|0:0,0:0:0:0:
68,265,51677,2,0,L|181:245,1,90,8|0,0:0|0:0,0:0:0:0:
450,108,52052,2,0,L|361:123,1,90,2|0,0:0|0:0,0:0:0:0:
44,45,52427,6,0,B|150:51|99:100|208:107,1,180,6|2,0:0|0:0,0:0:0:0:
265,326,52989,2,0,P|254:280|254:227,1,90,0|8,0:0|0:0,0:0:0:0:
310,18,53364,1,0,0:0:0:0:
394,53,53552,2,0,P|405:99|405:152,1,90,2|0,0:0|0:0,0:0:0:0:
486,284,53927,5,6,0:0:0:0:
486,284,54114,1,0,0:0:0:0:
486,284,54302,2,0,L|386:269,1,90,2|0,0:0|0:0,0:0:0:0:
26,222,54677,1,8,0:0:0:0:
77,148,54864,1,2,0:0:0:0:
184,134,55052,1,10,0:0:0:0:
266,230,55239,1,8,0:0:0:0:
217,362,55427,1,6,0:0:0:0:
403,120,55614,5,0,0:0:0:0:
403,120,55802,1,2,0:0:0:0:
403,120,55989,2,0,L|414:222,1,90,0|8,0:0|0:0,0:0:0:0:
101,190,56364,1,0,0:0:0:0:
101,190,56552,1,2,0:0:0:0:
101,190,56739,2,0,L|90:292,1,90,0|6,0:0|0:0,0:0:0:0:
271,63,57114,5,0,0:0:0:0:
271,63,57302,1,2,0:0:0:0:
271,63,57489,2,0,L|282:165,1,90,0|8,0:0|0:0,0:0:0:0:
220,358,57864,1,0,0:0:0:0:
220,358,58052,2,0,L|210:268,1,90,2|0,0:0|0:0,0:0:0:0:
0,97,58427,6,0,B|74:112|74:112|97:146|97:146|159:158,1,180,6|2,0:0|0:0,0:0:0:0:
342,50,58989,2,0,L|236:68,1,90,0|8,0:0|0:0,0:0:0:0:
60,348,59364,2,0,L|78:251,1,90,0|2,0:0|0:0,0:0:0:0:
320,268,59739,5,8,0:0:0:0:
324,285,59833,1,8,0:0:0:0:
328,302,59927,1,10,0:0:0:0:
173,177,60114,1,10,0:0:0:0:
323,111,60302,5,10,0:0:0:0:
109,254,60489,1,10,0:0:0:0:
415,268,60677,5,10,0:0:0:0:
70,160,60864,1,10,0:0:0:0:
300,16,61052,1,10,0:0:0:0:
109,254,61239,1,10,0:0:0:0:
16,56,61427,5,6,0:0:0:0:
16,56,61614,1,0,0:0:0:0:
16,56,61802,2,0,L|124:41,1,90,2|0,0:0|0:0,0:0:0:0:
145,182,62177,1,8,0:0:0:0:
145,182,62364,1,0,0:0:0:0:
145,182,62552,2,0,L|253:167,1,90,2|0,0:0|0:0,0:0:0:0:
274,308,62927,5,6,0:0:0:0:
274,308,63114,1,0,0:0:0:0:
274,308,63302,2,0,L|382:293,1,90,2|0,0:0|0:0,0:0:0:0:
352,88,63677,2,0,L|343:191,1,90,8|0,0:0|0:0,0:0:0:0:
138,382,64052,2,0,L|145:292,1,90,2|0,0:0|0:0,0:0:0:0:
49,100,64427,6,0,P|129:106|196:197,1,180,6|2,0:0|0:0,0:0:0:0:
328,374,64989,2,0,P|316:313|321:255,1,90,0|8,0:0|0:0,0:0:0:0:
380,39,65364,1,0,0:0:0:0:
466,77,65552,2,0,P|478:138|473:196,1,90,2|0,0:0|0:0,0:0:0:0:
207,114,65927,5,6,0:0:0:0:
207,114,66114,1,0,0:0:0:0:
207,114,66302,2,0,L|302:99,1,90,2|0,0:0|0:0,0:0:0:0:
499,363,66677,1,8,0:0:0:0:
410,379,66864,1,0,0:0:0:0:
331,304,67052,1,10,0:0:0:0:
334,178,67239,1,8,0:0:0:0:
464,116,67427,1,6,0:0:0:0:
142,93,67614,5,0,0:0:0:0:
142,93,67802,1,2,0:0:0:0:
142,93,67989,2,0,L|158:196,1,90,0|8,0:0|0:0,0:0:0:0:
318,349,68364,1,0,0:0:0:0:
318,349,68552,1,2,0:0:0:0:
318,349,68739,2,0,L|302:246,1,90,0|6,0:0|0:0,0:0:0:0:
365,35,69114,5,0,0:0:0:0:
365,35,69302,1,2,0:0:0:0:
365,35,69489,2,0,L|381:138,1,90,0|8,0:0|0:0,0:0:0:0:
510,280,69864,1,0,0:0:0:0:
510,280,70052,2,0,L|414:268,1,90,2|0,0:0|0:0,0:0:0:0:
99,160,70427,6,0,P|168:167|252:77,1,180,6|2,0:0|0:0,0:0:0:0:
224,261,70989,2,0,P|217:309|207:371,1,90,0|8,0:0|0:0,0:0:0:0:
363,52,71364,2,0,P|369:100|380:162,1,90,0|2,0:0|0:0,0:0:0:0:
128,185,71739,5,8,0:0:0:0:
131,167,71833,1,8,0:0:0:0:
134,149,71927,1,10,0:0:0:0:
335,248,72114,1,10,0:0:0:0:
120,285,72302,5,10,0:0:0:0:
358,154,72489,1,10,0:0:0:0:
81,56,72677,5,10,0:0:0:0:
434,220,72864,1,10,0:0:0:0:
184,361,73052,1,10,0:0:0:0:
352,135,73239,6,0,L|362:54,1,62.9999980773926,10|2,0:0|0:0,0:0:0:0:
110,220,73989,2,0,L|100:139,1,62.9999980773926,0|2,0:0|0:0,0:0:0:0:
369,295,74764,2,0,L|383:197,1,89.9999976158143,0|2,0:0|0:0,0:0:0:0:
376,232,76438,5,2,0:0:0:0:
102,157,77188,1,2,0:0:0:0:
399,87,79440,6,0,P|377:116|274:132,1,125.999996154785,2|0,0:0|0:0,0:0:0:0:
293,138,80002,1,0,0:0:0:0:
104,47,80190,2,0,P|146:47|198:72,1,94.499997116089,2|0,0:0|0:0,0:0:0:0:
200,78,80565,1,0,0:0:0:0:
193,182,80752,6,0,L|175:314,1,125.999996154785,8|0,0:0|0:0,0:0:0:0:
175,319,81221,1,0,0:0:0:0:
174,331,81315,2,0,L|264:322,1,62.9999980773926,8|0,0:0|0:0,0:0:0:0:
381,175,81690,1,0,0:0:0:0:
282,239,81877,1,0,0:0:0:0:
440,321,82065,1,8,0:0:0:0:
447,60,82315,5,8,0:0:0:0:
384,112,82440,2,0,L|379:202,1,62.9999980773926,8|0,0:0|0:0,0:0:0:0:
288,345,82815,1,0,0:0:0:0:
203,307,83002,2,0,P|202:239|167:173,2,125.999996154785,2|0|8,0:0|0:0|0:0,0:0:0:0:
44,60,84190,5,0,0:0:0:0:
121,96,84315,2,0,L|241:80,1,83.9999974365235,2|8,0:0|0:0,0:0:0:0:
288,125,84690,2,0,L|303:40,1,62.9999980773926,8|2,0:0|0:0,0:0:0:0:
439,254,85158,1,0,0:0:0:0:
439,254,85252,1,8,0:0:0:0:
486,191,85440,6,0,L|351:212,1,125.999996154785,2|0,0:0|0:0,0:0:0:0:
361,210,86002,1,0,0:0:0:0:
222,71,86190,2,0,P|266:92|325:95,1,94.499997116089,2|0,0:0|0:0,0:0:0:0:
323,93,86565,1,0,0:0:0:0:
260,189,86752,6,0,P|241:250|242:322,1,125.999996154785,8|0,0:0|0:0,0:0:0:0:
244,323,87221,1,0,0:0:0:0:
249,334,87315,2,0,L|176:347,1,62.9999980773926,8|0,0:0|0:0,0:0:0:0:
48,170,87690,1,0,0:0:0:0:
146,247,87877,1,0,0:0:0:0:
14,355,88065,1,8,0:0:0:0:
153,109,88315,5,8,0:0:0:0:
226,151,88440,2,0,L|358:126,1,125.999996154785,0|0,0:0|0:0,0:0:0:0:
349,127,89002,1,2,0:0:0:0:
