osu file format v14

[General]
AudioFilename: audio.mp3
AudioLeadIn: 0
PreviewTime: -1
Countdown: 0
SampleSet: None
StackLeniency: 0.3
Mode: 0
LetterboxInBreaks: 0
WidescreenStoryboard: 0

[Editor]
DistanceSpacing: 0.5
BeatDivisor: 4
GridSize: 8
TimelineZoom: 1.4

[Metadata]
Title:Pray
TitleUnicode:Pray
Artist:Rachel (CV: Chisuga Haruka)
ArtistUnicode:Rachel (CV: Chisuga Haruka)
Creator:P4ndemonium
Version:Kill me... Please
Source:殺戮の天使
Tags:satsuriku no tenshi angels of death ending ed deco*27
BeatmapID:1776951
BeatmapSetID:849835

[Difficulty]
HPDrainRate:5
CircleSize:3.8
OverallDifficulty:8
ApproachRate:9.2
SliderMultiplier:2
SliderTickRate:1

[Events]
//Background and Video events
0,0,"aa.jpg",0,0
//Break Periods
2,1304,2222
2,4304,5972
2,7304,8222
2,10304,11972
2,77042,77972
//Storyboard Layer 0 (Background)
//Storyboard Layer 1 (Fail)
//Storyboard Layer 2 (Pass)
//Storyboard Layer 3 (Foreground)
//Storyboard Sound Samples

[TimingPoints]
542,375,4,1,0,20,1,0
542,-400,4,1,0,20,0,0
12542,-133.333333333333,4,1,0,20,0,0
48542,-80,4,1,0,20,0,1
72542,-80,4,1,0,20,0,0
78542,-400,4,1,0,20,0,0
79292,-100,4,1,0,20,0,0
81542,-400,4,1,0,20,0,0
82292,-100,4,1,0,20,0,0
84542,-400,4,1,0,20,0,0
85292,-100,4,1,0,20,0,0
87542,-400,4,1,0,20,0,0

[HitObjects]
436,349,542,6,0,P|420:338|402:333,1,37.5
385,331,917,1,0,0:0:0:0:
408,242,1104,1,0,0:0:0:0:
408,242,2792,5,0,0:0:0:0:
385,331,2979,1,0,0:0:0:0:
319,266,3167,1,0,0:0:0:0:
76,349,3542,6,0,P|91:338|109:333,1,37.5
127,331,3917,1,0,0:0:0:0:
104,242,4104,1,0,0:0:0:0:
76,349,6542,6,0,P|91:338|109:333,1,37.5
127,331,6917,1,0,0:0:0:0:
104,242,7104,1,0,0:0:0:0:
104,242,8792,5,0,0:0:0:0:
127,331,8979,1,0,0:0:0:0:
193,266,9167,1,0,0:0:0:0:
436,349,9542,6,0,P|420:338|402:333,1,37.5
385,331,9917,1,0,0:0:0:0:
408,242,10104,1,0,0:0:0:0:
451,127,12542,6,0,P|413:167|404:222,1,112.500004291535
408,242,12917,1,0,0:0:0:0:
323,171,13104,1,0,0:0:0:0:
218,282,13292,6,0,P|177:244|122:235,1,112.500004291535
110,255,13667,2,0,P|96:267|80:277,1,37.5000014305115
200,366,13854,2,0,P|240:328|295:319,1,112.500004291535
306,339,14229,2,0,P|320:351|336:361,1,37.5000014305115
465,242,14417,6,0,P|427:282|418:337,1,112.500004291535
422,357,14792,1,0,0:0:0:0:
347,251,14979,1,0,0:0:0:0:
474,157,15167,1,0,0:0:0:0:
359,11,15354,6,0,P|350:27|347:46,1,37.5000014305115
187,133,15542,2,0,P|227:170|282:179,1,112.500004291535
304,176,15917,1,0,0:0:0:0:
138,210,16104,2,0,P|84:226|50:269,1,112.500004291535
42,289,16479,1,0,0:0:0:0:
94,129,16667,2,0,P|103:112|106:93,1,37.5000014305115
126,9,16854,6,0,P|84:47|29:55,1,112.500004291535
213,32,17323,1,0,0:0:0:0:
213,32,17417,2,0,P|216:50|224:67,1,37.5000014305115
244,155,17698,1,0,0:0:0:0:
244,155,17792,2,0,P|261:160|280:162,1,37.5000014305115
401,147,17979,6,0,P|372:171|356:204,1,75.0000028610231
355,227,18260,1,0,0:0:0:0:
354,227,18354,2,0,P|360:244|362:263,1,37.5000014305115
379,384,18542,6,0,P|338:346|283:337,1,112.500004291535
264,341,18917,1,0,0:0:0:0:
215,209,19104,1,0,0:0:0:0:
135,384,19292,6,0,P|172:343|181:288,1,112.500004291535
162,276,19667,2,0,P|149:262|139:246,1,37.5000014305115
172,134,19854,6,0,P|117:121|66:141,1,112.500004291535
63,165,20229,2,0,P|57:182|48:199,1,37.5000014305115
194,0,20417,6,0,P|237:34|253:87,1,112.500004291535
253,107,20792,1,0,0:0:0:0:
353,13,20979,1,0,0:0:0:0:
380,207,21167,1,0,0:0:0:0:
512,54,21354,6,0,P|494:48|477:39,1,37.5000014305115
395,220,21542,2,0,P|435:182|490:173,1,112.500004291535
512,177,21917,1,0,0:0:0:0:
414,304,22104,2,0,P|373:266|318:257,1,112.500004291535
297,261,22479,1,0,0:0:0:0:
471,370,22667,2,0,P|487:361|506:358,1,37.5000014305115
490,173,22854,6,0,P|435:182|395:220,1,112.500004291535
297,261,23323,1,0,0:0:0:0:
297,261,23417,2,0,P|293:279|285:296,1,37.5000014305115
298,150,23698,1,0,0:0:0:0:
297,149,23792,2,0,P|311:161|322:177,1,37.5000014305115
268,51,23979,6,0,P|243:79|210:95,1,75.0000028610231
188,97,24260,1,0,0:0:0:0:
187,97,24354,2,0,P|169:91|150:89,1,37.5000014305115
61,127,24542,6,0,P|98:167|107:222,1,112.500004291535
104,242,24917,1,0,0:0:0:0:
189,171,25104,1,0,0:0:0:0:
294,282,25292,6,0,P|334:244|389:235,1,112.500004291535
402,255,25667,2,0,P|415:267|431:277,1,37.5000014305115
312,366,25854,2,0,P|271:328|216:319,1,112.500004291535
205,339,26229,2,0,P|191:351|175:361,1,37.5000014305115
47,242,26417,6,0,P|84:282|93:337,1,112.500004291535
90,357,26792,1,0,0:0:0:0:
165,251,26979,1,0,0:0:0:0:
38,157,27167,1,0,0:0:0:0:
153,11,27354,6,0,P|161:27|164:46,1,37.5000014305115
325,133,27542,2,0,P|284:170|229:179,1,112.500004291535
208,176,27917,1,0,0:0:0:0:
374,210,28104,2,0,P|427:226|461:269,1,112.500004291535
470,289,28479,1,0,0:0:0:0:
417,129,28667,2,0,P|408:112|405:93,1,37.5000014305115
386,10,28854,6,0,P|426:47|481:55,1,112.500004291535
299,32,29323,1,0,0:0:0:0:
299,32,29417,2,0,P|295:50|287:67,1,37.5000014305115
268,155,29698,1,0,0:0:0:0:
268,155,29792,2,0,P|250:160|231:162,1,37.5000014305115
111,147,29979,6,0,P|139:171|155:204,1,75.0000028610231
157,227,30260,1,0,0:0:0:0:
157,227,30354,2,0,P|151:244|149:263,1,37.5000014305115
133,384,30542,6,0,P|173:346|228:337,1,112.500004291535
248,341,30917,1,0,0:0:0:0:
297,209,31104,1,0,0:0:0:0:
377,384,31292,6,0,P|339:343|330:288,1,112.500004291535
350,276,31667,2,0,P|362:262|372:246,1,37.5000014305115
340,134,31854,6,0,P|394:121|445:141,1,112.500004291535
449,165,32229,2,0,P|454:182|463:199,1,37.5000014305115
318,0,32417,6,0,P|274:34|258:87,1,112.500004291535
259,107,32792,1,0,0:0:0:0:
159,13,32979,1,0,0:0:0:0:
132,207,33167,1,0,0:0:0:0:
0,54,33354,6,0,P|17:48|34:39,1,37.5000014305115
117,220,33542,2,0,P|76:182|21:173,1,112.500004291535
0,177,33917,1,0,0:0:0:0:
98,304,34104,2,0,P|138:266|193:257,1,112.500004291535
215,261,34479,1,0,0:0:0:0:
41,370,34667,2,0,P|24:361|5:358,1,37.5000014305115
21,173,34854,6,0,P|76:182|117:220,1,112.500004291535
215,261,35323,1,0,0:0:0:0:
215,261,35417,2,0,P|218:279|226:296,1,37.5000014305115
214,150,35698,1,0,0:0:0:0:
214,149,35792,2,0,P|200:161|190:177,1,37.5000014305115
244,51,35979,6,0,P|268:79|301:95,1,75.0000028610231
324,97,36260,1,0,0:0:0:0:
325,97,36354,2,0,P|342:91|361:89,1,37.5000014305115
443,151,36542,5,0,0:0:0:0:
443,151,37667,6,0,L|416:298,1,150.000005722046
481,226,38229,1,0,0:0:0:0:
378,96,38417,1,0,0:0:0:0:
237,183,38604,1,0,0:0:0:0:
237,183,38792,5,0,0:0:0:0:
286,105,38979,1,0,0:0:0:0:
257,25,39167,2,0,L|183:11,1,75.0000028610231
251,199,39542,2,0,L|324:185,1,75.0000028610231
128,232,39917,1,0,0:0:0:0:
128,232,40104,2,0,L|192:269,1,75.0000028610231
13,179,40479,1,0,0:0:0:0:
13,179,40666,2,0,L|38:249,1,75.0000028610231
128,232,41042,5,0,0:0:0:0:
128,232,41229,2,0,L|89:127,1,112.500004291535
100,109,41604,2,0,L|87:73,1,37.5000014305115
257,155,41792,5,0,0:0:0:0:
212,36,41979,1,0,0:0:0:0:
212,36,42167,2,0,L|186:106,1,75.0000028610231
442,211,42542,5,0,0:0:0:0:
379,148,42917,1,0,0:0:0:0:
303,134,43292,1,0,0:0:0:0:
257,155,43667,1,0,0:0:0:0:
236,170,44042,5,0,0:0:0:0:
190,191,44417,1,0,0:0:0:0:
114,177,44792,1,0,0:0:0:0:
51,114,45167,1,0,0:0:0:0:
248,69,45542,5,0,0:0:0:0:
137,264,45917,1,0,0:0:0:0:
198,0,46292,5,0,0:0:0:0:
210,387,46667,1,0,0:0:0:0:
393,45,47042,5,0,0:0:0:0:
256,192,47229,1,0,0:0:0:0:
256,192,47604,5,0,0:0:0:0:
302,171,47792,5,0,0:0:0:0:
378,185,47979,5,0,0:0:0:0:
441,248,48167,5,0,0:0:0:0:
441,248,48542,5,0,0:0:0:0:
307,370,48729,2,0,P|222:334|184:251,1,187.5
184,232,49104,1,0,0:0:0:0:
0,384,49292,1,0,0:0:0:0:
0,384,49479,2,0,P|72:328|164:336,1,187.5
181,346,49854,1,0,0:0:0:0:
141,111,50042,1,0,0:0:0:0:
141,111,50229,2,0,P|152:201|99:276,1,187.5
83,286,50604,1,0,0:0:0:0:
320,42,50792,6,0,P|228:46|164:111,1,187.5
404,153,51167,2,0,P|354:75|265:52,1,187.5
371,254,51542,6,0,P|420:176|509:153,1,187.5
380,270,51917,1,0,0:0:0:0:
244,215,52104,2,0,P|286:296|261:384,1,187.5
225,214,52479,1,0,0:0:0:0:
341,124,52667,2,0,P|249:119|185:54,1,187.5
350,108,53042,5,0,0:0:0:0:
380,270,53229,1,0,0:0:0:0:
431,65,53417,5,0,0:0:0:0:
299,313,53604,1,0,0:0:0:0:
347,91,53792,5,0,0:0:0:0:
383,286,53979,1,0,0:0:0:0:
444,40,54167,5,0,0:0:0:0:
285,337,54354,5,0,0:0:0:0:
285,338,54542,1,0,0:0:0:0:
128,203,54729,1,0,0:0:0:0:
324,133,54917,1,0,0:0:0:0:
157,330,55104,5,0,0:0:0:0:
157,330,55292,1,0,0:0:0:0:
199,94,55479,1,0,0:0:0:0:
381,249,55667,1,0,0:0:0:0:
78,280,55854,5,0,0:0:0:0:
78,280,56042,1,0,0:0:0:0:
377,342,56230,1,0,0:0:0:0:
281,50,56417,1,0,0:0:0:0:
157,330,56604,5,0,0:0:0:0:
157,330,56792,1,0,0:0:0:0:
381,249,56979,1,0,0:0:0:0:
199,94,57167,1,0,0:0:0:0:
246,223,57354,5,0,0:0:0:0:
325,61,57542,2,0,P|409:96|447:179,1,187.5
283,308,57917,5,0,0:0:0:0:
209,138,58104,2,0,P|281:82|373:90,1,187.5
375,318,58479,5,0,0:0:0:0:
191,298,58667,1,0,0:0:0:0:
62,164,58855,5,0,0:0:0:0:
76,248,58948,5,0,0:0:0:0:
91,333,59042,5,0,0:0:0:0:
419,207,59229,1,0,0:0:0:0:
127,96,59417,5,0,0:0:0:0:
399,316,59604,1,0,0:0:0:0:
57,352,59792,5,0,0:0:0:0:
451,200,59979,1,0,0:0:0:0:
100,67,60167,5,0,0:0:0:0:
427,331,60354,1,0,0:0:0:0:
71,248,60542,5,0,0:0:0:0:
205,370,60729,2,0,P|289:334|327:251,1,187.5
328,232,61104,1,0,0:0:0:0:
512,384,61292,1,0,0:0:0:0:
512,384,61479,2,0,P|439:328|347:336,1,187.5
331,346,61854,1,0,0:0:0:0:
371,111,62042,1,0,0:0:0:0:
371,111,62229,2,0,P|359:201|412:276,1,187.5
429,286,62604,1,0,0:0:0:0:
192,42,62792,6,0,P|283:46|347:111,1,187.5
122,172,63167,2,0,P|131:142|148:116,1,62.5
70,67,63354,2,0,P|71:35|63:5,1,62.5
141,254,63542,6,0,P|91:176|2:153,1,187.5
132,270,63917,1,0,0:0:0:0:
268,215,64104,2,0,P|225:296|250:384,1,187.5
287,214,64479,1,0,0:0:0:0:
170,123,64667,2,0,P|201:130|232:128,1,62.5
368,169,64854,2,0,P|377:139|394:113,1,62.5
162,108,65042,5,0,0:0:0:0:
132,270,65229,1,0,0:0:0:0:
81,65,65417,5,0,0:0:0:0:
213,313,65604,1,0,0:0:0:0:
165,91,65792,5,0,0:0:0:0:
129,286,65979,1,0,0:0:0:0:
67,40,66167,5,0,0:0:0:0:
226,337,66354,5,0,0:0:0:0:
226,337,66542,1,0,0:0:0:0:
384,203,66729,1,0,0:0:0:0:
188,133,66917,1,0,0:0:0:0:
355,330,67104,5,0,0:0:0:0:
355,330,67292,1,0,0:0:0:0:
313,94,67479,1,0,0:0:0:0:
131,249,67667,1,0,0:0:0:0:
434,280,67854,5,0,0:0:0:0:
434,280,68042,1,0,0:0:0:0:
135,342,68230,1,0,0:0:0:0:
231,50,68417,1,0,0:0:0:0:
355,330,68604,5,0,0:0:0:0:
355,330,68792,1,0,0:0:0:0:
131,249,68979,1,0,0:0:0:0:
313,94,69167,1,0,0:0:0:0:
266,223,69354,5,0,0:0:0:0:
187,61,69542,2,0,P|102:96|64:179,1,187.5
229,308,69917,5,0,0:0:0:0:
303,138,70104,2,0,P|230:82|138:90,1,187.5
137,318,70479,5,0,0:0:0:0:
321,298,70667,1,0,0:0:0:0:
450,164,70855,5,0,0:0:0:0:
436,248,70948,5,0,0:0:0:0:
421,333,71042,5,0,0:0:0:0:
93,207,71229,1,0,0:0:0:0:
385,96,71417,5,0,0:0:0:0:
113,316,71604,1,0,0:0:0:0:
454,352,71792,5,0,0:0:0:0:
60,200,71979,1,0,0:0:0:0:
411,67,72167,5,0,0:0:0:0:
84,331,72354,1,0,0:0:0:0:
497,200,72542,5,0,0:0:0:0:
15,200,73292,5,0,0:0:0:0:
256,192,74042,5,0,0:0:0:0:
248,0,75542,5,0,0:0:0:0:
264,384,76292,5,0,0:0:0:0:
76,35,78542,6,0,P|92:46|110:51,1,37.5
127,53,78917,1,0,0:0:0:0:
104,142,79104,1,0,0:0:0:0:
213,246,79292,5,0,0:0:0:0:
121,158,79479,2,0,L|129:207,2,50
305,158,79854,5,0,0:0:0:0:
213,246,80041,2,0,L|221:196,2,50
197,265,80323,1,0,0:0:0:0:
197,265,80417,2,0,L|215:367,1,100
104,142,80792,5,0,0:0:0:0:
127,53,80979,1,0,0:0:0:0:
193,118,81167,1,0,0:0:0:0:
436,35,81448,5,0,0:0:0:0:
436,35,81542,2,0,P|421:46|403:51,1,37.5
385,53,81917,1,0,0:0:0:0:
408,142,82104,1,0,0:0:0:0:
306,252,82292,5,0,0:0:0:0:
394,160,82479,2,0,L|344:168,2,50
394,344,82854,5,0,0:0:0:0:
306,252,83041,2,0,L|355:260,2,50
290,273,83323,1,0,0:0:0:0:
290,273,83417,2,0,L|187:291,1,100
155,149,83698,1,0,0:0:0:0:
155,149,83792,2,0,L|257:167,1,100
269,153,84167,2,0,L|318:161,2,50
436,35,84542,6,0,P|421:46|403:51,1,37.5
385,53,84917,1,0,0:0:0:0:
408,142,85104,1,0,0:0:0:0:
299,246,85292,5,0,0:0:0:0:
391,158,85479,2,0,L|382:207,2,50
207,158,85854,5,0,0:0:0:0:
299,246,86041,2,0,L|290:196,2,50
315,265,86323,1,0,0:0:0:0:
315,265,86417,2,0,L|296:367,1,100
408,142,86792,5,0,0:0:0:0:
385,53,86979,1,0,0:0:0:0:
319,118,87167,1,0,0:0:0:0:
76,35,87448,5,0,0:0:0:0:
76,35,87542,2,0,P|92:46|110:51,1,37.5
127,53,87917,1,0,0:0:0:0:
104,142,88104,1,0,0:0:0:0:
