osu file format v14

[General]
AudioFilename: audio.mp3
AudioLeadIn: 0
PreviewTime: 235014
Countdown: 0
SampleSet: Soft
StackLeniency: 0.7
Mode: 2
LetterboxInBreaks: 0
WidescreenStoryboard: 1

[Editor]
Bookmarks: 1657,24696,45341,60825,89857,98243,108566,129211,144695,173727,194209,217595,235014,267917,280658,306626,316304
DistanceSpacing: 1.1
BeatDivisor: 4
GridSize: 4
TimelineZoom: 2.300002

[Metadata]
Title:Hyperion
TitleUnicode:Hyperion
Artist:Raccoon Factory
ArtistUnicode:あらいぐまファクトリー
Creator:JBHyperion
Version:Rain
Source:東方地霊殿 ~ Subterranean Animism.
Tags:東方Project Touhou Chireiden Earth Spirit Palace 霊知の太陽信仰 ~ Nuclear Fusion Solar Sect of Mystic Wisdom 霊烏路 空 Reiuji Utsuho Hell Raven of Blazing Fires 業火マントル Hellfire Mantle Stage 6 Theme Boss the protocol of executer そえ Soe 吉良花鶏 Atori Kira C82 Comiket CRFH-0005 Rock Metal Guitar Electronica Japanese Phob Greaper Baron
BeatmapID:2367458
BeatmapSetID:1110955

[Difficulty]
HPDrainRate:5
CircleSize:3.5
OverallDifficulty:9
ApproachRate:9
SliderMultiplier:1.6
SliderTickRate:2

[Events]
//Background and Video events
0,0,"Reiuji.Utsuho.full.2031728.jpg",0,0
//Break Periods
//Storyboard Layer 0 (Background)
//Storyboard Layer 1 (Fail)
//Storyboard Layer 2 (Pass)
//Storyboard Layer 3 (Foreground)
//Storyboard Layer 4 (Overlay)
//Storyboard Sound Samples

[TimingPoints]
1657,428.571428571429,6,2,1,40,1,0
16657,441.176470588235,4,2,1,40,1,0
17098,461.538461538462,4,2,1,40,1,0
17559,517.241379310345,4,2,1,40,1,0
18076,545.454545454546,4,2,1,40,1,0
18621,588.235294117647,4,2,1,40,1,0
19209,652.173913043478,4,2,1,40,1,0
19861,721.153846153846,4,2,1,40,1,0
20582,342.857142857143,4,2,1,30,1,0
20924,-100,4,2,0,20,0,0
21267,-100,4,2,0,21,0,0
21610,-100,4,2,0,22,0,0
21953,-100,4,2,0,24,0,0
22296,-100,4,2,0,26,0,0
22639,-100,4,2,0,28,0,0
22982,-100,4,2,0,30,0,0
23324,-100,4,2,0,33,0,0
23667,-100,4,2,0,36,0,0
24010,-100,4,2,0,39,0,0
24353,-100,4,2,0,42,0,0
24524,-100,4,2,0,5,0,0
24696,322.58064516129,4,2,2,70,1,0
25825,-100,4,2,1,60,0,0
26147,-100,4,2,2,70,0,0
26631,-100,4,2,2,60,0,0
27276,-100,4,2,1,60,0,0
27921,-100,4,2,2,50,0,0
28244,-100,4,2,1,70,0,0
29212,-100,4,2,2,50,0,0
29857,-100,4,2,2,70,0,0
31147,-100,4,2,1,80,0,0
31792,-100,4,2,2,60,0,0
32437,-100,4,2,1,80,0,0
33083,-100,4,2,2,60,0,0
33405,-100,4,2,1,70,0,0
34373,-100,4,3,1,80,0,0
39534,-100,4,3,0,70,0,0
39695,-100,4,3,1,60,0,0
39857,-100,4,3,1,80,0,0
40179,-100,4,2,2,80,0,0
40341,-100,4,3,1,80,0,0
42760,-100,4,2,2,80,0,0
43083,-100,4,3,1,80,0,0
43244,-100,4,2,2,80,0,0
43567,-100,4,3,1,80,0,0
44050,-100,4,3,0,70,0,0
44212,-100,4,3,1,60,0,0
44373,-100,4,3,0,70,0,0
44534,-100,4,3,1,60,0,0
44695,-100,4,3,1,80,0,0
45341,-100,4,2,2,80,0,0
45663,-100,4,3,1,80,0,0
46308,-100,4,2,2,80,0,0
47276,-100,4,3,1,80,0,0
47921,-100,4,2,2,80,0,0
48566,-100,4,3,1,80,0,0
48728,-100,4,2,2,80,0,0
49050,-100,4,3,1,80,0,0
50179,-100,4,3,0,80,0,0
50341,-100,4,3,1,80,0,0
50502,-100,4,2,2,80,0,0
50825,-100,4,3,1,80,0,0
51470,-100,4,2,2,80,0,0
51792,-100,4,3,1,80,0,0
53083,-90.9090909090909,4,2,2,80,0,0
53405,-90.9090909090909,4,3,1,80,0,0
55663,-90.9090909090909,4,2,2,80,0,0
55744,-90.9090909090909,4,3,1,80,0,0
56954,-90.9090909090909,4,2,2,80,0,0
57035,-90.9090909090909,4,3,1,80,0,0
58244,-90.9090909090909,4,2,2,80,0,0
59534,-90.9090909090909,4,3,0,60,0,0
59695,-90.9090909090909,4,3,1,60,0,0
59857,-90.9090909090909,4,3,0,70,0,0
60018,-90.9090909090909,4,3,1,70,0,0
60179,-90.9090909090909,4,3,1,80,0,0
60502,-90.9090909090909,4,2,1,60,0,0
60825,322.58064516129,6,3,1,90,1,1
60825,-90.9090909090909,6,3,1,90,0,1
64050,-90.9090909090909,6,3,0,80,0,1
64212,-90.9090909090909,6,3,1,80,0,1
64373,-90.9090909090909,6,3,1,90,0,1
64695,-90.9090909090909,6,2,2,90,0,1
64857,-90.9090909090909,6,3,1,90,0,1
66631,-90.9090909090909,6,2,2,90,0,1
66793,-90.9090909090909,6,3,1,90,0,1
67921,-90.9090909090909,6,3,0,80,0,1
68083,-90.9090909090909,6,3,1,80,0,1
68244,-90.9090909090909,6,3,1,90,0,1
71792,-90.9090909090909,6,3,0,80,0,1
71954,-90.9090909090909,6,3,1,80,0,1
72115,-90.9090909090909,6,3,1,90,0,1
72437,-90.9090909090909,6,2,2,90,0,1
72599,-90.9090909090909,6,3,1,90,0,1
74373,-90.9090909090909,6,2,2,90,0,1
74535,-90.9090909090909,6,3,0,70,0,1
74803,-90.9090909090909,6,3,1,70,0,1
74857,-90.9090909090909,6,3,0,70,0,1
74911,-90.9090909090909,6,3,1,70,0,1
75018,-90.9090909090909,6,3,1,75,0,1
75341,-90.9090909090909,6,3,1,90,0,1
75986,-90.9090909090909,6,3,0,80,0,1
76147,-90.9090909090909,6,3,1,80,0,1
76308,-90.9090909090909,6,3,1,90,0,1
79534,-90.9090909090909,6,3,0,80,0,1
79695,-90.9090909090909,6,3,1,80,0,1
79857,-90.9090909090909,6,3,1,90,0,1
80179,-90.9090909090909,6,2,2,90,0,1
80341,-90.9090909090909,6,3,1,90,0,1
82115,-90.9090909090909,6,2,2,90,0,1
82276,-90.9090909090909,6,3,1,90,0,1
83728,-90.9090909090909,6,3,1,70,0,1
83889,-90.9090909090909,6,3,1,80,0,1
84050,-90.9090909090909,6,2,2,90,0,1
84131,-90.9090909090909,6,3,1,65,0,1
84373,-90.9090909090909,6,3,1,80,0,1
84454,-90.9090909090909,6,3,1,65,0,1
85018,-90.9090909090909,6,3,1,80,0,1
85099,-90.9090909090909,6,3,1,65,0,1
85663,-90.9090909090909,6,3,1,80,0,1
85744,-90.9090909090909,6,3,1,65,0,1
86954,-90.9090909090909,6,3,0,70,0,1
87276,-90.9090909090909,6,3,0,50,0,1
87599,-90.9090909090909,6,3,1,60,0,1
87921,-90.9090909090909,6,2,2,80,0,1
88244,-90.9090909090909,6,2,1,80,0,1
88889,-90.9090909090909,6,3,1,80,0,1
89050,-100,6,3,1,80,0,0
89212,-100,6,2,1,60,0,0
89857,-100,6,2,2,70,0,0
90018,-100,6,2,1,70,0,0
92115,-100,6,2,2,70,0,0
95663,322.58064516129,4,2,2,80,1,0
97598,-100,4,3,1,80,0,0
102921,-100,4,3,1,60,0,0
103082,-100,4,3,1,80,0,0
103404,-100,4,2,2,80,0,0
103485,-100,4,3,1,80,0,0
106308,-100,4,2,1,80,0,0
106469,-100,4,3,1,80,0,0
106792,-100,4,2,1,80,0,0
108566,-100,4,2,2,70,0,0
108727,-100,4,2,1,70,0,0
118082,-100,4,2,2,70,0,0
118404,-100,4,3,1,80,0,0
123404,-100,4,3,0,70,0,0
123566,-100,4,3,1,70,0,0
123727,-100,4,3,1,80,0,0
124050,-100,4,2,2,80,0,0
124211,-100,4,3,1,80,0,0
126630,-100,4,2,2,80,0,0
126792,-100,4,3,1,80,0,0
127114,-100,4,2,2,80,0,0
127276,-100,4,3,1,80,0,0
127598,-75.187969924812,4,3,1,80,0,0
127759,-100,4,3,1,80,0,0
128082,-100,4,3,0,80,0,0
128136,-100,4,3,1,80,0,0
130179,-100,4,2,2,80,0,0
130340,-100,4,3,1,80,0,0
131792,-100,4,2,2,80,0,0
131953,-100,4,3,1,80,0,0
133458,-100,4,3,0,80,0,0
133646,-100,4,3,1,80,0,0
134372,-100,4,2,2,80,0,0
134453,-100,4,3,1,80,0,0
135340,-83.3333333333333,4,2,2,80,0,0
135662,-100,4,3,1,80,0,0
136953,-100,4,2,2,80,0,0
137275,-100,4,3,1,80,0,0
138888,-100,4,2,2,80,0,0
139130,-100,4,3,1,80,0,0
141146,-100,4,3,1,85,0,0
142114,-100,4,2,2,80,0,0
143404,-100,4,3,0,60,0,0
143565,-100,4,3,1,60,0,0
143727,-100,4,3,0,70,0,0
143888,-100,4,3,1,70,0,0
144050,-100,4,3,1,80,0,0
144695,322.58064516129,6,3,1,90,1,1
144695,-90.9090909090909,6,3,1,90,0,1
147920,-90.9090909090909,6,3,0,80,0,1
148082,-90.9090909090909,6,3,1,80,0,1
148243,-90.9090909090909,6,3,1,90,0,1
148565,-90.9090909090909,6,2,2,90,0,1
148727,-90.9090909090909,6,3,1,90,0,1
150501,-90.9090909090909,6,2,2,90,0,1
150663,-90.9090909090909,6,3,1,90,0,1
151791,-90.9090909090909,6,3,0,80,0,1
151953,-90.9090909090909,6,3,1,80,0,1
152114,-90.9090909090909,6,3,1,90,0,1
155662,-90.9090909090909,6,3,0,80,0,1
155824,-90.9090909090909,6,3,1,80,0,1
155985,-90.9090909090909,6,3,1,90,0,1
156307,-90.9090909090909,6,2,2,90,0,1
156469,-90.9090909090909,6,3,1,90,0,1
157275,-90.9090909090909,6,2,2,90,0,1
157437,-90.9090909090909,6,3,1,90,0,1
158243,-90.9090909090909,6,2,2,90,0,1
158405,-90.9090909090909,6,3,0,70,0,1
158458,-90.9090909090909,6,3,1,70,0,1
159533,-90.9090909090909,6,3,0,80,0,1
159695,-90.9090909090909,6,3,1,70,0,1
160017,-90.9090909090909,6,3,1,60,0,1
160178,-90.9090909090909,6,3,1,90,0,1
163404,-90.9090909090909,6,3,0,80,0,1
163565,-90.9090909090909,6,3,1,80,0,1
163727,-90.9090909090909,6,3,1,90,0,1
164049,-90.9090909090909,6,2,2,90,0,1
164211,-90.9090909090909,6,3,1,90,0,1
166953,-90.9090909090909,6,3,0,80,0,1
167114,-90.9090909090909,6,3,1,80,0,1
167275,-90.9090909090909,6,3,1,90,0,1
167920,-90.9090909090909,6,2,2,90,0,1
168001,-90.9090909090909,6,3,1,65,0,1
168243,-90.9090909090909,6,3,1,80,0,1
168324,-90.9090909090909,6,3,1,65,0,1
168888,-90.9090909090909,6,3,1,80,0,1
168969,-90.9090909090909,6,3,1,65,0,1
169533,-90.9090909090909,6,3,1,80,0,1
169614,-90.9090909090909,6,3,1,65,0,1
170824,-90.9090909090909,6,3,0,70,0,1
171146,-90.9090909090909,6,3,0,50,0,1
171469,-90.9090909090909,6,3,1,60,0,1
171791,-90.9090909090909,6,2,2,80,0,1
172114,-90.9090909090909,6,3,1,80,0,1
172436,-90.9090909090909,6,3,0,80,0,1
172517,-90.9090909090909,6,3,1,80,0,1
172920,-100,4,3,1,80,0,0
173082,-100,4,2,1,60,0,0
173727,-100,4,2,1,80,0,0
174049,-100,4,2,2,80,0,0
174533,322.58064516129,6,2,2,80,1,0
174855,322.58064516129,4,3,1,80,1,0
175016,-100,4,2,2,80,0,0
177596,-100,4,2,1,80,0,0
177919,-100,4,2,2,80,0,0
178564,-100,4,2,1,80,0,0
178725,-100,4,2,2,70,0,0
179048,-100,4,2,1,80,0,0
179209,-100,4,2,2,70,0,0
179855,-100,4,2,1,70,0,0
180016,-100,4,2,2,80,0,0
182596,-100,4,3,0,70,0,0
182704,-100,4,2,2,70,0,0
182919,-100,4,2,2,80,0,0
184102,-100,4,3,0,80,0,0
184209,-100,4,2,2,80,0,0
185177,-100,4,3,1,70,0,0
185338,-100,4,2,2,80,0,0
188725,-100,4,2,1,80,0,0
189048,-100,4,2,2,80,0,0
189209,-100,4,2,1,80,0,0
189532,-100,4,2,2,80,0,0
189693,-100,4,2,1,80,0,0
189855,-100,4,2,2,80,0,0
190177,-100,4,2,1,80,0,0
190338,-100,4,2,2,80,0,0
191199,-100,4,3,0,80,0,0
191467,-100,4,2,2,80,0,0
192435,-100,4,3,0,80,0,0
192596,-100,4,3,1,80,0,0
192919,-80,4,2,2,80,0,0
193403,-100,4,2,2,80,0,0
193725,-100,4,2,1,80,0,0
194048,-100,4,3,1,80,0,0
194209,-80,4,2,2,90,0,0
194370,322.58064516129,4,3,1,80,1,0
194370,-90.9090909090909,4,3,1,80,0,0
199370,-90.9090909090909,4,2,2,80,0,0
199531,-90.9090909090909,4,3,1,80,0,0
203240,-80,4,3,1,90,0,0
203563,-90.9090909090909,4,3,1,80,0,0
204208,-90.9090909090909,4,2,2,80,0,0
204692,-100,4,3,1,80,0,0
209370,-75.187969924812,4,2,2,80,0,0
209692,-90.9090909090909,4,2,0,100,0,0
210015,-90.9090909090909,4,3,1,80,0,0
212434,-90.9090909090909,4,2,2,80,0,0
212595,-90.9090909090909,4,3,1,80,0,0
214369,-90.9090909090909,4,3,0,80,0,0
214692,-90.9090909090909,4,3,1,70,0,0
215015,-90.9090909090909,4,3,1,80,0,0
215176,-90.9090909090909,4,2,1,70,0,0
215821,-90.9090909090909,4,2,1,30,0,0
215962,-90.9090909090909,4,2,1,70,0,0
217595,322.58064516129,6,2,1,100,1,0
217595,-117.647058823529,6,2,1,100,0,0
217757,-117.647058823529,6,2,2,60,0,0
218885,-117.647058823529,6,2,2,50,0,0
219530,-117.647058823529,6,2,1,60,0,0
220175,-117.647058823529,6,2,2,60,0,0
220498,-117.647058823529,6,2,2,50,0,0
221143,-117.647058823529,6,2,1,70,0,0
221465,-117.647058823529,6,2,2,50,0,0
221788,-117.647058823529,6,2,1,70,0,0
222111,-117.647058823529,6,2,2,60,0,0
222433,-117.647058823529,6,2,1,60,0,0
223078,-117.647058823529,6,2,2,50,0,0
223401,-117.647058823529,6,2,2,60,0,0
224046,-117.647058823529,6,2,1,60,0,0
224691,-117.647058823529,6,2,2,50,0,0
225014,-117.647058823529,6,2,2,60,0,0
225336,-117.647058823529,6,2,1,70,0,0
225982,-117.647058823529,6,2,2,60,0,0
226304,-117.647058823529,6,2,2,50,0,0
226627,-117.647058823529,6,2,1,60,0,0
227272,-117.647058823529,6,2,2,50,0,0
227595,-117.647058823529,6,2,1,70,0,0
227917,-117.647058823529,6,2,2,60,0,0
228240,-117.647058823529,6,2,1,60,0,0
228562,-117.647058823529,6,2,2,50,0,0
228885,-117.647058823529,6,2,2,60,0,0
229207,-117.647058823529,6,2,2,50,0,0
229530,-117.647058823529,6,2,1,70,0,0
229853,-117.647058823529,6,2,2,60,0,0
230175,-117.647058823529,6,2,1,60,0,0
230820,-117.647058823529,6,2,2,50,0,0
231143,-117.647058823529,6,2,1,50,0,0
231465,-100,6,2,0,30,0,0
233078,-100,6,2,0,35,0,0
233401,-100,6,2,0,40,0,0
233724,-100,6,2,0,45,0,0
234046,-100,6,2,0,5,0,0
234369,-100,6,3,1,80,0,0
234853,-100,6,2,1,60,0,0
235014,-90.9090909090909,6,3,1,90,0,1
238240,-90.9090909090909,6,3,0,80,0,1
238401,-90.9090909090909,6,3,1,80,0,1
238562,-90.9090909090909,6,3,1,90,0,1
240820,-90.9090909090909,6,2,2,90,0,1
240982,-90.9090909090909,6,3,1,90,0,1
248885,-90.9090909090909,6,3,0,80,0,1
248939,-90.9090909090909,6,3,1,80,0,1
249046,-90.9090909090909,6,3,0,70,0,1
249100,-90.9090909090909,6,3,1,70,0,1
249207,-90.9090909090909,6,3,1,90,0,1
250014,-90.9090909090909,6,3,0,80,0,1
250336,-90.9090909090909,6,3,1,90,0,1
252917,-80,6,3,1,90,0,1
253240,-90.9090909090909,6,3,1,90,0,1
253724,-90.9090909090909,6,3,0,80,0,1
253885,-90.9090909090909,6,3,1,80,0,1
254046,-90.9090909090909,6,3,1,90,0,1
254369,-90.9090909090909,6,2,2,90,0,1
254530,-90.9090909090909,6,3,1,90,0,1
256304,-90.9090909090909,6,2,2,90,0,1
256465,-90.9090909090909,6,3,1,90,0,1
258240,-90.9090909090909,6,2,2,90,0,1
258320,-90.9090909090909,6,3,1,65,0,1
258562,-90.9090909090909,6,3,1,80,0,1
258643,-90.9090909090909,6,3,1,65,0,1
259207,-90.9090909090909,6,3,1,80,0,1
259288,-90.9090909090909,6,3,1,65,0,1
259853,-90.9090909090909,6,3,1,80,0,1
259934,-90.9090909090909,6,3,1,65,0,1
260175,-90.9090909090909,6,3,1,90,0,1
261143,-90.9090909090909,6,3,0,60,0,1
261465,-90.9090909090909,6,3,0,50,0,1
261788,-90.9090909090909,6,3,1,70,0,1
262111,-90.9090909090909,6,2,2,90,0,1
262272,-90.9090909090909,6,3,1,90,0,1
264046,-90.9090909090909,6,2,2,90,0,1
264207,-90.9090909090909,6,3,1,90,0,1
265336,-90.9090909090909,6,3,1,70,0,1
265498,-90.9090909090909,6,3,0,60,0,1
265659,-90.9090909090909,6,3,0,50,0,1
265821,-90.9090909090909,6,3,1,70,0,1
265982,-90.9090909090909,6,2,2,90,0,1
266304,-90.9090909090909,6,2,1,70,0,1
266949,-90.9090909090909,6,2,2,90,0,1
267272,-90.9090909090909,6,2,1,70,0,1
267594,-90.9090909090909,6,3,1,90,0,1
267917,322.58064516129,4,3,1,80,1,0
269046,-100,4,2,2,80,0,0
269207,-100,4,3,1,80,0,0
270336,-100,4,2,2,80,0,0
270497,-100,4,3,1,80,0,0
271626,-100,4,2,2,80,0,0
271787,-100,4,3,1,80,0,0
272433,-100,4,3,0,80,0,0
272594,-100,4,3,1,80,0,0
272917,-100,4,2,2,80,0,0
273078,-100,4,3,1,80,0,0
274207,-100,4,2,2,80,0,0
274368,-100,4,3,1,80,0,0
275497,-100,4,2,2,80,0,0
275658,-100,4,3,1,80,0,0
276787,-100,4,2,2,80,0,0
276948,-100,4,3,1,80,0,0
277433,-100,4,2,2,80,0,0
277594,-100,4,3,1,80,0,0
278239,-100,4,3,0,80,0,0
278400,-100,4,3,1,80,0,0
278884,-100,4,2,2,80,0,0
279046,-100,4,3,1,80,0,0
279207,-100,4,3,0,80,0,0
279368,-100,4,3,1,80,0,0
279529,-80,4,2,2,80,0,0
279691,-80,4,3,1,80,0,0
280175,-80,4,3,1,85,0,0
280336,-80,4,3,1,90,0,0
280497,-80,4,3,1,95,0,0
280658,-80,4,3,1,100,0,1
280981,-90.9090909090909,4,3,1,90,0,1
285820,-90.9090909090909,4,2,2,90,0,1
285981,-90.9090909090909,4,3,1,90,0,1
288562,-90.9090909090909,4,2,2,90,0,1
288723,-90.9090909090909,4,3,1,90,0,1
290658,-90.9090909090909,4,3,0,80,0,1
290820,-90.9090909090909,4,3,0,70,0,1
290981,-80,4,2,2,90,0,1
291142,-90.9090909090909,4,3,1,90,0,1
295820,-90.9090909090909,4,3,0,80,0,1
295982,-90.9090909090909,4,3,0,70,0,1
296142,-90.9090909090909,4,2,2,90,0,1
296303,-90.9090909090909,4,3,1,90,0,1
298884,-90.9090909090909,4,2,2,90,0,1
299045,-90.9090909090909,4,3,1,90,0,1
300013,-90.9090909090909,4,2,2,90,0,1
300174,-90.9090909090909,4,3,1,90,0,1
301465,-90.9090909090909,4,2,2,90,0,1
301626,-90.9090909090909,4,3,1,80,0,1
303884,-100,4,3,1,90,0,0
304852,-100,4,3,0,80,0,0
305013,-100,4,3,1,90,0,0
305228,-100,4,3,0,80,0,0
305336,-100,4,3,0,90,0,0
305390,-100,4,3,1,90,0,0
305497,-100,4,3,0,80,0,0
305551,-100,4,3,1,80,0,0
305820,-100,4,3,0,80,0,0
305873,-100,4,3,1,80,0,0
305981,-100,4,3,0,80,0,0
306304,-100,4,3,1,70,0,0
306465,-100,4,3,0,70,0,0
306505,-100,4,3,1,70,0,0
306586,-100,4,3,1,80,0,0
306949,-100,4,3,1,90,0,0
307271,-100,4,2,0,61,0,0
307594,-100,4,2,0,69,0,0
307916,-100,4,2,0,57,0,0
308239,-100,4,2,0,55,0,0
308562,-100,4,2,0,53,0,0
308885,-100,4,2,0,51,0,0
309207,-100,4,2,0,49,0,0
309530,-100,4,2,0,47,0,0
309853,-100,4,2,0,45,0,0
310175,-100,4,2,0,43,0,0
310498,-100,4,2,0,41,0,0
310820,-100,4,2,0,39,0,0
311143,-100,4,2,0,37,0,0
311466,-100,4,2,0,35,0,0
311787,-100,4,2,0,33,0,0
312110,-100,4,2,0,31,0,0
312432,-100,4,2,0,29,0,0
312755,-100,4,2,0,27,0,0
313078,-100,4,2,0,25,0,0
313400,-100,4,2,0,23,0,0
313723,-100,4,2,0,21,0,0
314045,-100,4,2,0,19,0,0
314368,-100,4,2,0,17,0,0
314691,-100,4,2,0,15,0,0
315013,-100,4,2,0,13,0,0
315336,-100,4,2,0,11,0,0
315658,-100,4,2,0,9,0,0
315981,-100,4,2,0,7,0,0
316304,-100,4,2,0,5,0,0

[Colours]
Combo1 : 150,75,50
Combo2 : 175,50,50
Combo3 : 200,100,50
Combo4 : 200,150,50
Combo5 : 75,150,75

[HitObjects]
344,192,1228,6,0,L|348:96,1,80,2|0,0:0|0:0,0:0:0:0:
184,192,1657,6,0,P|112:116|192:36,1,240,12|0,0:0|0:0,0:0:0:0:
288,36,2514,2,0,L|448:36,1,160,2|8,0:0|0:0,0:0:0:0:
276,36,3371,2,0,L|108:36,1,160,2|8,0:0|0:0,0:0:0:0:
412,36,4228,6,0,L|416:232,1,160,12|2,0:0|0:0,0:0:0:0:
120,196,5085,1,8,0:0:0:0:
264,196,5514,1,2,0:0:0:0:
408,196,5942,1,2,0:0:0:0:
264,196,6371,1,0,0:0:0:0:
424,196,6799,5,6,0:0:0:0:
128,196,7228,2,0,B|48:196|48:196|48:116,1,160,8|2,0:0|0:0,0:0:0:0:
172,36,8085,2,0,L|332:36,2,160,8|0|2,0:0|0:0|0:0,0:0:0:0:
348,36,9371,5,6,0:0:0:0:
492,36,9799,1,0,0:0:0:0:
492,36,10228,1,2,0:0:0:0:
348,36,10657,1,2,0:0:0:0:
204,36,11085,1,0,0:0:0:0:
364,36,11514,2,0,L|444:36,1,80,2|0,0:0|0:0,0:0:0:0:
264,36,11942,6,0,P|188:100|264:188,1,240,12|0,0:0|0:0,0:0:0:0:
360,188,12799,2,0,L|364:380,1,160,2|8,0:0|0:0,0:0:0:0:
204,348,13657,1,2,0:0:0:0:
380,348,14085,1,8,0:0:0:0:
84,348,14514,6,0,L|80:176,1,160,12|2,0:0|0:0,0:0:0:0:
376,188,15371,2,0,L|216:188,1,160,8|2,0:0|0:0,0:0:0:0:
77,108,16228,2,0,L|220:192,1,160,8|2,0:0|0:0,0:0:0:0:
480,188,17098,5,6,0:0:0:0:
160,188,17559,1,8,0:0:0:0:
296,188,18076,1,0,0:0:0:0:
148,188,18621,5,8,0:0:0:0:
264,188,19209,1,0,0:0:0:0:
436,188,19861,1,2,0:0:0:0:
176,192,20582,5,4,0:0:0:0:
256,192,20924,12,0,24524,0:0:0:0:
171,112,24696,6,0,L|92:112,1,80,6|0,0:0|0:0,0:0:0:0:
188,112,25018,2,0,L|192:16,1,80,6|0,0:0|0:0,0:0:0:0:
92,112,25341,2,0,B|96:192|96:192|176:192,1,160,8|0,0:0|0:0,0:0:0:0:
264,192,25825,1,2,0:0:0:0:
424,192,25986,6,0,P|472:240|424:304,1,160,2|0,0:0|0:0,0:0:0:0:
336,304,26470,2,0,L|176:304,1,160,0|2,0:0|0:0,0:0:0:0:
88,304,26954,2,0,L|84:212,1,80,8|0,0:0|0:0,0:0:0:0:
172,224,27276,6,0,L|260:224,1,80,2|0,0:0|0:0,0:0:0:0:
164,224,27599,2,0,L|160:136,1,80,2|0,0:0|0:0,0:0:0:0:
320,224,27921,2,0,B|400:224|400:224|412:144,1,160,8|0,0:0|0:0,0:0:0:0:
324,116,28405,1,0,0:0:0:0:
164,116,28566,6,0,B|84:116|84:116|84:32,1,160,2|0,0:0|0:0,0:0:0:0:
172,36,29050,1,0,0:0:0:0:
260,36,29212,2,0,L|432:36,1,160,2|8,0:0|0:0,0:0:0:0:
332,36,29695,1,0,0:0:0:0:
76,32,29857,6,0,L|72:144,1,80,6|0,0:0|0:0,0:0:0:0:
168,112,30179,2,0,L|172:212,1,80,6|0,0:0|0:0,0:0:0:0:
340,192,30502,2,0,B|420:192|420:192|420:276,1,160,8|0,0:0|0:0,0:0:0:0:
332,272,30986,1,0,0:0:0:0:
80,272,31147,6,0,B|80:192|80:192|160:192,1,160,2|0,0:0|0:0,0:0:0:0:
248,192,31631,1,2,0:0:0:0:
412,192,31792,2,0,L|416:28,1,160,2|8,0:0|0:0,0:0:0:0:
136,32,32437,6,0,P|92:92|132:160,1,160,2|0,0:0|0:0,0:0:0:0:
220,160,32921,1,0,0:0:0:0:
308,160,33083,2,0,L|144:160,1,160,8|2,0:0|0:0,0:0:0:0:
432,160,33728,6,0,L|344:160,1,80,6|0,0:0|0:0,0:0:0:0:
440,160,34050,2,0,L|352:160,1,80,6|0,0:0|0:0,0:0:0:0:
200,160,34373,1,8,0:0:0:0:
296,160,34534,1,8,0:0:0:0:
192,160,34695,1,8,0:0:0:0:
336,160,34857,1,8,0:0:0:0:
80,160,35018,6,0,L|76:256,1,80,6|0,0:0|0:0,0:0:0:0:
172,240,35341,2,0,L|264:240,1,80,8|0,0:0|0:0,0:0:0:0:
92,160,35663,2,0,L|180:160,1,80,2|2,0:0|0:0,0:0:0:0:
268,160,35986,1,8,0:0:0:0:
20,160,36147,6,0,B|20:80|20:80|104:80,1,160,2|2,0:0|0:0,0:0:0:0:
264,80,36631,1,8,0:0:0:0:
352,80,36792,2,0,L|356:24,2,40,2|2|2,0:0|0:0|0:0,0:0:0:0:
252,80,37115,1,2,0:0:0:0:
412,80,37276,2,0,L|496:80,1,80,8|0,0:0|0:0,0:0:0:0:
236,80,37599,6,0,L|232:176,1,80,2|2,0:0|0:0,0:0:0:0:
320,192,37921,2,0,L|236:192,1,80,8|0,0:0|0:0,0:0:0:0:
80,192,38244,2,0,L|76:104,1,80,2|2,0:0|0:0,0:0:0:0:
240,112,38566,2,0,L|324:112,1,80,8|2,0:0|0:0,0:0:0:0:
160,112,38889,6,0,P|108:68|160:16,1,160,2|8,0:0|0:0,0:0:0:0:
248,12,39373,1,0,0:0:0:0:
88,16,39534,1,8,0:0:0:0:
86,55,39615,1,8,0:0:0:0:
84,95,39695,1,2,0:0:0:0:
328,96,39857,1,8,0:0:0:0:
416,96,40018,2,0,L|368:96,1,40,2|2,0:0|0:0,0:0:0:0:
224,96,40179,6,0,L|128:96,1,80,6|2,0:0|0:0,0:0:0:0:
312,96,40502,2,0,L|316:192,1,80,8|0,0:0|0:0,0:0:0:0:
72,192,40825,2,0,L|160:192,1,80,2|2,0:0|0:0,0:0:0:0:
240,192,41147,1,8,0:0:0:0:
72,192,41308,6,0,L|68:271,1,80,2|0,0:0|0:0,0:0:0:0:
316,272,41631,2,0,L|408:272,1,80,2|8,0:0|0:0,0:0:0:0:
244,272,41954,1,0,0:0:0:0:
488,192,42115,2,0,L|392:192,2,80,2|2|8,0:0|0:0|0:0,0:0:0:0:
400,192,42599,1,2,0:0:0:0:
144,192,42760,6,0,P|92:140|144:96,1,160,6|8,0:0|0:0,0:0:0:0:
384,192,43244,2,0,P|436:140|384:96,1,160,6|2,0:0|0:0,0:0:0:0:
124,96,43728,2,0,L|40:96,1,80,8|0,0:0|0:0,0:0:0:0:
204,96,44050,5,8,0:0:0:0:
244,96,44131,1,8,0:0:0:0:
284,96,44212,1,2,0:0:0:0:
196,172,44373,1,8,0:0:0:0:
236,172,44454,1,8,0:0:0:0:
276,172,44534,1,2,0:0:0:0:
36,172,44695,1,8,0:0:0:0:
176,172,44857,1,8,0:0:0:0:
28,172,45018,1,8,0:0:0:0:
168,172,45179,1,8,0:0:0:0:
424,172,45341,6,0,L|468:172,2,40,6|2|2,0:0|0:0|0:0,0:0:0:0:
336,172,45663,1,8,0:0:0:0:
176,256,45825,1,2,0:0:0:0:
216,256,45905,1,2,0:0:0:0:
256,256,45986,1,8,0:0:0:0:
344,256,46147,1,2,0:0:0:0:
88,256,46308,6,0,P|16:300|108:376,1,240,6|0,0:0|0:0,0:0:0:0:
192,380,46954,2,0,L|288:380,1,80,2|2,0:0|0:0,0:0:0:0:
112,380,47276,1,8,0:0:0:0:
192,380,47437,1,2,0:0:0:0:
272,380,47599,1,2,0:0:0:0:
124,380,47760,1,8,0:0:0:0:
364,380,47921,6,0,B|444:376|444:376|500:320,1,160,6|0,0:0|0:0,0:0:0:0:
116,192,48566,2,0,L|16:192,2,80,8|6|0,0:0|0:0|0:0,0:0:0:0:
356,192,49050,6,0,L|192:192,1,160,2|8,0:0|0:0,0:0:0:0:
148,192,49454,1,2,0:0:0:0:
316,112,49534,2,0,L|360:112,2,40,8|8|2,0:0|0:0|0:0,0:0:0:0:
72,112,49857,1,8,0:0:0:0:
33,146,49937,1,8,0:0:0:0:
33,198,50018,1,2,0:0:0:0:
72,232,50099,1,2,0:0:0:0:
136,232,50179,2,0,L|184:232,1,40,8|8,0:0|0:0,0:0:0:0:
112,112,50341,2,0,L|68:112,1,40,8|8,0:0|0:0,0:0:0:0:
252,112,50502,6,0,L|336:112,2,80,6|2|8,0:0|0:0|0:0,0:0:0:0:
412,112,50986,1,2,0:0:0:0:
324,112,51147,1,2,0:0:0:0:
236,112,51308,1,8,0:0:0:0:
488,112,51470,6,0,B|488:32|488:32|328:32,1,240,6|2,0:0|0:0,0:0:0:0:
416,32,52115,1,8,0:0:0:0:
336,32,52276,2,0,L|280:32,1,40,2|2,0:0|0:0,0:0:0:0:
136,32,52437,2,0,L|56:32,1,80,8|2,0:0|0:0,0:0:0:0:
312,108,52760,2,0,L|356:108,1,40,8|8,0:0|0:0,0:0:0:0:
352,148,52921,2,0,L|304:148,1,40,8|8,0:0|0:0,0:0:0:0:
136,148,53083,6,0,B|48:148|48:148|136:148,1,176.000005371094,6|8,0:0|0:0,0:0:0:0:
224,148,53566,1,0,0:0:0:0:
388,148,53728,2,0,L|476:148,1,88.000002685547,2|2,0:0|0:0,0:0:0:0:
296,148,54050,2,0,L|292:244,1,88.000002685547,8|0,0:0|0:0,0:0:0:0:
380,236,54373,6,0,L|472:236,1,88.000002685547,2|2,0:0|0:0,0:0:0:0:
292,236,54695,1,8,0:0:0:0:
388,236,54857,2,0,L|432:236,1,44.0000013427735,2|2,0:0|0:0,0:0:0:0:
256,236,55018,2,0,L|164:236,1,88.000002685547,8|2,0:0|0:0,0:0:0:0:
436,156,55341,1,8,0:0:0:0:
480,156,55421,1,8,0:0:0:0:
436,156,55502,1,2,0:0:0:0:
384,156,55583,1,2,0:0:0:0:
212,156,55663,5,6,0:0:0:0:
179,109,55744,1,2,0:0:0:0:
196,55,55825,1,2,0:0:0:0:
249,35,55905,1,2,0:0:0:0:
420,36,55986,2,0,L|428:128,1,88.000002685547,8|0,0:0|0:0,0:0:0:0:
252,156,56308,2,0,L|248:212,1,44.0000013427735,2|2,0:0|0:0,0:0:0:0:
312,204,56470,2,0,L|316:252,1,44.0000013427735,2|2,0:0|0:0,0:0:0:0:
136,200,56631,2,0,L|48:200,1,88.000002685547,8|2,0:0|0:0,0:0:0:0:
312,348,56954,5,6,0:0:0:0:
364,348,57034,1,2,0:0:0:0:
416,348,57115,1,2,0:0:0:0:
364,348,57195,1,2,0:0:0:0:
184,348,57276,2,0,L|88:348,1,88.000002685547,8|0,0:0|0:0,0:0:0:0:
360,192,57599,2,0,L|420:192,1,44.0000013427735,2|2,0:0|0:0,0:0:0:0:
332,192,57760,2,0,L|268:192,1,44.0000013427735,2|2,0:0|0:0,0:0:0:0:
472,192,57921,2,0,L|476:92,1,88.000002685547,8|0,0:0|0:0,0:0:0:0:
184,104,58244,5,6,0:0:0:0:
396,104,58728,1,6,0:0:0:0:
56,104,59212,1,6,0:0:0:0:
232,108,59534,5,8,0:0:0:0:
280,81,59615,1,8,0:0:0:0:
280,25,59695,1,2,0:0:0:0:
230,0,59776,1,2,0:0:0:0:
132,0,59857,2,0,L|84:0,1,44.0000013427735,8|8,0:0|0:0,0:0:0:0:
140,0,60018,2,0,L|192:0,1,44.0000013427735,2|2,0:0|0:0,0:0:0:0:
352,0,60179,1,8,0:0:0:0:
200,24,60341,2,0,B|68:24|68:24|112:24,1,176.000005371094,8|0,0:0|0:0,0:0:0:0:
392,0,60825,6,0,P|448:56|388:108,1,176.000005371094,6|8,0:0|0:0,0:0:0:0:
292,108,61308,1,0,0:0:0:0:
116,108,61470,2,0,L|112:220,1,88.000002685547,2|2,0:0|0:0,0:0:0:0:
288,196,61792,2,0,L|376:196,1,88.000002685547,8|0,0:0|0:0,0:0:0:0:
268,196,62115,2,0,L|356:196,1,88.000002685547,2|2,0:0|0:0,0:0:0:0:
180,196,62437,2,0,L|80:196,1,88.000002685547,8|2,0:0|0:0,0:0:0:0:
356,196,62760,6,0,B|444:196,1,88.000002685547,2|0,0:0|0:0,0:0:0:0:
336,196,63083,1,8,0:0:0:0:
160,196,63244,2,0,L|156:248,1,44.0000013427735,2|0,0:0|0:0,0:0:0:0:
220,280,63405,2,0,L|316:280,1,88.000002685547,2|0,0:0|0:0,0:0:0:0:
44,280,63728,2,0,L|36:188,1,88.000002685547,8|2,0:0|0:0,0:0:0:0:
192,196,64050,6,0,L|196:140,1,44.0000013427735,8|8,0:0|0:0,0:0:0:0:
104,112,64212,2,0,L|108:56,1,44.0000013427735,2|2,0:0|0:0,0:0:0:0:
272,68,64373,2,0,L|368:68,1,88.000002685547,8|0,0:0|0:0,0:0:0:0:
96,68,64695,6,0,L|88:188,1,88.000002685547,6|0,0:0|0:0,0:0:0:0:
268,156,65018,2,0,L|356:156,1,88.000002685547,8|0,0:0|0:0,0:0:0:0:
180,156,65341,1,2,0:0:0:0:
336,156,65502,1,2,0:0:0:0:
492,156,65663,2,0,L|496:60,1,88.000002685547,8|0,0:0|0:0,0:0:0:0:
320,68,65986,2,0,L|232:68,1,88.000002685547,2|2,0:0|0:0,0:0:0:0:
408,156,66308,2,0,L|404:68,1,88.000002685547,8|2,0:0|0:0,0:0:0:0:
136,68,66631,6,0,L|132:168,1,88.000002685547,6|2,0:0|0:0,0:0:0:0:
308,156,66954,1,8,0:0:0:0:
152,156,67115,1,2,0:0:0:0:
328,156,67276,2,0,L|416:156,2,88.000002685547,2|2|8,0:0|0:0|0:0,0:0:0:0:
168,156,67760,1,2,0:0:0:0:
432,156,67921,5,8,0:0:0:0:
460,120,68002,1,8,0:0:0:0:
432,84,68083,1,2,0:0:0:0:
380,84,68163,1,2,0:0:0:0:
204,236,68244,1,8,0:0:0:0:
356,236,68405,1,2,0:0:0:0:
92,236,68566,6,0,P|40:296|92:360,1,176.000005371094,6|8,0:0|0:0,0:0:0:0:
200,360,69050,1,0,0:0:0:0:
376,360,69212,2,0,L|280:360,1,88.000002685547,2|2,0:0|0:0,0:0:0:0:
464,360,69534,2,0,L|468:256,1,88.000002685547,8|0,0:0|0:0,0:0:0:0:
360,272,69857,1,2,0:0:0:0:
464,272,70018,1,2,0:0:0:0:
288,272,70179,2,0,L|196:272,1,88.000002685547,8|2,0:0|0:0,0:0:0:0:
464,272,70502,6,0,B|464:184|464:184|368:184,1,176.000005371094,2|8,0:0|0:0,0:0:0:0:
212,184,70986,1,2,0:0:0:0:
388,184,71147,2,0,L|392:92,1,88.000002685547,2|2,0:0|0:0,0:0:0:0:
128,100,71470,2,0,L|36:100,1,88.000002685547,8|0,0:0|0:0,0:0:0:0:
152,24,71792,6,0,L|96:24,1,44.0000013427735,8|8,0:0|0:0,0:0:0:0:
64,24,71954,2,0,L|12:24,1,44.0000013427735,2|2,0:0|0:0,0:0:0:0:
196,24,72115,2,0,L|284:24,1,88.000002685547,8|0,0:0|0:0,0:0:0:0:
20,24,72437,6,0,L|16:112,1,88.000002685547,6|2,0:0|0:0,0:0:0:0:
68,112,72679,1,2,0:0:0:0:
224,112,72760,2,0,L|316:112,1,88.000002685547,8|2,0:0|0:0,0:0:0:0:
148,112,73083,2,0,L|248:112,1,88.000002685547,8|2,0:0|0:0,0:0:0:0:
488,192,73405,6,0,L|384:192,1,88.000002685547,2|2,0:0|0:0,0:0:0:0:
348,192,73647,1,2,0:0:0:0:
192,192,73728,2,0,L|188:284,1,88.000002685547,8|2,0:0|0:0,0:0:0:0:
356,192,74050,2,0,L|360:288,1,88.000002685547,8|2,0:0|0:0,0:0:0:0:
104,280,74373,6,0,L|8:280,1,88.000002685547,6|2,0:0|0:0,0:0:0:0:
192,280,74695,1,8,0:0:0:0:
226,272,74749,1,8,0:0:0:0:
245,241,74803,1,2,0:0:0:0:
234,207,74857,1,8,0:0:0:0:
202,192,74911,1,2,0:0:0:0:
24,192,75018,2,0,L|120:192,1,88.000002685547,12|2,0:0|0:0,0:0:0:0:
376,192,75341,6,0,L|472:192,1,88.000002685547,8|2,0:0|0:0,0:0:0:0:
284,192,75663,2,0,L|204:146,1,88.000002685547,8|8,0:0|0:0,0:0:0:0:
376,192,75986,1,8,0:0:0:0:
420,192,76066,1,8,0:0:0:0:
420,148,76147,1,2,0:0:0:0:
376,148,76228,1,2,0:0:0:0:
200,148,76308,6,0,L|20:148,1,176.000005371094,6|8,0:0|0:0,0:0:0:0:
120,148,76792,1,0,0:0:0:0:
376,148,76954,2,0,L|464:148,1,88.000002685547,2|2,0:0|0:0,0:0:0:0:
288,148,77276,2,0,L|280:40,1,88.000002685547,8|0,0:0|0:0,0:0:0:0:
380,60,77599,2,0,L|288:60,1,88.000002685547,2|2,0:0|0:0,0:0:0:0:
128,60,77921,1,10,0:0:0:0:
281,60,78083,1,2,0:0:0:0:
28,144,78244,5,2,0:0:0:0:
180,144,78405,1,0,0:0:0:0:
332,144,78566,1,8,0:0:0:0:
68,144,78728,2,0,L|252:144,1,176.000005371094,2|2,0:0|0:0,0:0:0:0:
492,144,79212,2,0,L|492:248,1,88.000002685547,8|0,0:0|0:0,0:0:0:0:
316,232,79534,6,0,L|312:308,1,44.0000013427735,8|8,0:0|0:0,0:0:0:0:
380,320,79695,2,0,L|382:276,1,44.0000013427735,2|2,0:0|0:0,0:0:0:0:
212,232,79857,2,0,L|116:232,1,88.000002685547,8|0,0:0|0:0,0:0:0:0:
404,320,80179,6,0,L|412:208,1,88.000002685547,6|0,0:0|0:0,0:0:0:0:
164,232,80502,2,0,L|156:120,1,88.000002685547,8|0,0:0|0:0,0:0:0:0:
336,232,80824,2,0,L|244:232,1,88.000002685547,2|2,0:0|0:0,0:0:0:0:
424,232,81147,2,0,L|332:232,1,88.000002685547,8|0,0:0|0:0,0:0:0:0:
160,232,81470,2,0,L|252:232,1,88.000002685547,2|2,0:0|0:0,0:0:0:0:
72,232,81792,2,0,L|68:136,1,88.000002685547,8|2,0:0|0:0,0:0:0:0:
332,140,82115,6,0,L|432:140,1,88.000002685547,6|2,0:0|0:0,0:0:0:0:
244,140,82437,1,8,0:0:0:0:
340,140,82599,2,0,L|344:84,1,44.0000013427735,2|2,0:0|0:0,0:0:0:0:
180,140,82760,2,0,L|92:140,1,88.000002685547,8|2,0:0|0:0,0:0:0:0:
416,140,83083,6,0,L|420:96,1,44.0000013427735,8|8,0:0|0:0,0:0:0:0:
356,96,83244,2,0,L|296:96,1,44.0000013427735,2|2,0:0|0:0,0:0:0:0:
148,28,83405,2,0,L|248:28,1,88.000002685547,8|2,0:0|0:0,0:0:0:0:
76,28,83728,1,8,0:0:0:0:
164,28,83889,2,0,L|220:28,1,44.0000013427735,8|8,0:0|0:0,0:0:0:0:
388,28,84050,5,6,0:0:0:0:
440,47,84131,1,2,0:0:0:0:
447,103,84212,1,2,0:0:0:0:
402,135,84292,1,2,0:0:0:0:
320,136,84373,2,0,L|316:192,1,44.0000013427735,10|2,0:0|0:0,0:0:0:0:
384,256,84534,2,0,L|388:204,1,44.0000013427735,2|2,0:0|0:0,0:0:0:0:
300,180,84695,2,0,L|252:180,1,44.0000013427735,2|2,0:0|0:0,0:0:0:0:
204,180,84857,2,0,L|252:180,1,44.0000013427735,2|2,0:0|0:0,0:0:0:0:
428,256,85018,2,0,L|436:168,1,88.000002685547,10|2,0:0|0:0,0:0:0:0:
268,76,85341,6,0,L|216:76,1,44.0000013427735,2|2,0:0|0:0,0:0:0:0:
224,24,85502,2,0,L|272:24,1,44.0000013427735,2|2,0:0|0:0,0:0:0:0:
360,24,85663,2,0,L|448:24,1,88.000002685547,10|2,0:0|0:0,0:0:0:0:
200,192,85986,6,0,L|296:192,1,88.000002685547,8|2,0:0|0:0,0:0:0:0:
44,192,86308,2,0,L|136:192,1,88.000002685547,8|2,0:0|0:0,0:0:0:0:
380,192,86631,1,8,0:0:0:0:
276,192,86792,2,0,L|216:192,1,44.0000013427735,2|2,0:0|0:0,0:0:0:0:
412,192,86954,6,0,L|456:192,1,44.0000013427735,4|4,0:0|0:0,0:0:0:0:
456,264,87115,2,0,L|408:264,1,44.0000013427735,4|4,0:0|0:0,0:0:0:0:
320,268,87276,2,0,L|276:268,1,44.0000013427735,8|8,0:0|0:0,0:0:0:0:
276,340,87437,2,0,L|320:340,1,44.0000013427735,8|8,0:0|0:0,0:0:0:0:
224,340,87599,2,0,L|168:340,2,44.0000013427735,2|2|2,0:0|0:0|0:0,0:0:0:0:
472,192,87921,6,0,L|319:104,2,176.000005371094,6|2|2,0:0|0:0|0:0,0:0:0:0:
376,192,88728,2,0,L|312:192,1,44.0000013427735,2|2,0:0|0:0,0:0:0:0:
156,192,88889,2,0,L|152:88,1,88.000002685547,8|8,0:0|0:0,0:0:0:0:
264,104,89212,2,0,L|432:104,1,160,8|2,0:0|0:0,0:0:0:0:
36,32,89857,6,0,L|24:296,1,240,6|2,0:0|0:0,0:0:0:0:
276,32,90824,2,0,L|36:32,1,240,8|6,0:0|0:0,0:0:0:0:
276,32,91792,6,0,L|184:32,1,80,4|4,0:0|0:0,0:0:0:0:
360,32,92115,2,0,L|436:76,2,80,2|0|2,0:0|0:0|0:0,0:0:0:0:
280,32,92599,1,2,0:0:0:0:
360,32,92760,1,8,0:0:0:0:
200,32,93083,1,2,0:0:0:0:
280,32,93244,1,0,0:0:0:0:
192,32,93405,1,2,0:0:0:0:
272,32,93566,1,2,0:0:0:0:
48,28,93728,6,0,L|44:136,1,80,6|0,0:0|0:0,0:0:0:0:
220,108,94212,2,0,L|56:108,1,160,2|2,0:0|0:0,0:0:0:0:
228,108,94695,2,0,L|232:200,1,80,8|2,0:0|0:0,0:0:0:0:
60,108,95179,2,0,B|60:188|60:188|140:192,1,160,2|2,0:0|0:0,0:0:0:0:
288,192,95663,5,6,0:0:0:0:
124,192,95824,2,0,P|72:252|120:296,1,160,8|2,0:0|0:0,0:0:0:0:
344,296,96308,2,0,L|424:296,1,80,8|2,0:0|0:0,0:0:0:0:
200,192,96630,2,0,L|108:192,1,80,8|2,0:0|0:0,0:0:0:0:
288,192,96953,5,8,0:0:0:0:
309,144,97033,1,2,0:0:0:0:
298,93,97114,1,2,0:0:0:0:
257,60,97195,1,2,0:0:0:0:
104,64,97275,2,0,L|100:172,1,80,8|0,0:0|0:0,0:0:0:0:
236,196,97598,1,2,0:0:0:0:
92,144,97759,1,8,0:0:0:0:
244,196,97921,1,8,0:0:0:0:
84,144,98082,1,8,0:0:0:0:
340,196,98243,6,0,L|432:196,2,80,6|2|8,0:0|0:0|0:0,0:0:0:0:
180,196,98727,1,2,0:0:0:0:
436,196,98888,2,0,L|440:104,1,80,8|2,0:0|0:0,0:0:0:0:
352,116,99211,1,2,0:0:0:0:
192,116,99372,6,0,L|188:28,1,80,8|2,0:0|0:0,0:0:0:0:
276,36,99695,1,8,0:0:0:0:
112,116,99856,2,0,L|204:116,2,80,8|2|8,0:0|0:0|0:0,0:0:0:0:
272,116,100340,1,2,0:0:0:0:
192,116,100501,1,0,0:0:0:0:
112,116,100663,1,8,0:0:0:0:
364,116,100824,6,0,L|408:116,1,40,2|2,0:0|0:0,0:0:0:0:
444,116,100985,2,0,L|452:216,1,80,2|8,0:0|0:0,0:0:0:0:
364,196,101308,1,2,0:0:0:0:
124,200,101469,2,0,L|32:200,2,80,8|2|2,0:0|0:0|0:0,0:0:0:0:
284,200,101953,5,2,0:0:0:0:
196,200,102114,1,2,0:0:0:0:
108,200,102275,1,8,0:0:0:0:
268,200,102437,2,0,L|272:300,1,80,2|2,0:0|0:0,0:0:0:0:
32,280,102759,1,8,0:0:0:0:
120,280,102921,2,0,L|172:280,1,40,8|8,0:0|0:0,0:0:0:0:
324,280,103082,2,0,L|328:228,1,40,2|2,0:0|0:0,0:0:0:0:
260,192,103243,2,0,L|256:148,1,40,8|8,0:0|0:0,0:0:0:0:
448,152,103404,6,0,L|492:152,1,40,6|2,0:0|0:0,0:0:0:0:
440,152,103566,2,0,L|344:152,1,80,2|2,0:0|0:0,0:0:0:0:
200,152,103888,1,2,0:0:0:0:
428,72,104050,2,0,L|348:72,1,80,8|2,0:0|0:0,0:0:0:0:
120,72,104372,1,8,0:0:0:0:
276,72,104533,6,0,L|280:172,1,80,2|2,0:0|0:0,0:0:0:0:
56,168,104856,1,8,0:0:0:0:
200,168,105017,2,0,L|96:168,2,80,2|2|8,0:0|0:0|0:0,0:0:0:0:
360,168,105501,1,2,0:0:0:0:
272,168,105662,1,2,0:0:0:0:
184,168,105824,1,8,0:0:0:0:
440,168,105985,5,8,0:0:0:0:
441,227,106066,1,8,0:0:0:0:
443,287,106146,1,8,0:0:0:0:
348,288,106308,1,0,0:0:0:0:
100,288,106469,5,8,0:0:0:0:
98,228,106550,1,8,0:0:0:0:
96,168,106630,1,8,0:0:0:0:
192,168,106792,2,0,L|296:168,1,80,2|0,0:0|0:0,0:0:0:0:
112,168,107114,5,2,0:0:0:0:
208,168,107275,1,0,0:0:0:0:
304,168,107437,1,0,0:0:0:0:
144,168,107598,2,0,L|140:80,1,80,2|0,0:0|0:0,0:0:0:0:
300,88,107921,6,0,L|308:56,4,20,2|0|0|0|0,0:0|0:0|0:0|0:0|0:0,0:0:0:0:
240,88,108162,1,0,0:0:0:0:
180,88,108243,1,2,0:0:0:0:
276,88,108404,2,0,L|280:64,2,20,2|0|0,0:0|0:0|0:0,0:0:0:0:
108,88,108566,6,0,L|24:88,1,80,6|0,0:0|0:0,0:0:0:0:
180,88,108888,2,0,B|260:88|260:88|260:168,1,160,0|2,0:0|0:0,0:0:0:0:
172,168,109372,2,0,L|96:192,2,80,2|0|0,0:0|0:0|0:0,0:0:0:0:
324,168,109856,6,0,L|328:332,1,160,2|2,0:0|0:0,0:0:0:0:
152,328,110501,1,2,0:0:0:0:
240,328,110662,1,0,0:0:0:0:
328,328,110824,1,2,0:0:0:0:
176,328,110985,6,0,B|176:204|176:204|292:176,1,240,8|0,0:0|0:0,0:0:0:0:
376,176,111630,1,0,0:0:0:0:
232,176,111792,2,0,L|72:192,1,160,2|2,0:0|0:0,0:0:0:0:
256,96,112437,5,2,0:0:0:0:
168,96,112598,2,0,B|168:176|168:176|248:176,1,160,8|2,0:0|0:0,0:0:0:0:
344,96,113082,1,8,0:0:0:0:
432,96,113243,1,0,0:0:0:0:
432,96,113404,1,2,0:0:0:0:
344,96,113566,1,0,0:0:0:0:
192,96,113727,6,0,P|148:184|252:240,1,240,8|0,0:0|0:0,0:0:0:0:
348,236,114372,2,0,L|352:320,1,80,2|0,0:0|0:0,0:0:0:0:
264,320,114695,2,0,L|176:320,1,80,2|0,0:0|0:0,0:0:0:0:
24,320,115017,6,0,P|28:260|164:160,2,240,8|2|2,0:0|0:0|0:0,0:0:0:0:
112,320,116146,1,0,0:0:0:0:
272,320,116308,6,0,P|384:280|396:168,1,240,8|2,0:0|0:0,0:0:0:0:
308,172,116953,1,2,0:0:0:0:
220,172,117114,1,0,0:0:0:0:
52,172,117275,2,0,P|36:112|104:52,1,160,2|8,0:0|0:0,0:0:0:0:
288,56,117921,5,2,0:0:0:0:
144,56,118082,2,0,L|140:148,1,80,2|2,0:0|0:0,0:0:0:0:
368,196,118404,1,8,0:0:0:0:
272,196,118566,2,0,L|268:136,1,40,8|8,0:0|0:0,0:0:0:0:
420,192,118727,2,0,L|468:192,1,40,8|8,0:0|0:0,0:0:0:0:
308,192,118888,6,0,L|200:192,1,80,6|0,0:0|0:0,0:0:0:0:
388,192,119211,2,0,L|392:88,1,80,8|0,0:0|0:0,0:0:0:0:
304,112,119533,2,0,L|216:112,1,80,2|2,0:0|0:0,0:0:0:0:
320,112,119856,1,8,0:0:0:0:
96,112,120017,6,0,P|40:68|96:24,1,160,2|2,0:0|0:0,0:0:0:0:
256,24,120501,2,0,L|260:120,1,80,8|2,0:0|0:0,0:0:0:0:
172,104,120824,1,2,0:0:0:0:
268,104,120985,1,2,0:0:0:0:
104,104,121146,2,0,L|16:104,1,80,8|2,0:0|0:0,0:0:0:0:
264,192,121469,6,0,L|352:192,1,80,2|0,0:0|0:0,0:0:0:0:
184,192,121792,2,0,L|180:280,1,80,8|0,0:0|0:0,0:0:0:0:
324,356,122114,2,0,L|320:272,1,80,2|2,0:0|0:0,0:0:0:0:
168,272,122437,1,8,0:0:0:0:
400,276,122598,6,0,P|452:236|408:168,1,160,2|0,0:0|0:0,0:0:0:0:
248,168,123082,1,8,0:0:0:0:
344,168,123243,1,2,0:0:0:0:
192,168,123404,2,0,L|92:168,1,80,8|2,0:0|0:0,0:0:0:0:
160,168,123646,1,2,0:0:0:0:
320,168,123727,2,0,L|368:168,1,40,8|8,0:0|0:0,0:0:0:0:
304,168,123888,2,0,L|300:120,1,40,8|8,0:0|0:0,0:0:0:0:
456,128,124050,6,0,L|460:32,1,80,6|2,0:0|0:0,0:0:0:0:
300,48,124372,2,0,L|392:48,1,80,8|0,0:0|0:0,0:0:0:0:
152,48,124695,2,0,L|60:48,2,80,2|2|8,0:0|0:0|0:0,0:0:0:0:
312,48,125179,6,0,L|224:48,1,80,2|0,0:0|0:0,0:0:0:0:
456,48,125501,2,0,L|460:152,1,80,2|8,0:0|0:0,0:0:0:0:
372,128,125824,1,2,0:0:0:0:
324,128,125904,1,2,0:0:0:0:
168,128,125985,1,8,0:0:0:0:
80,128,126146,1,2,0:0:0:0:
168,128,126308,1,8,0:0:0:0:
264,128,126469,1,2,0:0:0:0:
32,212,126630,5,6,0:0:0:0:
176,212,126792,1,2,0:0:0:0:
316,212,126953,1,8,0:0:0:0:
76,212,127114,2,0,L|240:212,1,160,6|2,0:0|0:0,0:0:0:0:
460,212,127598,6,0,P|504:256|448:324,1,160,8|0,0:0|0:0,0:0:0:0:
280,324,127921,2,0,L|208:324,2,40,8|2|8,0:0|0:0|0:0,0:0:0:0:
376,324,128243,1,8,0:0:0:0:
267,273,128404,1,8,0:0:0:0:
321,298,128485,1,8,0:0:0:0:
375,323,128566,1,2,0:0:0:0:
92,328,128727,2,0,B|52:328,1,40,8|0,0:0|0:0,0:0:0:0:
212,328,128888,2,0,L|256:328,1,40,8|8,0:0|0:0,0:0:0:0:
307,273,129050,2,0,L|259:273,1,40,2|8,0:0|0:0,0:0:0:0:
104,192,129211,5,6,0:0:0:0:
64,192,129292,1,2,0:0:0:0:
24,192,129372,1,2,0:0:0:0:
120,192,129533,1,8,0:0:0:0:
280,96,129695,1,2,0:0:0:0:
240,96,129775,1,2,0:0:0:0:
200,96,129856,1,2,0:0:0:0:
352,96,130017,1,2,0:0:0:0:
108,96,130179,6,0,P|52:52|108:8,1,160,6|2,0:0|0:0,0:0:0:0:
264,8,130662,1,8,0:0:0:0:
168,8,130824,2,0,L|164:100,1,80,8|2,0:0|0:0,0:0:0:0:
320,88,131146,2,0,L|404:88,2,80,8|2|2,0:0|0:0|0:0,0:0:0:0:
160,88,131630,1,8,0:0:0:0:
416,88,131792,6,0,P|452:148|408:216,1,160,6|2,0:0|0:0,0:0:0:0:
304,216,132275,1,2,0:0:0:0:
80,216,132437,1,8,0:0:0:0:
187,216,132598,1,2,0:0:0:0:
35,216,132759,1,8,0:0:0:0:
147,216,132921,2,0,L|199:216,1,40,2|0,0:0|0:0,0:0:0:0:
340,216,133082,6,0,L|428:216,1,80,10|2,0:0|0:0,0:0:0:0:
376,216,133324,1,2,0:0:0:0:
332,216,133404,1,10,0:0:0:0:
187,216,133566,2,0,L|131:216,1,40,8|8,0:0|0:0,0:0:0:0:
195,216,133727,1,2,0:0:0:0:
243,192,133808,1,2,0:0:0:0:
247,132,133888,1,0,0:0:0:0:
207,92,133969,1,2,0:0:0:0:
48,92,134050,1,8,0:0:0:0:
144,92,134211,2,0,L|192:92,1,40,8|8,0:0|0:0,0:0:0:0:
353,92,134372,5,6,0:0:0:0:
393,92,134453,1,2,0:0:0:0:
353,92,134533,1,2,0:0:0:0:
256,92,134695,1,8,0:0:0:0:
416,92,134856,1,2,0:0:0:0:
296,92,135017,1,8,0:0:0:0:
424,92,135179,1,2,0:0:0:0:
168,92,135340,6,0,P|80:160|168:276,1,287.999991210938,6|2,0:0|0:0,0:0:0:0:
264,276,135985,1,8,0:0:0:0:
176,276,136146,2,0,L|216:276,1,40,2|2,0:0|0:0,0:0:0:0:
264,276,136308,2,0,L|344:276,1,80,8|2,0:0|0:0,0:0:0:0:
112,276,136630,2,0,L|64:276,1,40,8|2,0:0|0:0,0:0:0:0:
72,232,136792,2,0,L|124:232,1,40,8|8,0:0|0:0,0:0:0:0:
280,276,136953,6,0,B|360:276|360:276|360:192,1,160,6|8,0:0|0:0,0:0:0:0:
272,196,137437,1,0,0:0:0:0:
424,196,137598,2,0,L|428:104,1,80,2|2,0:0|0:0,0:0:0:0:
264,196,137921,2,0,L|176:196,1,80,8|2,0:0|0:0,0:0:0:0:
348,196,138243,6,0,L|344:112,1,80,2|2,0:0|0:0,0:0:0:0:
184,120,138566,2,0,L|104:120,1,80,8|2,0:0|0:0,0:0:0:0:
152,120,138808,1,2,0:0:0:0:
312,196,138888,2,0,L|408:196,1,80,2|2,0:0|0:0,0:0:0:0:
152,192,139211,2,0,L|92:192,2,40,8|8|2,0:0|0:0|0:0,0:0:0:0:
408,196,139533,5,2,0:0:0:0:
424,146,139614,1,2,0:0:0:0:
402,99,139695,1,2,0:0:0:0:
353,80,139775,1,2,0:0:0:0:
188,80,139856,2,0,L|84:80,1,80,8|0,0:0|0:0,0:0:0:0:
272,80,140179,2,0,L|276:124,1,40,2|2,0:0|0:0,0:0:0:0:
204,124,140340,2,0,L|200:176,1,40,2|2,0:0|0:0,0:0:0:0:
364,192,140501,2,0,L|408:192,2,40,8|0|2,0:0|0:0|0:0,0:0:0:0:
140,248,140824,6,0,L|96:248,1,40,2|2,0:0|0:0,0:0:0:0:
152,248,140985,2,0,L|200:248,1,40,2|2,0:0|0:0,0:0:0:0:
352,284,141146,2,0,B|392:284|392:284|348:284,1,80,8|0,0:0|0:0,0:0:0:0:
124,160,141469,6,0,L|120:108,1,40,2|2,0:0|0:0,0:0:0:0:
184,96,141630,2,0,L|224:96,1,40,2|2,0:0|0:0,0:0:0:0:
60,120,141792,2,0,B|20:120|20:120|64:120,1,80,8|0,0:0|0:0,0:0:0:0:
316,96,142114,1,6,0:0:0:0:
124,120,142598,1,6,0:0:0:0:
412,120,143082,2,0,P|444:80|408:32,1,120,6|0,0:0|0:0,0:0:0:0:
324,32,143404,5,8,0:0:0:0:
268,32,143485,1,8,0:0:0:0:
212,32,143566,1,2,0:0:0:0:
268,32,143646,1,2,0:0:0:0:
180,112,143727,1,8,0:0:0:0:
124,112,143808,1,8,0:0:0:0:
68,112,143888,1,2,0:0:0:0:
124,112,143969,1,2,0:0:0:0:
304,112,144050,1,8,0:0:0:0:
192,112,144211,1,8,0:0:0:0:
420,112,144372,1,2,0:0:0:0:
447,156,144453,1,0,0:0:0:0:
443,209,144533,1,8,0:0:0:0:
409,249,144614,1,2,0:0:0:0:
224,4,144695,6,0,P|168:60|228:112,1,176.000005371094,6|8,0:0|0:0,0:0:0:0:
50,112,145178,2,0,L|226:112,1,176.000005371094,2|2,0:0|0:0,0:0:0:0:
404,192,145662,2,0,L|316:192,1,88.000002685547,8|0,0:0|0:0,0:0:0:0:
212,280,145985,2,0,L|216:192,1,88.000002685547,2|2,0:0|0:0,0:0:0:0:
408,280,146307,2,0,L|404:192,1,88.000002685547,8|0,0:0|0:0,0:0:0:0:
127,192,146630,6,0,B|39:192,1,88.000002685547,2|2,0:0|0:0,0:0:0:0:
215,192,146953,1,8,0:0:0:0:
56,192,147114,2,0,B|48:280|48:280|136:280,1,176.000005371094,2|2,0:0|0:0,0:0:0:0:
312,280,147598,2,0,L|403:280,1,88.000002685547,8|2,0:0|0:0,0:0:0:0:
292,176,147920,6,0,L|341:176,1,44.0000013427735,8|8,0:0|0:0,0:0:0:0:
384,176,148082,2,0,L|433:176,1,44.0000013427735,2|2,0:0|0:0,0:0:0:0:
252,176,148243,2,0,L|156:176,1,88.000002685547,8|0,0:0|0:0,0:0:0:0:
422,88,148565,6,0,L|430:208,1,88.000002685547,6|0,0:0|0:0,0:0:0:0:
164,176,148888,2,0,L|76:176,1,88.000002685547,8|0,0:0|0:0,0:0:0:0:
252,176,149211,1,2,0:0:0:0:
92,176,149372,1,2,0:0:0:0:
268,176,149533,2,0,L|272:80,1,88.000002685547,8|0,0:0|0:0,0:0:0:0:
107,87,149856,2,0,L|195:87,1,88.000002685547,2|2,0:0|0:0,0:0:0:0:
19,175,150178,2,0,L|15:87,1,88.000002685547,8|2,0:0|0:0,0:0:0:0:
271,88,150501,6,0,L|359:88,1,88.000002685547,6|0,0:0|0:0,0:0:0:0:
187,88,150824,1,8,0:0:0:0:
343,88,150985,1,2,0:0:0:0:
176,88,151146,2,0,L|88:88,2,88.000002685547,2|2|8,0:0|0:0|0:0,0:0:0:0:
336,88,151630,1,2,0:0:0:0:
63,88,151791,6,0,L|60:40,1,44.0000013427735,8|8,0:0|0:0,0:0:0:0:
123,88,151953,2,0,L|167:88,1,44.0000013427735,2|2,0:0|0:0,0:0:0:0:
336,88,152114,1,8,0:0:0:0:
184,88,152275,1,2,0:0:0:0:
440,88,152436,6,0,P|492:148|440:212,1,176.000005371094,6|8,0:0|0:0,0:0:0:0:
332,212,152920,1,0,0:0:0:0:
164,212,153082,2,0,L|260:212,1,88.000002685547,2|2,0:0|0:0,0:0:0:0:
84,212,153404,2,0,L|172:212,1,88.000002685547,8|0,0:0|0:0,0:0:0:0:
264,212,153727,1,2,0:0:0:0:
156,212,153888,1,2,0:0:0:0:
332,212,154049,2,0,L|424:212,1,88.000002685547,8|0,0:0|0:0,0:0:0:0:
136,300,154372,6,0,B|136:212|136:212|232:212,1,176.000005371094,2|8,0:0|0:0,0:0:0:0:
388,212,154856,1,2,0:0:0:0:
212,212,155017,2,0,L|120:212,1,88.000002685547,2|2,0:0|0:0,0:0:0:0:
372,212,155340,2,0,L|376:120,1,88.000002685547,8|0,0:0|0:0,0:0:0:0:
280,128,155662,6,0,L|224:128,1,44.0000013427735,8|8,0:0|0:0,0:0:0:0:
288,128,155824,2,0,L|340:128,1,44.0000013427735,2|2,0:0|0:0,0:0:0:0:
164,128,155985,2,0,L|76:128,1,88.000002685547,8|0,0:0|0:0,0:0:0:0:
332,128,156307,6,0,L|336:216,1,88.000002685547,6|2,0:0|0:0,0:0:0:0:
284,216,156549,1,2,0:0:0:0:
128,216,156630,2,0,L|36:216,1,88.000002685547,8|2,0:0|0:0,0:0:0:0:
204,216,156953,2,0,L|104:216,1,88.000002685547,8|2,0:0|0:0,0:0:0:0:
372,216,157275,6,0,L|476:216,1,88.000002685547,6|2,0:0|0:0,0:0:0:0:
404,216,157517,1,2,0:0:0:0:
232,216,157598,2,0,L|228:303,1,88.000002685547,8|2,0:0|0:0,0:0:0:0:
388,304,157920,1,8,0:0:0:0:
220,304,158082,1,2,0:0:0:0:
476,304,158243,6,0,L|388:304,1,88.000002685547,8|8,0:0|0:0,0:0:0:0:
212,304,158565,2,0,L|120:304,1,88.000002685547,8|2,0:0|0:0,0:0:0:0:
372,192,158888,2,0,L|460:192,1,88.000002685547,8|2,0:0|0:0,0:0:0:0:
296,192,159211,5,2,0:0:0:0:
468,192,159372,1,8,0:0:0:0:
188,192,159533,1,8,0:0:0:0:
145,135,159614,1,8,0:0:0:0:
167,68,159695,1,8,0:0:0:0:
234,47,159775,1,8,0:0:0:0:
328,48,159856,2,0,L|384:48,1,44.0000013427735,2|2,0:0|0:0,0:0:0:0:
372,112,160017,2,0,L|324:112,1,44.0000013427735,2|2,0:0|0:0,0:0:0:0:
145,135,160178,6,0,P|85:183|145:231,1,176.000005371094,6|8,0:0|0:0,0:0:0:0:
244,232,160662,1,2,0:0:0:0:
492,232,160824,2,0,L|404:232,1,88.000002685547,2|2,0:0|0:0,0:0:0:0:
228,232,161146,2,0,L|236:124,1,88.000002685547,8|0,0:0|0:0,0:0:0:0:
412,144,161469,2,0,L|320:144,1,88.000002685547,2|2,0:0|0:0,0:0:0:0:
164,144,161791,1,8,0:0:0:0:
336,144,161953,1,2,0:0:0:0:
68,64,162114,6,0,L|252:64,1,176.000005371094,2|8,0:0|0:0,0:0:0:0:
488,64,162598,2,0,L|304:64,1,176.000005371094,2|2,0:0|0:0,0:0:0:0:
64,64,163082,2,0,L|60:164,1,88.000002685547,8|2,0:0|0:0,0:0:0:0:
236,152,163404,6,0,L|240:228,1,44.0000013427735,8|8,0:0|0:0,0:0:0:0:
172,240,163565,2,0,L|170:196,1,44.0000013427735,2|2,0:0|0:0,0:0:0:0:
348,152,163727,2,0,L|444:152,1,88.000002685547,8|0,0:0|0:0,0:0:0:0:
172,240,164049,6,0,L|84:240,1,88.000002685547,6|0,0:0|0:0,0:0:0:0:
352,284,164372,2,0,L|444:284,1,88.000002685547,8|0,0:0|0:0,0:0:0:0:
272,284,164694,2,0,L|180:284,1,88.000002685547,2|2,0:0|0:0,0:0:0:0:
352,284,165017,2,0,L|260:284,1,88.000002685547,8|2,0:0|0:0,0:0:0:0:
88,284,165340,2,0,L|84:188,1,88.000002685547,2|2,0:0|0:0,0:0:0:0:
256,192,165662,2,0,L|344:192,1,88.000002685547,8|2,0:0|0:0,0:0:0:0:
96,192,165985,6,0,L|8:192,1,88.000002685547,8|2,0:0|0:0,0:0:0:0:
184,192,166307,1,8,0:0:0:0:
20,192,166469,1,2,0:0:0:0:
276,108,166630,2,0,L|364:108,1,88.000002685547,8|2,0:0|0:0,0:0:0:0:
308,108,166872,1,2,0:0:0:0:
140,108,166953,6,0,L|132:8,1,88.000002685547,8|2,0:0|0:0,0:0:0:0:
220,20,167194,1,2,0:0:0:0:
308,20,167275,1,8,0:0:0:0:
144,20,167436,1,2,0:0:0:0:
392,20,167598,2,0,L|396:72,1,44.0000013427735,8|2,0:0|0:0,0:0:0:0:
316,64,167759,2,0,L|312:136,1,44.0000013427735,8|8,0:0|0:0,0:0:0:0:
484,64,167920,5,6,0:0:0:0:
500,120,168001,1,2,0:0:0:0:
468,168,168082,1,2,0:0:0:0:
412,180,168162,1,2,0:0:0:0:
316,180,168243,2,0,L|312:236,1,44.0000013427735,10|2,0:0|0:0,0:0:0:0:
380,300,168404,2,0,L|384:248,1,44.0000013427735,2|2,0:0|0:0,0:0:0:0:
296,224,168565,2,0,L|248:224,1,44.0000013427735,2|2,0:0|0:0,0:0:0:0:
312,223,168727,2,0,L|360:223,1,44.0000013427735,2|2,0:0|0:0,0:0:0:0:
180,224,168888,5,10,0:0:0:0:
132,224,168969,1,2,0:0:0:0:
132,224,169049,1,2,0:0:0:0:
180,224,169130,1,2,0:0:0:0:
356,223,169211,2,0,L|360:175,1,44.0000013427735,2|2,0:0|0:0,0:0:0:0:
296,136,169372,2,0,L|248:136,1,44.0000013427735,2|2,0:0|0:0,0:0:0:0:
424,40,169533,2,0,L|428:144,1,88.000002685547,8|2,0:0|0:0,0:0:0:0:
200,40,169856,6,0,L|104:40,1,88.000002685547,8|2,0:0|0:0,0:0:0:0:
64,40,170098,1,2,0:0:0:0:
236,136,170178,2,0,L|328:136,1,88.000002685547,8|2,0:0|0:0,0:0:0:0:
268,136,170420,1,2,0:0:0:0:
436,136,170501,1,8,0:0:0:0:
348,136,170662,2,0,L|288:136,1,44.0000013427735,2|2,0:0|0:0,0:0:0:0:
128,136,170824,6,0,L|84:136,1,44.0000013427735,4|4,0:0|0:0,0:0:0:0:
84,208,170985,2,0,L|132:208,1,44.0000013427735,4|4,0:0|0:0,0:0:0:0:
300,208,171146,2,0,L|344:208,1,44.0000013427735,8|8,0:0|0:0,0:0:0:0:
288,208,171307,2,0,L|244:208,1,44.0000013427735,8|8,0:0|0:0,0:0:0:0:
344,208,171469,2,0,L|400:208,2,44.0000013427735,2|2|2,0:0|0:0|0:0,0:0:0:0:
84,208,171791,5,4,0:0:0:0:
31,229,171872,1,0,0:0:0:0:
15,284,171953,1,2,0:0:0:0:
47,331,172033,1,2,0:0:0:0:
224,332,172114,2,0,L|324:332,1,88.000002685547,10|2,0:0|0:0,0:0:0:0:
360,332,172356,1,2,0:0:0:0:
188,332,172436,2,0,L|184:240,1,88.000002685547,10|2,0:0|0:0,0:0:0:0:
436,244,172759,1,8,0:0:0:0:
296,244,172920,1,8,0:0:0:0:
156,244,173082,2,0,P|104:192|156:144,1,160,8|2,0:0|0:0,0:0:0:0:
348,144,173727,6,0,L|432:144,1,80,2|0,0:0|0:0,0:0:0:0:
268,144,174049,2,0,L|168:144,1,80,2|0,0:0|0:0,0:0:0:0:
336,144,174372,1,8,0:0:0:0:
164,144,174533,2,0,L|160:56,1,80,2|0,0:0|0:0,0:0:0:0:
404,64,174855,6,0,P|460:104|404:148,1,160,6|0,0:0|0:0,0:0:0:0:
244,148,175338,2,0,L|164:148,1,80,2|0,0:0|0:0,0:0:0:0:
324,148,175661,2,0,B|408:148|408:148|408:52,1,160,8|0,0:0|0:0,0:0:0:0:
152,68,176145,6,0,B|152:148|152:148|232:148,1,160,2|0,0:0|0:0,0:0:0:0:
392,148,176629,2,0,L|476:148,1,80,2|0,0:0|0:0,0:0:0:0:
312,148,176951,1,8,0:0:0:0:
408,148,177113,2,0,L|412:248,1,80,2|0,0:0|0:0,0:0:0:0:
172,228,177435,5,6,0:0:0:0:
76,228,177596,2,0,L|168:228,1,80,2|8,0:0|0:0,0:0:0:0:
320,228,177919,2,0,L|400:228,1,80,2|0,0:0|0:0,0:0:0:0:
156,228,178242,2,0,P|104:188|160:128,1,160,8|2,0:0|0:0,0:0:0:0:
320,228,178725,6,0,P|328:140|312:48,1,160,2|2,0:0|0:0,0:0:0:0:
156,47,179209,2,0,L|152:135,1,80,2|0,0:0|0:0,0:0:0:0:
398,69,179532,2,0,L|298:69,1,80,8|2,0:0|0:0,0:0:0:0:
206,69,179855,1,8,0:0:0:0:
460,68,180016,6,0,B|460:148|460:148|392:192,1,160,6|0,0:0|0:0,0:0:0:0:
232,192,180500,2,0,L|152:192,1,80,2|0,0:0|0:0,0:0:0:0:
320,192,180822,2,0,L|324:88,1,80,8|2,0:0|0:0,0:0:0:0:
228,112,181145,1,0,0:0:0:0:
68,112,181306,6,0,L|232:112,1,160,2|8,0:0|0:0,0:0:0:0:
60,112,181790,2,0,L|56:24,1,80,2|0,0:0|0:0,0:0:0:0:
300,32,182113,1,8,0:0:0:0:
204,32,182274,1,2,0:0:0:0:
308,32,182435,1,0,0:0:0:0:
148,32,182596,1,8,0:0:0:0:
121,32,182650,1,8,0:0:0:0:
108,32,182704,1,2,0:0:0:0:
108,32,182758,1,2,0:0:0:0:
348,32,182919,5,12,0:0:0:0:
121,32,183080,2,0,L|24:32,1,80,2|2,0:0|0:0,0:0:0:0:
284,128,183403,1,8,0:0:0:0:
152,128,183564,1,2,0:0:0:0:
20,128,183725,1,2,0:0:0:0:
260,228,183887,6,0,L|352:228,1,80,12|2,0:0|0:0,0:0:0:0:
296,228,184129,1,0,0:0:0:0:
252,228,184209,1,2,0:0:0:0:
476,228,184371,2,0,P|504:184|460:132,1,120,8|0,0:0|0:0,0:0:0:0:
308,136,184693,2,0,L|220:136,1,80,8|2,0:0|0:0,0:0:0:0:
276,136,184935,1,8,0:0:0:0:
324,136,185016,1,8,0:0:0:0:
84,136,185177,6,0,P|32:92|80:32,1,160,6|8,0:0|0:0,0:0:0:0:
244,32,185661,2,0,L|144:32,1,80,2|2,0:0|0:0,0:0:0:0:
332,32,185984,2,0,L|448:32,2,80,8|2|0,0:0|0:0|0:0,0:0:0:0:
92,32,186467,6,0,B|88:112,1,80,2|0,0:0|0:0,0:0:0:0:
252,112,186790,1,8,0:0:0:0:
148,112,186951,1,2,0:0:0:0:
236,112,187113,2,0,L|288:112,1,40,2|2,0:0|0:0,0:0:0:0:
428,112,187274,2,0,L|504:136,2,80,8|2|0,0:0|0:0|0:0,0:0:0:0:
184,112,187758,6,0,P|128:152|184:196,1,160,6|2,0:0|0:0,0:0:0:0:
432,192,188242,2,0,L|340:192,1,80,2|0,0:0|0:0,0:0:0:0:
116,196,188564,2,0,L|112:292,1,80,8|2,0:0|0:0,0:0:0:0:
208,276,188887,2,0,L|112:276,1,80,8|2,0:0|0:0,0:0:0:0:
292,276,189209,6,0,L|300:184,1,80,2|8,0:0|0:0,0:0:0:0:
204,196,189532,2,0,L|288:196,1,80,2|2,0:0|0:0,0:0:0:0:
116,196,189855,2,0,L|112:108,1,80,8|2,0:0|0:0,0:0:0:0:
208,116,190177,1,8,0:0:0:0:
448,116,190338,6,0,B|448:36|448:36|368:36,1,160,6|0,0:0|0:0,0:0:0:0:
208,32,190822,2,0,L|104:32,1,80,2|0,0:0|0:0,0:0:0:0:
292,112,191145,1,8,0:0:0:0:
332,112,191225,1,0,0:0:0:0:
372,112,191306,1,0,0:0:0:0:
276,112,191467,1,2,0:0:0:0:
440,112,191629,5,2,0:0:0:0:
188,112,191790,2,0,L|104:112,1,80,8|2,0:0|0:0,0:0:0:0:
260,192,192113,1,8,0:0:0:0:
100,192,192274,1,2,0:0:0:0:
248,192,192435,1,8,0:0:0:0:
262,159,192489,1,8,0:0:0:0:
264,124,192543,1,8,0:0:0:0:
251,91,192596,1,2,0:0:0:0:
226,66,192650,1,2,0:0:0:0:
194,52,192704,1,2,0:0:0:0:
159,52,192758,1,8,0:0:0:0:
400,192,192919,6,0,P|444:120|368:52,1,200,6|2,0:0|0:0,0:0:0:0:
204,52,193403,2,0,L|101:52,1,80,2|0,0:0|0:0,0:0:0:0:
285,52,193725,1,8,0:0:0:0:
141,52,193887,1,2,0:0:0:0:
381,52,194048,1,8,0:0:0:0:
125,52,194209,6,0,B|24:52|24:52|129:52,1,200,6|0,0:0|0:0,0:0:0:0:
348,192,194692,2,0,L|440:192,1,88.000002685547,8|0,0:0|0:0,0:0:0:0:
197,191,195015,2,0,L|284:192,2,88.000002685547,2|2|8,0:0|0:0|0:0,0:0:0:0:
436,192,195499,6,0,B|436:280|436:280|344:312,1,176.000005371094,2|2,0:0|0:0,0:0:0:0:
176,312,195982,2,0,L|172:216,1,88.000002685547,8|0,0:0|0:0,0:0:0:0:
332,192,196305,1,2,0:0:0:0:
236,192,196466,1,2,0:0:0:0:
396,192,196628,1,8,0:0:0:0:
124,192,196789,6,0,P|60:152|100:76,1,176.000005371094,2|2,0:0|0:0,0:0:0:0:
276,80,197273,1,8,0:0:0:0:
320,80,197353,1,0,0:0:0:0:
364,80,197434,1,0,0:0:0:0:
192,80,197595,2,0,L|188:172,1,88.000002685547,2|2,0:0|0:0,0:0:0:0:
360,192,197918,2,0,L|268:192,1,88.000002685547,8|0,0:0|0:0,0:0:0:0:
111,211,198240,6,0,L|188:167,1,88.000002685547,2|2,0:0|0:0,3:3:0:0:
360,192,198563,1,8,0:0:0:0:
88,212,198724,2,0,P|48:172|116:96,1,176.000005371094,2|2,0:0|0:0,0:0:0:0:
284,96,199208,1,8,0:0:0:0:
20,96,199370,6,0,L|200:96,1,176.000005371094,6|2,0:0|0:0,0:0:0:0:
360,96,199853,2,0,L|368:4,1,88.000002685547,8|0,0:0|0:0,0:0:0:0:
200,8,200176,2,0,L|296:8,1,88.000002685547,2|2,0:0|0:0,0:0:0:0:
116,8,200499,2,0,L|112:108,1,88.000002685547,8|2,0:0|0:0,0:0:0:0:
280,96,200821,6,0,L|368:96,1,88.000002685547,2|2,0:0|0:0,0:0:0:0:
192,96,201144,1,8,0:0:0:0:
448,96,201305,2,0,P|496:136|424:192,1,176.000005371094,2|2,0:0|0:0,0:0:0:0:
380,192,201708,1,0,0:0:0:0:
332,192,201789,1,8,0:0:0:0:
68,192,201950,6,0,P|72:128|168:80,1,176.000005371094,2|2,0:0|0:0,0:0:0:0:
336,80,202434,2,0,L|340:176,1,88.000002685547,8|2,0:0|0:0,0:0:0:0:
172,196,202757,2,0,L|272:196,1,88.000002685547,2|2,0:0|0:0,0:0:0:0:
88,196,203079,1,8,0:0:0:0:
128,184,203160,1,0,0:0:0:0:
372,192,203240,6,0,P|440:236|380:312,1,200,2|2,0:0|0:0,0:0:0:0:
212,312,203724,1,8,0:0:0:0:
308,312,203886,1,2,0:0:0:0:
112,312,204020,2,0,L|72:312,2,29.3333342285157,8|8|2,0:0|0:0|0:0,0:0:0:0:
164,312,204208,2,0,L|340:312,1,176.000005371094,6|2,0:0|0:0,0:0:0:0:
100,192,204692,5,2,0:0:0:0:
51,150,204773,1,2,0:0:0:0:
63,88,204853,1,2,0:0:0:0:
123,67,204934,1,0,0:0:0:0:
284,68,205015,2,0,L|328:68,1,40,8|2,0:0|0:0,0:0:0:0:
376,68,205176,2,0,L|328:68,1,40,2|0,0:0|0:0,0:0:0:0:
172,152,205337,6,0,L|112:152,1,40,2|0,0:0|0:0,0:0:0:0:
180,152,205499,2,0,L|240:152,1,40,2|0,0:0|0:0,0:0:0:0:
56,152,205660,2,0,L|52:100,1,40,8|2,0:0|0:0,0:0:0:0:
108,68,205821,2,0,L|164:68,1,40,2|0,0:0|0:0,0:0:0:0:
312,68,205982,5,2,0:0:0:0:
346,121,206063,1,2,0:0:0:0:
321,180,206144,1,2,0:0:0:0:
258,192,206224,1,0,0:0:0:0:
428,180,206305,1,8,0:0:0:0:
462,234,206386,1,2,0:0:0:0:
437,292,206466,1,2,0:0:0:0:
374,305,206547,1,0,0:0:0:0:
200,300,206628,6,0,L|140:300,1,40,2|2,0:0|0:0,0:0:0:0:
108,224,206789,2,0,L|168:224,1,40,2|2,0:0|0:0,0:0:0:0:
320,224,206950,2,0,L|324:164,1,40,10|2,0:0|0:0,0:0:0:0:
256,168,207111,2,0,L|248:112,1,40,2|2,0:0|0:0,0:0:0:0:
420,184,207273,5,2,0:0:0:0:
435,120,207353,1,0,0:0:0:0:
401,64,207434,1,2,0:0:0:0:
339,48,207515,1,0,0:0:0:0:
248,48,207595,2,0,L|208:48,1,40,8|2,0:0|0:0,0:0:0:0:
168,48,207757,2,0,L|212:48,1,40,2|2,0:0|0:0,0:0:0:0:
376,48,207918,5,2,0:0:0:0:
372,113,207999,1,0,0:0:0:0:
330,164,208079,1,2,0:0:0:0:
267,180,208160,1,0,0:0:0:0:
181,180,208240,1,8,0:0:0:0:
184,246,208321,1,2,0:0:0:0:
226,296,208402,1,2,0:0:0:0:
290,313,208482,1,0,0:0:0:0:
453,312,208563,6,0,L|509:312,1,40,2|2,0:0|0:0,0:0:0:0:
493,264,208724,2,0,L|433:264,1,40,2|0,0:0|0:0,0:0:0:0:
281,180,208886,2,0,L|221:180,1,40,8|2,0:0|0:0,0:0:0:0:
289,180,209047,2,0,L|345:180,1,40,2|0,0:0|0:0,0:0:0:0:
165,180,209208,1,8,0:0:0:0:
117,180,209289,1,0,0:0:0:0:
69,180,209370,2,0,P|53:116|125:72,1,159.599993424683,6|0,0:0|0:0,0:0:0:0:
268,72,209692,6,0,L|444:72,1,176.000005371094,2|2,0:0|0:0,0:0:0:0:
272,72,210176,2,0,L|264:160,1,88.000002685547,8|0,0:0|0:0,0:0:0:0:
444,192,210499,2,0,L|352:192,2,88.000002685547,2|2|8,0:0|0:0|0:0,0:0:0:0:
340,192,210982,1,2,0:0:0:0:
108,192,211144,6,0,L|16:192,1,88.000002685547,0|2,0:0|0:0,0:0:0:0:
268,280,211466,2,0,L|360:280,1,88.000002685547,8|2,0:0|0:0,0:0:0:0:
304,280,211708,1,2,0:0:0:0:
140,280,211789,2,0,B|92:280|92:280|144:280,1,88.000002685547,8|2,0:0|0:0,0:0:0:0:
184,280,212031,1,2,0:0:0:0:
344,192,212111,1,8,0:0:0:0:
216,192,212273,1,8,0:0:0:0:
276,192,212353,1,8,0:0:0:0:
436,192,212434,6,0,L|440:92,1,88.000002685547,6|0,0:0|0:0,0:0:0:0:
176,192,212757,2,0,L|168:104,1,88.000002685547,8|2,0:0|0:0,0:0:0:0:
436,192,213079,2,0,L|340:192,1,88.000002685547,8|2,0:0|0:0,0:0:0:0:
124,192,213402,1,8,0:0:0:0:
280,192,213563,1,2,0:0:0:0:
48,280,213724,6,0,L|144:280,1,88.000002685547,8|2,0:0|0:0,0:0:0:0:
384,280,214047,1,8,0:0:0:0:
260,280,214208,2,0,L|200:280,1,44.0000013427735,2|2,0:0|0:0,0:0:0:0:
432,280,214369,5,8,0:0:0:0:
463,241,214450,1,8,0:0:0:0:
479,193,214531,1,8,0:0:0:0:
476,144,214611,1,8,0:0:0:0:
454,98,214692,1,2,0:0:0:0:
417,65,214773,1,2,0:0:0:0:
371,47,214853,1,2,0:0:0:0:
321,47,214934,1,2,0:0:0:0:
112,48,215015,6,0,P|32:100|208:260,1,440.000013427735,6|0,0:0|0:0,0:0:0:0:
124,260,215962,1,2,0:0:0:0:
404,256,216103,6,0,P|352:56|392:264,1,682.000020812989,8|2,0:0|0:0,0:0:0:0:
460,264,217474,1,0,0:0:0:0:
264,264,217595,6,0,P|200:204|256:120,1,204.000003890991,8|0,0:0|0:0,0:0:0:0:
336,120,218240,2,0,L|472:120,1,136.000002593994,8|0,0:0|0:0,0:0:0:0:
324,120,218885,2,0,L|180:120,1,136.000002593994,2|2,0:0|0:0,0:0:0:0:
460,120,219530,5,8,0:0:0:0:
432,24,219853,1,0,0:0:0:0:
324,24,220175,1,8,0:0:0:0:
76,24,220498,1,2,0:0:0:0:
224,24,220820,1,2,0:0:0:0:
324,24,221143,1,6,0:0:0:0:
52,124,221465,6,0,L|188:124,1,136.000002593994,2|2,0:0|0:0,0:0:0:0:
36,124,222111,1,8,0:0:0:0:
304,124,222433,1,8,0:0:0:0:
440,124,222756,1,0,0:0:0:0:
316,124,223078,1,2,0:0:0:0:
180,124,223401,6,0,L|176:276,1,136.000002593994,8|0,0:0|0:0,0:0:0:0:
328,260,224046,1,8,0:0:0:0:
192,260,224369,1,2,0:0:0:0:
125,225,224530,1,0,0:0:0:0:
102,154,224691,1,2,0:0:0:0:
135,88,224853,1,0,0:0:0:0:
206,63,225014,2,0,L|288:64,1,68.0000012969971,8|0,0:0|0:0,0:0:0:0:
124,64,225336,6,0,P|74:97|104:155,1,136.000002593994,2|0,0:0|0:0,0:0:0:0:
184,156,225820,1,2,0:0:0:0:
332,156,225982,2,0,L|336:312,1,136.000002593994,8|2,0:0|0:0,0:0:0:0:
200,292,226627,1,8,0:0:0:0:
364,292,226949,1,2,0:0:0:0:
96,292,227272,6,0,P|32:272|16:200,1,136.000002593994,2|2,0:0|0:0,0:0:0:0:
128,292,227917,1,8,0:0:0:0:
388,292,228240,2,0,P|452:272|468:200,2,136.000002593994,4|2|8,0:0|0:0|0:0,0:0:0:0:
124,296,229207,5,2,0:0:0:0:
356,296,229530,1,2,0:0:0:0:
148,296,229853,1,8,0:0:0:0:
420,296,230175,1,8,0:0:0:0:
272,296,230498,1,2,0:0:0:0:
124,296,230820,1,2,0:0:0:0:
412,296,231143,5,2,0:0:0:0:
413,245,231224,1,0,0:0:0:0:
415,194,231304,1,0,0:0:0:0:
256,192,231465,12,0,234046,0:0:0:0:
204,192,234369,5,8,0:0:0:0:
428,192,234530,1,8,0:0:0:0:
320,192,234853,1,2,0:0:0:0:
64,300,235014,6,0,P|8:244|68:192,1,176.000005371094,6|8,0:0|0:0,0:0:0:0:
164,192,235498,2,0,L|212:192,1,44.0000013427735,2|2,0:0|0:0,0:0:0:0:
376,192,235659,2,0,L|468:192,1,88.000002685547,2|2,0:0|0:0,0:0:0:0:
216,104,235982,2,0,L|128:104,1,88.000002685547,8|0,0:0|0:0,0:0:0:0:
304,104,236304,2,0,L|308:8,1,88.000002685547,2|2,0:0|0:0,0:0:0:0:
128,16,236627,2,0,L|228:16,1,88.000002685547,8|0,0:0|0:0,0:0:0:0:
480,16,236949,6,0,B|392:16,1,88.000002685547,2|0,0:0|0:0,0:0:0:0:
224,16,237272,1,8,0:0:0:0:
472,16,237433,1,2,0:0:0:0:
376,16,237594,1,2,0:0:0:0:
280,16,237756,1,2,0:0:0:0:
105,16,237917,2,0,L|196:16,1,88.000002685547,8|2,0:0|0:0,0:0:0:0:
356,16,238240,6,0,L|360:72,1,44.0000013427735,8|8,0:0|0:0,0:0:0:0:
292,96,238401,2,0,L|236:96,1,44.0000013427735,2|2,0:0|0:0,0:0:0:0:
412,100,238562,2,0,L|504:100,1,88.000002685547,8|0,0:0|0:0,0:0:0:0:
324,192,238885,6,0,L|228:192,1,88.000002685547,2|2,0:0|0:0,0:0:0:0:
488,280,239207,2,0,L|496:184,1,88.000002685547,8|2,0:0|0:0,0:0:0:0:
316,192,239530,2,0,L|216:192,1,88.000002685547,2|2,0:0|0:0,0:0:0:0:
407,192,239853,2,0,L|312:192,1,88.000002685547,8|2,0:0|0:0,0:0:0:0:
140,192,240175,1,2,0:0:0:0:
236,192,240336,1,2,0:0:0:0:
56,192,240498,2,0,L|52:92,1,88.000002685547,8|2,0:0|0:0,0:0:0:0:
328,316,240820,6,0,L|332:216,1,88.000002685547,6|0,0:0|0:0,0:0:0:0:
168,228,241143,1,8,0:0:0:0:
347,228,241304,1,2,0:0:0:0:
96,228,241465,2,0,L|8:228,2,88.000002685547,2|2|8,0:0|0:0|0:0,0:0:0:0:
272,228,241949,1,2,0:0:0:0:
24,144,242111,6,0,L|20:100,1,44.0000013427735,10|2,0:0|0:0,0:0:0:0:
84,144,242272,2,0,L|132:144,1,44.0000013427735,2|2,0:0|0:0,0:0:0:0:
296,64,242433,1,8,0:0:0:0:
140,64,242594,1,2,0:0:0:0:
412,64,242756,6,0,P|464:124|412:188,1,176.000005371094,6|8,0:0|0:0,0:0:0:0:
304,188,243240,1,0,0:0:0:0:
56,188,243401,2,0,L|152:188,1,88.000002685547,2|2,0:0|0:0,0:0:0:0:
392,188,243724,2,0,L|304:188,1,88.000002685547,8|0,0:0|0:0,0:0:0:0:
128,188,244046,1,2,0:0:0:0:
288,188,244207,1,2,0:0:0:0:
40,188,244369,2,0,L|36:288,1,88.000002685547,8|0,0:0|0:0,0:0:0:0:
304,276,244691,6,0,P|360:236|304:168,1,176.000005371094,2|8,0:0|0:0,0:0:0:0:
200,168,245175,2,0,L|256:168,1,44.0000013427735,2|2,0:0|0:0,0:0:0:0:
412,168,245336,2,0,L|316:168,1,88.000002685547,2|2,0:0|0:0,0:0:0:0:
76,168,245659,2,0,L|168:168,1,88.000002685547,8|2,0:0|0:0,0:0:0:0:
320,124,245982,6,0,L|372:124,1,44.0000013427735,2|2,0:0|0:0,0:0:0:0:
364,124,246143,2,0,L|312:124,1,44.0000013427735,2|2,0:0|0:0,0:0:0:0:
152,124,246304,1,8,0:0:0:0:
256,124,246465,2,0,L|300:124,1,44.0000013427735,8|8,0:0|0:0,0:0:0:0:
120,124,246627,6,0,L|32:124,1,88.000002685547,2|2,0:0|0:0,0:0:0:0:
84,124,246869,1,2,0:0:0:0:
260,40,246949,2,0,L|352:40,1,88.000002685547,8|2,0:0|0:0,0:0:0:0:
172,40,247272,2,0,L|84:40,1,88.000002685547,8|2,0:0|0:0,0:0:0:0:
340,120,247594,6,0,L|444:120,1,88.000002685547,8|0,0:0|0:0,0:0:0:0:
380,120,247836,1,0,0:0:0:0:
204,120,247917,2,0,L|200:212,1,88.000002685547,8|2,0:0|0:0,0:0:0:0:
380,120,248240,2,0,L|468:120,1,88.000002685547,8|2,0:0|0:0,0:0:0:0:
216,120,248562,6,0,L|120:120,1,88.000002685547,8|2,0:0|0:0,0:0:0:0:
308,120,248885,1,4,0:0:0:0:
340,135,248939,1,2,0:0:0:0:
351,169,248992,1,2,0:0:0:0:
332,200,249046,1,8,0:0:0:0:
298,208,249100,1,2,0:0:0:0:
128,208,249207,2,0,L|40:208,1,88.000002685547,12|2,0:0|0:0,0:0:0:0:
304,284,249530,6,0,L|400:284,1,88.000002685547,8|2,0:0|0:0,0:0:0:0:
216,284,249853,1,8,0:0:0:0:
165,257,249933,1,8,0:0:0:0:
152,201,250014,1,4,0:0:0:0:
185,155,250094,1,4,0:0:0:0:
356,156,250175,2,0,L|400:156,1,44.0000013427735,8|8,0:0|0:0,0:0:0:0:
340,156,250336,2,0,L|288:156,1,44.0000013427735,2|2,0:0|0:0,0:0:0:0:
116,156,250498,6,0,B|28:156|28:156|116:156,1,176.000005371094,6|8,0:0|0:0,0:0:0:0:
220,156,250982,1,2,0:0:0:0:
40,156,251143,1,2,0:0:0:0:
192,156,251304,1,2,0:0:0:0:
456,156,251465,2,0,L|448:48,1,88.000002685547,8|0,0:0|0:0,0:0:0:0:
280,68,251788,1,2,0:0:0:0:
436,68,251949,1,2,0:0:0:0:
172,68,252111,2,0,L|80:68,1,88.000002685547,8|0,0:0|0:0,0:0:0:0:
348,144,252433,5,2,0:0:0:0:
188,144,252594,1,0,0:0:0:0:
28,144,252756,1,8,0:0:0:0:
300,144,252917,2,0,L|96:144,1,200,2|2,0:0|0:0,0:0:0:0:
364,144,253401,2,0,L|460:144,1,88.000002685547,8|2,0:0|0:0,0:0:0:0:
276,144,253724,6,0,L|272:220,1,44.0000013427735,8|8,0:0|0:0,0:0:0:0:
348,232,253885,2,0,L|350:188,1,44.0000013427735,2|2,0:0|0:0,0:0:0:0:
172,144,254046,2,0,L|76:144,1,88.000002685547,8|0,0:0|0:0,0:0:0:0:
364,320,254369,6,0,L|372:208,1,88.000002685547,6|0,0:0|0:0,0:0:0:0:
90,231,254691,2,0,L|82:119,1,88.000002685547,8|0,0:0|0:0,0:0:0:0:
348,232,255014,2,0,L|256:232,1,88.000002685547,2|2,0:0|0:0,0:0:0:0:
436,232,255336,2,0,L|344:232,1,88.000002685547,8|0,0:0|0:0,0:0:0:0:
172,232,255659,1,2,0:0:0:0:
288,232,255820,1,2,0:0:0:0:
40,232,255982,2,0,L|36:136,1,88.000002685547,8|2,0:0|0:0,0:0:0:0:
304,144,256304,6,0,L|404:144,1,88.000002685547,6|2,0:0|0:0,0:0:0:0:
144,144,256627,1,8,0:0:0:0:
276,144,256788,2,0,L|280:88,1,44.0000013427735,2|2,0:0|0:0,0:0:0:0:
112,144,256949,2,0,L|24:144,1,88.000002685547,8|2,0:0|0:0,0:0:0:0:
292,32,257272,6,0,L|244:32,1,44.0000013427735,10|2,0:0|0:0,0:0:0:0:
192,32,257433,2,0,L|252:32,1,44.0000013427735,2|2,0:0|0:0,0:0:0:0:
400,100,257594,2,0,L|488:100,1,88.000002685547,10|2,0:0|0:0,0:0:0:0:
432,100,257836,1,2,0:0:0:0:
264,100,257917,1,8,0:0:0:0:
360,100,258078,2,0,L|364:40,1,44.0000013427735,8|8,0:0|0:0,0:0:0:0:
180,100,258240,5,6,0:0:0:0:
130,85,258320,1,2,0:0:0:0:
81,70,258401,1,2,0:0:0:0:
32,56,258481,1,2,0:0:0:0:
208,100,258562,2,0,L|260:100,1,44.0000013427735,10|2,0:0|0:0,0:0:0:0:
252,48,258724,2,0,L|208:48,1,44.0000013427735,2|2,0:0|0:0,0:0:0:0:
108,48,258885,2,0,L|104:104,1,44.0000013427735,2|2,0:0|0:0,0:0:0:0:
176,100,259046,2,0,L|180:148,1,44.0000013427735,2|2,0:0|0:0,0:0:0:0:
20,224,259207,5,10,0:0:0:0:
24,166,259288,1,2,0:0:0:0:
59,120,259369,1,2,0:0:0:0:
113,100,259449,1,2,0:0:0:0:
280,100,259530,2,0,L|332:100,1,44.0000013427735,2|2,0:0|0:0,0:0:0:0:
384,100,259691,2,0,L|388:152,1,44.0000013427735,2|2,0:0|0:0,0:0:0:0:
212,192,259853,2,0,L|164:192,1,44.0000013427735,10|2,0:0|0:0,0:0:0:0:
168,192,260014,2,0,L|212:192,1,44.0000013427735,2|2,0:0|0:0,0:0:0:0:
376,248,260175,5,10,0:0:0:0:
420,248,260256,1,2,0:0:0:0:
464,248,260336,1,2,0:0:0:0:
508,248,260417,1,2,0:0:0:0:
336,336,260498,1,8,0:0:0:0:
380,336,260578,1,2,0:0:0:0:
424,336,260659,1,10,0:0:0:0:
468,336,260740,1,0,0:0:0:0:
292,248,260820,2,0,L|244:248,1,44.0000013427735,10|2,0:0|0:0,0:0:0:0:
312,248,260982,2,0,L|364:248,1,44.0000013427735,10|2,0:0|0:0,0:0:0:0:
168,248,261143,5,4,0:0:0:0:
126,209,261224,1,4,0:0:0:0:
137,154,261304,1,4,0:0:0:0:
190,135,261385,1,4,0:0:0:0:
288,136,261465,1,8,0:0:0:0:
329,97,261546,1,8,0:0:0:0:
318,42,261627,1,8,0:0:0:0:
265,23,261707,1,8,0:0:0:0:
168,24,261788,2,0,L|124:24,1,44.0000013427735,2|2,0:0|0:0,0:0:0:0:
184,24,261949,2,0,L|240:24,1,44.0000013427735,2|2,0:0|0:0,0:0:0:0:
56,24,262111,6,0,P|36:80|92:112,1,132.00000402832,6|0,0:0|0:0,0:0:0:0:
264,112,262433,1,8,0:0:0:0:
148,112,262675,1,2,0:0:0:0:
312,112,262756,2,0,L|408:112,1,88.000002685547,8|2,0:0|0:0,0:0:0:0:
148,112,263078,6,0,P|88:140|144:208,1,176.000005371094,8|2,0:0|0:0,0:0:0:0:
200,208,263482,1,2,0:0:0:0:
139,208,263562,1,2,0:0:0:0:
76,208,263643,1,2,0:0:0:0:
264,208,263724,2,0,L|356:208,1,88.000002685547,8|2,0:0|0:0,0:0:0:0:
88,208,264046,6,0,L|84:296,1,88.000002685547,6|2,0:0|0:0,0:0:0:0:
260,296,264369,1,8,0:0:0:0:
152,296,264530,1,2,0:0:0:0:
328,296,264691,1,8,0:0:0:0:
212,296,264853,1,2,0:0:0:0:
488,296,265014,5,8,0:0:0:0:
496,239,265094,1,8,0:0:0:0:
461,195,265175,1,2,0:0:0:0:
404,191,265256,1,2,0:0:0:0:
228,192,265336,2,0,L|152:192,1,44.0000013427735,8|8,0:0|0:0,0:0:0:0:
132,192,265498,2,0,L|184:192,1,44.0000013427735,4|4,0:0|0:0,0:0:0:0:
364,112,265659,2,0,L|452:112,1,88.000002685547,8|2,0:0|0:0,0:0:0:0:
168,112,265982,6,0,B|4:48,2,176.000005371094,6|8|0,0:0|0:0|0:0,0:0:0:0:
448,112,266949,2,0,L|272:112,1,176.000005371094,6|8,0:0|0:0,0:0:0:0:
500,112,267594,1,2,0:0:0:0:
100,112,267917,6,0,P|48:68|100:12,1,160,6|8,0:0|0:0,0:0:0:0:
196,12,268400,1,0,0:0:0:0:
360,12,268562,1,2,0:0:0:0:
264,12,268723,1,2,0:0:0:0:
168,12,268884,1,8,0:0:0:0:
408,12,269046,6,0,P|456:40|432:132,1,160,6|2,0:0|0:0,0:0:0:0:
276,128,269529,2,0,L|364:128,1,80,8|0,0:0|0:0,0:0:0:0:
196,128,269852,2,0,L|116:128,1,80,2|2,0:0|0:0,0:0:0:0:
280,128,270175,1,8,0:0:0:0:
40,128,270336,6,0,B|40:208|40:208|124:208,1,160,6|2,0:0|0:0,0:0:0:0:
280,208,270820,2,0,L|364:208,1,80,8|0,0:0|0:0,0:0:0:0:
192,208,271142,2,0,L|276:208,2,80,2|2|8,0:0|0:0|0:0,0:0:0:0:
432,208,271626,6,0,B|432:128|432:128|352:128,1,160,6|2,0:0|0:0,0:0:0:0:
192,128,272110,2,0,L|112:128,1,80,8|0,0:0|0:0,0:0:0:0:
276,128,272433,1,8,0:0:0:0:
282,95,272486,1,8,0:0:0:0:
272,64,272540,1,8,0:0:0:0:
249,41,272594,1,2,0:0:0:0:
217,32,272648,1,2,0:0:0:0:
100,32,272755,1,8,0:0:0:0:
340,32,272917,6,0,L|500:32,1,160,6|2,0:0|0:0,0:0:0:0:
340,32,273400,2,0,L|256:32,1,80,8|0,0:0|0:0,0:0:0:0:
424,32,273723,1,2,0:0:0:0:
284,32,273884,1,2,0:0:0:0:
448,32,274046,1,8,0:0:0:0:
192,32,274207,6,0,P|136:80|192:120,1,160,6|2,0:0|0:0,0:0:0:0:
356,120,274691,2,0,L|276:120,1,80,8|2,0:0|0:0,0:0:0:0:
444,120,275013,1,8,0:0:0:0:
348,120,275175,1,2,0:0:0:0:
276,120,275255,1,8,0:0:0:0:
204,120,275336,1,8,0:0:0:0:
460,120,275497,6,0,B|460:200|460:200|376:200,1,160,6|2,0:0|0:0,0:0:0:0:
476,200,275981,1,8,0:0:0:0:
248,200,276142,2,0,L|244:284,1,80,2|2,0:0|0:0,0:0:0:0:
404,280,276465,2,0,L|492:280,1,80,2|8,0:0|0:0,0:0:0:0:
244,279,276787,6,0,L|72:279,1,160,6|2,0:0|0:0,0:0:0:0:
252,279,277271,1,8,0:0:0:0:
28,280,277433,2,0,L|116:280,1,80,6|0,0:0|0:0,0:0:0:0:
276,280,277755,2,0,L|184:280,1,80,2|8,0:0|0:0,0:0:0:0:
100,280,278078,2,0,L|96:228,1,40,0|0,0:0|0:0,0:0:0:0:
184,192,278239,5,8,0:0:0:0:
220,148,278320,1,8,0:0:0:0:
196,92,278400,1,2,0:0:0:0:
140,84,278481,1,2,0:0:0:0:
308,92,278562,2,0,L|348:92,1,40,8|8,0:0|0:0,0:0:0:0:
300,92,278723,2,0,L|252:92,1,40,2|2,0:0|0:0,0:0:0:0:
104,84,278884,2,0,L|24:84,1,80,6|2,0:0|0:0,0:0:0:0:
72,84,279126,1,2,0:0:0:0:
164,84,279207,2,0,L|212:84,1,40,8|8,0:0|0:0,0:0:0:0:
48,84,279368,2,0,L|44:152,1,40,8|2,0:0|0:0,0:0:0:0:
248,192,279529,6,0,L|356:192,1,100,6|2,0:0|0:0,0:0:0:0:
52,192,279852,1,8,0:0:0:0:
12,232,279933,1,8,0:0:0:0:
24,288,280013,1,2,0:0:0:0:
72,304,280094,1,2,0:0:0:0:
288,304,280175,2,0,L|340:304,1,50,8|8,0:0|0:0,0:0:0:0:
276,304,280336,2,0,L|224:304,1,50,8|8,0:0|0:0,0:0:0:0:
408,304,280497,2,0,L|472:304,1,50,8|8,0:0|0:0,0:0:0:0:
248,304,280658,6,0,B|148:304|148:304|148:204,1,200,6|2,0:0|0:0,0:0:0:0:
428,304,281142,2,0,L|432:200,1,88.000002685547,8|0,0:0|0:0,0:0:0:0:
260,216,281465,2,0,L|360:216,1,88.000002685547,2|2,0:0|0:0,0:0:0:0:
176,216,281787,2,0,L|172:120,1,88.000002685547,8|0,0:0|0:0,0:0:0:0:
424,128,282110,6,0,L|336:128,2,88.000002685547,2|2|8,0:0|0:0|0:0,0:0:0:0:
248,124,282594,2,0,P|216:76|296:16,1,176.000005371094,2|2,0:0|0:0,0:0:0:0:
472,16,283078,2,0,L|384:16,1,88.000002685547,8|0,0:0|0:0,0:0:0:0:
140,16,283400,5,2,0:0:0:0:
248,16,283562,1,0,0:0:0:0:
72,16,283723,2,0,L|68:108,1,88.000002685547,8|0,0:0|0:0,0:0:0:0:
244,104,284046,1,2,0:0:0:0:
84,104,284207,1,2,0:0:0:0:
260,104,284368,2,0,L|352:104,1,88.000002685547,8|2,0:0|0:0,0:0:0:0:
96,192,284691,6,0,L|8:192,1,88.000002685547,2|0,0:0|0:0,0:0:0:0:
276,192,285013,2,0,L|372:192,1,88.000002685547,8|0,0:0|0:0,0:0:0:0:
116,192,285336,1,2,0:0:0:0:
272,192,285497,1,2,0:0:0:0:
44,192,285658,1,8,0:0:0:0:
328,192,285820,6,0,P|388:244|328:296,1,176.000005371094,6|2,0:0|0:0,0:0:0:0:
84,296,286304,2,0,L|172:296,1,88.000002685547,8|0,0:0|0:0,0:0:0:0:
332,296,286626,1,2,0:0:0:0:
188,296,286787,1,2,0:0:0:0:
364,296,286949,1,10,0:0:0:0:
365,252,287029,1,2,0:0:0:0:
367,208,287110,1,2,0:0:0:0:
120,208,287271,6,0,L|208:208,1,88.000002685547,2|2,0:0|0:0,0:0:0:0:
367,208,287594,1,8,0:0:0:0:
192,208,287755,2,0,L|376:208,1,176.000005371094,2|2,0:0|0:0,0:0:0:0:
120,208,288239,2,0,P|76:256|120:296,1,132.00000402832,8|0,0:0|0:0,0:0:0:0:
288,296,288562,6,0,L|380:296,1,88.000002685547,6|0,0:0|0:0,0:0:0:0:
200,296,288884,1,8,0:0:0:0:
360,296,289046,2,0,L|364:204,1,88.000002685547,2|0,0:0|0:0,0:0:0:0:
260,192,289368,1,2,0:0:0:0:
432,192,289529,2,0,L|344:192,1,88.000002685547,8|2,0:0|0:0,0:0:0:0:
296,192,289771,1,2,0:0:0:0:
132,192,289852,6,0,L|36:192,1,88.000002685547,8|2,0:0|0:0,0:0:0:0:
96,192,290094,1,0,0:0:0:0:
264,100,290175,2,0,L|360:100,1,88.000002685547,8|2,0:0|0:0,0:0:0:0:
300,100,290417,1,2,0:0:0:0:
128,100,290497,1,8,0:0:0:0:
83,126,290578,1,8,0:0:0:0:
60,173,290658,1,4,0:0:0:0:
68,225,290739,1,4,0:0:0:0:
103,263,290820,1,8,0:0:0:0:
153,276,290900,1,8,0:0:0:0:
333,276,290981,6,0,B|433:276|433:276|433:176,1,200,6|2,0:0|0:0,0:0:0:0:
171,126,291465,2,0,L|82:126,1,88.000002685547,8|2,0:0|0:0,0:0:0:0:
136,126,291707,1,2,0:0:0:0:
304,128,291787,2,0,L|396:128,1,88.000002685547,10|2,0:0|0:0,0:0:0:0:
216,128,292110,2,0,L|304:128,1,88.000002685547,8|2,0:0|0:0,0:0:0:0:
56,128,292433,5,8,0:0:0:0:
200,124,292594,1,2,0:0:0:0:
344,124,292755,1,8,0:0:0:0:
236,124,292917,2,0,L|296:124,1,44.0000013427735,2|2,0:0|0:0,0:0:0:0:
448,124,293078,2,0,L|452:212,1,88.000002685547,10|2,0:0|0:0,0:0:0:0:
220,208,293400,2,0,L|132:208,1,88.000002685547,8|2,0:0|0:0,0:0:0:0:
308,208,293723,5,8,0:0:0:0:
156,208,293884,1,2,0:0:0:0:
332,208,294046,2,0,L|336:300,1,88.000002685547,8|2,0:0|0:0,0:0:0:0:
280,296,294287,1,2,0:0:0:0:
112,296,294368,2,0,L|24:296,1,88.000002685547,10|2,0:0|0:0,0:0:0:0:
200,296,294691,2,0,L|108:296,1,88.000002685547,8|2,0:0|0:0,0:0:0:0:
60,296,294933,1,0,0:0:0:0:
236,192,295013,5,8,0:0:0:0:
280,192,295094,1,0,0:0:0:0:
324,192,295175,1,2,0:0:0:0:
56,192,295336,1,8,0:0:0:0:
100,192,295417,1,8,0:0:0:0:
144,192,295497,1,2,0:0:0:0:
188,192,295578,1,2,0:0:0:0:
368,192,295658,1,8,0:0:0:0:
384,132,295739,1,8,0:0:0:0:
348,76,295820,1,4,0:0:0:0:
288,60,295900,1,4,0:0:0:0:
348,76,295981,1,8,0:0:0:0:
108,60,296142,6,0,P|44:116|96:160,1,176.000005371094,6|2,0:0|0:0,0:0:0:0:
344,160,296626,1,10,0:0:0:0:
240,160,296787,2,0,L|236:220,1,44.0000013427735,2|2,0:0|0:0,0:0:0:0:
412,160,296949,2,0,L|420:276,1,88.000002685547,10|2,0:0|0:0,0:0:0:0:
240,160,297271,2,0,L|332:160,1,88.000002685547,8|2,0:0|0:0,0:0:0:0:
84,160,297594,5,8,0:0:0:0:
240,160,297755,1,2,0:0:0:0:
72,160,297917,1,8,0:0:0:0:
176,160,298078,2,0,L|232:160,1,44.0000013427735,2|2,0:0|0:0,0:0:0:0:
384,160,298239,1,10,0:0:0:0:
284,160,298400,2,0,L|240:160,1,44.0000013427735,2|2,0:0|0:0,0:0:0:0:
408,160,298562,1,10,0:0:0:0:
252,160,298723,1,2,0:0:0:0:
492,160,298884,6,0,L|496:260,1,88.000002685547,6|0,0:0|0:0,0:0:0:0:
320,248,299207,2,0,L|224:248,1,88.000002685547,8|0,0:0|0:0,0:0:0:0:
480,248,299529,1,2,0:0:0:0:
332,248,299691,1,2,0:0:0:0:
184,248,299852,1,8,0:0:0:0:
460,248,300013,6,0,B|460:336|460:336|368:336,1,176.000005371094,6|2,0:0|0:0,0:0:0:0:
196,336,300497,2,0,L|100:336,1,88.000002685547,8|0,0:0|0:0,0:0:0:0:
356,192,300820,2,0,L|264:192,1,88.000002685547,2|2,0:0|0:0,0:0:0:0:
96,192,301142,1,8,0:0:0:0:
372,192,301304,6,0,P|432:152|380:84,1,176.000005371094,2|2,0:0|0:0,0:0:0:0:
328,84,301707,1,2,0:0:0:0:
160,84,301787,1,8,0:0:0:0:
52,84,301949,2,0,L|104:84,1,44.0000013427735,2|2,0:0|0:0,0:0:0:0:
192,84,302110,1,8,0:0:0:0:
243,107,302191,1,8,0:0:0:0:
247,162,302271,1,2,0:0:0:0:
199,191,302352,1,2,0:0:0:0:
28,192,302433,2,0,L|20:244,1,44.0000013427735,8|8,0:0|0:0,0:0:0:0:
80,268,302594,2,0,L|128:268,1,44.0000013427735,2|2,0:0|0:0,0:0:0:0:
308,264,302755,5,2,0:0:0:0:
363,220,302836,1,2,0:0:0:0:
360,150,302917,1,2,0:0:0:0:
301,112,302997,1,2,0:0:0:0:
116,112,303078,1,8,0:0:0:0:
103,182,303158,1,8,0:0:0:0:
141,243,303239,1,2,0:0:0:0:
210,264,303320,1,2,0:0:0:0:
388,220,303400,2,0,L|392:272,1,44.0000013427735,2|2,0:0|0:0,0:0:0:0:
320,220,303562,2,0,L|316:280,1,44.0000013427735,2|0,0:0|0:0,0:0:0:0:
388,220,303723,1,8,0:0:0:0:
141,243,303884,6,0,L|136:336,1,80,2|0,0:0|0:0,0:0:0:0:
308,220,304207,1,8,0:0:0:0:
56,322,304368,2,0,L|136:322,1,80,2|2,0:0|0:0,0:0:0:0:
362,324,304691,1,8,0:0:0:0:
381,276,304771,1,8,0:0:0:0:
357,230,304852,1,8,0:0:0:0:
308,220,304933,1,0,0:0:0:0:
160,192,305013,2,0,L|116:192,1,40,2|2,0:0|0:0,0:0:0:0:
168,192,305175,2,0,L|212:192,1,40,8|0,0:0|0:0,0:0:0:0:
372,192,305336,6,0,L|376:144,1,40,4|2,0:0|0:0,0:0:0:0:
320,104,305497,2,0,L|276:104,1,40,8|2,0:0|0:0,0:0:0:0:
120,104,305658,2,0,L|64:104,1,40,8|2,0:0|0:0,0:0:0:0:
128,104,305820,2,0,L|184:104,1,40,8|2,0:0|0:0,0:0:0:0:
332,192,305981,5,4,0:0:0:0:
374,161,306062,1,4,0:0:0:0:
388,111,306142,1,8,0:0:0:0:
367,63,306223,1,2,0:0:0:0:
280,64,306304,2,0,L|276:120,1,40,2|2,0:0|0:0,0:0:0:0:
344,112,306465,2,0,L|348:160,1,40,8|2,0:0|0:0,0:0:0:0:
192,152,306626,6,0,L|96:152,1,80,8|2,0:0|0:0,0:0:0:0:
368,152,306949,5,10,0:0:0:0:
76,152,307110,1,10,0:0:0:0:
256,192,307271,12,0,316304,0:0:0:0:
